osu file format v14

[General]
AudioFilename: fdfd.mp3
AudioLeadIn: 0
PreviewTime: 80472
Countdown: 0
SampleSet: None
StackLeniency: 0.2
Mode: 0
LetterboxInBreaks: 1
WidescreenStoryboard: 1

[Editor]
DistanceSpacing: 1.9
BeatDivisor: 4
GridSize: 32
TimelineZoom: 2.3

[Metadata]
Title:Ange du Blanc Pur
TitleUnicode:Ange du Blanc Pur
Artist:ke-ji feat. Nanahira
ArtistUnicode:ke-ji feat. ななひら
Creator:Supicha
Version:FOUR DIMENSIONS [AR9.5]
Source:
Tags:colory starry utaite confetto pop death stream
BeatmapID:2015963
BeatmapSetID:847341

[Difficulty]
HPDrainRate:6
CircleSize:4
OverallDifficulty:8
ApproachRate:9.5
SliderMultiplier:1.72
SliderTickRate:1

[Events]
//Background and Video events
0,0,"Background.jpg",0,0
//Break Periods
//Storyboard Layer 0 (Background)
//Storyboard Layer 1 (Fail)
//Storyboard Layer 2 (Pass)
//Storyboard Layer 3 (Foreground)
//Storyboard Sound Samples

[TimingPoints]
619,270.002700027,4,2,1,50,1,0

[HitObjects]
256,192,79459,12,0,80269,0:0:0:0:
71,102,80539,5,0,0:0:0:0:
120,118,80607,1,0,0:0:0:0:
170,110,80674,1,0,0:0:0:0:
212,80,80742,1,0,0:0:0:0:
248,44,80809,1,0,0:0:0:0:
298,33,80877,1,0,0:0:0:0:
347,45,80944,1,0,0:0:0:0:
392,70,81012,1,0,0:0:0:0:
422,111,81079,1,0,0:0:0:0:
424,162,81147,1,0,0:0:0:0:
400,207,81214,1,0,0:0:0:0:
358,237,81282,1,0,0:0:0:0:
307,247,81349,1,0,0:0:0:0:
258,227,81417,1,0,0:0:0:0:
224,188,81484,1,0,0:0:0:0:
212,137,81552,1,0,0:0:0:0:
198,87,81619,6,0,L|209:16,3,43
122,275,81889,2,0,L|112:334,3,43
281,135,82159,6,0,L|292:64,3,43
205,323,82429,2,0,L|195:382,3,43
361,201,82699,5,0,0:0:0:0:
368,252,82767,1,0,0:0:0:0:
392,296,82834,1,0,0:0:0:0:
430,331,82902,1,0,0:0:0:0:
481,332,82969,1,0,0:0:0:0:
496,282,83037,1,0,0:0:0:0:
477,234,83104,1,0,0:0:0:0:
430,210,83172,1,0,0:0:0:0:
378,208,83239,1,0,0:0:0:0:
341,245,83307,1,0,0:0:0:0:
304,280,83374,1,0,0:0:0:0:
259,307,83442,1,0,0:0:0:0:
205,323,83509,1,0,0:0:0:0:
155,307,83577,1,0,0:0:0:0:
111,280,83644,1,0,0:0:0:0:
81,237,83712,1,0,0:0:0:0:
78,185,83779,5,0,0:0:0:0:
109,143,83847,1,0,0:0:0:0:
158,129,83914,1,0,0:0:0:0:
207,145,83982,1,0,0:0:0:0:
252,168,84049,1,0,0:0:0:0:
303,177,84117,1,0,0:0:0:0:
350,156,84184,1,0,0:0:0:0:
376,111,84252,1,0,0:0:0:0:
361,61,84319,1,0,0:0:0:0:
318,31,84387,1,0,0:0:0:0:
266,31,84454,1,0,0:0:0:0:
230,69,84522,1,0,0:0:0:0:
222,119,84589,1,0,0:0:0:0:
246,164,84657,1,0,0:0:0:0:
270,209,84724,1,0,0:0:0:0:
278,260,84792,1,0,0:0:0:0:
289,292,84859,5,0,0:0:0:0:
259,309,84927,1,0,0:0:0:0:
226,317,84994,1,0,0:0:0:0:
195,299,85062,1,0,0:0:0:0:
162,287,85129,1,0,0:0:0:0:
127,284,85197,1,0,0:0:0:0:
94,295,85264,1,0,0:0:0:0:
64,313,85332,1,0,0:0:0:0:
39,336,85399,5,0,0:0:0:0:
81,357,85467,1,0,0:0:0:0:
127,360,85534,1,0,0:0:0:0:
170,340,85602,1,0,0:0:0:0:
190,297,85669,1,0,0:0:0:0:
190,249,85737,1,0,0:0:0:0:
159,212,85804,1,0,0:0:0:0:
117,188,85872,1,0,0:0:0:0:
71,177,85939,1,0,0:0:0:0:
39,130,86007,1,0,0:0:0:0:
39,74,86074,1,0,0:0:0:0:
86,44,86142,1,0,0:0:0:0:
141,42,86209,1,0,0:0:0:0:
188,71,86277,1,0,0:0:0:0:
228,108,86344,1,0,0:0:0:0:
281,126,86412,1,0,0:0:0:0:
336,131,86479,5,0,0:0:0:0:
392,135,86547,1,0,0:0:0:0:
438,105,86614,1,0,0:0:0:0:
438,48,86682,1,0,0:0:0:0:
397,9,86749,1,0,0:0:0:0:
341,18,86817,1,0,0:0:0:0:
294,47,86884,1,0,0:0:0:0:
263,94,86952,1,0,0:0:0:0:
264,149,87019,1,0,0:0:0:0:
289,199,87087,1,0,0:0:0:0:
302,252,87154,1,0,0:0:0:0:
284,305,87222,1,0,0:0:0:0:
241,340,87289,1,0,0:0:0:0:
186,353,87357,1,0,0:0:0:0:
133,335,87424,1,0,0:0:0:0:
93,295,87492,1,0,0:0:0:0:
96,239,87559,5,0,0:0:0:0:
140,204,87627,1,0,0:0:0:0:
194,192,87694,1,0,0:0:0:0:
238,226,87762,1,0,0:0:0:0:
276,266,87829,1,0,0:0:0:0:
324,295,87897,1,0,0:0:0:0:
379,299,87964,1,0,0:0:0:0:
428,272,88032,1,0,0:0:0:0:
447,220,88099,5,0,0:0:0:0:
438,190,88167,1,0,0:0:0:0:
420,165,88234,1,0,0:0:0:0:
393,150,88302,1,0,0:0:0:0:
363,147,88369,1,0,0:0:0:0:
334,156,88437,1,0,0:0:0:0:
310,174,88504,1,0,0:0:0:0:
298,201,88572,1,0,0:0:0:0:
276,266,88639,5,0,0:0:0:0:
233,315,88707,1,0,0:0:0:0:
170,327,88774,1,0,0:0:0:0:
108,305,88842,1,0,0:0:0:0:
74,250,88909,1,0,0:0:0:0:
86,186,88977,1,0,0:0:0:0:
134,144,89044,1,0,0:0:0:0:
198,133,89112,1,0,0:0:0:0:
249,171,89179,5,0,0:0:0:0:
298,201,89247,1,0,0:0:0:0:
349,201,89314,1,0,0:0:0:0:
396,178,89382,1,0,0:0:0:0:
428,138,89449,1,0,0:0:0:0:
418,86,89517,1,0,0:0:0:0:
389,43,89584,1,0,0:0:0:0:
340,24,89652,1,0,0:0:0:0:
292,43,89719,1,0,0:0:0:0:
260,84,89787,1,0,0:0:0:0:
276,132,89854,1,0,0:0:0:0:
272,183,89922,1,0,0:0:0:0:
249,229,89989,1,0,0:0:0:0:
208,261,90057,1,0,0:0:0:0:
162,283,90124,1,0,0:0:0:0:
112,267,90192,1,0,0:0:0:0:
78,228,90259,6,0,L|50:171,3,43
236,341,90529,2,0,L|264:398,3,43
112,127,90799,6,0,L|84:70,3,43
270,240,91069,2,0,L|298:297,3,43
161,44,91339,5,0,0:0:0:0:
200,25,91407,1,0,0:0:0:0:
242,22,91474,1,0,0:0:0:0:
280,42,91542,1,0,0:0:0:0:
312,69,91609,1,0,0:0:0:0:
353,81,91677,1,0,0:0:0:0:
395,86,91744,1,0,0:0:0:0:
437,76,91812,1,0,0:0:0:0:
461,31,91879,1,0,0:0:0:0:
416,4,91947,1,0,0:0:0:0:
365,12,92014,1,0,0:0:0:0:
330,50,92082,1,0,0:0:0:0:
314,98,92149,1,0,0:0:0:0:
286,142,92217,1,0,0:0:0:0:
246,174,92284,1,0,0:0:0:0:
194,182,92352,1,0,0:0:0:0:
144,170,92419,5,0,0:0:0:0:
109,130,92487,1,0,0:0:0:0:
103,79,92554,1,0,0:0:0:0:
127,33,92622,1,0,0:0:0:0:
172,9,92689,1,0,0:0:0:0:
223,15,92757,1,0,0:0:0:0:
263,46,92824,1,0,0:0:0:0:
281,94,92892,1,0,0:0:0:0:
272,144,92959,1,0,0:0:0:0:
253,201,93027,1,0,0:0:0:0:
257,260,93094,1,0,0:0:0:0:
298,303,93162,1,0,0:0:0:0:
354,321,93229,1,0,0:0:0:0:
411,300,93297,1,0,0:0:0:0:
439,247,93364,1,0,0:0:0:0:
429,187,93432,1,0,0:0:0:0:
394,138,93499,5,0,0:0:0:0:
358,121,93567,1,0,0:0:0:0:
319,118,93634,1,0,0:0:0:0:
286,139,93702,1,0,0:0:0:0:
258,165,93769,1,0,0:0:0:0:
226,187,93837,1,0,0:0:0:0:
190,201,93904,1,0,0:0:0:0:
151,195,93972,1,0,0:0:0:0:
116,177,94039,1,0,0:0:0:0:
83,136,94107,1,0,0:0:0:0:
73,85,94174,1,0,0:0:0:0:
104,43,94242,1,0,0:0:0:0:
152,25,94309,1,0,0:0:0:0:
200,44,94377,1,0,0:0:0:0:
237,79,94444,1,0,0:0:0:0:
287,90,94512,1,0,0:0:0:0:
335,73,94579,6,0,L|400:65,3,43
125,130,94849,2,0,L|60:138,3,43
386,150,95119,6,0,L|451:142,3,43
176,207,95389,2,0,L|111:215,3,43
422,229,95659,5,0,0:0:0:0:
468,251,95727,1,0,0:0:0:0:
491,296,95794,1,0,0:0:0:0:
464,340,95862,1,0,0:0:0:0:
419,365,95929,1,0,0:0:0:0:
372,341,95997,1,0,0:0:0:0:
353,293,96064,1,0,0:0:0:0:
374,245,96132,1,0,0:0:0:0:
408,207,96199,1,0,0:0:0:0:
430,160,96267,1,0,0:0:0:0:
417,110,96334,1,0,0:0:0:0:
381,71,96402,1,0,0:0:0:0:
332,54,96469,1,0,0:0:0:0:
280,57,96537,1,0,0:0:0:0:
243,92,96604,1,0,0:0:0:0:
218,137,96672,1,0,0:0:0:0:
218,188,96739,5,0,0:0:0:0:
196,215,96807,1,0,0:0:0:0:
166,231,96874,1,0,0:0:0:0:
131,234,96942,1,0,0:0:0:0:
97,230,97009,1,0,0:0:0:0:
68,209,97077,1,0,0:0:0:0:
46,182,97144,1,0,0:0:0:0:
46,147,97212,1,0,0:0:0:0:
57,114,97279,5,0,0:0:0:0:
98,89,97347,1,0,0:0:0:0:
144,92,97414,1,0,0:0:0:0:
177,125,97482,1,0,0:0:0:0:
211,156,97549,1,0,0:0:0:0:
255,171,97617,1,0,0:0:0:0:
301,177,97684,1,0,0:0:0:0:
345,159,97752,1,0,0:0:0:0:
385,135,97819,5,0,0:0:0:0:
415,82,97887,1,0,0:0:0:0:
384,30,97954,1,0,0:0:0:0:
325,14,98022,1,0,0:0:0:0:
272,41,98089,1,0,0:0:0:0:
244,95,98157,1,0,0:0:0:0:
267,150,98224,1,0,0:0:0:0:
306,195,98292,1,0,0:0:0:0:
319,253,98359,1,0,0:0:0:0:
287,305,98427,1,0,0:0:0:0:
237,338,98494,1,0,0:0:0:0:
176,339,98562,1,0,0:0:0:0:
124,308,98629,1,0,0:0:0:0:
96,253,98697,1,0,0:0:0:0:
104,193,98764,1,0,0:0:0:0:
139,143,98832,1,0,0:0:0:0:
192,117,98899,5,0,0:0:0:0:
251,107,98967,1,0,0:0:0:0:
298,142,99034,1,0,0:0:0:0:
353,166,99102,1,0,0:0:0:0:
412,171,99169,1,0,0:0:0:0:
459,133,99237,1,0,0:0:0:0:
471,74,99304,1,0,0:0:0:0:
428,30,99372,1,0,0:0:0:0:
359,24,99439,1,0,0:0:0:0:
319,80,99507,1,0,0:0:0:0:
298,142,99574,1,0,0:0:0:0:
278,208,99642,1,0,0:0:0:0:
245,282,99709,1,0,0:0:0:0:
164,300,99777,1,0,0:0:0:0:
96,255,99844,1,0,0:0:0:0:
96,172,99912,1,0,0:0:0:0:
136,101,99979,5,0,0:0:0:0:
