osu file format v14

[General]
AudioFilename: audio.mp3
AudioLeadIn: 0
PreviewTime: 97940
Countdown: 0
SampleSet: None
StackLeniency: 0.2
Mode: 0
LetterboxInBreaks: 1
WidescreenStoryboard: 1

[Editor]
DistanceSpacing: 1.8
BeatDivisor: 4
GridSize: 4
TimelineZoom: 1.4

[Metadata]
Title:Ange du Blanc Pur
TitleUnicode:Ange du Blanc Pur
Artist:ke-ji feat. Nanahira
ArtistUnicode:ke-ji feat. ななひら
Creator:Supicha
Version:EXECUTABLE
Source:
Tags:colory starry utaite confetto pop death stream
BeatmapID:1974527
BeatmapSetID:847341

[Difficulty]
HPDrainRate:6
CircleSize:4
OverallDifficulty:9
ApproachRate:10
SliderMultiplier:1.72
SliderTickRate:1

[Events]
//Background and Video events
0,0,"Background.jpg",0,0
//Break Periods
//Storyboard Layer 0 (Background)
//Storyboard Layer 1 (Fail)
//Storyboard Layer 2 (Pass)
//Storyboard Layer 3 (Foreground)
//Storyboard Sound Samples

[TimingPoints]
2001,333.333333333333,4,2,1,30,1,0
2001,-200,4,2,1,30,0,0
18500,666.666666666667,4,2,1,5,1,0
18500,-200,4,2,1,5,0,0
22000,333.333333333333,4,2,1,30,1,0
32008,329.67032967033,4,2,1,50,1,0
32008,-100,4,2,1,50,0,0
37282,-100,4,2,1,50,0,1
42557,-100,4,2,1,50,0,0
46183,329.67032967033,4,2,1,50,1,0
50798,329.67032967033,4,2,1,50,1,0
50798,-100,4,2,1,50,0,0
61347,-133.333333333333,4,2,1,50,0,0
70248,-200,4,2,1,50,0,0
70495,-200,4,2,1,5,0,0
70578,-100,4,2,1,50,0,0
81127,-133.333333333333,4,2,1,50,0,0
90028,-66.6666666666667,4,2,1,50,0,0
90358,-100,4,2,1,50,0,0
91924,-100,4,2,1,5,0,0
92006,-100,4,2,1,50,0,0
92254,-100,4,2,1,5,0,0
92336,-100,4,2,1,50,0,0
92583,-100,4,2,1,5,0,0
92666,-100,4,2,1,50,0,0
92913,-100,4,2,1,5,0,0
92995,-100,4,2,1,50,0,0
98270,-80,4,2,1,70,0,1
108160,-80,4,2,1,70,0,0
108819,-80,4,2,1,70,0,1
118710,-80,4,2,1,70,0,0
119369,-80,4,2,1,70,0,1
122006,-133.333333333333,4,2,1,35,0,0
138490,329.67032967033,4,2,1,50,1,0
138490,-200,4,2,1,50,0,0
143764,-80,4,2,1,70,0,1
156951,-100,4,2,1,70,0,0
162226,-100,4,2,1,70,0,1
167500,-100,4,2,1,60,0,0
171127,329.67032967033,4,2,1,50,1,0
175742,329.67032967033,4,2,1,50,1,0
175742,-100,4,2,1,50,0,0
183324,-66.6666666666667,4,2,1,50,0,0
183654,-200,4,2,1,25,0,0
194203,-200,4,2,1,45,0,0
199148,-200,4,2,5,45,0,0
199478,-80,4,2,1,70,0,1
206731,-80,4,2,1,70,0,0
207390,-66.6666666666667,4,2,1,80,0,1
217280,-66.6666666666667,4,2,1,80,0,0
217610,-100,4,2,1,80,0,0
217939,-66.6666666666667,4,2,1,80,0,1
231126,-100,4,2,1,70,0,0
236401,-200,4,2,1,70,0,0
236483,-200,4,2,1,5,0,0

[HitObjects]
20,141,90358,6,0,B|79:102|137:188|201:143,1,172
334,212,90852,1,0,0:0:0:0:
329,40,91017,2,0,L|334:225,1,172
444,76,91512,1,0,0:0:0:0:
449,287,91677,6,0,L|410:365,1,86
333,211,92006,2,0,L|445:211,1,86
327,358,92336,2,0,L|289:282,1,86
165,376,92666,2,0,L|277:376,1,86
229,228,92995,5,0,0:0:0:0:
249,94,93160,1,0,0:0:0:0:
171,175,93325,1,0,0:0:0:0:
311,140,93490,1,0,0:0:0:0:
141,103,93655,5,0,0:0:0:0:
346,213,93819,1,0,0:0:0:0:
185,37,93984,1,0,0:0:0:0:
327,286,94149,1,0,0:0:0:0:
265,23,94314,5,0,0:0:0:0:
473,70,94478,1,0,0:0:0:0:
277,116,94644,5,0,0:0:0:0:
485,163,94808,1,0,0:0:0:0:
285,202,94973,5,0,0:0:0:0:
493,249,95137,1,0,0:0:0:0:
297,295,95303,5,0,0:0:0:0:
505,342,95467,1,0,0:0:0:0:
320,379,95633,5,0,0:0:0:0:
106,310,95798,1,0,0:0:0:0:
219,261,95962,1,0,0:0:0:0:
305,368,96127,5,0,0:0:0:0:
91,299,96292,1,0,0:0:0:0:
204,250,96456,1,0,0:0:0:0:
292,356,96622,5,0,0:0:0:0:
78,287,96787,1,0,0:0:0:0:
191,238,96951,5,0,0:0:0:0:
131,202,97034,1,0,0:0:0:0:
99,141,97116,1,0,0:0:0:0:
116,73,97199,1,0,0:0:0:0:
163,23,97281,1,0,0:0:0:0:
229,7,97363,1,0,0:0:0:0:
297,18,97446,1,0,0:0:0:0:
345,65,97528,1,0,0:0:0:0:
356,133,97611,5,0,0:0:0:0:
361,166,97693,1,0,0:0:0:0:
364,200,97776,1,0,0:0:0:0:
366,234,97858,1,0,0:0:0:0:
332,238,97940,1,0,0:0:0:0:
327,259,98023,1,0,0:0:0:0:
323,280,98105,1,0,0:0:0:0:
320,301,98188,1,0,0:0:0:0:
313,326,98270,5,0,0:0:0:0:
264,292,98352,1,0,0:0:0:0:
205,282,98435,1,0,0:0:0:0:
148,299,98517,1,0,0:0:0:0:
96,329,98600,1,0,0:0:0:0:
37,327,98682,1,0,0:0:0:0:
5,276,98765,1,0,0:0:0:0:
5,217,98847,1,0,0:0:0:0:
39,169,98929,1,0,0:0:0:0:
94,189,99012,1,0,0:0:0:0:
151,199,99094,1,0,0:0:0:0:
206,177,99177,1,0,0:0:0:0:
255,145,99259,1,0,0:0:0:0:
305,114,99341,1,0,0:0:0:0:
363,102,99424,1,0,0:0:0:0:
419,117,99506,1,0,0:0:0:0:
459,161,99589,6,0,L|467:232,3,53.75
338,359,99918,2,0,L|326:272,3,53.75
181,103,100248,2,0,L|174:49,3,53.75
82,217,100577,2,0,L|89:270,3,53.75
119,340,100907,5,0,0:0:0:0:
174,360,100990,1,0,0:0:0:0:
232,364,101072,1,0,0:0:0:0:
276,323,101155,1,0,0:0:0:0:
320,284,101237,1,0,0:0:0:0:
378,277,101319,1,0,0:0:0:0:
435,290,101402,1,0,0:0:0:0:
468,338,101484,1,0,0:0:0:0:
427,381,101567,1,0,0:0:0:0:
368,373,101649,1,0,0:0:0:0:
337,322,101732,1,0,0:0:0:0:
337,263,101814,1,0,0:0:0:0:
362,209,101896,1,0,0:0:0:0:
415,182,101979,1,0,0:0:0:0:
438,128,102061,1,0,0:0:0:0:
411,74,102144,1,0,0:0:0:0:
368,33,102226,5,0,0:0:0:0:
311,18,102308,1,0,0:0:0:0:
257,43,102391,1,0,0:0:0:0:
236,98,102473,1,0,0:0:0:0:
250,155,102556,1,0,0:0:0:0:
291,196,102638,1,0,0:0:0:0:
350,202,102721,1,0,0:0:0:0:
403,176,102803,1,0,0:0:0:0:
438,128,102885,1,0,0:0:0:0:
384,102,102968,1,0,0:0:0:0:
325,98,103050,1,0,0:0:0:0:
271,123,103133,1,0,0:0:0:0:
219,152,103215,1,0,0:0:0:0:
160,165,103298,1,0,0:0:0:0:
101,165,103380,1,0,0:0:0:0:
47,141,103462,1,0,0:0:0:0:
79,90,103545,5,0,0:0:0:0:
81,127,103627,1,0,0:0:0:0:
81,164,103710,1,0,0:0:0:0:
81,201,103792,1,0,0:0:0:0:
116,211,103874,1,0,0:0:0:0:
133,256,103957,1,0,0:0:0:0:
153,299,104039,1,0,0:0:0:0:
170,344,104122,1,0,0:0:0:0:
194,381,104204,5,0,0:0:0:0:
251,351,104287,1,0,0:0:0:0:
295,304,104369,1,0,0:0:0:0:
343,261,104451,1,0,0:0:0:0:
405,242,104534,1,0,0:0:0:0:
460,274,104616,1,0,0:0:0:0:
478,336,104699,1,0,0:0:0:0:
429,377,104781,1,0,0:0:0:0:
365,371,104863,1,0,0:0:0:0:
327,318,104946,1,0,0:0:0:0:
343,261,105028,1,0,0:0:0:0:
387,213,105111,1,0,0:0:0:0:
441,178,105193,1,0,0:0:0:0:
466,118,105276,1,0,0:0:0:0:
435,61,105358,1,0,0:0:0:0:
381,25,105440,1,0,0:0:0:0:
320,49,105523,5,0,0:0:0:0:
267,86,105605,1,0,0:0:0:0:
206,110,105688,1,0,0:0:0:0:
141,111,105770,1,0,0:0:0:0:
81,85,105852,1,0,0:0:0:0:
48,28,105935,1,0,0:0:0:0:
107,3,106017,1,0,0:0:0:0:
140,58,106100,1,0,0:0:0:0:
124,120,106182,1,0,0:0:0:0:
93,177,106265,1,0,0:0:0:0:
72,237,106347,1,0,0:0:0:0:
83,300,106429,1,0,0:0:0:0:
124,350,106512,1,0,0:0:0:0:
185,367,106594,1,0,0:0:0:0:
248,355,106677,1,0,0:0:0:0:
294,310,106759,1,0,0:0:0:0:
281,247,106841,5,0,0:0:0:0:
236,199,106924,1,0,0:0:0:0:
173,184,107006,1,0,0:0:0:0:
112,206,107089,1,0,0:0:0:0:
73,257,107171,1,0,0:0:0:0:
76,321,107254,1,0,0:0:0:0:
128,358,107336,1,0,0:0:0:0:
185,329,107418,1,0,0:0:0:0:
196,265,107501,1,0,0:0:0:0:
162,209,107583,1,0,0:0:0:0:
137,148,107666,1,0,0:0:0:0:
143,84,107748,1,0,0:0:0:0:
182,33,107830,1,0,0:0:0:0:
244,13,107913,1,0,0:0:0:0:
308,16,107995,1,0,0:0:0:0:
356,58,108078,1,0,0:0:0:0:
365,121,108160,5,0,0:0:0:0:
328,205,108243,1,0,0:0:0:0:
339,295,108325,1,0,0:0:0:0:
421,333,108407,1,0,0:0:0:0:
506,299,108490,1,0,0:0:0:0:
432,244,108572,1,0,0:0:0:0:
339,245,108655,1,0,0:0:0:0:
258,286,108737,1,0,0:0:0:0:
181,334,108819,5,0,0:0:0:0:
110,306,108902,1,0,0:0:0:0:
84,235,108984,1,0,0:0:0:0:
93,159,109067,1,0,0:0:0:0:
152,113,109149,1,0,0:0:0:0:
224,134,109232,1,0,0:0:0:0:
296,153,109314,1,0,0:0:0:0:
368,135,109396,1,0,0:0:0:0:
397,65,109479,1,0,0:0:0:0:
342,13,109561,1,0,0:0:0:0:
275,49,109644,1,0,0:0:0:0:
260,122,109726,1,0,0:0:0:0:
296,187,109808,1,0,0:0:0:0:
320,258,109891,1,0,0:0:0:0:
310,332,109973,1,0,0:0:0:0:
243,368,110056,1,0,0:0:0:0:
169,352,110138,6,0,L|105:343,3,53.75
413,282,110468,2,0,L|477:273,3,53.75
124,205,110798,2,0,L|60:196,3,53.75
368,135,111128,2,0,L|432:126,3,53.75
485,75,111457,5,0,0:0:0:0:
412,40,111539,1,0,0:0:0:0:
330,42,111622,1,0,0:0:0:0:
263,86,111704,1,0,0:0:0:0:
238,163,111787,1,0,0:0:0:0:
268,237,111869,1,0,0:0:0:0:
246,314,111951,1,0,0:0:0:0:
175,353,112034,1,0,0:0:0:0:
95,343,112116,1,0,0:0:0:0:
58,270,112199,1,0,0:0:0:0:
74,191,112281,1,0,0:0:0:0:
150,167,112363,1,0,0:0:0:0:
197,232,112446,1,0,0:0:0:0:
249,292,112528,1,0,0:0:0:0:
323,323,112611,1,0,0:0:0:0:
402,332,112693,1,0,0:0:0:0:
469,286,112776,5,0,0:0:0:0:
488,208,112858,1,0,0:0:0:0:
449,137,112940,1,0,0:0:0:0:
369,120,113023,1,0,0:0:0:0:
290,138,113105,1,0,0:0:0:0:
213,166,113188,1,0,0:0:0:0:
132,161,113270,1,0,0:0:0:0:
72,106,113352,1,0,0:0:0:0:
28,37,113435,1,0,0:0:0:0:
103,9,113517,1,0,0:0:0:0:
164,62,113600,1,0,0:0:0:0:
121,129,113682,1,0,0:0:0:0:
108,209,113765,1,0,0:0:0:0:
133,285,113847,1,0,0:0:0:0:
203,322,113929,1,0,0:0:0:0:
283,334,114012,1,0,0:0:0:0:
356,301,114094,5,0,0:0:0:0:
343,220,114177,1,0,0:0:0:0:
330,140,114259,1,0,0:0:0:0:
319,60,114341,1,0,0:0:0:0:
380,6,114424,1,0,0:0:0:0:
395,84,114506,1,0,0:0:0:0:
407,164,114589,1,0,0:0:0:0:
419,243,114671,1,0,0:0:0:0:
437,322,114754,5,0,0:0:0:0:
360,297,114836,1,0,0:0:0:0:
280,286,114918,1,0,0:0:0:0:
201,308,115001,1,0,0:0:0:0:
125,335,115083,1,0,0:0:0:0:
45,316,115166,1,0,0:0:0:0:
20,239,115248,1,0,0:0:0:0:
54,166,115330,1,0,0:0:0:0:
127,130,115413,1,0,0:0:0:0:
193,175,115495,1,0,0:0:0:0:
231,246,115578,1,0,0:0:0:0:
266,317,115660,1,0,0:0:0:0:
339,351,115743,1,0,0:0:0:0:
418,340,115825,1,0,0:0:0:0:
468,277,115907,1,0,0:0:0:0:
458,196,115990,1,0,0:0:0:0:
408,132,116072,6,0,L|402:69,3,53.75
124,208,116402,2,0,L|121:261,3,53.75
134,346,116732,5,0,0:0:0:0:
60,302,116814,1,0,0:0:0:0:
32,220,116896,1,0,0:0:0:0:
76,145,116979,1,0,0:0:0:0:
143,90,117061,1,0,0:0:0:0:
201,154,117144,1,0,0:0:0:0:
282,179,117226,1,0,0:0:0:0:
365,158,117308,1,0,0:0:0:0:
438,111,117391,1,0,0:0:0:0:
434,25,117473,1,0,0:0:0:0:
348,9,117556,1,0,0:0:0:0:
286,68,117638,1,0,0:0:0:0:
348,127,117721,1,0,0:0:0:0:
401,193,117803,1,0,0:0:0:0:
415,277,117885,1,0,0:0:0:0:
369,350,117968,1,0,0:0:0:0:
287,322,118050,5,0,0:0:0:0:
208,284,118133,1,0,0:0:0:0:
122,281,118215,1,0,0:0:0:0:
41,313,118298,1,0,0:0:0:0:
108,365,118380,1,0,0:0:0:0:
165,301,118462,1,0,0:0:0:0:
158,214,118545,1,0,0:0:0:0:
99,151,118627,1,0,0:0:0:0:
15,127,118710,1,0,0:0:0:0:
60,199,118792,1,0,0:0:0:0:
145,199,118874,1,0,0:0:0:0:
213,146,118957,1,0,0:0:0:0:
277,89,119039,1,0,0:0:0:0:
357,57,119122,1,0,0:0:0:0:
441,70,119204,1,0,0:0:0:0:
489,142,119287,1,0,0:0:0:0:
473,240,119369,5,0,0:0:0:0:
403,173,119451,1,0,0:0:0:0:
306,157,119534,1,0,0:0:0:0:
218,197,119616,1,0,0:0:0:0:
243,291,119699,1,0,0:0:0:0:
320,233,119781,1,0,0:0:0:0:
290,141,119863,1,0,0:0:0:0:
219,73,119946,1,0,0:0:0:0:
124,54,120028,1,0,0:0:0:0:
54,122,120111,1,0,0:0:0:0:
77,215,120193,1,0,0:0:0:0:
142,287,120276,1,0,0:0:0:0:
171,195,120358,1,0,0:0:0:0:
96,256,120440,1,0,0:0:0:0:
138,343,120523,1,0,0:0:0:0:
231,367,120605,1,0,0:0:0:0:
308,307,120688,5,0,0:0:0:0:
269,218,120770,1,0,0:0:0:0:
267,121,120852,1,0,0:0:0:0:
326,44,120935,1,0,0:0:0:0:
411,88,121017,1,0,0:0:0:0:
365,174,121100,1,0,0:0:0:0:
273,202,121182,1,0,0:0:0:0:
179,174,121265,1,0,0:0:0:0:
108,108,121347,1,0,0:0:0:0:
34,169,121429,1,0,0:0:0:0:
51,264,121512,1,0,0:0:0:0:
100,346,121594,1,0,0:0:0:0:
196,362,121677,1,0,0:0:0:0:
283,321,121759,1,0,0:0:0:0:
376,297,121841,1,0,0:0:0:0:
465,335,121924,1,0,0:0:0:0:
444,45,122006,5,0,0:0:0:0:
