osu file format v14

[General]
AudioFilename: audio.mp3
AudioLeadIn: 0
PreviewTime: 97940
Countdown: 0
SampleSet: Soft
StackLeniency: 0.2
Mode: 0
LetterboxInBreaks: 1
WidescreenStoryboard: 1

[Editor]
DistanceSpacing: 1.8
BeatDivisor: 4
GridSize: 4
TimelineZoom: 2.2

[Metadata]
Title:Ange du Blanc Pur
TitleUnicode:Ange du Blanc Pur
Artist:ke-ji feat. Nanahira
ArtistUnicode:ke-ji feat. ななひら
Creator:Supicha
Version:CONFESSION
Source:
Tags:colory starry utaite confetto pop death stream
BeatmapID:1772075
BeatmapSetID:847341

[Difficulty]
HPDrainRate:6
CircleSize:4
OverallDifficulty:9
ApproachRate:9.6
SliderMultiplier:1.72
SliderTickRate:1

[Events]
//Background and Video events
0,0,"Background.jpg",0,0
//Break Periods
//Storyboard Layer 0 (Background)
//Storyboard Layer 1 (Fail)
//Storyboard Layer 2 (Pass)
//Storyboard Layer 3 (Foreground)
//Storyboard Sound Samples

[TimingPoints]
2001,333.333333333333,4,2,1,30,1,0
2001,-200,4,2,1,30,0,0
18500,666.666666666667,4,2,1,5,1,0
18500,-200,4,2,1,5,0,0
22000,333.333333333333,4,2,1,30,1,0
32008,329.67032967033,4,2,1,50,1,0
32008,-100,4,2,1,50,0,0
37282,-100,4,2,1,50,0,1
42557,-100,4,2,1,50,0,0
46183,329.67032967033,4,2,1,50,1,0
50798,329.67032967033,4,2,1,50,1,0
50798,-100,4,2,1,50,0,0
61347,-133.333333333333,4,2,1,50,0,0
70248,-200,4,2,1,50,0,0
70495,-200,4,2,1,5,0,0
70578,-100,4,2,1,50,0,0
81127,-133.333333333333,4,2,1,50,0,0
90028,-66.6666666666667,4,2,1,50,0,0
90358,-100,4,2,1,50,0,0
97940,-66.6666666666667,4,2,5,50,0,0
98270,-80,4,2,1,70,0,1
108160,-80,4,2,1,70,0,0
108819,-80,4,2,1,70,0,1
118710,-80,4,2,1,70,0,0
119369,-80,4,2,1,70,0,1
122006,-133.333333333333,4,2,1,35,0,0
138490,329.67032967033,4,2,1,50,1,0
138490,-200,4,2,1,50,0,0
143764,-80,4,2,1,70,0,1
156951,-100,4,2,1,70,0,0
162226,-100,4,2,1,70,0,1
167500,-100,4,2,1,60,0,0
171127,329.67032967033,4,2,1,50,1,0
175742,329.67032967033,4,2,1,50,1,0
175742,-100,4,2,1,50,0,0
183324,-66.6666666666667,4,2,1,50,0,0
183654,-200,4,2,1,25,0,0
194203,-200,4,2,1,45,0,0
199148,-200,4,2,5,45,0,0
199478,-80,4,2,1,70,0,1
206731,-80,4,2,1,70,0,0
207390,-66.6666666666667,4,2,1,80,0,1
217280,-66.6666666666667,4,2,1,80,0,0
217610,-100,4,2,1,80,0,0
217939,-66.6666666666667,4,2,1,80,0,1
231126,-100,4,2,1,70,0,0
236401,-200,4,2,1,70,0,0
236483,-200,4,2,1,5,0,0

[HitObjects]
68,45,96951,5,8,0:0:0:0:
69,62,97034,1,8,0:0:0:0:
71,78,97116,1,8,0:0:0:0:
73,95,97199,1,8,0:0:0:0:
75,111,97281,1,8,0:0:0:0:
77,127,97363,1,8,0:0:0:0:
80,144,97446,1,8,0:0:0:0:
83,160,97528,1,8,0:0:0:0:
86,177,97611,5,8,0:0:0:0:
88,193,97693,1,8,0:0:0:0:
91,210,97776,1,8,0:0:0:0:
94,226,97858,1,8,0:0:0:0:
98,251,97940,1,4,0:0:0:0:
102,276,98023,1,0,0:0:0:0:
106,301,98105,1,0,0:0:0:0:
110,326,98188,1,0,0:0:0:0:
167,335,98270,5,6,0:0:0:0:
221,313,98352,1,0,0:0:0:0:
280,309,98435,1,8,0:0:0:0:
332,335,98517,1,0,0:0:0:0:
390,345,98600,1,2,0:0:0:0:
446,329,98682,1,0,0:0:0:0:
478,278,98765,1,8,0:0:0:0:
469,219,98847,1,0,0:0:0:0:
421,184,98929,5,2,0:0:0:0:
370,215,99012,1,0,0:0:0:0:
312,228,99094,1,8,0:0:0:0:
252,226,99177,1,0,0:0:0:0:
194,211,99259,1,2,0:0:0:0:
168,158,99341,1,0,0:0:0:0:
202,109,99424,1,8,0:0:0:0:
259,95,99506,1,0,0:0:0:0:
343,36,99589,5,2,0:0:0:0:
431,85,99671,1,0,0:0:0:0:
451,185,99754,1,8,0:0:0:0:
439,285,99836,1,0,0:0:0:0:
360,348,99918,1,2,0:0:0:0:
257,345,100001,1,0,0:0:0:0:
162,308,100083,1,8,0:0:0:0:
96,228,100166,1,0,0:0:0:0:
194,211,100248,5,2,0:0:0:0:
254,271,100330,1,0,0:0:0:0:
340,271,100413,1,8,0:0:0:0:
372,191,100495,1,0,0:0:0:0:
339,110,100578,1,2,0:0:0:0:
263,69,100660,1,0,0:0:0:0:
177,81,100743,1,8,0:0:0:0:
136,156,100825,1,0,0:0:0:0:
130,244,100907,5,2,0:0:0:0:
140,302,100990,1,0,0:0:0:0:
187,337,101072,1,8,0:0:0:0:
245,328,101155,1,0,0:0:0:0:
277,278,101237,1,2,0:0:0:0:
289,220,101319,1,0,0:0:0:0:
304,162,101402,1,8,0:0:0:0:
330,110,101484,1,0,0:0:0:0:
368,64,101567,5,2,0:0:0:0:
418,94,101649,1,0,0:0:0:0:
446,146,101732,1,8,0:0:0:0:
449,204,101814,1,0,0:0:0:0:
438,261,101896,1,2,0:0:0:0:
403,309,101979,1,0,0:0:0:0:
350,335,102061,1,8,0:0:0:0:
291,348,102144,1,0,0:0:0:0:
184,340,102226,5,2,0:0:0:0:
132,246,102308,1,0,0:0:0:0:
136,137,102391,1,8,0:0:0:0:
195,48,102473,1,0,0:0:0:0:
303,54,102556,1,2,0:0:0:0:
348,150,102638,1,0,0:0:0:0:
350,258,102721,1,8,0:0:0:0:
291,348,102803,1,0,0:0:0:0:
162,343,102885,5,2,0:0:0:0:
81,240,102968,1,0,0:0:0:0:
85,111,103050,1,8,0:0:0:0:
188,32,103133,1,0,0:0:0:0:
316,30,103215,1,2,0:0:0:0:
410,118,103298,1,0,0:0:0:0:
409,246,103380,1,8,0:0:0:0:
324,342,103462,1,0,0:0:0:0:
215,271,103545,5,2,0:0:0:0:
179,217,103627,1,0,0:0:0:0:
179,152,103710,1,8,0:0:0:0:
213,97,103792,1,0,0:0:0:0:
270,67,103874,1,2,0:0:0:0:
334,72,103957,1,0,0:0:0:0:
378,118,104039,1,8,0:0:0:0:
394,180,104122,1,0,0:0:0:0:
341,217,104204,5,2,0:0:0:0:
286,181,104287,1,0,0:0:0:0:
223,167,104369,1,8,0:0:0:0:
159,172,104451,1,0,0:0:0:0:
99,197,104534,1,2,0:0:0:0:
49,238,104616,1,0,0:0:0:0:
54,302,104699,1,8,0:0:0:0:
105,340,104781,1,0,0:0:0:0:
161,308,104863,5,2,0:0:0:0:
224,294,104946,1,0,0:0:0:0:
286,307,105028,1,8,0:0:0:0:
342,338,105111,1,0,0:0:0:0:
405,343,105193,1,2,0:0:0:0:
461,310,105276,1,0,0:0:0:0:
479,248,105358,1,8,0:0:0:0:
454,188,105440,1,0,0:0:0:0:
399,153,105523,5,2,0:0:0:0:
341,182,105605,1,0,0:0:0:0:
277,197,105688,1,8,0:0:0:0:
212,198,105770,1,0,0:0:0:0:
149,181,105852,1,2,0:0:0:0:
95,143,105935,1,0,0:0:0:0:
74,82,106017,1,8,0:0:0:0:
105,25,106100,1,0,0:0:0:0:
156,63,106182,5,2,0:0:0:0:
185,120,106265,1,0,0:0:0:0:
192,183,106347,1,8,0:0:0:0:
157,236,106429,1,0,0:0:0:0:
141,299,106512,1,2,0:0:0:0:
182,348,106594,1,0,0:0:0:0:
245,362,106677,1,8,0:0:0:0:
303,334,106759,1,0,0:0:0:0:
283,272,106841,5,2,0:0:0:0:
274,207,106924,1,0,0:0:0:0:
281,143,107006,1,8,0:0:0:0:
313,86,107089,1,0,0:0:0:0:
372,61,107171,1,2,0:0:0:0:
436,66,107254,1,0,0:0:0:0:
485,107,107336,1,8,0:0:0:0:
496,170,107418,1,0,0:0:0:0:
460,220,107501,5,2,0:0:0:0:
452,239,107583,1,0,0:0:0:0:
444,259,107666,1,8,0:0:0:0:
433,277,107748,1,0,0:0:0:0:
423,295,107830,1,2,0:0:0:0:
413,314,107913,1,0,0:0:0:0:
403,333,107995,1,8,0:0:0:0:
392,352,108078,1,0,0:0:0:0:
274,353,108160,5,8,0:0:0:0:
154,350,108243,1,0,0:0:0:0:
159,232,108325,1,0,0:0:0:0:
276,234,108407,1,0,0:0:0:0:
365,154,108490,5,0,0:0:0:0:
482,154,108572,1,0,0:0:0:0:
484,34,108655,1,0,0:0:0:0:
367,35,108737,1,0,0:0:0:0:
292,38,108819,5,6,0:0:0:0:
216,39,108902,1,0,0:0:0:0:
148,70,108984,1,8,0:0:0:0:
91,119,109067,1,0,0:0:0:0:
68,190,109149,1,2,0:0:0:0:
80,264,109232,1,0,0:0:0:0:
131,318,109314,1,8,0:0:0:0:
203,338,109396,1,0,0:0:0:0:
278,328,109479,5,2,0:0:0:0:
350,345,109561,1,0,0:0:0:0:
425,338,109644,1,8,0:0:0:0:
461,271,109726,1,0,0:0:0:0:
462,196,109808,1,2,0:0:0:0:
431,126,109891,1,0,0:0:0:0:
364,90,109973,1,8,0:0:0:0:
288,81,110056,1,0,0:0:0:0:
157,51,110138,5,2,0:0:0:0:
60,129,110221,1,0,0:0:0:0:
62,251,110303,1,8,0:0:0:0:
163,320,110385,1,0,0:0:0:0:
164,195,110468,1,2,0:0:0:0:
253,279,110550,1,0,0:0:0:0:
377,276,110633,1,8,0:0:0:0:
462,196,110715,1,0,0:0:0:0:
359,125,110798,5,2,0:0:0:0:
438,31,110880,1,0,0:0:0:0:
310,15,110962,1,8,0:0:0:0:
237,116,111045,1,0,0:0:0:0:
266,236,111127,1,2,0:0:0:0:
386,268,111210,1,0,0:0:0:0:
302,358,111292,1,8,0:0:0:0:
182,324,111374,1,0,0:0:0:0:
130,237,111457,5,2,0:0:0:0:
116,220,111539,1,0,0:0:0:0:
108,199,111622,1,8,0:0:0:0:
104,177,111704,1,0,0:0:0:0:
105,155,111787,1,2,0:0:0:0:
111,134,111869,1,0,0:0:0:0:
118,114,111951,1,8,0:0:0:0:
129,95,112034,1,0,0:0:0:0:
170,70,112116,5,2,0:0:0:0:
215,88,112199,1,0,0:0:0:0:
263,88,112281,1,8,0:0:0:0:
308,72,112363,1,0,0:0:0:0:
350,47,112446,1,2,0:0:0:0:
397,36,112528,1,0,0:0:0:0:
441,54,112611,1,8,0:0:0:0:
473,89,112693,1,0,0:0:0:0:
444,147,112776,5,2,0:0:0:0:
390,182,112858,1,0,0:0:0:0:
325,177,112940,1,8,0:0:0:0:
268,144,113023,1,0,0:0:0:0:
204,135,113105,1,2,0:0:0:0:
142,157,113188,1,0,0:0:0:0:
91,197,113270,1,8,0:0:0:0:
78,259,113352,1,0,0:0:0:0:
101,336,113435,5,2,0:0:0:0:
177,310,113517,1,0,0:0:0:0:
258,304,113600,1,8,0:0:0:0:
333,331,113682,1,0,0:0:0:0:
413,340,113765,1,2,0:0:0:0:
478,293,113847,1,0,0:0:0:0:
490,213,113929,1,8,0:0:0:0:
470,134,114012,1,0,0:0:0:0:
430,64,114094,5,2,0:0:0:0:
348,66,114177,1,0,0:0:0:0:
267,68,114259,1,8,0:0:0:0:
186,70,114341,1,0,0:0:0:0:
120,118,114424,1,2,0:0:0:0:
200,117,114506,1,0,0:0:0:0:
281,117,114589,1,8,0:0:0:0:
361,117,114671,1,0,0:0:0:0:
419,145,114754,5,2,0:0:0:0:
449,201,114836,1,0,0:0:0:0:
431,262,114918,1,8,0:0:0:0:
372,289,115001,1,0,0:0:0:0:
312,263,115083,1,2,0:0:0:0:
253,235,115166,1,0,0:0:0:0:
189,228,115248,1,8,0:0:0:0:
129,250,115330,1,0,0:0:0:0:
73,323,115413,5,2,0:0:0:0:
163,331,115495,1,0,0:0:0:0:
254,320,115578,1,8,0:0:0:0:
320,257,115660,1,0,0:0:0:0:
341,134,115743,1,2,0:0:0:0:
242,207,115825,1,0,0:0:0:0:
121,182,115907,1,8,0:0:0:0:
87,62,115990,1,0,0:0:0:0:
245,86,116072,5,2,0:0:0:0:
402,47,116155,1,0,0:0:0:0:
454,198,116237,1,8,0:0:0:0:
299,242,116319,1,0,0:0:0:0:
104,130,116402,1,2,0:0:0:0:
162,335,116484,1,0,0:0:0:0:
370,278,116567,1,8,0:0:0:0:
308,73,116649,1,0,0:0:0:0:
277,153,116732,5,2,0:0:0:0:
223,146,116814,1,0,0:0:0:0:
172,163,116896,1,8,0:0:0:0:
129,196,116979,1,0,0:0:0:0:
107,245,117061,1,2,0:0:0:0:
105,299,117144,1,0,0:0:0:0:
135,342,117226,1,8,0:0:0:0:
185,359,117308,1,0,0:0:0:0:
237,311,117391,5,2,0:0:0:0:
305,298,117473,1,0,0:0:0:0:
373,313,117556,1,8,0:0:0:0:
442,305,117638,1,0,0:0:0:0:
491,255,117721,1,2,0:0:0:0:
484,185,117803,1,0,0:0:0:0:
443,128,117885,1,8,0:0:0:0:
374,144,117968,1,0,0:0:0:0:
303,209,118050,5,2,0:0:0:0:
214,250,118133,1,0,0:0:0:0:
119,230,118215,1,8,0:0:0:0:
61,151,118298,1,0,0:0:0:0:
113,70,118380,1,2,0:0:0:0:
207,49,118462,1,0,0:0:0:0:
303,61,118545,1,8,0:0:0:0:
377,122,118627,1,0,0:0:0:0:
438,218,118710,5,8,0:0:0:0:
332,145,118792,1,0,0:0:0:0:
204,134,118874,1,0,0:0:0:0:
84,185,118957,1,0,0:0:0:0:
80,313,119039,1,0,0:0:0:0:
200,361,119122,1,0,0:0:0:0:
328,366,119204,1,0,0:0:0:0:
444,308,119287,1,0,0:0:0:0:
319,277,119369,5,6,0:0:0:0:
190,281,119451,1,0,0:0:0:0:
190,151,119534,1,0,0:0:0:0:
318,147,119616,1,0,0:0:0:0:
316,17,119699,5,10,0:0:0:0:
444,21,119781,1,0,0:0:0:0:
449,149,119863,1,0,0:0:0:0:
318,147,119946,1,0,0:0:0:0:
428,247,120028,5,10,0:0:0:0:
309,340,120111,1,0,0:0:0:0:
210,226,120193,1,0,0:0:0:0:
89,318,120276,1,0,0:0:0:0:
84,137,120357,5,10,0:0:0:0:
203,44,120440,1,0,0:0:0:0:
302,158,120522,1,0,0:0:0:0:
423,66,120605,1,0,0:0:0:0:
468,233,120688,5,10,0:0:0:0:
297,252,120770,1,0,0:0:0:0:
276,82,120852,1,0,0:0:0:0:
448,64,120935,1,0,0:0:0:0:
468,233,121017,5,10,0:0:0:0:
303,177,121100,1,0,0:0:0:0:
153,260,121182,1,0,0:0:0:0:
318,310,121265,1,0,0:0:0:0:
210,150,121347,5,10,0:0:0:0:
249,338,121429,1,0,0:0:0:0:
137,178,121512,1,0,0:0:0:0:
180,365,121594,1,0,0:0:0:0:
68,205,121677,5,0,0:0:0:0:
138,26,121759,1,0,0:0:0:0:
215,202,121841,1,0,0:0:0:0:
289,21,121924,1,0,0:0:0:0:
414,345,122006,5,4,0:0:0:0:
