osu file format v14

[General]
AudioFilename: audio.mp3
AudioLeadIn: 0
PreviewTime: 97979
Countdown: 0
SampleSet: Normal
StackLeniency: 0.7
Mode: 1
LetterboxInBreaks: 0
WidescreenStoryboard: 1

[Editor]
Bookmarks: 32056,37330,42605,50846,61395,70625,81175,90405,98317,122054,138537,143811,156998,167547,175788,183700,193590,236447
DistanceSpacing: 0.5
BeatDivisor: 4
GridSize: 32
TimelineZoom: 1.4

[Metadata]
Title:Ange du Blanc Pur
TitleUnicode:Ange du Blanc Pur
Artist:ke-ji feat. Nanahira
ArtistUnicode:ke-ji feat. ななひら
Creator:Heaxys
Version:Futsuu
Source:
Tags:japanese metal rock j-rock jrock nanahira しらこいし Colory Starry Confetto realy0_ Genjuro
BeatmapID:2627486
BeatmapSetID:1263882

[Difficulty]
HPDrainRate:6
CircleSize:2
OverallDifficulty:4
ApproachRate:10
SliderMultiplier:1.4
SliderTickRate:1

[Events]
//Background and Video events
0,0,"yu-slumerican-castiel.jpg",0,0
//Break Periods
2,21782,23608
2,183893,193134
//Storyboard Layer 0 (Background)
//Storyboard Layer 1 (Fail)
//Storyboard Layer 2 (Pass)
//Storyboard Layer 3 (Foreground)
//Storyboard Layer 4 (Overlay)
//Storyboard Sound Samples

[TimingPoints]
726,333.333333333333,4,1,0,50,1,0
2059,333.333333333333,6,1,0,50,1,0
16058,399.999999999999,6,1,0,50,1,0
16058,-83.3333333333333,6,1,0,50,0,0
16458,461.53846153846,6,1,0,50,1,8
16458,-72.463768115942,6,1,0,50,0,8
16688,535.714285714284,6,1,0,50,1,8
16955,461.53846153846,6,1,0,50,1,8
16955,-72.463768115942,6,1,0,50,0,8
17185,545.454545454543,6,1,0,50,1,8
17457,631.578947368418,6,1,0,50,1,8
17457,-52.9100529100529,6,1,0,50,0,8
17772,799.999999999995,6,1,0,50,1,8
18171,1199.99999999999,6,1,0,50,1,8
18171,-27.7777777777778,6,1,0,50,0,8
18470,1224.48979591836,6,1,0,50,1,0
18470,-27.2479564032698,6,1,0,50,0,0
18613,-27.2479564032698,6,1,0,30,0,0
19082,1000,6,1,0,30,1,8
23939,-100,6,1,0,50,0,8
24058,952.38095238095,4,1,0,50,1,0
27391,952.38095238095,5,1,0,50,1,0
31875,-100,4,1,0,90,0,0
32046,329.67032967033,4,1,0,90,1,0
32046,-100,4,1,0,90,0,0
42595,329.67032967033,3,1,0,90,1,0
42595,-95.2380952380952,3,1,0,90,0,0
46221,329.67032967033,3,1,0,90,1,0
46221,-95.2380952380952,3,1,0,90,0,0
48199,329.67032967033,4,1,0,90,1,0
48199,-95.2380952380952,4,1,0,90,0,8
50616,-100,4,1,0,80,0,8
61385,329.67032967033,3,1,0,80,1,8
61386,329.67032967033,3,1,0,80,1,0
61386,-95.2380952380952,3,1,0,80,0,0
65342,329.67032967033,4,1,0,80,1,0
70506,-100,4,1,0,80,0,0
81165,-95.2380952380952,3,1,0,80,0,0
81166,329.67032967033,3,1,0,80,1,0
85121,-100,4,1,0,80,0,0
85122,329.67032967033,4,1,0,80,1,0
97868,-100,4,1,0,90,0,0
98305,-90.9090909090909,4,1,0,100,0,0
98308,329.67032967033,4,1,0,100,1,8
98308,-90.9090909090909,4,1,0,100,0,1
98309,329.67032967033,4,1,0,100,1,1
98309,-90.9090909090909,4,1,0,100,0,1
122044,-86.9565217391304,6,1,0,100,0,1
122045,329.67032967033,6,1,0,100,1,8
122045,-86.9565217391304,6,1,0,100,0,0
122046,329.67032967033,6,1,0,100,1,0
122046,-86.9565217391304,6,1,0,100,0,0
122208,-100,6,1,0,50,0,0
135892,329.67032967033,4,1,0,50,1,0
137760,-100,4,1,0,65,0,0
138362,-105.263157894737,6,1,0,80,0,8
143059,-101.010101010101,4,1,0,80,0,0
143389,-98.0392156862745,4,1,0,80,0,0
143719,-95.2380952380952,4,1,0,100,0,0
154268,-100,4,1,0,100,0,0
156990,329.67032967033,4,1,0,100,1,8
156991,329.67032967033,4,1,0,100,1,0
157238,-100,4,1,0,90,0,0
167540,329.67032967033,3,1,0,90,1,0
167540,-95.2380952380952,3,1,0,90,0,0
171166,329.67032967033,3,1,0,90,1,0
171166,-95.2380952380952,3,1,0,90,0,0
173144,329.67032967033,4,1,0,90,1,0
173144,-95.2380952380952,4,1,0,90,0,0
175561,-100,4,1,0,80,0,0
183854,-100,4,1,0,40,0,0
193497,-100,4,1,0,90,0,0
199102,-95.2380952380952,4,1,0,95,0,0
199512,-90.9090909090909,4,1,0,100,0,0
199517,-90.9090909090909,4,1,0,100,0,1
207429,329.67032967033,4,1,0,100,1,1
207429,-90.9090909090909,4,1,0,100,0,1
231162,-90.9090909090909,4,1,0,100,0,1
231165,329.67032967033,4,1,0,100,1,0
231165,-90.9090909090909,4,1,0,100,0,0
231382,-100,4,1,0,90,0,0
236547,-100,4,1,0,40,0,0

[HitObjects]
256,192,2059,5,12,0:0:0:0:
256,192,2725,1,0,0:0:0:0:
256,192,3058,1,0,0:0:0:0:
256,192,3392,1,8,0:0:0:0:
256,192,3725,1,8,0:0:0:0:
256,192,4058,1,8,0:0:0:0:
256,192,4725,1,8,0:0:0:0:
256,192,5058,1,0,0:0:0:0:
256,192,5392,1,8,0:0:0:0:
256,192,5725,1,0,0:0:0:0:
256,192,6058,1,0,0:0:0:0:
256,192,6725,1,0,0:0:0:0:
256,192,7058,1,8,0:0:0:0:
256,192,7392,1,8,0:0:0:0:
256,192,7725,1,8,0:0:0:0:
256,192,8058,1,8,0:0:0:0:
256,192,8725,1,8,0:0:0:0:
256,192,9058,1,0,0:0:0:0:
256,192,9392,1,0,0:0:0:0:
256,192,9725,1,8,0:0:0:0:
256,192,10058,1,8,0:0:0:0:
256,192,10725,1,8,0:0:0:0:
256,192,11058,1,0,0:0:0:0:
256,192,11392,1,8,0:0:0:0:
256,192,11725,1,8,0:0:0:0:
256,192,12058,1,8,0:0:0:0:
256,192,12725,1,8,0:0:0:0:
256,192,13058,1,0,0:0:0:0:
256,192,13392,1,8,0:0:0:0:
256,192,13725,1,0,0:0:0:0:
256,192,14058,1,0,0:0:0:0:
256,192,14725,1,8,0:0:0:0:
256,192,15058,1,0,0:0:0:0:
256,192,15392,1,8,0:0:0:0:
256,192,15725,1,0,0:0:0:0:
256,192,16058,5,8,0:0:0:0:
256,192,16458,1,8,0:0:0:0:
256,192,16955,1,8,0:0:0:0:
256,192,17457,1,8,0:0:0:0:
256,192,18171,1,0,0:0:0:0:
256,192,18470,1,8,0:0:0:0:
256,192,18623,12,0,21582,0:0:0:0:
256,192,24058,5,8,0:0:0:0:
256,192,27391,1,8,0:0:0:0:
256,192,32046,5,12,0:0:0:0:
256,192,32705,1,8,0:0:0:0:
256,192,33035,1,0,0:0:0:0:
256,192,33364,1,12,0:0:0:0:
256,192,34024,1,8,0:0:0:0:
256,192,34353,1,0,0:0:0:0:
256,192,34518,1,0,0:0:0:0:
256,192,34683,1,12,0:0:0:0:
256,192,35342,1,8,0:0:0:0:
256,192,35672,1,0,0:0:0:0:
256,192,36002,1,8,0:0:0:0:
256,192,36331,1,0,0:0:0:0:
256,192,36496,1,0,0:0:0:0:
256,192,36661,1,0,0:0:0:0:
256,192,36991,1,8,0:0:0:0:
256,192,37320,5,12,0:0:0:0:
256,192,37650,1,0,0:0:0:0:
256,192,37815,1,0,0:0:0:0:
256,192,37980,1,8,0:0:0:0:
256,192,38309,1,0,0:0:0:0:
256,192,38639,1,8,0:0:0:0:
256,192,38969,1,8,0:0:0:0:
256,192,39133,1,0,0:0:0:0:
256,192,39298,1,8,0:0:0:0:
256,192,39628,1,8,0:0:0:0:
256,192,39958,1,8,0:0:0:0:
256,192,40617,1,8,0:0:0:0:
256,192,40947,1,0,0:0:0:0:
256,192,41276,1,8,0:0:0:0:
256,192,41606,1,0,0:0:0:0:
256,192,41771,1,0,0:0:0:0:
256,192,41936,1,8,0:0:0:0:
256,192,42265,1,8,0:0:0:0:
256,192,42595,5,4,0:0:0:0:
256,192,43089,1,0,0:0:0:0:
256,192,43584,1,8,0:0:0:0:
256,192,44078,1,0,0:0:0:0:
256,192,44573,1,8,0:0:0:0:
256,192,45067,1,8,0:0:0:0:
256,192,45562,1,8,0:0:0:0:
256,192,46221,5,4,0:0:0:0:
256,192,46715,1,0,0:0:0:0:
256,192,47210,1,8,0:0:0:0:
256,192,47704,1,8,0:0:0:0:
256,192,48199,5,0,0:0:0:0:
256,192,48528,1,0,0:0:0:0:
256,192,48858,1,8,0:0:0:0:
256,192,49188,1,0,0:0:0:0:
256,192,49517,1,8,0:0:0:0:
256,192,49847,1,8,0:0:0:0:
256,192,50177,1,8,0:0:0:0:
256,192,50836,5,4,0:0:0:0:
256,192,51166,1,8,0:0:0:0:
256,192,51331,1,0,0:0:0:0:
256,192,51661,1,0,0:0:0:0:
256,192,51990,1,8,0:0:0:0:
256,192,52484,1,8,0:0:0:0:
256,192,52814,1,0,0:0:0:0:
256,192,53144,1,8,0:0:0:0:
256,192,53473,1,8,0:0:0:0:
256,192,54297,1,8,0:0:0:0:
256,192,54627,1,8,0:0:0:0:
256,192,54957,1,0,0:0:0:0:
256,192,55286,1,0,0:0:0:0:
256,192,55616,1,8,0:0:0:0:
256,192,55946,1,0,0:0:0:0:
256,192,56111,1,8,0:0:0:0:
256,192,56440,1,8,0:0:0:0:
256,192,56935,1,8,0:0:0:0:
256,192,57100,1,0,0:0:0:0:
256,192,57264,1,8,0:0:0:0:
256,192,57594,1,0,0:0:0:0:
256,192,57924,1,0,0:0:0:0:
256,192,58253,1,0,0:0:0:0:
256,192,58418,1,0,0:0:0:0:
256,192,58748,1,8,0:0:0:0:
256,192,59078,1,8,0:0:0:0:
256,192,59242,1,8,0:0:0:0:
256,192,59572,1,8,0:0:0:0:
256,192,59902,1,0,0:0:0:0:
256,192,60231,1,8,0:0:0:0:
256,192,60561,1,8,0:0:0:0:
256,192,61056,1,8,0:0:0:0:
256,192,61386,5,4,0:0:0:0:
256,192,62046,1,0,0:0:0:0:
256,192,62211,1,0,0:0:0:0:
256,192,62376,1,8,0:0:0:0:
256,192,62705,1,8,0:0:0:0:
256,192,62870,1,0,0:0:0:0:
256,192,63035,1,0,0:0:0:0:
256,192,63365,1,4,0:0:0:0:
256,192,64024,1,8,0:0:0:0:
256,192,64189,1,0,0:0:0:0:
256,192,64354,1,8,0:0:0:0:
256,192,64683,1,8,0:0:0:0:
256,192,64848,1,8,0:0:0:0:
256,192,65013,1,0,0:0:0:0:
256,192,65343,5,12,0:0:0:0:
256,192,65672,1,0,0:0:0:0:
256,192,66002,1,0,0:0:0:0:
256,192,66332,1,0,0:0:0:0:
256,192,66661,1,8,0:0:0:0:
256,192,66991,1,8,0:0:0:0:
256,192,67321,1,8,0:0:0:0:
256,192,67650,1,0,0:0:0:0:
256,192,67980,1,8,0:0:0:0:
256,192,68474,1,0,0:0:0:0:
256,192,68969,1,8,0:0:0:0:
256,192,69299,1,8,0:0:0:0:
256,192,69463,1,8,0:0:0:0:
256,192,69793,1,8,0:0:0:0:
256,192,70288,1,12,0:0:0:0:
256,192,70617,5,4,0:0:0:0:
256,192,71277,1,0,0:0:0:0:
256,192,71441,1,8,0:0:0:0:
256,192,71771,1,8,0:0:0:0:
256,192,72266,1,8,0:0:0:0:
256,192,72595,1,0,0:0:0:0:
256,192,72925,1,0,0:0:0:0:
256,192,73255,1,8,0:0:0:0:
256,192,73749,1,0,0:0:0:0:
256,192,74079,1,8,0:0:0:0:
256,192,74244,1,0,0:0:0:0:
256,192,74408,1,8,0:0:0:0:
256,192,74738,1,0,0:0:0:0:
256,192,75068,1,0,0:0:0:0:
256,192,75397,1,8,0:0:0:0:
256,192,75727,1,0,0:0:0:0:
256,192,75892,1,8,0:0:0:0:
256,192,76222,1,8,0:0:0:0:
256,192,76716,1,8,0:0:0:0:
256,192,76881,1,8,0:0:0:0:
256,192,77046,1,0,0:0:0:0:
256,192,77375,1,0,0:0:0:0:
256,192,77705,1,0,0:0:0:0:
256,192,78035,1,0,0:0:0:0:
256,192,78200,1,8,0:0:0:0:
256,192,78529,1,8,0:0:0:0:
256,192,78859,1,8,0:0:0:0:
256,192,79024,1,8,0:0:0:0:
256,192,79353,1,8,0:0:0:0:
256,192,79683,1,0,0:0:0:0:
256,192,80013,1,8,0:0:0:0:
256,192,80343,1,8,0:0:0:0:
256,192,80837,1,8,0:0:0:0:
256,192,81167,5,4,0:0:0:0:
256,192,81826,1,0,0:0:0:0:
256,192,81991,1,0,0:0:0:0:
256,192,82156,1,8,0:0:0:0:
256,192,82320,1,8,0:0:0:0:
256,192,82485,1,8,0:0:0:0:
256,192,82815,1,0,0:0:0:0:
256,192,83145,1,4,0:0:0:0:
256,192,83804,1,8,0:0:0:0:
256,192,83969,1,0,0:0:0:0:
256,192,84134,1,8,0:0:0:0:
256,192,84298,1,8,0:0:0:0:
256,192,84463,1,8,0:0:0:0:
256,192,84793,1,0,0:0:0:0:
256,192,85123,5,12,0:0:0:0:
256,192,85452,1,0,0:0:0:0:
256,192,85782,1,0,0:0:0:0:
256,192,86112,1,0,0:0:0:0:
256,192,86441,1,8,0:0:0:0:
256,192,86771,1,0,0:0:0:0:
256,192,87101,1,8,0:0:0:0:
256,192,87430,1,8,0:0:0:0:
256,192,87760,1,0,0:0:0:0:
256,192,88254,1,8,0:0:0:0:
256,192,88749,1,8,0:0:0:0:
256,192,89078,1,8,0:0:0:0:
256,192,89242,1,0,0:0:0:0:
256,192,89407,1,8,0:0:0:0:
256,192,89572,1,8,0:0:0:0:
256,192,90067,1,4,0:0:0:0:
256,192,90397,5,12,0:0:0:0:
256,192,91057,1,8,0:0:0:0:
256,192,91386,1,0,0:0:0:0:
256,192,91551,1,8,0:0:0:0:
256,192,91716,1,8,0:0:0:0:
256,192,92046,1,0,0:0:0:0:
256,192,92375,1,8,0:0:0:0:
256,192,92705,1,0,0:0:0:0:
256,192,93035,1,8,0:0:0:0:
256,192,93364,1,8,0:0:0:0:
256,192,93694,1,8,0:0:0:0:
256,192,94024,1,8,0:0:0:0:
256,192,94353,1,8,0:0:0:0:
256,192,94683,1,0,0:0:0:0:
256,192,94848,1,8,0:0:0:0:
256,192,95013,1,8,0:0:0:0:
256,192,95342,1,0,0:0:0:0:
256,192,95672,5,12,0:0:0:0:
256,192,96002,1,0,0:0:0:0:
256,192,96166,1,12,0:0:0:0:
256,192,96496,1,0,0:0:0:0:
256,192,96661,1,12,0:0:0:0:
256,192,96991,1,8,0:0:0:0:
256,192,97650,1,0,0:0:0:0:
256,192,97980,1,8,0:0:0:0:
256,192,98309,1,12,0:0:0:0:
256,192,98969,5,8,0:0:0:0:
256,192,99216,1,0,0:0:0:0:
256,192,99463,1,8,0:0:0:0:
256,192,99628,1,8,0:0:0:0:
256,192,99958,1,8,0:0:0:0:
256,192,100287,1,8,0:0:0:0:
256,192,100452,1,0,0:0:0:0:
256,192,100617,1,8,0:0:0:0:
256,192,100947,1,8,0:0:0:0:
256,192,101276,5,0,0:0:0:0:
256,192,101606,1,8,0:0:0:0:
256,192,101853,1,0,0:0:0:0:
256,192,102101,1,8,0:0:0:0:
256,192,102265,1,8,0:0:0:0:
256,192,102595,1,0,0:0:0:0:
256,192,102925,1,8,0:0:0:0:
256,192,103090,1,8,0:0:0:0:
256,192,103254,1,0,0:0:0:0:
256,192,103584,1,8,0:0:0:0:
256,192,104243,5,8,0:0:0:0:
256,192,104491,1,0,0:0:0:0:
256,192,104738,1,0,0:0:0:0:
256,192,104903,1,8,0:0:0:0:
256,192,105232,1,8,0:0:0:0:
256,192,105562,1,8,0:0:0:0:
256,192,105727,1,0,0:0:0:0:
256,192,105892,1,8,0:0:0:0:
256,192,106221,5,0,0:0:0:0:
256,192,106551,1,0,0:0:0:0:
256,192,106881,1,8,0:0:0:0:
256,192,107046,1,8,0:0:0:0:
256,192,107210,1,8,0:0:0:0:
256,192,107375,1,0,0:0:0:0:
256,192,107540,1,8,0:0:0:0:
256,192,107869,1,0,0:0:0:0:
256,192,108035,1,8,0:0:0:0:
256,192,108199,1,8,0:0:0:0:
256,192,108364,1,0,0:0:0:0:
256,192,108529,1,0,0:0:0:0:
256,192,108859,1,12,0:0:0:0:
256,192,109518,5,8,0:0:0:0:
256,192,109765,1,8,0:0:0:0:
256,192,110013,1,0,0:0:0:0:
256,192,110177,1,8,0:0:0:0:
256,192,110507,1,8,0:0:0:0:
256,192,110837,1,8,0:0:0:0:
256,192,111002,1,8,0:0:0:0:
256,192,111166,1,0,0:0:0:0:
256,192,111496,1,8,0:0:0:0:
256,192,111826,5,0,0:0:0:0:
256,192,112155,1,8,0:0:0:0:
256,192,112403,1,8,0:0:0:0:
256,192,112650,1,0,0:0:0:0:
256,192,112815,1,8,0:0:0:0:
256,192,113144,1,0,0:0:0:0:
256,192,113474,1,8,0:0:0:0:
256,192,113639,1,0,0:0:0:0:
256,192,113804,1,8,0:0:0:0:
256,192,114133,1,8,0:0:0:0:
256,192,114793,5,8,0:0:0:0:
256,192,115040,1,8,0:0:0:0:
256,192,115287,1,0,0:0:0:0:
256,192,115452,1,0,0:0:0:0:
256,192,115782,1,8,0:0:0:0:
256,192,116112,1,8,0:0:0:0:
256,192,116276,1,0,0:0:0:0:
256,192,116441,1,8,0:0:0:0:
256,192,116771,5,0,0:0:0:0:
256,192,117101,1,8,0:0:0:0:
256,192,117265,1,0,0:0:0:0:
256,192,117430,1,8,0:0:0:0:
256,192,117760,1,8,0:0:0:0:
256,192,117925,1,0,0:0:0:0:
256,192,118090,1,8,0:0:0:0:
256,192,118419,1,0,0:0:0:0:
256,192,118584,1,8,0:0:0:0:
256,192,118749,1,8,0:0:0:0:
256,192,118913,1,0,0:0:0:0:
256,192,119079,1,0,0:0:0:0:
256,192,119408,5,12,0:0:0:0:
256,192,119738,1,8,0:0:0:0:
256,192,120068,1,8,0:0:0:0:
256,192,120397,1,8,0:0:0:0:
256,192,120562,1,0,0:0:0:0:
256,192,120727,1,8,0:0:0:0:
256,192,121057,1,8,0:0:0:0:
256,192,121386,1,8,0:0:0:0:
256,192,122046,1,12,0:0:0:0:
256,192,122705,5,0,0:0:0:0:
256,192,123035,1,0,0:0:0:0:
256,192,123364,1,8,0:0:0:0:
256,192,123694,1,0,0:0:0:0:
256,192,124024,1,8,0:0:0:0:
256,192,124683,1,8,0:0:0:0:
256,192,125013,1,8,0:0:0:0:
256,192,125342,1,0,0:0:0:0:
256,192,125672,1,0,0:0:0:0:
256,192,126002,1,8,0:0:0:0:
256,192,126661,1,0,0:0:0:0:
256,192,126991,1,0,0:0:0:0:
256,192,127320,1,8,0:0:0:0:
256,192,127650,1,8,0:0:0:0:
256,192,127980,1,8,0:0:0:0:
256,192,128639,1,8,0:0:0:0:
256,192,128969,1,0,0:0:0:0:
256,192,129298,1,8,0:0:0:0:
256,192,129628,1,8,0:0:0:0:
256,192,129958,1,0,0:0:0:0:
256,192,130617,1,8,0:0:0:0:
256,192,130947,1,8,0:0:0:0:
256,192,131276,1,8,0:0:0:0:
256,192,131606,1,8,0:0:0:0:
256,192,131936,1,0,0:0:0:0:
256,192,132595,1,8,0:0:0:0:
256,192,132925,1,0,0:0:0:0:
256,192,133254,1,8,0:0:0:0:
256,192,133584,1,0,0:0:0:0:
256,192,133914,1,8,0:0:0:0:
256,192,134573,1,8,0:0:0:0:
256,192,134903,1,0,0:0:0:0:
256,192,135232,1,8,0:0:0:0:
256,192,135562,1,8,0:0:0:0:
256,192,135892,1,0,0:0:0:0:
256,192,136551,1,8,0:0:0:0:
256,192,136881,1,0,0:0:0:0:
256,192,137210,1,8,0:0:0:0:
256,192,137540,1,0,0:0:0:0:
256,192,137870,1,8,0:0:0:0:
256,192,138529,5,4,0:0:0:0:
256,192,139023,1,0,0:0:0:0:
256,192,139188,1,8,0:0:0:0:
256,192,139682,1,8,0:0:0:0:
256,192,139847,1,0,0:0:0:0:
256,192,140177,1,0,0:0:0:0:
256,192,140507,1,8,0:0:0:0:
256,192,140671,1,8,0:0:0:0:
256,192,141001,1,8,0:0:0:0:
256,192,141166,1,0,0:0:0:0:
256,192,141660,1,0,0:0:0:0:
256,192,141825,1,8,0:0:0:0:
256,192,142155,1,0,0:0:0:0:
256,192,142320,1,8,0:0:0:0:
256,192,142485,1,0,0:0:0:0:
256,192,142649,1,0,0:0:0:0:
256,192,142979,1,0,0:0:0:0:
256,192,143144,1,8,0:0:0:0:
256,192,143474,1,8,0:0:0:0:
256,192,143803,5,12,0:0:0:0:
256,192,144298,1,8,0:0:0:0:
256,192,144957,1,8,0:0:0:0:
256,192,145122,1,8,0:0:0:0:
256,192,145452,1,0,0:0:0:0:
256,192,145616,1,0,0:0:0:0:
256,192,145781,1,8,0:0:0:0:
256,192,145946,1,8,0:0:0:0:
256,192,146111,1,0,0:0:0:0:
256,192,146441,5,8,0:0:0:0:
256,192,146935,1,8,0:0:0:0:
256,192,147594,1,0,0:0:0:0:
256,192,147759,1,8,0:0:0:0:
256,192,148089,1,0,0:0:0:0:
256,192,148254,1,8,0:0:0:0:
256,192,148419,1,0,0:0:0:0:
256,192,148583,1,8,0:0:0:0:
256,192,148748,1,8,0:0:0:0:
256,192,149078,5,4,0:0:0:0:
256,192,149408,1,0,0:0:0:0:
256,192,149572,1,8,0:0:0:0:
256,192,149737,1,0,0:0:0:0:
256,192,150067,1,0,0:0:0:0:
256,192,150397,1,8,0:0:0:0:
256,192,150726,1,0,0:0:0:0:
256,192,150891,1,0,0:0:0:0:
256,192,151056,1,8,0:0:0:0:
256,192,151386,1,0,0:0:0:0:
256,192,151715,1,8,0:0:0:0:
256,192,152045,1,0,0:0:0:0:
256,192,152210,1,8,0:0:0:0:
256,192,152375,1,8,0:0:0:0:
256,192,152704,1,0,0:0:0:0:
256,192,153034,1,8,0:0:0:0:
256,192,153364,1,0,0:0:0:0:
256,192,153529,1,8,0:0:0:0:
256,192,153693,1,8,0:0:0:0:
256,192,153858,1,0,0:0:0:0:
256,192,154023,1,0,0:0:0:0:
256,192,154353,5,12,0:0:0:0:
256,192,155012,1,0,0:0:0:0:
256,192,155342,1,0,0:0:0:0:
256,192,155671,1,12,0:0:0:0:
256,192,156001,1,8,0:0:0:0:
256,192,156166,1,8,0:0:0:0:
256,192,156331,1,0,0:0:0:0:
256,192,156660,1,0,0:0:0:0:
256,192,156990,5,12,0:0:0:0:
256,192,157651,1,8,0:0:0:0:
256,192,157981,1,0,0:0:0:0:
256,192,158310,1,12,0:0:0:0:
256,192,158970,1,8,0:0:0:0:
256,192,159299,1,0,0:0:0:0:
256,192,159464,1,0,0:0:0:0:
256,192,159629,1,12,0:0:0:0:
256,192,160288,1,8,0:0:0:0:
256,192,160618,1,0,0:0:0:0:
256,192,160948,1,8,0:0:0:0:
256,192,161277,1,8,0:0:0:0:
256,192,161607,1,8,0:0:0:0:
256,192,161937,1,0,0:0:0:0:
256,192,162101,1,0,0:0:0:0:
256,192,162266,5,12,0:0:0:0:
256,192,162926,1,8,0:0:0:0:
256,192,163255,1,0,0:0:0:0:
256,192,163585,1,8,0:0:0:0:
256,192,163915,1,8,0:0:0:0:
256,192,164079,1,0,0:0:0:0:
256,192,164244,1,8,0:0:0:0:
256,192,164574,1,8,0:0:0:0:
256,192,164904,1,8,0:0:0:0:
256,192,165563,1,8,0:0:0:0:
256,192,165893,1,0,0:0:0:0:
256,192,166222,1,8,0:0:0:0:
256,192,166552,1,0,0:0:0:0:
256,192,166717,1,0,0:0:0:0:
256,192,166882,1,8,0:0:0:0:
256,192,167211,1,8,0:0:0:0:
256,192,167541,5,4,0:0:0:0:
256,192,168035,1,0,0:0:0:0:
256,192,168530,1,8,0:0:0:0:
256,192,169024,1,0,0:0:0:0:
256,192,169519,1,8,0:0:0:0:
256,192,170013,1,8,0:0:0:0:
256,192,170508,1,8,0:0:0:0:
256,192,171167,5,4,0:0:0:0:
256,192,171661,1,0,0:0:0:0:
256,192,172156,1,8,0:0:0:0:
256,192,172650,1,8,0:0:0:0:
256,192,173145,1,0,0:0:0:0:
256,192,173474,1,0,0:0:0:0:
256,192,173804,1,8,0:0:0:0:
256,192,174134,1,0,0:0:0:0:
256,192,174463,1,8,0:0:0:0:
256,192,174793,1,8,0:0:0:0:
256,192,175123,1,8,0:0:0:0:
256,192,175782,5,4,0:0:0:0:
256,192,176276,1,8,0:0:0:0:
256,192,176441,1,0,0:0:0:0:
256,192,176771,1,8,0:0:0:0:
256,192,176935,1,8,0:0:0:0:
256,192,177100,1,8,0:0:0:0:
256,192,177430,1,0,0:0:0:0:
256,192,177759,1,8,0:0:0:0:
256,192,178089,1,0,0:0:0:0:
256,192,178419,1,8,0:0:0:0:
256,192,178749,1,8,0:0:0:0:
256,192,179078,1,8,0:0:0:0:
256,192,179408,1,8,0:0:0:0:
256,192,179737,1,8,0:0:0:0:
256,192,180067,1,0,0:0:0:0:
256,192,180232,1,8,0:0:0:0:
256,192,180397,1,8,0:0:0:0:
256,192,180726,1,0,0:0:0:0:
256,192,181056,5,12,0:0:0:0:
256,192,181386,1,0,0:0:0:0:
256,192,181550,1,12,0:0:0:0:
256,192,181880,1,0,0:0:0:0:
256,192,182045,1,12,0:0:0:0:
256,192,182375,1,8,0:0:0:0:
256,192,183034,1,0,0:0:0:0:
256,192,183364,1,12,0:0:0:0:
256,192,183693,1,4,0:0:0:0:
256,192,193584,5,8,0:0:0:0:
256,192,193913,1,0,0:0:0:0:
256,192,194243,1,12,0:0:0:0:
256,192,195562,1,12,0:0:0:0:
256,192,196221,1,12,0:0:0:0:
256,192,196880,1,12,0:0:0:0:
256,192,198199,1,12,0:0:0:0:
256,192,198858,1,0,0:0:0:0:
256,192,199188,1,8,0:0:0:0:
256,192,199517,1,12,0:0:0:0:
256,192,200177,5,8,0:0:0:0:
256,192,200424,1,8,0:0:0:0:
256,192,200671,1,0,0:0:0:0:
256,192,200836,1,8,0:0:0:0:
256,192,201166,1,8,0:0:0:0:
256,192,201496,1,8,0:0:0:0:
256,192,201660,1,0,0:0:0:0:
256,192,201825,1,8,0:0:0:0:
256,192,202155,5,0,0:0:0:0:
256,192,202485,1,8,0:0:0:0:
256,192,202649,1,0,0:0:0:0:
256,192,202814,1,8,0:0:0:0:
256,192,203144,1,8,0:0:0:0:
256,192,203309,1,0,0:0:0:0:
256,192,203474,1,8,0:0:0:0:
256,192,203803,1,0,0:0:0:0:
256,192,203968,1,8,0:0:0:0:
256,192,204133,1,8,0:0:0:0:
256,192,204298,1,0,0:0:0:0:
256,192,204463,1,0,0:0:0:0:
256,192,204792,5,12,0:0:0:0:
256,192,205122,1,8,0:0:0:0:
256,192,205452,1,8,0:0:0:0:
256,192,205781,1,8,0:0:0:0:
256,192,205946,1,0,0:0:0:0:
256,192,206111,1,8,0:0:0:0:
256,192,206441,1,8,0:0:0:0:
256,192,206770,1,8,0:0:0:0:
256,192,207429,5,12,0:0:0:0:
256,192,208089,1,8,0:0:0:0:
256,192,208336,1,0,0:0:0:0:
256,192,208582,1,8,0:0:0:0:
256,192,208747,1,8,0:0:0:0:
256,192,209076,1,8,0:0:0:0:
256,192,209406,1,8,0:0:0:0:
256,192,209570,1,0,0:0:0:0:
256,192,209736,1,8,0:0:0:0:
256,192,210065,1,8,0:0:0:0:
256,192,210395,5,0,0:0:0:0:
256,192,210725,1,8,0:0:0:0:
256,192,210972,1,8,0:0:0:0:
256,192,211219,1,0,0:0:0:0:
256,192,211384,1,8,0:0:0:0:
256,192,211714,1,8,0:0:0:0:
256,192,212043,1,0,0:0:0:0:
256,192,212208,1,0,0:0:0:0:
256,192,212373,1,8,0:0:0:0:
256,192,212703,1,8,0:0:0:0:
256,192,213362,5,8,0:0:0:0:
256,192,213609,1,8,0:0:0:0:
256,192,213856,1,0,0:0:0:0:
256,192,214021,1,8,0:0:0:0:
256,192,214351,1,8,0:0:0:0:
256,192,214681,1,8,0:0:0:0:
256,192,214845,1,0,0:0:0:0:
256,192,215010,1,8,0:0:0:0:
256,192,215340,1,0,0:0:0:0:
256,192,215670,1,8,0:0:0:0:
256,192,215834,1,8,0:0:0:0:
256,192,215999,1,8,0:0:0:0:
256,192,216164,1,0,0:0:0:0:
256,192,216329,1,8,0:0:0:0:
256,192,216659,1,8,0:0:0:0:
256,192,216988,1,0,0:0:0:0:
256,192,217153,1,8,0:0:0:0:
256,192,217318,1,8,0:0:0:0:
256,192,217483,1,0,0:0:0:0:
256,192,217648,1,0,0:0:0:0:
256,192,217977,5,12,0:0:0:0:
256,192,218637,1,8,0:0:0:0:
256,192,218801,1,0,0:0:0:0:
256,192,218966,1,8,0:0:0:0:
256,192,219131,1,0,0:0:0:0:
256,192,219296,1,8,0:0:0:0:
256,192,219626,1,0,0:0:0:0:
256,192,219955,1,8,0:0:0:0:
256,192,220120,1,0,0:0:0:0:
256,192,220285,1,8,0:0:0:0:
256,192,220450,1,8,0:0:0:0:
256,192,220615,1,8,0:0:0:0:
256,192,220944,1,0,0:0:0:0:
256,192,221274,1,8,0:0:0:0:
256,192,221438,1,0,0:0:0:0:
256,192,221604,1,8,0:0:0:0:
256,192,221933,1,8,0:0:0:0:
256,192,222263,1,0,0:0:0:0:
256,192,222593,1,8,0:0:0:0:
256,192,222758,1,8,0:0:0:0:
256,192,222922,1,0,0:0:0:0:
256,192,223252,1,12,0:0:0:0:
256,192,223911,5,8,0:0:0:0:
256,192,224159,1,0,0:0:0:0:
256,192,224406,1,8,0:0:0:0:
256,192,224571,1,8,0:0:0:0:
256,192,224900,1,0,0:0:0:0:
256,192,225230,1,8,0:0:0:0:
256,192,225395,1,0,0:0:0:0:
256,192,225560,1,8,0:0:0:0:
256,192,225889,1,0,0:0:0:0:
256,192,226219,1,8,0:0:0:0:
256,192,226549,1,8,0:0:0:0:
256,192,226714,1,0,0:0:0:0:
256,192,226878,1,8,0:0:0:0:
256,192,227208,1,8,0:0:0:0:
256,192,227373,1,0,0:0:0:0:
256,192,227538,1,0,0:0:0:0:
256,192,227703,1,8,0:0:0:0:
256,192,227867,1,8,0:0:0:0:
256,192,228032,1,0,0:0:0:0:
256,192,228197,1,8,0:0:0:0:
256,192,228527,5,12,0:0:0:0:
256,192,229186,1,8,0:0:0:0:
256,192,229516,1,8,0:0:0:0:
256,192,229681,1,0,0:0:0:0:
256,192,229845,1,8,0:0:0:0:
256,192,230175,1,8,0:0:0:0:
256,192,230505,1,8,0:0:0:0:
256,192,230670,1,8,0:0:0:0:
256,192,230834,1,0,0:0:0:0:
256,192,230999,1,0,0:0:0:0:
256,192,231165,1,12,0:0:0:0:
256,192,231658,5,0,0:0:0:0:
256,192,231823,1,8,0:0:0:0:
256,192,232317,1,0,0:0:0:0:
256,192,232483,1,8,0:0:0:0:
256,192,232977,1,0,0:0:0:0:
256,192,233142,1,8,0:0:0:0:
256,192,233307,1,0,0:0:0:0:
256,192,233472,1,8,0:0:0:0:
256,192,233801,1,12,0:0:0:0:
256,192,234295,1,0,0:0:0:0:
256,192,234461,1,8,0:0:0:0:
256,192,234955,1,0,0:0:0:0:
256,192,235120,1,8,0:0:0:0:
256,192,235614,1,8,0:0:0:0:
256,192,235780,1,0,0:0:0:0:
256,192,235944,1,0,0:0:0:0:
256,192,236109,1,8,0:0:0:0:
256,192,236439,1,12,0:0:0:0:
256,192,236604,12,0,239736,0:0:0:0:
