osu file format v14

[General]
AudioFilename: audio.mp3
AudioLeadIn: 0
PreviewTime: 97940
Countdown: 0
SampleSet: Soft
StackLeniency: 0.2
Mode: 0
LetterboxInBreaks: 1
WidescreenStoryboard: 0

[Editor]
DistanceSpacing: 0.5
BeatDivisor: 4
GridSize: 4
TimelineZoom: 2.2

[Metadata]
Title:Ange du Blanc Pur
TitleUnicode:Ange du Blanc Pur
Artist:ke-ji feat. Nanahira
ArtistUnicode:ke-ji feat. ななひら
Creator:BarkingMadDog
Version:ABSOLUTION
Source:
Tags:colory starry utaite confetto pop death stream
BeatmapID:1192807
BeatmapSetID:564165

[Difficulty]
HPDrainRate:6
CircleSize:4
OverallDifficulty:9
ApproachRate:9.6
SliderMultiplier:1.72
SliderTickRate:1

[Events]
//Background and Video events
0,0,"Background.jpg",0,0
//Break Periods
2,23999,31333
2,123984,136512
//Storyboard Layer 0 (Background)
//Storyboard Layer 1 (Fail)
//Storyboard Layer 2 (Pass)
//Storyboard Layer 3 (Foreground)
//Storyboard Sound Samples

[TimingPoints]
2001,333.333333333333,4,2,1,30,1,0
2001,-200,4,2,1,20,0,0
18500,666.666666666667,4,2,1,5,1,0
18500,-200,4,2,1,5,0,0
22000,333.333333333333,4,2,1,30,1,0
32008,329.67032967033,4,2,1,50,1,0
32008,-100,4,2,1,50,0,0
37282,-100,4,2,1,50,0,1
42557,-100,4,2,1,50,0,0
46183,329.67032967033,4,2,1,50,1,0
50798,329.67032967033,4,2,1,50,1,0
50798,-100,4,2,1,50,0,0
61347,-133.333333333333,4,2,1,50,0,0
70248,-200,4,2,1,50,0,0
70495,-200,4,2,1,5,0,0
70578,-100,4,2,1,50,0,0
81127,-133.333333333333,4,2,1,50,0,0
90028,-66.6666666666667,4,2,1,50,0,0
90358,-100,4,2,1,50,0,0
97940,-66.6666666666667,4,2,5,50,0,0
98270,-80,4,2,1,70,0,1
108160,-80,4,2,1,70,0,0
108819,-80,4,2,1,70,0,1
118710,-80,4,2,1,70,0,0
119369,-80,4,2,1,70,0,1
122006,-133.333333333333,4,2,1,35,0,0
138490,329.67032967033,4,2,1,50,1,0
138490,-200,4,2,1,50,0,0
143764,-80,4,2,1,70,0,1
156951,-100,4,2,1,70,0,0
162226,-100,4,2,1,70,0,1
167500,-100,4,2,1,60,0,0
171127,329.67032967033,4,2,1,50,1,0
175742,329.67032967033,4,2,1,50,1,0
175742,-100,4,2,1,50,0,0
183324,-66.6666666666667,4,2,1,50,0,0
183654,-200,4,2,1,25,0,0
194203,-200,4,2,1,45,0,0
199148,-200,4,2,5,45,0,0
199478,-80,4,2,1,70,0,1
206731,-80,4,2,1,70,0,0
207390,-66.6666666666667,4,2,1,80,0,1
217280,-66.6666666666667,4,2,1,80,0,0
217610,-100,4,2,1,80,0,0
217939,-66.6666666666667,4,2,1,80,0,1
231126,-100,4,2,1,70,0,0
236401,-200,4,2,1,70,0,0
236483,-200,4,2,1,5,0,0

[HitObjects]
60,340,2001,6,0,L|64:296,1,43,4|0,0:0|0:0,0:0:0:0:
144,308,2334,2,0,L|140:264,1,43
228,276,2667,2,0,L|232:232,1,43
312,244,3000,2,0,L|308:200,1,43
300,68,3334,6,0,P|276:64|252:68,1,43
180,152,3667,2,0,P|195:133|204:110,1,43
164,8,4000,2,0,P|172:30|187:49,1,43
300,68,4334,2,0,P|278:64|257:66,1,43
128,96,4667,6,0,L|85:92,1,43,0|0,0:0|2:0,0:0:0:0:
280,144,5000,2,0,L|322:140,1,43,0|0,0:0|2:0,0:0:0:0:
400,132,5334,1,0,0:0:0:0:
368,200,5500,1,0,0:0:0:0:
322,140,5667,1,0,0:0:0:0:
400,132,5834,1,0,0:0:0:0:
336,268,6000,6,0,L|293:264,1,43,0|0,0:0|2:0,0:0:0:0:
216,260,6334,1,0,0:0:0:0:
216,260,6500,1,0,0:0:0:0:
128,312,6667,5,0,0:0:0:0:
216,260,6834,1,0,0:0:0:0:
128,208,7000,5,0,0:0:0:0:
216,260,7167,1,0,0:0:0:0:
104,192,7334,6,0,B|100:168|100:168|104:148,1,43
215,217,7667,2,0,B|219:241|219:241|215:261,1,43
104,192,8000,1,0,0:0:0:0:
184,108,8167,1,0,0:0:0:0:
215,217,8334,1,0,0:0:0:0:
104,192,8500,1,0,0:0:0:0:
300,132,8667,6,0,L|344:136,1,43
392,244,9000,2,0,L|373:204,1,43
444,108,9334,1,0,0:0:0:0:
444,108,9500,1,0,0:0:0:0:
342,135,9667,2,0,L|298:131,1,43
215,217,10000,6,0,L|172:220,1,43
32,232,10334,1,0,0:0:0:0:
72,292,10500,1,0,0:0:0:0:
104,228,10667,1,0,0:0:0:0:
0,296,10834,1,0,0:0:0:0:
116,352,11000,1,0,0:0:0:0:
116,352,11167,1,0,0:0:0:0:
220,284,11334,6,0,L|262:287,1,43
312,220,11667,2,0,L|339:253,1,43
424,240,12000,2,0,L|420:282,1,43
360,384,12334,2,0,L|356:341,1,43
427,197,12667,6,0,L|423:239,1,43
412,116,13000,2,0,P|436:116|456:120,1,43
348,168,13334,2,0,P|336:147|329:127,1,43
396,40,13667,1,0,0:0:0:0:
396,40,13834,1,0,0:0:0:0:
427,197,14000,5,0,0:0:0:0:
348,168,14167,1,0,0:0:0:0:
412,116,14334,1,0,0:0:0:0:
364,244,14500,1,0,0:0:0:0:
272,140,14667,5,0,0:0:0:0:
212,200,14834,1,0,0:0:0:0:
132,188,15000,1,0,0:0:0:0:
104,112,15167,1,0,0:0:0:0:
180,88,15334,6,0,P|184:116|180:136,1,43
56,212,15667,2,0,P|52:184|56:164,1,43
261,316,16000,5,0,0:0:0:0:
160,260,16223,1,0,0:0:0:0:
274,246,16445,1,0,0:0:0:0:
190,323,16667,1,0,0:0:0:0:
212,212,16889,1,0,0:0:0:0:
261,316,17112,1,0,0:0:0:0:
56,212,17417,5,0,0:0:0:0:
252,100,17750,5,0,0:0:0:0:
261,316,18112,5,0,0:0:0:0:
261,316,18223,1,0,0:0:0:0:
261,316,18334,6,0,L|264:336,2,14.3333333333333
256,276,18500,6,0,B|312:248|328:212|332:172|332:172|340:212|364:252|396:272|396:272|456:196|432:128|432:128|420:148|400:156,1,451.5
332,172,32008,6,0,B|280:148|272:192|220:172,1,114.666666666667,4|0,0:0|0:0,0:0:0:0:
152,152,32337,2,0,L|160:88,2,57.3333333333333
140,236,32667,1,4,0:0:0:0:
136,260,32997,1,0,0:0:0:0:
48,336,33326,6,0,B|100:312|108:356|160:336,1,114.666666666667,4|0,0:0|0:0,0:0:0:0:
232,324,33656,2,0,L|240:388,2,57.3333333333333
220,240,33986,1,4,0:0:0:0:
216,216,34316,1,2,0:0:0:0:
216,216,34425,2,0,L|208:159,1,57.3333333333333,2|2,0:0|0:0,0:0:0:0:
156,108,34645,6,0,P|208:128|264:96,1,114.666666666667,4|0,0:0|0:0,0:0:0:0:
280,32,34975,2,0,P|252:28|224:36,2,57.3333333333333
336,88,35304,1,4,0:0:0:0:
352,104,35634,1,0,0:0:0:0:
512,164,35964,6,0,P|460:144|404:176,1,114.666666666667,4|0,0:0|0:0,0:0:0:0:
364,228,36293,1,0,0:0:0:0:
364,228,36403,2,0,L|372:284,1,57.3333333333333
428,336,36623,6,0,B|388:316|388:316|320:336,1,114.666666666667,4|0,0:0|0:0,0:0:0:0:
248,356,36953,1,2,0:0:0:0:
248,356,37062,1,2,0:0:0:0:
248,356,37172,1,2,0:0:0:0:
248,356,37282,6,0,L|236:240,1,114.666666666667,6|0,0:0|0:0,0:0:0:0:
220,100,37612,1,2,0:0:0:0:
228,172,37722,1,2,0:0:0:0:
160,144,37832,1,2,0:0:0:0:
280,56,37942,1,6,0:0:0:0:
300,40,38271,2,0,L|356:48,2,57.3333333333333,2|2|2,0:0|0:0|0:0,0:0:0:0:
219,99,38601,6,0,L|106:84,1,114.666666666667,6|0,0:0|0:0,0:0:0:0:
60,144,38931,1,2,0:0:0:0:
128,156,39040,1,2,0:0:0:0:
106,84,39150,1,2,0:0:0:0:
84,212,39260,2,0,P|80:240|84:268,2,57.3333333333333,6|0|0,0:0|0:0|0:0,0:0:0:0:
106,84,39590,2,0,P|109:55|105:27,2,57.3333333333333,6|2|2,0:0|0:0|0:0,0:0:0:0:
84,212,39920,6,0,B|140:228|140:228|196:212,1,114.666666666667,6|0,0:0|0:0,0:0:0:0:
264,184,40249,1,2,0:0:0:0:
332,152,40359,1,2,0:0:0:0:
328,224,40469,1,2,0:0:0:0:
272,108,40579,1,6,0:0:0:0:
260,88,40909,2,0,L|264:28,2,57.3333333333333,2|2|2,0:0|0:0|0:0,0:0:0:0:
332,152,41238,6,0,L|446:144,1,114.666666666667,6|0,0:0|0:0,0:0:0:0:
492,208,41568,1,2,0:0:0:0:
420,216,41678,1,2,0:0:0:0:
446,144,41788,1,2,0:0:0:0:
464,276,41898,6,0,L|467:318,3,43,6|0|0|0,0:0|0:0|0:0|0:0,0:0:0:0:
332,152,42227,6,0,L|336:124,7,21.5,6|0|0|0|0|0|0|0,0:0|0:0|0:0|0:0|0:0|0:0|0:0|0:0,0:0:0:0:
312,232,42557,5,6,0:0:0:0:
292,236,42639,1,0,0:0:0:0:
272,240,42722,1,0,0:0:0:0:
252,244,42804,1,0,0:0:0:0:
232,248,42887,2,0,L|236:200,1,43
160,116,43051,5,2,0:0:0:0:
180,120,43133,1,0,0:0:0:0:
200,124,43216,1,0,0:0:0:0:
220,128,43298,1,0,0:0:0:0:
240,132,43381,2,0,L|236:84,1,43
88,76,43546,5,2,0:0:0:0:
80,96,43628,1,0,0:0:0:0:
76,116,43711,1,0,0:0:0:0:
80,136,43793,1,0,0:0:0:0:
88,156,43876,2,0,P|92:180|88:200,1,43
20,304,44040,5,2,0:0:0:0:
40,296,44122,1,0,0:0:0:0:
60,292,44205,1,0,0:0:0:0:
80,296,44287,1,0,0:0:0:0:
100,304,44370,2,0,P|124:308|144:304,1,43
232,248,44535,5,2,0:0:0:0:
252,240,44617,1,0,0:0:0:0:
272,232,44700,1,0,0:0:0:0:
292,240,44782,1,0,0:0:0:0:
312,248,44865,2,0,L|356:264,1,43
452,332,45029,5,2,0:0:0:0:
440,312,45112,1,0,0:0:0:0:
436,292,45194,1,0,0:0:0:0:
436,272,45277,1,0,0:0:0:0:
444,252,45359,2,0,P|448:228|444:204,1,43
344,152,45524,5,6,0:0:0:0:
344,152,45606,1,0,0:0:0:0:
344,152,45689,2,0,P|362:167|385:176,1,43
484,116,45854,5,6,0:0:0:0:
484,116,45936,1,0,0:0:0:0:
484,116,46019,2,0,P|461:124|442:140,1,43
312,248,46183,5,6,0:0:0:0:
292,256,46265,1,0,0:0:0:0:
272,260,46347,1,0,0:0:0:0:
252,256,46430,1,0,0:0:0:0:
232,248,46512,2,0,P|211:240|188:236,1,43
60,332,46677,5,2,0:0:0:0:
72,312,46760,1,0,0:0:0:0:
76,292,46842,1,0,0:0:0:0:
76,272,46925,1,0,0:0:0:0:
68,252,47007,2,0,P|64:228|68:204,1,43
4,84,47172,5,2,0:0:0:0:
24,88,47254,1,0,0:0:0:0:
44,92,47336,1,0,0:0:0:0:
64,96,47419,1,0,0:0:0:0:
84,100,47501,2,0,L|128:92,1,43
236,40,47666,5,2,0:0:0:0:
256,36,47748,1,0,0:0:0:0:
276,32,47830,1,0,0:0:0:0:
296,28,47913,1,0,0:0:0:0:
316,24,47995,2,0,L|360:32,1,43
480,160,48161,5,2,0:0:0:0:
480,160,48243,1,0,0:0:0:0:
480,160,48325,2,0,L|436:152,1,43
360,248,48490,5,2,0:0:0:0:
360,248,48572,1,0,0:0:0:0:
360,248,48654,2,0,L|388:213,1,43
348,100,48820,5,2,0:0:0:0:
348,100,48902,1,0,0:0:0:0:
348,100,48984,2,0,L|363:142,1,43
480,160,49150,5,2,0:0:0:0:
480,160,49232,1,0,0:0:0:0:
480,160,49314,2,0,L|436:152,1,43
308,308,49479,6,0,L|236:320,2,57.3333333333333,2|2|2,0:0|0:0|0:0,0:0:0:0:
436,264,49809,2,0,L|508:276,2,57.3333333333333,2|2|2,0:0|0:0|0:0,0:0:0:0:
360,248,50139,5,6,0:0:0:0:
64,260,50798,6,0,L|192:268,1,129,6|0,0:0|0:0,0:0:0:0:
264,276,51127,1,8,0:0:0:0:
448,196,51292,1,2,0:0:0:0:
352,152,51457,2,0,L|355:237,1,86,0|2,0:0|0:0,0:0:0:0:
360,384,51787,1,8,0:0:0:0:
448,196,51951,6,0,B|368:160|364:236|284:196,1,172,2|2,0:0|0:0,0:0:0:0:
324,38,52446,2,0,L|328:124,1,86,8|2,0:0|0:0,0:0:0:0:
184,124,52776,2,0,L|187:38,1,86,0|2,0:0|0:0,0:0:0:0:
256,276,53105,1,8,0:0:0:0:
88,260,53270,1,2,0:0:0:0:
184,124,53435,5,2,0:0:0:0:
168,332,53600,1,2,0:0:0:0:
88,156,53765,1,8,0:0:0:0:
280,172,53929,1,2,0:0:0:0:
308,176,54259,5,2,0:0:0:0:
60,152,54424,1,8,0:0:0:0:
384,136,54589,6,0,B|396:176|396:176|384:220,1,86,2|0,0:0|0:0,0:0:0:0:
184,124,54918,2,0,B|172:84|172:84|184:40,1,86,2|8,0:0|0:0,0:0:0:0:
384,136,55248,1,2,0:0:0:0:
408,148,55578,5,2,0:0:0:0:
308,176,55743,1,8,0:0:0:0:
484,220,55907,1,2,0:0:0:0:
284,276,56072,5,2,0:0:0:0:
408,148,56237,1,2,0:0:0:0:
364,348,56402,1,8,0:0:0:0:
308,176,56567,6,0,L|316:88,1,86,2|0,0:0|0:0,0:0:0:0:
208,204,56896,2,0,L|200:116,1,86,2|8,0:0|0:0,0:0:0:0:
52,288,57226,6,0,B|132:324|136:248|216:288,1,172,2|2,0:0|0:0,0:0:0:0:
172,360,57721,1,8,0:0:0:0:
88,196,57885,1,2,0:0:0:0:
76,176,58215,5,2,0:0:0:0:
192,40,58380,1,8,0:0:0:0:
16,8,58545,1,2,0:0:0:0:
76,176,58710,5,2,0:0:0:0:
104,24,58874,1,2,0:0:0:0:
44,92,59039,1,8,0:0:0:0:
248,208,59204,6,0,L|336:200,1,86,2|0,0:0|0:0,0:0:0:0:
112,252,59534,2,0,L|24:244,1,86,2|8,0:0|0:0,0:0:0:0:
248,284,59863,2,0,L|336:276,1,86,2|0,0:0|0:0,0:0:0:0:
22,320,60193,1,2,0:0:0:0:
22,320,60275,1,0,0:0:0:0:
22,320,60357,1,8,0:0:0:0:
248,208,60523,6,0,B|276:264|276:264|248:372,1,172,2|2,0:0|0:0,0:0:0:0:
34,173,61017,1,8,0:0:0:0:
55,174,61099,1,8,0:0:0:0:
76,176,61181,1,8,0:0:0:0:
98,178,61264,1,8,0:0:0:0:
119,180,61346,5,6,0:0:0:0:
208,140,61512,1,0,0:0:0:0:
132,80,61677,1,2,0:0:0:0:
200,240,61841,1,0,0:0:0:0:
208,140,62006,5,2,0:0:0:0:
104,284,62171,1,0,0:0:0:0:
296,200,62336,1,6,0:0:0:0:
119,180,62501,1,8,0:0:0:0:
119,180,62583,1,8,0:0:0:0:
119,180,62666,5,10,0:0:0:0:
104,284,62830,1,0,0:0:0:0:
208,140,62995,1,2,0:0:0:0:
292,312,63160,1,0,0:0:0:0:
416,188,63325,6,0,B|352:176|352:176|320:188,1,96.7500036907198,6|0,0:0|0:0,0:0:0:0:
296,200,63655,2,0,L|300:136,1,64.5000024604798,2|0,0:0|0:0,0:0:0:0:
308,36,63984,5,2,0:0:0:0:
296,200,64149,1,0,0:0:0:0:
220,84,64314,1,6,0:0:0:0:
292,312,64479,1,8,0:0:0:0:
292,312,64561,1,8,0:0:0:0:
292,312,64644,5,10,0:0:0:0:
296,200,64808,1,0,0:0:0:0:
412,372,64973,1,2,0:0:0:0:
386,262,65137,1,0,0:0:0:0:
204,360,65303,6,0,L|140:356,1,64.5000024604798,6|0,0:0|0:0,0:0:0:0:
12,320,65633,2,0,L|76:324,1,64.5000024604798,2|0,0:0|0:0,0:0:0:0:
200,288,65962,2,0,L|136:284,1,64.5000024604798,2|0,0:0|0:0,0:0:0:0:
8,248,66292,2,0,L|72:252,1,64.5000024604798,2|0,0:0|0:0,0:0:0:0:
276,175,66622,6,0,P|268:143|252:115,1,64.5000024604798,2|0,0:0|0:0,0:0:0:0:
312,243,66951,2,0,P|342:251|375:251,1,64.5000024604798,2|0,0:0|0:0,0:0:0:0:
239,237,67281,2,0,P|215:259|199:287,1,64.5000024604798,2|0,0:0|0:0,0:0:0:0:
352,176,67611,1,2,0:0:0:0:
372,160,67940,5,2,0:0:0:0:
392,144,68105,1,2,0:0:0:0:
300,108,68270,5,2,0:0:0:0:
303,133,68435,1,2,0:0:0:0:
384,72,68600,5,2,0:0:0:0:
360,62,68765,1,2,0:0:0:0:
316,204,68929,5,2,0:0:0:0:
452,100,69094,1,2,0:0:0:0:
292,36,69259,5,6,0:0:0:0:
384,232,69424,1,2,0:0:0:0:
448,28,69589,5,6,0:0:0:0:
236,76,69754,1,6,0:0:0:0:
168,92,70083,5,8,0:0:0:0:
168,92,70166,1,8,0:0:0:0:
168,92,70248,6,0,L|104:88,1,64.5,8|0,0:0|0:0,0:0:0:0:
4,160,70578,6,0,B|60:164|60:164|72:172|72:172|136:176,1,129,6|0,0:0|0:0,0:0:0:0:
204,180,70907,1,8,0:0:0:0:
32,244,71072,1,2,0:0:0:0:
232,172,71237,2,0,B|244:212|244:212|232:256,1,86,0|2,0:0|0:0,0:0:0:0:
196,380,71567,1,8,0:0:0:0:
168,92,71732,6,0,P|248:71|318:117,1,172,2|2,0:0|0:0,0:0:0:0:
384,276,72226,2,0,P|346:251|324:213,1,86,8|2,0:0|0:0,0:0:0:0:
492,176,72556,2,0,P|489:220|467:258,1,86,0|2,0:0|0:0,0:0:0:0:
348,128,72885,1,8,0:0:0:0:
492,176,73050,1,2,0:0:0:0:
368,292,73215,5,2,0:0:0:0:
344,108,73380,1,2,0:0:0:0:
512,184,73545,1,8,0:0:0:0:
196,220,73710,1,2,0:0:0:0:
168,224,74039,5,2,0:0:0:0:
356,204,74204,1,8,0:0:0:0:
80,184,74369,6,0,B|68:224|68:224|80:268,1,86,2|0,0:0|0:0,0:0:0:0:
248,164,74699,2,0,B|219:133|219:133|175:122,1,86,2|8,0:0|0:0,0:0:0:0:
184,320,75028,1,2,0:0:0:0:
187,344,75358,5,2,0:0:0:0:
248,164,75523,1,8,0:0:0:0:
80,184,75688,1,2,0:0:0:0:
255,278,75852,5,2,0:0:0:0:
176,122,76017,1,2,0:0:0:0:
79,266,76182,1,8,0:0:0:0:
352,216,76347,6,0,P|396:208|444:216,1,86,2|0,0:0|0:0,0:0:0:0:
483,356,76677,2,0,P|441:363|399:358,1,86,2|8,0:0|0:0,0:0:0:0:
324,160,77006,6,0,B|352:216|352:216|324:321,1,172,2|2,0:0|0:0,0:0:0:0:
324,321,77501,1,8,0:0:0:0:
184,236,77666,1,2,0:0:0:0:
164,224,77995,5,2,0:0:0:0:
324,160,78160,1,8,0:0:0:0:
188,384,78325,1,2,0:0:0:0:
152,148,78490,5,2,0:0:0:0:
164,224,78655,1,2,0:0:0:0:
92,200,78819,1,8,0:0:0:0:
400,148,78984,6,0,P|444:140|492:148,1,86,2|0,0:0|0:0,0:0:0:0:
324,160,79314,2,0,P|295:125|278:80,1,86,2|8,0:0|0:0,0:0:0:0:
376,220,79644,2,0,P|360:262|329:299,1,86,2|0,0:0|0:0,0:0:0:0:
279,87,79973,6,0,L|287:-5,1,86,2|8,0:0|0:0,0:0:0:0:
64,180,80303,2,0,L|236:164,1,172,2|2,0:0|0:0,0:0:0:0:
256,328,80798,1,8,0:0:0:0:
235,327,80880,1,8,0:0:0:0:
214,325,80962,1,8,0:0:0:0:
192,323,81045,1,8,0:0:0:0:
171,321,81127,5,6,0:0:0:0:
328,224,81292,2,0,L|332:264,1,32.2500012302399
336,280,81457,1,2,0:0:0:0:
235,164,81622,1,0,0:0:0:0:
171,321,81787,5,2,0:0:0:0:
64,180,81951,1,0,0:0:0:0:
208,240,82116,1,6,0:0:0:0:
8,340,82281,1,8,0:0:0:0:
8,340,82363,1,8,0:0:0:0:
8,340,82446,5,10,0:0:0:0:
171,321,82611,1,0,0:0:0:0:
36,260,82776,1,2,0:0:0:0:
235,164,82940,1,0,0:0:0:0:
56,60,83105,6,0,B|40:88|40:88|56:152,1,96.7500036907198,6|0,0:0|0:0,0:0:0:0:
64,180,83435,2,0,L|128:176,1,64.5000024604798,2|0,0:0|0:0,0:0:0:0:
352,152,83765,5,2,0:0:0:0:
284,56,83929,1,0,0:0:0:0:
304,260,84094,1,6,0:0:0:0:
468,140,84259,1,8,0:0:0:0:
468,140,84341,1,8,0:0:0:0:
468,140,84424,5,10,0:0:0:0:
352,152,84589,1,0,0:0:0:0:
420,248,84754,1,2,0:0:0:0:
400,44,84918,1,0,0:0:0:0:
235,164,85083,6,0,L|171:168,1,64.5000024604798,6|0,0:0|0:0,0:0:0:0:
64,180,85413,2,0,L|128:176,1,64.5000024604798,2|0,0:0|0:0,0:0:0:0:
144,92,85743,2,0,L|148:156,1,64.5000024604798,2|0,0:0|0:0,0:0:0:0:
160,263,86073,2,0,L|156:199,1,64.5000024604798,2|0,0:0|0:0,0:0:0:0:
200,336,86402,6,0,P|168:348|136:344,1,64.5000024604798,2|0,0:0|0:0,0:0:0:0:
240,264,86732,2,0,P|265:283|278:312,1,64.5000024604798,2|0,0:0|0:0,0:0:0:0:
160,263,87061,2,0,L|156:199,1,64.5000024604798,2|0,0:0|0:0,0:0:0:0:
356,87,87391,1,0,0:0:0:0:
354,103,87473,1,0,0:0:0:0:
353,119,87555,1,0,0:0:0:0:
352,135,87638,1,0,0:0:0:0:
351,151,87720,5,2,0:0:0:0:
404,208,87885,1,2,0:0:0:0:
424,136,88050,5,2,0:0:0:0:
332,220,88215,1,2,0:0:0:0:
456,260,88380,5,2,0:0:0:0:
376,84,88544,1,2,0:0:0:0:
308,292,88710,5,2,0:0:0:0:
476,192,88874,1,2,0:0:0:0:
227,111,89039,5,6,0:0:0:0:
480,276,89204,1,2,0:0:0:0:
136,308,89369,5,6,0:0:0:0:
424,136,89534,1,6,0:0:0:0:
12,176,89863,5,8,0:0:0:0:
12,176,89946,1,8,0:0:0:0:
12,176,90028,6,0,L|8:144,7,32.2500012302399,8|0|0|0|0|0|0|0,0:0|0:0|0:0|0:0|0:0|0:0|0:0|0:0,0:0:0:0:
20,208,90358,6,0,B|100:172|104:248|184:212,1,172,6|8,0:0|0:0,0:0:0:0:
227,111,90852,1,0,0:0:0:0:
234,25,91017,2,0,L|226:117,1,86,2|2,0:0|0:0,0:0:0:0:
307,289,91347,1,8,0:0:0:0:
300,204,91512,1,0,0:0:0:0:
240,340,91677,5,2,0:0:0:0:
376,240,91841,1,2,0:0:0:0:
383,325,92006,2,0,L|375:239,1,86,8|0,0:0|0:0,0:0:0:0:
227,111,92336,5,2,0:0:0:0:
227,111,92418,1,0,0:0:0:0:
227,111,92501,1,2,0:0:0:0:
300,204,92666,1,8,0:0:0:0:
344,96,92830,1,0,0:0:0:0:
184,211,92995,5,14,0:0:0:0:
408,196,93160,1,0,0:0:0:0:
252,304,93325,5,8,0:0:0:0:
344,96,93490,1,0,0:0:0:0:
364,288,93655,5,10,0:0:0:0:
208,88,93819,1,0,0:0:0:0:
432,208,93984,5,8,0:0:0:0:
140,316,94149,1,0,0:0:0:0:
208,88,94314,5,14,0:0:0:0:
252,304,94479,1,0,0:0:0:0:
264,76,94644,5,8,0:0:0:0:
308,296,94808,1,0,0:0:0:0:
320,68,94973,5,10,0:0:0:0:
364,288,95138,1,0,0:0:0:0:
376,60,95303,5,8,0:0:0:0:
420,280,95468,1,0,0:0:0:0:
72,224,95633,5,6,0:0:0:0:
184,211,95798,1,2,0:0:0:0:
140,316,95962,1,2,0:0:0:0:
120,120,96127,5,6,0:0:0:0:
252,304,96292,1,2,0:0:0:0:
28,328,96457,1,2,0:0:0:0:
236,104,96622,5,6,0:0:0:0:
144,348,96787,1,2,0:0:0:0:
12,136,96951,5,8,0:0:0:0:
40,104,97034,1,8,0:0:0:0:
80,88,97116,1,8,0:0:0:0:
124,88,97199,1,8,0:0:0:0:
164,108,97281,1,8,0:0:0:0:
192,140,97363,1,8,0:0:0:0:
232,156,97446,1,8,0:0:0:0:
276,156,97528,1,8,0:0:0:0:
316,136,97611,5,8,0:0:0:0:
312,116,97693,1,8,0:0:0:0:
308,96,97775,1,8,0:0:0:0:
304,76,97858,1,8,0:0:0:0:
300,56,97940,6,0,L|296:24,7,32.2500012302399,4|0|0|0|0|0|0|0,0:0|0:0|0:0|0:0|0:0|0:0|0:0|0:0,0:0:0:0:
380,92,98270,5,6,0:0:0:0:
356,120,98352,1,0,0:0:0:0:
324,136,98435,1,8,0:0:0:0:
288,140,98517,1,0,0:0:0:0:
252,128,98600,1,2,0:0:0:0:
224,100,98682,1,0,0:0:0:0:
192,76,98765,1,8,0:0:0:0:
156,64,98847,1,0,0:0:0:0:
120,64,98929,5,2,0:0:0:0:
84,80,99012,1,0,0:0:0:0:
56,108,99094,1,8,0:0:0:0:
40,140,99177,1,0,0:0:0:0:
40,176,99259,1,2,0:0:0:0:
52,212,99341,1,0,0:0:0:0:
76,240,99424,1,8,0:0:0:0:
108,260,99506,1,0,0:0:0:0:
144,264,99589,6,0,L|140:210,3,53.75,2|0|8|0,0:0|0:0|0:0|0:0,0:0:0:0:
252,128,99918,2,0,L|248:181,3,53.75,2|0|8|0,0:0|0:0|0:0|0:0,0:0:0:0:
368,260,100248,2,0,L|364:206,3,53.75,2|0|8|0,0:0|0:0|0:0|0:0,0:0:0:0:
476,124,100577,2,0,L|472:177,3,53.75,2|0|8|0,0:0|0:0|0:0|0:0,0:0:0:0:
464,260,100907,5,2,0:0:0:0:
456,296,100990,1,0,0:0:0:0:
436,328,101072,1,8,0:0:0:0:
404,348,101155,1,0,0:0:0:0:
368,356,101237,1,2,0:0:0:0:
332,352,101319,1,0,0:0:0:0:
300,332,101402,1,8,0:0:0:0:
276,304,101484,1,0,0:0:0:0:
268,268,101567,5,2,0:0:0:0:
268,232,101649,1,0,0:0:0:0:
284,200,101732,1,8,0:0:0:0:
308,172,101814,1,0,0:0:0:0:
328,140,101896,1,2,0:0:0:0:
336,104,101979,1,0,0:0:0:0:
328,68,102061,1,8,0:0:0:0:
308,36,102144,1,0,0:0:0:0:
280,12,102226,5,2,0:0:0:0:
264,44,102308,1,0,0:0:0:0:
264,80,102391,1,8,0:0:0:0:
276,116,102473,1,0,0:0:0:0:
300,144,102556,1,2,0:0:0:0:
332,164,102638,1,0,0:0:0:0:
368,168,102721,1,8,0:0:0:0:
404,160,102803,1,0,0:0:0:0:
436,140,102885,5,2,0:0:0:0:
400,128,102968,1,0,0:0:0:0:
364,132,103050,1,8,0:0:0:0:
332,148,103133,1,0,0:0:0:0:
308,176,103215,1,2,0:0:0:0:
284,204,103298,1,0,0:0:0:0:
252,224,103380,1,8,0:0:0:0:
216,232,103462,1,0,0:0:0:0:
180,224,103545,5,2,0:0:0:0:
184,208,103627,1,0,0:0:0:0:
188,192,103710,1,8,0:0:0:0:
192,176,103792,1,0,0:0:0:0:
196,160,103874,1,2,0:0:0:0:
200,144,103957,1,0,0:0:0:0:
204,128,104039,1,8,0:0:0:0:
208,112,104122,1,0,0:0:0:0:
212,96,104204,5,2,0:0:0:0:
240,120,104287,1,0,0:0:0:0:
260,152,104369,1,8,0:0:0:0:
264,188,104451,1,0,0:0:0:0:
256,224,104534,1,2,0:0:0:0:
236,256,104616,1,0,0:0:0:0:
204,276,104699,1,8,0:0:0:0:
168,284,104781,1,0,0:0:0:0:
132,280,104863,5,2,0:0:0:0:
164,264,104946,1,0,0:0:0:0:
200,260,105028,1,8,0:0:0:0:
236,268,105111,1,0,0:0:0:0:
268,288,105193,1,2,0:0:0:0:
292,316,105276,1,0,0:0:0:0:
324,332,105358,1,8,0:0:0:0:
360,336,105440,1,0,0:0:0:0:
396,328,105523,5,2,0:0:0:0:
428,308,105605,1,0,0:0:0:0:
448,276,105688,1,8,0:0:0:0:
456,240,105770,1,0,0:0:0:0:
452,204,105852,1,2,0:0:0:0:
436,172,105935,1,0,0:0:0:0:
408,148,106017,1,8,0:0:0:0:
372,136,106100,1,0,0:0:0:0:
336,140,106182,5,2,0:0:0:0:
316,108,106265,1,0,0:0:0:0:
284,88,106347,1,8,0:0:0:0:
248,80,106429,1,0,0:0:0:0:
212,88,106512,1,2,0:0:0:0:
180,108,106594,1,0,0:0:0:0:
156,140,106677,1,8,0:0:0:0:
148,176,106759,1,0,0:0:0:0:
156,212,106841,5,2,0:0:0:0:
184,184,106924,1,0,0:0:0:0:
220,172,107006,1,8,0:0:0:0:
256,172,107089,1,0,0:0:0:0:
288,188,107171,1,2,0:0:0:0:
316,216,107254,1,0,0:0:0:0:
328,252,107336,1,8,0:0:0:0:
332,288,107418,1,0,0:0:0:0:
316,324,107501,5,2,0:0:0:0:
304,316,107583,1,0,0:0:0:0:
288,308,107666,1,8,0:0:0:0:
272,304,107748,1,0,0:0:0:0:
256,300,107830,1,2,0:0:0:0:
240,300,107913,1,0,0:0:0:0:
224,300,107995,1,8,0:0:0:0:
208,304,108078,1,0,0:0:0:0:
192,308,108160,5,8,0:0:0:0:
136,332,108243,1,0,0:0:0:0:
80,320,108325,1,0,0:0:0:0:
44,272,108407,1,0,0:0:0:0:
48,212,108490,1,0,0:0:0:0:
92,172,108572,1,0,0:0:0:0:
112,116,108655,1,0,0:0:0:0:
100,60,108737,1,0,0:0:0:0:
56,24,108819,5,6,0:0:0:0:
72,60,108902,1,0,0:0:0:0:
104,80,108984,1,8,0:0:0:0:
140,88,109067,1,0,0:0:0:0:
176,80,109149,1,2,0:0:0:0:
204,56,109232,1,0,0:0:0:0:
240,44,109314,1,8,0:0:0:0:
276,48,109396,1,0,0:0:0:0:
312,60,109479,5,2,0:0:0:0:
340,88,109561,1,0,0:0:0:0:
352,124,109644,1,8,0:0:0:0:
352,160,109726,1,0,0:0:0:0:
340,196,109808,1,2,0:0:0:0:
316,224,109891,1,0,0:0:0:0:
296,256,109973,1,8,0:0:0:0:
292,292,110056,1,0,0:0:0:0:
304,328,110138,6,0,L|360:320,3,53.75,2|0|8|0,0:0|0:0|0:0|0:0,0:0:0:0:
496,268,110468,2,0,L|442:260,3,53.75,2|0|8|0,0:0|0:0|0:0|0:0,0:0:0:0:
300,228,110798,2,0,L|356:220,3,53.75,2|0|8|0,0:0|0:0|0:0|0:0,0:0:0:0:
492,168,111127,2,0,L|438:160,3,53.75,2|0|8|0,0:0|0:0|0:0|0:0,0:0:0:0:
300,116,111457,5,2,0:0:0:0:
264,120,111539,1,0,0:0:0:0:
228,124,111622,1,8,0:0:0:0:
192,128,111704,1,0,0:0:0:0:
156,132,111787,1,2,0:0:0:0:
120,136,111869,1,0,0:0:0:0:
84,140,111951,1,8,0:0:0:0:
48,144,112034,1,0,0:0:0:0:
12,148,112116,5,2,0:0:0:0:
32,116,112199,1,0,0:0:0:0:
64,100,112281,1,8,0:0:0:0:
100,96,112363,1,0,0:0:0:0:
136,104,112446,1,2,0:0:0:0:
168,124,112528,1,0,0:0:0:0:
188,156,112611,1,8,0:0:0:0:
196,192,112693,1,0,0:0:0:0:
192,228,112776,5,2,0:0:0:0:
172,196,112858,1,0,0:0:0:0:
164,160,112940,1,8,0:0:0:0:
168,124,113023,1,0,0:0:0:0:
188,92,113105,1,2,0:0:0:0:
220,72,113188,1,0,0:0:0:0:
256,60,113270,1,8,0:0:0:0:
292,64,113352,1,0,0:0:0:0:
324,80,113435,5,2,0:0:0:0:
296,104,113517,1,0,0:0:0:0:
280,136,113600,1,8,0:0:0:0:
276,172,113682,1,0,0:0:0:0:
288,208,113765,1,2,0:0:0:0:
316,232,113847,1,0,0:0:0:0:
336,264,113929,1,8,0:0:0:0:
340,300,114012,1,0,0:0:0:0:
332,336,114094,5,2,0:0:0:0:
320,328,114177,1,0,0:0:0:0:
308,320,114259,1,8,0:0:0:0:
296,312,114341,1,0,0:0:0:0:
284,304,114424,1,2,0:0:0:0:
272,296,114506,1,0,0:0:0:0:
260,288,114589,1,8,0:0:0:0:
248,280,114671,1,0,0:0:0:0:
236,272,114754,5,2,0:0:0:0:
208,296,114836,1,0,0:0:0:0:
172,304,114918,1,8,0:0:0:0:
136,296,115001,1,0,0:0:0:0:
108,272,115083,1,2,0:0:0:0:
92,236,115166,1,0,0:0:0:0:
92,200,115248,1,8,0:0:0:0:
108,164,115330,1,0,0:0:0:0:
140,140,115413,5,2,0:0:0:0:
176,132,115495,1,0,0:0:0:0:
212,140,115578,1,8,0:0:0:0:
240,164,115660,1,0,0:0:0:0:
268,192,115743,1,2,0:0:0:0:
304,200,115825,1,0,0:0:0:0:
340,196,115907,1,8,0:0:0:0:
372,180,115990,1,0,0:0:0:0:
392,148,116072,6,0,P|396:120|392:96,3,53.75,2|0|8|0,0:0|0:0|0:0|0:0,0:0:0:0:
284,208,116402,2,0,P|279:234|284:260,3,53.75,2|0|8|0,0:0|0:0|0:0|0:0,0:0:0:0:
396,372,116732,5,2,0:0:0:0:
376,340,116814,1,0,0:0:0:0:
344,320,116896,1,8,0:0:0:0:
308,312,116979,1,0,0:0:0:0:
272,316,117061,1,2,0:0:0:0:
236,332,117144,1,0,0:0:0:0:
200,340,117226,1,8,0:0:0:0:
164,328,117308,1,0,0:0:0:0:
136,304,117391,5,2,0:0:0:0:
140,268,117473,1,0,0:0:0:0:
144,232,117556,1,8,0:0:0:0:
148,196,117638,1,0,0:0:0:0:
152,160,117721,1,2,0:0:0:0:
156,124,117803,1,0,0:0:0:0:
160,88,117885,1,8,0:0:0:0:
164,52,117968,1,0,0:0:0:0:
168,16,118050,5,2,0:0:0:0:
196,44,118133,1,0,0:0:0:0:
204,80,118215,1,8,0:0:0:0:
200,116,118298,1,0,0:0:0:0:
180,148,118380,1,2,0:0:0:0:
148,168,118462,1,0,0:0:0:0:
112,172,118545,1,8,0:0:0:0:
76,160,118627,1,0,0:0:0:0:
52,132,118710,5,8,0:0:0:0:
57,151,118792,1,0,0:0:0:0:
61,171,118874,1,0,0:0:0:0:
63,191,118957,1,0,0:0:0:0:
64,211,119039,1,0,0:0:0:0:
63,231,119122,1,0,0:0:0:0:
61,251,119204,1,0,0:0:0:0:
57,271,119286,1,0,0:0:0:0:
52,290,119369,5,6,0:0:0:0:
96,252,119451,1,0,0:0:0:0:
156,240,119534,1,0,0:0:0:0:
212,260,119616,1,0,0:0:0:0:
252,304,119699,1,10,0:0:0:0:
304,328,119781,1,0,0:0:0:0:
364,324,119863,1,0,0:0:0:0:
416,292,119946,1,0,0:0:0:0:
440,240,120028,5,10,0:0:0:0:
440,180,120111,1,0,0:0:0:0:
412,128,120193,1,0,0:0:0:0:
360,100,120276,1,0,0:0:0:0:
300,104,120358,1,10,0:0:0:0:
248,132,120440,1,0,0:0:0:0:
188,132,120523,1,0,0:0:0:0:
144,100,120605,1,0,0:0:0:0:
124,44,120688,5,10,0:0:0:0:
176,76,120770,1,0,0:0:0:0:
188,132,120852,1,0,0:0:0:0:
168,188,120935,1,0,0:0:0:0:
116,216,121017,1,10,0:0:0:0:
60,200,121100,1,0,0:0:0:0:
28,152,121182,1,0,0:0:0:0:
32,92,121265,1,0,0:0:0:0:
76,52,121347,5,10,0:0:0:0:
152,52,121429,1,0,0:0:0:0:
204,108,121512,1,0,0:0:0:0:
232,176,121594,1,0,0:0:0:0:
292,224,121677,1,0,0:0:0:0:
368,220,121759,1,0,0:0:0:0:
428,176,121841,1,0,0:0:0:0:
444,104,121924,1,0,0:0:0:0:
416,36,122006,5,4,0:0:0:0:
312,192,137830,6,0,L|316:144,2,43.0000016403199,8|10|8,0:0|0:0|0:0,0:0:0:0:
308,224,138160,2,0,B|356:212|356:212|400:228,1,96.7500036907198,2|0,0:0|0:0,0:0:0:0:
428,240,138490,6,0,L|424:325,1,86,6|0,0:0|0:0,0:0:0:0:
424,325,138984,1,2,0:0:0:0:
312,192,139149,2,0,L|316:144,1,43,8|0,0:0|0:0,0:0:0:0:
324,72,139479,1,0,0:0:0:0:
324,72,139643,1,2,0:0:0:0:
205,96,139808,6,0,L|248:100,1,43
128,92,140138,2,0,L|109:53,1,43
164,160,140468,1,8,0:0:0:0:
164,160,140632,1,0,0:0:0:0:
120,224,140797,2,0,L|77:227,1,43,0|8,0:0|0:0,0:0:0:0:
236,168,141127,6,0,B|248:208|248:208|236:252,1,86,2|0,0:0|0:0,0:0:0:0:
156,344,141621,1,2,0:0:0:0:
156,344,141786,2,0,L|198:347,1,43,2|0,0:0|0:0,0:0:0:0:
276,356,142116,1,2,0:0:0:0:
276,356,142281,1,8,0:0:0:0:
452,268,142446,5,8,0:0:0:0:
364,312,142610,1,2,0:0:0:0:
448,368,142775,1,0,0:0:0:0:
368,204,142940,1,0,0:0:0:0:
280,256,143105,5,8,0:0:0:0:
236,260,143187,1,8,0:0:0:0:
192,264,143270,1,8,0:0:0:0:
148,268,143352,1,8,0:0:0:0:
100,272,143435,5,0,0:0:0:0:
104,252,143517,1,0,0:0:0:0:
108,232,143599,1,0,0:0:0:0:
112,212,143682,1,0,0:0:0:0:
116,192,143764,5,6,0:0:0:0:
156,236,143847,1,0,0:0:0:0:
212,248,143929,1,8,0:0:0:0:
264,224,144011,1,0,0:0:0:0:
300,176,144094,1,2,0:0:0:0:
296,116,144176,1,0,0:0:0:0:
264,68,144259,1,8,0:0:0:0:
208,48,144341,1,0,0:0:0:0:
152,64,144424,6,0,B|144:36|144:36|152:12,3,53.75,2|0|8|0,0:0|0:0|0:0|0:0,0:0:0:0:
204,148,144753,2,0,B|212:176|212:176|204:200,3,53.75,2|0|8|0,0:0|0:0|0:0|0:0,0:0:0:0:
180,288,145083,5,2,0:0:0:0:
200,292,145165,1,0,0:0:0:0:
220,296,145248,1,8,0:0:0:0:
240,300,145330,1,0,0:0:0:0:
260,304,145413,5,2,0:0:0:0:
296,292,145495,1,0,0:0:0:0:
332,280,145577,1,8,0:0:0:0:
368,268,145660,1,0,0:0:0:0:
404,256,145742,5,2,0:0:0:0:
364,212,145825,1,0,0:0:0:0:
304,204,145907,1,8,0:0:0:0:
248,228,145990,1,0,0:0:0:0:
220,280,146072,1,2,0:0:0:0:
168,308,146154,1,0,0:0:0:0:
108,304,146237,1,8,0:0:0:0:
64,264,146319,1,0,0:0:0:0:
52,208,146402,5,2,0:0:0:0:
72,152,146484,1,0,0:0:0:0:
120,116,146566,1,8,0:0:0:0:
180,116,146649,1,0,0:0:0:0:
228,152,146731,1,2,0:0:0:0:
276,184,146814,1,0,0:0:0:0:
336,188,146896,1,8,0:0:0:0:
384,156,146979,1,0,0:0:0:0:
408,100,147061,6,0,L|412:44,3,53.75,2|0|8|0,0:0|0:0|0:0|0:0,0:0:0:0:
336,188,147391,2,0,L|339:241,3,53.75,2|0|8|0,0:0|0:0|0:0|0:0,0:0:0:0:
308,88,147720,5,2,0:0:0:0:
288,76,147803,1,0,0:0:0:0:
268,72,147885,1,8,0:0:0:0:
248,72,147968,1,0,0:0:0:0:
228,80,148050,5,2,0:0:0:0:
196,100,148132,1,0,0:0:0:0:
160,104,148215,1,8,0:0:0:0:
124,96,148297,1,0,0:0:0:0:
92,72,148380,5,2,0:0:0:0:
144,40,148462,1,0,0:0:0:0:
204,48,148544,1,8,0:0:0:0:
252,84,148627,1,0,0:0:0:0:
268,140,148709,1,2,0:0:0:0:
256,200,148792,1,0,0:0:0:0:
212,240,148874,1,8,0:0:0:0:
152,248,148957,1,0,0:0:0:0:
100,220,149039,6,0,L|96:160,1,53.75,2|0,0:0|0:0,0:0:0:0:
32,308,149204,2,0,L|28:361,1,53.75,8|0,0:0|0:0,0:0:0:0:
192,220,149369,2,0,L|188:160,1,53.75,2|0,0:0|0:0,0:0:0:0:
124,308,149534,2,0,L|120:361,1,53.75,8|0,0:0|0:0,0:0:0:0:
283,220,149698,6,0,P|310:215|336:220,1,53.75,2|0,0:0|0:0,0:0:0:0:
420,356,149863,2,0,P|402:333|394:310,1,53.75,8|0,0:0|0:0,0:0:0:0:
472,175,150028,2,0,P|462:200|445:221,1,53.75,2|0,0:0|0:0,0:0:0:0:
308,304,150193,2,0,L|254:300,1,53.75,8|0,0:0|0:0,0:0:0:0:
188,166,150358,6,0,L|184:106,1,53.75,2|0,0:0|0:0,0:0:0:0:
308,304,150522,2,0,L|304:357,1,53.75,8|0,0:0|0:0,0:0:0:0:
303,164,150687,2,0,L|299:104,1,53.75,2|0,0:0|0:0,0:0:0:0:
424,302,150852,2,0,L|420:355,1,53.75,8|0,0:0|0:0,0:0:0:0:
352,110,151017,6,0,P|325:105|299:110,1,53.75,2|0,0:0|0:0,0:0:0:0:
164,244,151182,2,0,P|190:248|216:243,1,53.75,8|0,0:0|0:0,0:0:0:0:
259,32,151347,2,0,P|237:47|222:69,1,53.75,2|0,0:0|0:0,0:0:0:0:
255,320,151511,2,0,P|277:304|292:281,1,53.75,8|0,0:0|0:0,0:0:0:0:
68,108,151676,5,2,0:0:0:0:
28,152,151759,1,0,0:0:0:0:
24,212,151841,1,8,0:0:0:0:
52,264,151924,1,0,0:0:0:0:
104,288,152006,1,2,0:0:0:0:
164,280,152088,1,0,0:0:0:0:
208,244,152171,1,8,0:0:0:0:
264,224,152253,1,0,0:0:0:0:
324,232,152336,1,2,0:0:0:0:
364,276,152418,1,0,0:0:0:0:
376,328,152500,6,0,P|380:356|376:392,1,53.75,8|0,0:0|0:0,0:0:0:0:
304,160,152665,2,0,P|300:132|304:96,1,53.75,2|0,0:0|0:0,0:0:0:0:
228,328,152830,2,0,P|232:356|228:392,1,53.75,8|0,0:0|0:0,0:0:0:0:
68,108,152995,5,2,0:0:0:0:
108,72,153077,1,0,0:0:0:0:
160,64,153160,1,8,0:0:0:0:
212,80,153242,1,0,0:0:0:0:
244,124,153325,1,2,0:0:0:0:
288,152,153407,1,0,0:0:0:0:
340,156,153490,1,8,0:0:0:0:
388,132,153572,1,0,0:0:0:0:
416,88,153654,6,0,L|412:32,3,53.75,2|0|8|0,0:0|0:0|0:0|0:0,0:0:0:0:
288,152,153984,2,0,L|285:206,3,53.75,2|0|8|0,0:0|0:0|0:0|0:0,0:0:0:0:
428,300,154314,6,0,P|464:308|500:300,2,71.6666666666667,6|2|2,0:0|0:0|0:0,0:0:0:0:
285,205,154643,2,0,P|249:197|213:205,2,71.6666666666667,2|2|2,0:0|0:0|0:0,0:0:0:0:
180,120,154973,2,0,P|148:139|129:170,2,71.6666666666667,2|2|2,0:0|0:0|0:0,0:0:0:0:
48,132,155303,1,2,0:0:0:0:
48,132,155413,2,0,P|39:168|47:204,1,71.6666666666667,2|2,0:0|0:0,0:0:0:0:
128,300,155632,5,6,0:0:0:0:
156,316,155715,1,0,0:0:0:0:
188,320,155797,1,0,0:0:0:0:
220,316,155880,1,0,0:0:0:0:
248,300,155962,1,10,0:0:0:0:
280,292,156044,1,0,0:0:0:0:
312,296,156127,2,0,L|368:300,1,53.75
476,352,156292,5,6,0:0:0:0:
440,316,156374,1,0,0:0:0:0:
428,268,156457,1,0,0:0:0:0:
444,220,156539,1,0,0:0:0:0:
484,192,156621,5,2,0:0:0:0:
480,176,156704,1,0,0:0:0:0:
476,160,156786,1,0,0:0:0:0:
472,144,156869,1,0,0:0:0:0:
468,128,156951,6,0,B|416:112|416:112|360:136,1,114.666666666667,6|0,0:0|0:0,0:0:0:0:
280,164,157281,2,0,P|276:140|280:108,2,57.3333333333333,2|2|2,0:0|0:0|0:0,0:0:0:0:
332,36,157610,2,0,P|280:20|224:40,1,114.666666666667,4|0,0:0|0:0,0:0:0:0:
229,201,157940,2,0,P|268:163|279:105,1,114.666666666667
81,116,158270,6,0,B|133:144|141:100|192:120,1,114.666666666667,4|0,0:0|0:0,0:0:0:0:
229,201,158599,2,0,P|233:225|229:257,2,57.3333333333333
81,116,158929,2,0,B|66:170|66:170|82:226,1,114.666666666667,4|0,0:0|0:0,0:0:0:0:
108,308,159259,1,0,0:0:0:0:
108,308,159369,2,0,B|80:316|80:316|52:308,1,57.3333333333333
228,257,159588,6,0,L|344:265,1,114.666666666667,4|0,0:0|0:0,0:0:0:0:
416,272,159918,2,0,L|419:329,2,57.3333333333333
397,135,160248,2,0,B|373:119|373:119|381:207,1,114.666666666667,4|0,0:0|0:0,0:0:0:0:
512,128,160577,2,0,L|396:136,1,114.666666666667
228,257,160907,6,0,B|244:201|244:201|229:146,1,114.666666666667,4|0,0:0|0:0,0:0:0:0:
140,116,161237,2,0,B|132:144|132:144|140:172,2,57.3333333333333
333,255,161566,6,0,P|281:275|228:257,1,114.666666666667,4|0,0:0|0:0,0:0:0:0:
140,116,161896,1,2,0:0:0:0:
229,146,162006,1,2,0:0:0:0:
160,200,162116,1,2,0:0:0:0:
212,52,162226,6,0,P|264:31|317:50,1,114.666666666667,6|0,0:0|0:0,0:0:0:0:
412,168,162555,1,2,0:0:0:0:
328,136,162665,1,2,0:0:0:0:
400,80,162775,1,2,0:0:0:0:
496,208,162885,6,0,B|444:232|436:188|384:212,1,114.666666666667,6|0,0:0|0:0,0:0:0:0:
284,348,163215,1,2,0:0:0:0:
336,280,163325,1,2,0:0:0:0:
252,264,163435,1,2,0:0:0:0:
196,336,163544,6,0,B|120:324|120:324|84:336,1,114.666666666667,6|0,0:0|0:0,0:0:0:0:
224,184,163874,1,2,0:0:0:0:
252,264,163984,1,2,0:0:0:0:
168,248,164094,1,2,0:0:0:0:
308,200,164204,6,0,L|364:208,2,57.3333333333333,6|2|2,0:0|0:0|0:0,0:0:0:0:
144,168,164533,2,0,L|88:176,2,57.3333333333333,6|2|2,0:0|0:0|0:0,0:0:0:0:
284,124,164863,6,0,L|404:140,1,114.666666666667,6|0,0:0|0:0,0:0:0:0:
444,72,165193,5,2,0:0:0:0:
424,212,165303,1,2,0:0:0:0:
444,72,165413,1,2,0:0:0:0:
424,212,165522,6,0,B|408:268|408:268|424:324,1,114.666666666667,6|0,0:0|0:0,0:0:0:0:
432,356,165852,2,0,L|488:348,2,57.3333333333333,2|2|2,0:0|0:0|0:0,0:0:0:0:
328,272,166182,6,0,B|280:280|280:280|260:272|260:272|216:280,1,114.666666666667,6|0,0:0|0:0,0:0:0:0:
144,292,166511,1,2,0:0:0:0:
172,220,166621,1,2,0:0:0:0:
192,352,166731,1,2,0:0:0:0:
56,220,166841,6,0,L|100:228,3,43,6|0|0|0,0:0|0:0|0:0|0:0,0:0:0:0:
180,140,167171,6,0,L|140:148,7,21.5,6|0|0|0|0|0|0|0,0:0|0:0|0:0|0:0|0:0|0:0|0:0|0:0,0:0:0:0:
300,188,167500,5,6,0:0:0:0:
320,192,167583,1,0,0:0:0:0:
340,196,167665,1,0,0:0:0:0:
360,200,167748,1,0,0:0:0:0:
380,204,167830,2,0,L|376:160,1,43
368,64,167995,5,2,0:0:0:0:
344,68,168078,1,0,0:0:0:0:
320,72,168160,1,0,0:0:0:0:
296,76,168243,1,0,0:0:0:0:
272,80,168325,2,0,L|276:32,1,43
440,4,168490,5,2,0:0:0:0:
456,28,168572,1,0,0:0:0:0:
464,56,168654,1,0,0:0:0:0:
460,88,168737,1,0,0:0:0:0:
448,116,168819,2,0,P|444:140|448:164,1,43
484,312,168984,5,2,0:0:0:0:
456,292,169066,1,0,0:0:0:0:
424,284,169149,1,0,0:0:0:0:
392,288,169231,1,0,0:0:0:0:
364,308,169314,2,0,P|340:312|316:308,1,43
112,260,169479,5,2,0:0:0:0:
140,236,169561,1,0,0:0:0:0:
176,224,169643,1,0,0:0:0:0:
214,229,169726,1,0,0:0:0:0:
245,248,169808,2,0,B|249:268|249:268|245:292,1,43
48,340,169973,5,2,0:0:0:0:
28,304,170055,1,0,0:0:0:0:
4,264,170138,1,0,0:0:0:0:
24,220,170220,1,0,0:0:0:0:
48,180,170303,2,0,L|68:132,1,43
196,128,170468,5,6,0:0:0:0:
196,128,170550,1,0,0:0:0:0:
196,128,170632,2,0,L|144:134,1,43
100,16,170797,5,6,0:0:0:0:
100,16,170879,1,0,0:0:0:0:
100,16,170961,2,0,L|120:63,1,43,0|0,0:0|0:0,0:0:0:0:
196,224,171127,5,6,0:0:0:0:
216,220,171209,1,0,0:0:0:0:
236,216,171291,1,0,0:0:0:0:
256,212,171374,1,0,0:0:0:0:
276,208,171456,2,0,B|280:188|280:188|276:164,1,43
60,108,171621,5,2,0:0:0:0:
56,132,171703,1,0,0:0:0:0:
52,156,171786,1,0,0:0:0:0:
48,180,171868,1,0,0:0:0:0:
44,204,171951,2,0,L|36:248,1,43
24,352,172116,5,2,0:0:0:0:
52,340,172198,1,0,0:0:0:0:
80,336,172280,1,0,0:0:0:0:
108,340,172363,1,0,0:0:0:0:
132,356,172445,2,0,P|156:360|180:356,1,43
412,284,172610,5,2,0:0:0:0:
384,272,172692,1,0,0:0:0:0:
356,268,172774,1,0,0:0:0:0:
328,272,172857,1,0,0:0:0:0:
304,287,172939,2,0,P|282:290|261:288,1,43
424,168,173105,5,2,0:0:0:0:
424,168,173187,1,0,0:0:0:0:
424,168,173269,2,0,L|420:220,1,43
276,160,173434,5,2,0:0:0:0:
276,160,173516,1,0,0:0:0:0:
276,160,173598,2,0,L|272:108,1,43
412,284,173764,5,2,0:0:0:0:
412,284,173846,1,0,0:0:0:0:
412,284,173928,2,0,L|408:336,1,43
268,44,174094,5,2,0:0:0:0:
268,44,174176,1,0,0:0:0:0:
268,44,174258,2,0,L|264:-8,1,43
424,168,174423,6,0,P|460:172|480:168,2,57.3333333333333,2|2|2,0:0|0:0|0:0,0:0:0:0:
268,44,174753,2,0,P|232:40|212:44,2,57.3333333333333,2|2|2,0:0|0:0|0:0,0:0:0:0:
348,108,175083,5,6,0:0:0:0:
96,240,175742,5,6,0:0:0:0:
248,280,175906,1,2,0:0:0:0:
132,312,176071,1,8,0:0:0:0:
244,204,176236,1,0,0:0:0:0:
28,196,176401,6,0,B|16:240|16:240|28:280,1,86,2|2,0:0|0:0,0:0:0:0:
244,204,176731,1,8,0:0:0:0:
152,156,176895,1,2,0:0:0:0:
132,312,177060,5,2,0:0:0:0:
312,240,177225,1,2,0:0:0:0:
311,322,177390,2,0,B|323:278|323:278|311:238,1,86,8|0,0:0|0:0,0:0:0:0:
260,32,177720,5,2,0:0:0:0:
260,32,177802,1,0,0:0:0:0:
260,32,177884,1,2,0:0:0:0:
256,116,178049,1,8,0:0:0:0:
332,80,178214,1,0,0:0:0:0:
184,72,178379,5,6,0:0:0:0:
328,160,178544,1,0,0:0:0:0:
184,152,178709,5,8,0:0:0:0:
332,80,178873,1,0,0:0:0:0:
108,64,179038,5,10,0:0:0:0:
396,200,179203,1,0,0:0:0:0:
184,232,179368,5,8,0:0:0:0:
396,124,179533,1,0,0:0:0:0:
120,192,179698,5,14,0:0:0:0:
248,272,179862,1,0,0:0:0:0:
184,152,180027,5,8,0:0:0:0:
180,308,180192,1,0,0:0:0:0:
252,192,180357,5,10,0:0:0:0:
56,304,180522,1,0,0:0:0:0:
320,320,180687,5,8,0:0:0:0:
56,148,180851,1,0,0:0:0:0:
332,4,181016,5,6,0:0:0:0:
328,160,181181,1,2,0:0:0:0:
200,72,181346,1,10,0:0:0:0:
460,92,181511,5,6,0:0:0:0:
252,192,181676,1,2,0:0:0:0:
332,80,181840,1,2,0:0:0:0:
460,248,182005,5,6,0:0:0:0:
200,72,182170,1,2,0:0:0:0:
396,8,182335,5,8,0:0:0:0:
420,44,182417,1,8,0:0:0:0:
428,88,182500,1,8,0:0:0:0:
416,128,182582,1,8,0:0:0:0:
388,160,182665,1,8,0:0:0:0:
348,176,182747,1,8,0:0:0:0:
304,172,182829,1,8,0:0:0:0:
268,152,182912,1,8,0:0:0:0:
244,116,182994,5,8,0:0:0:0:
204,96,183077,1,8,0:0:0:0:
160,92,183159,1,8,0:0:0:0:
120,108,183242,1,8,0:0:0:0:
92,140,183324,6,0,L|88:108,7,32.2500012302399
96,164,183654,5,4,0:0:0:0:
170,204,184972,6,0,P|95:163|15:187,2,172
344,112,187610,6,0,P|418:71|498:95,2,172
344,112,190247,5,0,0:0:0:0:
308,204,191566,6,0,B|385:235|393:163|473:203,2,172
96,164,193544,1,8,0:0:0:0:
96,164,193626,1,8,0:0:0:0:
96,164,193709,1,8,0:0:0:0:
96,164,193791,1,8,0:0:0:0:
96,164,193873,1,8,0:0:0:0:
96,164,193956,1,8,0:0:0:0:
96,164,194038,1,8,0:0:0:0:
96,164,194121,1,8,0:0:0:0:
96,164,194203,5,4,0:0:0:0:
204,264,195522,6,4,B|132:256|132:256|104:264|104:264|32:256,2,172
277,212,197170,5,2,0:0:0:0:
277,212,197280,2,0,L|272:184,1,28.6666666666667,2|2,0:0|0:0,0:0:0:0:
312,284,197500,2,0,L|304:328,1,28.6666666666667,2|2,0:0|0:0,0:0:0:0:
353,208,197720,2,0,L|347:179,1,28.6666666666667,2|2,0:0|0:0,0:0:0:0:
388,280,197940,2,0,L|380:324,1,28.6666666666667,2|2,0:0|0:0,0:0:0:0:
488,104,198159,6,0,B|432:64|368:100|368:100|392:104|408:124,1,172,4|0,0:0|0:0,0:0:0:0:
352,200,198901,1,0,0:0:0:0:
352,200,198983,2,0,L|344:164,1,21.5
324,0,199148,5,4,0:0:0:0:
320,12,199231,1,0,0:0:0:0:
316,24,199313,1,0,0:0:0:0:
312,36,199395,1,0,0:0:0:0:
308,48,199478,5,6,0:0:0:0:
268,16,199560,1,0,0:0:0:0:
216,8,199643,1,8,0:0:0:0:
164,24,199725,1,0,0:0:0:0:
124,60,199807,1,2,0:0:0:0:
108,112,199890,1,0,0:0:0:0:
112,164,199972,1,8,0:0:0:0:
140,208,200055,1,0,0:0:0:0:
184,236,200137,5,2,0:0:0:0:
212,280,200220,1,0,0:0:0:0:
208,332,200302,1,8,0:0:0:0:
172,372,200384,1,0,0:0:0:0:
120,380,200467,1,2,0:0:0:0:
72,356,200549,1,0,0:0:0:0:
52,308,200632,1,8,0:0:0:0:
60,256,200714,1,0,0:0:0:0:
100,224,200796,6,0,L|156:232,3,53.75,2|0|8|0,0:0|0:0|0:0|0:0,0:0:0:0:
240,120,201126,2,0,L|206:162,3,53.75,2|0|8|0,0:0|0:0|0:0|0:0,0:0:0:0:
260,296,201456,2,0,L|239:246,3,53.75,2|0|8|0,0:0|0:0|0:0|0:0,0:0:0:0:
100,224,201785,2,0,L|156:232,3,53.75,2|0|8|0,0:0|0:0|0:0|0:0,0:0:0:0:
240,120,202115,5,2,0:0:0:0:
292,100,202198,1,0,0:0:0:0:
344,104,202280,1,8,0:0:0:0:
384,136,202362,1,0,0:0:0:0:
404,188,202445,1,2,0:0:0:0:
396,240,202527,1,0,0:0:0:0:
364,284,202610,1,8,0:0:0:0:
312,300,202692,1,0,0:0:0:0:
260,292,202774,5,2,0:0:0:0:
224,252,202857,1,0,0:0:0:0:
188,212,202939,1,8,0:0:0:0:
136,196,203022,1,0,0:0:0:0:
84,204,203104,1,2,0:0:0:0:
48,244,203187,1,0,0:0:0:0:
32,296,203269,1,8,0:0:0:0:
48,348,203351,1,0,0:0:0:0:
88,384,203434,5,2,0:0:0:0:
116,340,203516,1,0,0:0:0:0:
164,316,203599,1,8,0:0:0:0:
216,316,203681,1,0,0:0:0:0:
260,348,203763,1,2,0:0:0:0:
312,360,203846,1,0,0:0:0:0:
364,344,203928,1,8,0:0:0:0:
400,304,204011,1,0,0:0:0:0:
408,252,204093,5,2,0:0:0:0:
400,240,204176,1,0,0:0:0:0:
392,224,204258,1,0,0:0:0:0:
388,208,204340,1,0,0:0:0:0:
388,192,204423,1,0,0:0:0:0:
388,176,204505,1,0,0:0:0:0:
392,160,204588,1,0,0:0:0:0:
396,144,204670,1,0,0:0:0:0:
404,128,204752,5,6,0:0:0:0:
364,164,204835,1,0,0:0:0:0:
312,172,204917,1,0,0:0:0:0:
260,156,205000,1,0,0:0:0:0:
228,116,205082,1,10,0:0:0:0:
188,80,205165,1,0,0:0:0:0:
136,68,205247,1,0,0:0:0:0:
88,88,205329,1,0,0:0:0:0:
52,128,205412,5,10,0:0:0:0:
100,152,205494,1,0,0:0:0:0:
156,152,205577,1,0,0:0:0:0:
200,124,205659,1,0,0:0:0:0:
224,76,205742,1,10,0:0:0:0:
268,44,205824,1,0,0:0:0:0:
320,36,205906,1,0,0:0:0:0:
372,56,205989,1,0,0:0:0:0:
400,100,206071,5,10,0:0:0:0:
408,152,206154,1,0,0:0:0:0:
388,200,206236,1,0,0:0:0:0:
344,232,206318,1,0,0:0:0:0:
292,236,206401,1,10,0:0:0:0:
244,216,206483,1,0,0:0:0:0:
212,172,206566,1,0,0:0:0:0:
164,148,206648,1,0,0:0:0:0:
112,156,206731,5,10,0:0:0:0:
108,168,206813,1,0,0:0:0:0:
106,182,206895,1,0,0:0:0:0:
104,195,206978,1,0,0:0:0:0:
104,208,207060,1,0,0:0:0:0:
104,222,207143,1,0,0:0:0:0:
105,235,207225,1,0,0:0:0:0:
108,248,207307,1,0,0:0:0:0:
111,262,207390,5,6,0:0:0:0:
168,220,207472,1,0,0:0:0:0:
240,216,207555,1,8,0:0:0:0:
300,252,207637,1,0,0:0:0:0:
344,308,207720,1,2,0:0:0:0:
412,324,207802,1,0,0:0:0:0:
476,296,207884,1,8,0:0:0:0:
512,232,207967,1,0,0:0:0:0:
508,164,208049,5,2,0:0:0:0:
464,108,208132,1,0,0:0:0:0:
396,84,208214,1,8,0:0:0:0:
332,112,208296,1,0,0:0:0:0:
300,176,208379,1,2,0:0:0:0:
240,216,208461,1,0,0:0:0:0:
168,220,208544,1,8,0:0:0:0:
112,176,208626,1,0,0:0:0:0:
92,108,208709,6,0,L|96:40,3,64.5000024604798,2|0|8|0,0:0|0:0|0:0|0:0,0:0:0:0:
196,292,209038,2,0,L|199:356,3,64.5000024604798,2|0|8|0,0:0|0:0|0:0|0:0,0:0:0:0:
288,108,209368,2,0,L|292:40,3,64.5000024604798,2|0|8|0,0:0|0:0|0:0|0:0,0:0:0:0:
392,292,209697,2,0,L|395:356,3,64.5000024604798,2|0|8|0,0:0|0:0|0:0|0:0,0:0:0:0:
492,108,210027,5,2,0:0:0:0:
432,68,210110,1,0,0:0:0:0:
360,72,210192,1,8,0:0:0:0:
304,116,210274,1,0,0:0:0:0:
280,184,210357,1,2,0:0:0:0:
224,228,210439,1,0,0:0:0:0:
152,220,210522,1,8,0:0:0:0:
104,168,210604,1,0,0:0:0:0:
100,96,210687,5,2,0:0:0:0:
144,40,210769,1,0,0:0:0:0:
212,16,210851,1,8,0:0:0:0:
276,48,210934,1,0,0:0:0:0:
304,116,211016,1,2,0:0:0:0:
280,184,211099,1,0,0:0:0:0:
308,248,211181,1,8,0:0:0:0:
372,280,211263,1,0,0:0:0:0:
444,268,211346,5,2,0:0:0:0:
400,216,211428,1,0,0:0:0:0:
328,208,211511,1,8,0:0:0:0:
268,248,211593,1,0,0:0:0:0:
224,304,211676,1,2,0:0:0:0:
160,332,211758,1,0,0:0:0:0:
96,308,211840,1,8,0:0:0:0:
56,248,211923,1,0,0:0:0:0:
72,180,212005,5,2,0:0:0:0:
124,228,212088,1,0,0:0:0:0:
192,244,212170,1,8,0:0:0:0:
252,204,212252,1,0,0:0:0:0:
272,136,212335,1,2,0:0:0:0:
248,72,212417,1,0,0:0:0:0:
184,36,212500,1,8,0:0:0:0:
116,52,212582,1,0,0:0:0:0:
68,108,212665,5,2,0:0:0:0:
132,136,212747,1,0,0:0:0:0:
200,120,212829,1,8,0:0:0:0:
248,72,212912,1,0,0:0:0:0:
316,52,212994,1,2,0:0:0:0:
388,64,213077,1,0,0:0:0:0:
432,120,213159,1,8,0:0:0:0:
424,192,213242,1,0,0:0:0:0:
368,236,213324,5,2,0:0:0:0:
328,292,213406,1,0,0:0:0:0:
360,356,213489,1,8,0:0:0:0:
432,360,213571,1,0,0:0:0:0:
472,300,213654,1,2,0:0:0:0:
440,236,213736,1,0,0:0:0:0:
368,236,213818,1,8,0:0:0:0:
328,292,213901,1,0,0:0:0:0:
260,308,213983,5,2,0:0:0:0:
196,276,214066,1,0,0:0:0:0:
172,208,214148,1,8,0:0:0:0:
204,144,214231,1,0,0:0:0:0:
216,76,214313,1,2,0:0:0:0:
176,20,214395,1,0,0:0:0:0:
108,0,214478,1,8,0:0:0:0:
48,36,214560,1,0,0:0:0:0:
20,104,214643,5,2,0:0:0:0:
48,168,214725,1,0,0:0:0:0:
112,200,214807,1,8,0:0:0:0:
180,184,214890,1,0,0:0:0:0:
232,136,214972,1,2,0:0:0:0:
300,116,215055,1,0,0:0:0:0:
360,152,215137,1,8,0:0:0:0:
368,224,215220,1,0,0:0:0:0:
320,276,215302,5,2,0:0:0:0:
248,272,215384,1,0,0:0:0:0:
208,212,215467,1,8,0:0:0:0:
144,180,215549,1,0,0:0:0:0:
76,200,215632,1,2,0:0:0:0:
36,260,215714,1,0,0:0:0:0:
48,328,215796,1,8,0:0:0:0:
104,376,215879,1,0,0:0:0:0:
176,372,215961,5,2,0:0:0:0:
228,324,216044,1,0,0:0:0:0:
232,252,216126,1,8,0:0:0:0:
196,192,216209,1,0,0:0:0:0:
152,136,216291,1,2,0:0:0:0:
156,64,216373,1,0,0:0:0:0:
208,16,216456,1,8,0:0:0:0:
280,12,216538,1,0,0:0:0:0:
332,60,216621,5,2,0:0:0:0:
348,128,216703,1,0,0:0:0:0:
312,188,216785,1,8,0:0:0:0:
244,212,216868,1,0,0:0:0:0:
180,180,216950,1,2,0:0:0:0:
112,156,217033,1,0,0:0:0:0:
52,196,217115,1,8,0:0:0:0:
40,268,217198,1,0,0:0:0:0:
84,324,217280,5,2,0:0:0:0:
88,312,217362,1,0,0:0:0:0:
92,300,217445,1,0,0:0:0:0:
96,288,217527,1,0,0:0:0:0:
100,276,217610,2,0,B|104:252|104:252|100:232,3,43
248,112,217939,5,14,0:0:0:0:
248,112,218022,1,0,0:0:0:0:
248,112,218104,2,0,B|240:144|240:144|248:176,1,64.5000024604798
308,240,218269,1,10,0:0:0:0:
308,240,218352,1,0,0:0:0:0:
308,240,218434,2,0,B|340:248|340:248|372:240,1,64.5000024604798
432,176,218599,1,10,0:0:0:0:
432,176,218682,1,0,0:0:0:0:
432,176,218764,2,0,B|440:144|440:144|432:112,1,64.5000024604798
372,52,218928,1,10,0:0:0:0:
372,52,219011,1,0,0:0:0:0:
372,52,219093,2,0,B|340:44|340:44|308:52,1,64.5000024604798
64,120,219258,5,14,0:0:0:0:
64,120,219340,1,0,0:0:0:0:
64,120,219423,2,0,L|0:112,1,64.5000024604798
183,182,219588,1,10,0:0:0:0:
183,182,219670,1,0,0:0:0:0:
183,182,219753,2,0,L|247:174,1,64.5000024604798
68,200,219917,1,10,0:0:0:0:
68,200,219999,1,0,0:0:0:0:
68,200,220082,2,0,L|4:192,1,64.5000024604798
179,262,220247,1,10,0:0:0:0:
179,262,220329,1,0,0:0:0:0:
179,262,220412,2,0,L|243:254,1,64.5000024604798
76,344,220577,5,14,0:0:0:0:
76,344,220659,1,0,0:0:0:0:
76,344,220742,2,0,L|72:280,1,64.5000024604798
187,117,220906,5,10,0:0:0:0:
187,117,220988,1,0,0:0:0:0:
187,117,221071,2,0,L|183:181,1,64.5000024604798
300,344,221236,5,10,0:0:0:0:
300,344,221318,1,0,0:0:0:0:
300,344,221401,2,0,L|296:280,1,64.5000024604798
411,117,221565,5,10,0:0:0:0:
411,117,221647,1,0,0:0:0:0:
411,117,221730,2,0,L|407:181,1,64.5000024604798
440,324,221895,5,14,0:0:0:0:
440,324,221978,1,0,0:0:0:0:
440,324,222060,2,0,P|409:318|377:321,1,64.5000024604798
342,236,222225,5,10,0:0:0:0:
342,236,222308,1,0,0:0:0:0:
342,236,222390,2,0,P|315:254|295:278,1,64.5000024604798
212,240,222555,5,10,0:0:0:0:
212,240,222638,1,0,0:0:0:0:
212,240,222720,2,0,P|205:271|208:303,1,64.5000024604798
123,335,222884,5,10,0:0:0:0:
123,335,222967,1,0,0:0:0:0:
123,335,223049,2,0,P|141:361|166:382,1,64.5000024604798
272,120,223214,5,14,0:0:0:0:
220,72,223296,1,0,0:0:0:0:
148,68,223379,1,0,0:0:0:0:
96,116,223461,1,0,0:0:0:0:
80,184,223544,1,10,0:0:0:0:
116,244,223626,1,0,0:0:0:0:
184,268,223709,1,0,0:0:0:0:
252,244,223791,1,0,0:0:0:0:
308,200,223873,5,10,0:0:0:0:
380,200,223956,1,0,0:0:0:0:
428,252,224038,1,0,0:0:0:0:
424,324,224121,1,0,0:0:0:0:
364,360,224203,1,10,0:0:0:0:
296,348,224285,1,0,0:0:0:0:
264,284,224368,1,0,0:0:0:0:
288,216,224450,1,0,0:0:0:0:
356,188,224533,6,0,P|388:184|420:188,3,64.5000024604798,10|0|0|0,0:0|0:0|0:0|0:0,0:0:0:0:
202,107,224862,2,0,P|183:81|170:51,3,64.5000024604798,10|0|0|0,0:0|0:0|0:0|0:0,0:0:0:0:
209,280,225192,2,0,P|196:310|177:336,3,64.5000024604798,10|0|0|0,0:0|0:0|0:0|0:0,0:0:0:0:
356,188,225522,2,0,P|388:184|420:188,3,64.5000024604798,10|0|0|0,0:0|0:0|0:0|0:0,0:0:0:0:
202,107,225851,5,10,0:0:0:0:
132,88,225934,1,0,0:0:0:0:
68,116,226016,1,0,0:0:0:0:
40,180,226099,1,0,0:0:0:0:
60,248,226181,1,10,0:0:0:0:
120,288,226263,1,0,0:0:0:0:
192,280,226346,1,0,0:0:0:0:
236,224,226428,1,0,0:0:0:0:
232,152,226511,5,10,0:0:0:0:
172,188,226593,1,0,0:0:0:0:
152,256,226676,1,0,0:0:0:0:
164,324,226758,1,0,0:0:0:0:
216,372,226840,1,10,0:0:0:0:
288,376,226923,1,0,0:0:0:0:
348,340,227005,1,0,0:0:0:0:
380,276,227088,1,0,0:0:0:0:
368,208,227170,5,10,0:0:0:0:
320,160,227252,1,0,0:0:0:0:
312,88,227335,1,0,0:0:0:0:
352,32,227417,1,0,0:0:0:0:
420,16,227500,1,10,0:0:0:0:
484,48,227582,1,0,0:0:0:0:
508,116,227665,1,0,0:0:0:0:
484,180,227747,1,0,0:0:0:0:
424,216,227829,5,10,0:0:0:0:
419,200,227911,1,0,0:0:0:0:
415,184,227993,1,0,0:0:0:0:
413,168,228076,1,0,0:0:0:0:
412,152,228158,1,0,0:0:0:0:
412,136,228241,1,0,0:0:0:0:
413,120,228323,1,0,0:0:0:0:
415,104,228405,1,0,0:0:0:0:
419,89,228488,5,14,0:0:0:0:
368,148,228571,1,0,0:0:0:0:
292,164,228654,1,0,0:0:0:0:
224,128,228736,1,0,0:0:0:0:
192,60,228818,1,10,0:0:0:0:
120,28,228901,1,0,0:0:0:0:
44,40,228983,1,0,0:0:0:0:
0,104,229066,1,0,0:0:0:0:
0,180,229148,5,10,0:0:0:0:
48,240,229231,1,0,0:0:0:0:
124,260,229313,1,0,0:0:0:0:
192,228,229395,1,0,0:0:0:0:
248,176,229478,1,10,0:0:0:0:
320,148,229560,1,0,0:0:0:0:
392,176,229643,1,0,0:0:0:0:
428,244,229725,1,0,0:0:0:0:
404,316,229807,5,10,0:0:0:0:
328,348,229890,1,0,0:0:0:0:
252,320,229972,1,0,0:0:0:0:
224,240,230055,1,0,0:0:0:0:
264,168,230137,1,10,0:0:0:0:
272,84,230220,1,0,0:0:0:0:
220,20,230302,1,0,0:0:0:0:
136,16,230384,1,0,0:0:0:0:
76,76,230467,5,10,0:0:0:0:
96,172,230549,1,0,0:0:0:0:
184,208,230632,1,0,0:0:0:0:
268,160,230714,1,0,0:0:0:0:
360,128,230796,5,0,0:0:0:0:
440,184,230879,1,0,0:0:0:0:
440,280,230961,1,0,0:0:0:0:
356,332,231044,1,0,0:0:0:0:
268,292,231126,6,0,B|216:264|212:304|156:288,1,114.666666666667,6|0,0:0|0:0,0:0:0:0:
76,260,231456,2,0,P|72:292|76:316,2,57.3333333333333,2|2|2,0:0|0:0|0:0,0:0:0:0:
140,204,231785,1,6,0:0:0:0:
163,188,232115,2,0,P|168:159|163:131,2,57.3333333333333,2|2|2,0:0|0:0|0:0,0:0:0:0:
111,72,232445,6,0,P|164:52|216:72,1,114.666666666667,6|0,0:0|0:0,0:0:0:0:
280,124,232774,2,0,L|340:120,2,57.3333333333333,2|2|2,0:0|0:0|0:0,0:0:0:0:
396,0,233104,2,0,L|369:53,2,57.3333333333333,6|2|2,0:0|0:0|0:0,0:0:0:0:
440,168,233434,2,0,L|414:116,2,57.3333333333333,6|2|2,0:0|0:0|0:0,0:0:0:0:
502,223,233763,6,0,B|448:208|448:208|392:224,1,114.666666666667,6|0,0:0|0:0,0:0:0:0:
392,312,234093,2,0,L|448:296,2,57.3333333333333,2|2|2,0:0|0:0|0:0,0:0:0:0:
304,344,234423,1,6,0:0:0:0:
280,356,234752,1,2,0:0:0:0:
280,356,234862,2,0,B|272:328|272:328|280:296,1,57.3333333333333,2|2,0:0|0:0,0:0:0:0:
184,216,235082,6,0,L|300:228,1,114.666666666667,6|0,0:0|0:0,0:0:0:0:
332,152,235412,2,0,P|304:144|276:148,2,57.3333333333333,2|2|2,0:0|0:0|0:0,0:0:0:0:
240,68,235742,2,0,P|214:82|197:104,2,57.3333333333333,6|2|2,0:0|0:0|0:0,0:0:0:0:
116,76,236071,1,6,0:0:0:0:
116,76,236181,2,0,P|108:104|112:132,1,57.3333333333333,2|2,0:0|0:0,0:0:0:0:
72,212,236401,6,0,B|120:236|176:220|196:176|200:140|200:140|216:184|280:224|340:208|456:212|476:88|420:16|296:-28|200:32|184:128|236:176|380:228|336:288|300:348,1,860,4|0,0:0|0:0,0:0:0:0:
