osu file format v14

[General]
AudioFilename: audio.mp3
AudioLeadIn: 0
PreviewTime: 98520
Countdown: 0
SampleSet: Soft
StackLeniency: 0.3
Mode: 0
LetterboxInBreaks: 0
WidescreenStoryboard: 1

[Editor]
Bookmarks:2275,32257,51377,98518,122255,138738,144013,157199,167749,175991,183903,199727,239947
DistanceSpacing: 1
BeatDivisor: 4
GridSize: 4
TimelineZoom: 0.8999999

[Metadata]
Title:Ange du Blanc Pur
TitleUnicode:Ange du Blanc Pur
Artist:ke-ji feat. Nanahira
ArtistUnicode:ke-ji feat. ななひら
Creator:Astronic
Version:Normal
Source:
Tags:japanese metal colory starry confetto しらこいし shirakoishi rock jrock j-rock
BeatmapID:2477068
BeatmapSetID:1188740

[Difficulty]
HPDrainRate:3.5
CircleSize:3
OverallDifficulty:4
ApproachRate:5
SliderMultiplier:0.999999999999999
SliderTickRate:1

[Events]
//Background and Video events
0,0,"bg.jpg",0,0
//Break Periods
2,122455,136879
2,184103,192593
//Storyboard Layer 0 (Background)
//Storyboard Layer 1 (Fail)
//Storyboard Layer 2 (Pass)
//Storyboard Layer 3 (Foreground)
//Storyboard Layer 4 (Overlay)
//Storyboard Sound Samples

[TimingPoints]
2275,333.333333333333,4,2,1,60,1,0
16274,372.670807453416,4,2,1,60,1,0
16646,483.870967741935,4,2,1,60,1,0
16887,545.454545454546,4,2,1,60,1,0
17159,416.666666666667,4,2,1,60,1,0
17367,600,4,2,1,60,1,0
17967,833.333333333333,4,2,1,60,1,0
18383,869.565217391304,4,2,1,60,1,0
19252,1016.94915254237,4,2,1,60,1,0
20268,1000,4,2,1,60,1,0
24268,333.333333333333,4,2,1,60,1,0
32257,329.67032967033,4,2,1,60,1,0
42806,329.67032967033,3,2,2,60,1,0
46432,329.67032967033,3,2,2,60,1,0
48410,329.67032967033,4,2,2,60,1,0
51377,-100,4,2,1,70,0,0
61596,329.67032967033,3,2,1,70,1,0
62090,-100,3,2,1,50,0,0
65552,329.67032967033,4,2,1,60,1,0
70826,-100,4,2,1,70,0,0
81376,329.67032967033,3,2,1,70,1,0
81706,-100,3,2,1,50,0,0
85332,329.67032967033,4,2,1,50,1,0
85661,-100,4,2,1,60,0,0
90606,-100,4,2,1,70,0,0
98189,-100,4,2,1,100,0,0
98518,-90.9090909090909,4,2,2,85,0,1
122255,329.67032967033,6,2,1,85,1,0
136101,329.67032967033,4,2,1,85,1,0
138079,-100,4,2,1,60,0,0
144013,-100,4,2,2,85,0,0
154562,-100,4,2,1,85,0,0
157199,-100,4,2,1,60,0,0
167749,329.67032967033,3,2,2,60,1,0
171376,329.67032967033,3,2,2,60,1,0
173354,329.67032967033,4,2,2,60,1,0
175991,-100,4,2,1,70,0,0
183903,-100,4,2,1,50,0,0
199397,-100,4,2,1,100,0,0
199727,-90.9090909090909,4,2,2,85,0,1
228738,-90.9090909090909,4,2,2,95,0,1
231375,-90.9090909090909,4,2,1,85,0,0
239947,-90.9090909090909,4,2,1,5,0,0

[Colours]
Combo1 : 255,128,192
Combo2 : 128,255,255
Combo3 : 255,255,128
Combo4 : 128,255,128

[HitObjects]
54,75,32257,6,0,B|94:42|94:42|256:58,1,200.026666666672,6|10,2:0|2:0,2:0:0:0:
344,71,33246,1,2,2:0:0:0:
445,87,33575,2,0,B|461:244|461:244|421:288,1,200.026666666672,10|10,2:0|2:0,2:0:0:0:
352,337,34564,1,2,2:0:0:0:
288,260,34894,6,0,B|235:240|187:264|187:264|139:288|90:268,1,200.026666666672,10|10,2:0|2:0,2:0:0:0:
6,216,35883,1,2,2:0:0:0:
38,119,36213,2,0,P|102:83|222:140,1,200.026666666672,10|10,2:0|2:0,2:0:0:0:
243,220,37202,1,8,2:0:0:0:
264,321,37531,5,10,2:0:0:0:
461,288,38191,1,10,2:0:0:0:
493,91,38850,1,10,2:0:0:0:
308,10,39509,1,10,2:0:0:0:
251,95,39839,1,10,2:0:0:0:
155,62,40169,6,0,P|62:62|5:154,1,200.026666666672,10|10,2:0|2:0,2:0:0:0:
50,341,41487,1,10,2:0:0:0:
219,232,42147,1,10,2:0:0:0:
292,300,42476,1,10,2:0:0:0:
364,369,42806,6,0,B|417:349|417:349|429:252,1,150.019999999998,6|2,2:0|1:0,1:0:0:0:
441,103,43795,2,0,B|401:71|401:71|296:83,1,150.019999999998,2|2,1:0|1:0,1:0:0:0:
239,220,44784,2,0,L|82:208,1,150.019999999998,2|2,1:0|1:0,1:0:0:0:
30,71,45773,5,2,1:0:0:0:
118,18,46102,1,2,1:0:0:0:
211,58,46432,6,0,B|256:75|288:54|288:54|324:36|368:56,1,150.019999999998,6|2,2:0|1:0,1:0:0:0:
476,140,47421,2,0,B|464:193|464:193|480:237|480:237|468:297,1,150.019999999998,2|2,1:0|1:0,1:0:0:0:
340,357,48410,5,2,1:0:0:0:
247,321,48739,1,2,1:0:0:0:
159,365,49069,2,0,P|114:365|66:329,1,100.013333333332,2|2,1:0|1:0,1:0:0:0:
30,240,49728,2,0,L|42:131,1,100.013333333332,2|2,1:0|1:0,1:0:0:0:
54,38,50388,1,6,2:0:0:0:
219,151,51047,5,6,1:0:0:0:
300,216,51377,2,0,L|360:208,1,50.0066666666668,10|2,2:0|2:0,2:0:0:0:
400,200,51706,1,2,2:0:0:0:
412,152,51871,2,0,L|416:84,1,50.2033333333334,10|8,1:0|2:0,2:0:0:0:
417,54,52201,2,0,B|380:79|380:79|264:58,1,150.019999999998,10|10,1:0|2:0,2:0:0:0:
175,42,53025,1,2,2:0:0:0:
94,107,53355,1,10,2:0:0:0:
14,167,53684,6,0,L|22:268,1,100.013333333332,10|8,1:0|2:0,2:0:0:0:
26,316,54179,1,8,1:0:0:0:
122,349,54508,2,0,L|179:337,1,50.0066666666668,10|8,1:0|2:0,2:0:0:0:
223,329,54838,2,0,P|276:341|328:325,1,100.013333333332,10|8,1:0|1:0,2:0:0:0:
364,304,55333,2,0,L|368:244,1,50.0066666666668,8|8,2:0|1:0,2:0:0:0:
429,175,55827,1,10,1:0:0:0:
425,127,55992,2,0,L|417:67,1,50.0066666666668,10|10,2:0|1:0,2:0:0:0:
409,26,56322,6,0,P|356:6|300:16,1,100.013333333332,10|8,1:0|2:0,2:0:0:0:
264,26,56816,1,8,1:0:0:0:
203,107,57146,2,0,L|147:99,1,50.0066666666668,2|10,2:0|2:0,2:0:0:0:
106,83,57475,2,0,P|114:143|98:192,1,100.013333333332,10|8,1:0|1:0,2:0:0:0:
74,220,57970,2,0,L|82:272,1,50.0066666666668,8|8,2:0|1:0,2:0:0:0:
98,369,58464,1,10,1:0:0:0:
147,361,58629,2,0,L|207:369,1,50.0066666666668,10|2,2:0|2:0,2:0:0:0:
247,369,58959,6,0,P|296:349|352:357,1,100.013333333332,10|10,1:0|2:0,2:0:0:0:
393,357,59453,1,10,1:0:0:0:
469,292,59783,2,0,L|461:232,1,50.0066666666668,10|8,1:0|2:0,2:0:0:0:
429,204,60113,2,0,L|437:99,1,100.013333333332,10|10,1:0|1:0,2:0:0:0:
409,62,60607,1,10,2:0:0:0:
376,22,60772,2,0,B|316:18|316:18|276:42|276:42|223:38,1,150.019999999998,2|10,2:0|2:0,2:0:0:0:
131,34,61596,5,6,2:0:0:0:
110,183,62090,2,0,L|54:192,2,50.0066666666669,2|10|2,1:0|1:0|2:0,2:0:0:0:
147,220,62585,2,0,P|195:240|251:228,1,100.013333333332,2|8,2:0|2:0,2:0:0:0:
332,192,63244,1,8,1:0:0:0:
421,147,63574,6,0,L|433:256,1,100.013333333332,6|8,1:0|2:0,2:0:0:0:
441,296,64068,2,0,L|501:288,2,50.0066666666669,2|2|2,2:0|2:0|2:0,2:0:0:0:
425,345,64563,2,0,L|316:337,1,100.013333333332,6|8,1:0|2:0,2:0:0:0:
280,316,65057,2,0,L|163:329,1,100.013333333333,10|8,1:0|1:0,2:0:0:0:
131,333,65552,5,6,1:0:0:0:
50,272,65881,2,0,L|58:167,1,100.013333333333,8|8,1:0|1:0,2:0:0:0:
66,71,66541,2,0,P|114:46|171:54,1,100.013333333332,8|8,1:0|1:0,2:0:0:0:
243,107,67200,2,0,P|296:119|356:99,1,100.013333333333,10|10,1:0|1:0,2:0:0:0:
433,62,67859,1,10,1:0:0:0:
505,131,68189,2,0,P|485:183|497:236,1,100.013333333333,10|8,1:0|1:0,2:0:0:0:
510,272,68683,2,0,L|409:264,1,100.013333333333,10|8,1:0|1:0,2:0:0:0:
360,256,69178,1,10,1:0:0:0:
284,187,69508,6,0,L|219:196,1,50.0066666666668,14|14,1:0|1:0,2:0:0:0:
183,204,69837,1,14,1:0:0:0:
135,212,70002,1,14,1:0:0:0:
54,272,70332,2,0,L|62:337,1,50.0066666666669,8|8,2:0|2:0,2:0:0:0:
151,365,70826,5,4,2:0:0:0:
235,312,71156,2,0,L|296:321,1,50.0066666666669,10|10,2:0|1:0,2:0:0:0:
328,340,71486,1,2,2:0:0:0:
376,352,71650,2,0,L|436:344,1,50.2033333333334,10|8,1:0|2:0,2:0:0:0:
472,324,71980,2,0,B|440:291|440:291|448:182,1,150.019999999998,10|10,1:0|2:0,2:0:0:0:
460,88,72804,1,2,2:0:0:0:
401,10,73134,1,10,2:0:0:0:
308,46,73464,6,0,P|256:54|199:38,1,100.013333333332,10|8,1:0|2:0,2:0:0:0:
163,26,73958,1,8,1:0:0:0:
70,67,74288,2,0,L|62:123,1,50.0066666666669,10|10,1:0|2:0,2:0:0:0:
30,155,74617,2,0,L|38:256,1,100.013333333333,10|8,1:0|1:0,2:0:0:0:
42,304,75112,2,0,L|102:312,1,50.0066666666669,8|8,2:0|1:0,2:0:0:0:
187,280,75606,2,0,L|179:228,2,50.0066666666669,10|10|10,1:0|2:0|1:0,2:0:0:0:
235,292,76101,6,0,P|288:304|344:280,1,100.013333333333,10|8,1:0|2:0,2:0:0:0:
372,264,76595,1,8,1:0:0:0:
453,200,76925,2,0,L|457:139,1,50.0066666666669,10|10,1:0|2:0,2:0:0:0:
461,99,77255,2,0,P|417:79|357:93,1,100.109999999999,10|8,1:0|1:0,2:0:0:0:
320,107,77749,2,0,L|312:54,1,50.0066666666669,8|8,2:0|1:0,2:0:0:0:
219,14,78244,1,10,1:0:0:0:
175,38,78409,2,0,L|120:31,1,50.2066666666668,10|10,2:0|1:0,2:0:0:0:
74,22,78738,6,0,L|82:127,1,100.013333333333,10|10,1:0|2:0,2:0:0:0:
86,171,79233,1,10,1:0:0:0:
155,244,79562,2,0,L|215:236,1,50.0066666666669,10|8,1:0|2:0,2:0:0:0:
235,200,79892,2,0,L|336:212,1,100.013333333333,10|10,1:0|1:0,2:0:0:0:
385,216,80387,1,8,2:0:0:0:
433,224,80552,2,0,P|445:280|429:329,1,100.013333333332,10|8,1:0|1:0,2:0:0:0:
405,361,81046,1,10,2:0:0:0:
308,337,81376,6,0,B|256:321|256:321|163:369,1,150.019999999998,12|10,2:0|1:0,2:0:0:0:
126,345,82035,2,0,L|118:288,1,50.0066666666669,10|10,1:0|1:0,2:0:0:0:
78,264,82365,2,0,L|86:158,1,100.109999999999,14|8,1:0|2:0,2:0:0:0:
94,62,83024,1,8,1:0:0:0:
183,18,83354,6,0,P|239:6|289:27,1,100.109999999999,14|8,1:0|1:0,2:0:0:0:
320,46,83848,1,10,1:0:0:0:
368,62,84013,2,0,L|425:54,1,50.0066666666669,10|10,1:0|1:0,2:0:0:0:
469,46,84343,2,0,L|460:163,1,100.109999999999,14|8,1:0|2:0,2:0:0:0:
457,196,84837,1,10,1:0:0:0:
445,345,85332,5,10,1:0:0:0:
348,312,85661,2,0,P|296:304|243:321,1,100.013333333333,8|8,1:0|1:0,2:0:0:0:
155,357,86321,2,0,L|146:252,1,100.109999999999,8|8,1:0|1:0,2:0:0:0:
135,155,86980,1,10,1:0:0:0:
199,79,87310,1,10,1:0:0:0:
300,67,87639,1,10,1:0:0:0:
385,123,87969,6,0,P|393:179|372:228,1,100.013333333333,10|8,1:0|1:0,2:0:0:0:
352,260,88463,2,0,L|247:252,1,100.013333333333,10|8,1:0|1:0,2:0:0:0:
203,248,88958,1,10,1:0:0:0:
110,212,89288,5,14,1:0:0:0:
66,236,89452,1,14,1:0:0:0:
26,268,89617,2,0,L|34:329,1,50.0066666666669,14|14,1:0|1:0,2:0:0:0:
131,345,90112,2,0,L|191:333,1,50.0066666666669,8|8,2:0|2:0,2:0:0:0:
276,304,90606,6,0,P|328:321|385:304,1,100.013333333333,14|8,2:0|2:0,2:0:0:0:
417,292,91101,1,10,1:0:0:0:
457,264,91266,2,0,L|464:155,1,100.109999999999,10|10,1:0|2:0,2:0:0:0:
469,115,91760,1,2,2:0:0:0:
473,67,91925,1,10,1:0:0:0:
393,10,92255,1,10,2:0:0:0:
308,67,92584,2,0,P|260:75|203:50,1,100.013333333333,10|10,1:0|2:0,2:0:0:0:
126,2,93244,5,10,2:0:0:0:
74,87,93573,1,10,2:0:0:0:
14,167,93903,2,0,L|26:280,1,100.013333333333,10|10,2:0|2:0,2:0:0:0:
98,337,94562,2,0,P|147:353|203:337,1,100.013333333333,10|8,2:0|2:0,2:0:0:0:
235,316,95057,2,0,L|288:325,1,50.0066666666669,10|10,1:0|2:0,2:0:0:0:
385,341,95551,1,8,2:0:0:0:
429,248,95881,6,0,L|489:260,2,50.0066666666669,10|8|8,2:0|1:0|1:0,2:0:0:0:
453,204,96375,1,8,2:0:0:0:
425,107,96705,2,0,L|364:111,1,50.0066666666669,10|10,1:0|2:0,2:0:0:0:
324,115,97035,1,10,1:0:0:0:
276,119,97200,2,0,L|288:224,2,100.013333333335,8|8|8,2:0|2:0|2:0,2:0:0:0:
268,18,98189,1,8,2:0:0:0:
158,13,98518,6,0,B|122:41|122:41|127:165,1,165.179671702068,4|8,1:0|1:0,1:0:0:0:
101,211,99178,2,0,P|60:198|12:215,2,82.5898358510341,2|2|10,1:0|1:0|1:0,1:0:0:0:
121,264,99837,2,0,L|129:321,1,55.2823350118002,2|8,1:0|1:0,1:0:0:0:
178,349,100167,2,0,P|215:345|243:324,1,55.2823350118002,2|8,1:0|1:0,1:0:0:0:
271,297,100496,1,2,1:0:0:0:
365,358,100826,1,2,1:0:0:0:
425,260,101156,6,0,L|433:138,1,110.231003356935,2|0,1:0|1:0,1:0:0:0:
409,41,101815,2,0,P|446:33|498:61,2,82.5898358510341,2|2|10,1:0|1:0|1:0,1:0:0:0:
365,73,102474,2,0,L|296:65,1,55.2823350118002,2|8,1:0|1:0,1:0:0:0:
275,25,102804,2,0,L|214:33,1,55.2823350118002,2|8,1:0|1:0,1:0:0:0:
166,41,103134,1,2,1:0:0:0:
64,86,103463,1,2,1:0:0:0:
74,199,103793,6,0,L|84:313,1,110.231003356935,2|0,1:0|1:0,1:0:0:0:
177,338,104452,2,0,P|222:326|267:345,2,82.5898358510341,2|2|10,1:0|1:0|1:0,1:0:0:0:
129,321,105112,2,0,L|117:207,1,110.231003356935,2|2,1:0|1:0,1:0:0:0:
182,118,105771,1,2,1:0:0:0:
287,151,106101,1,2,1:0:0:0:
360,65,106430,2,0,P|388:57|421:65,1,55.2823350118002,2|8,1:0|1:0,1:0:0:0:
466,86,106760,2,0,L|462:155,1,55.2823350118002,2|8,1:0|1:0,1:0:0:0:
458,199,107090,1,2,1:0:0:0:
373,272,107419,1,2,1:0:0:0:
279,333,107749,6,0,P|229:349|165:329,1,110.231003356935,2|0,1:0|1:0,1:0:0:0:
125,309,108244,1,10,1:0:0:0:
76,285,108408,2,0,L|68:167,1,110.231003356935,10|8,1:0|1:0,1:0:0:0:
64,61,109068,2,0,B|97:27|97:27|226:49,1,165.179671702068,14|8,1:0|1:0,1:0:0:0:
271,57,109727,2,0,P|259:93|275:150,2,82.5898358510341,2|2|8,1:0|1:0|1:0,1:0:0:0:
304,13,110386,6,0,L|373:21,1,55.2823350118002,2|8,1:0|1:0,1:0:0:0:
413,33,110716,2,0,L|421:102,1,55.2823350118002,2|8,1:0|1:0,1:0:0:0:
430,142,111046,1,2,1:0:0:0:
499,228,111375,1,2,1:0:0:0:
462,333,111705,6,0,P|426:357|344:357,1,110.231003356935,2|0,1:0|1:0,1:0:0:0:
287,301,112364,2,0,L|295:212,2,82.5898358510341,2|2|10,1:0|1:0|1:0,1:0:0:0:
251,345,113024,2,0,P|215:345|186:325,1,55.2823350118002,2|8,1:0|1:0,1:0:0:0:
162,293,113353,2,0,P|130:277|93:281,1,55.2823350118002,2|8,1:0|1:0,1:0:0:0:
56,297,113683,1,2,1:0:0:0:
28,187,114013,1,2,1:0:0:0:
0,77,114342,6,0,L|117:61,1,110.231003356935,2|0,1:0|1:0,1:0:0:0:
214,98,115002,2,0,P|221:57|206:4,2,82.5898358510341,2|2|10,1:0|1:0|1:0,1:0:0:0:
198,151,115661,1,2,1:0:0:0:
308,126,115991,1,2,1:0:0:0:
417,102,116321,2,0,L|421:171,1,55.2823350118002,2|8,1:0|1:0,1:0:0:0:
470,191,116650,2,0,L|466:252,1,55.2823350118002,2|8,1:0|1:0,1:0:0:0:
458,301,116980,6,0,P|405:281|332:301,1,110.231003356935,2|2,1:0|1:0,1:0:0:0:
259,349,117639,1,2,1:0:0:0:
145,354,117969,1,2,1:0:0:0:
60,285,118299,2,0,L|72:163,1,110.231003356935,2|0,1:0|1:0,1:0:0:0:
80,118,118793,1,10,1:0:0:0:
84,61,118958,2,0,P|133:82|194:61,1,110.231003356935,10|8,1:0|1:0,1:0:0:0:
291,21,119617,5,10,1:0:0:0:
352,114,119947,1,8,1:0:0:0:
328,216,120277,2,0,L|218:201,1,110.231003356935,8|8,1:0|1:0,1:0:0:0:
162,191,120771,1,2,1:0:0:0:
109,175,120936,6,0,P|113:237|81:289,1,110.231003356935,10|8,1:0|1:0,1:0:0:0:
166,362,121595,2,0,L|223:354,1,55.2823350118002,8|8,1:0|1:0,1:0:0:0:
271,325,121925,2,0,L|332:333,1,55.2823350118002,8|8,1:0|1:0,1:0:0:0:
377,341,122255,1,12,2:0:0:0:
304,329,138079,6,0,P|260:345|195:323,1,100.109999999999,8|8,2:0|2:0,2:0:0:0:
118,284,138738,2,0,B|78:248|78:248|84:96,1,200.110000000002,12|8,2:0|2:0,2:0:0:0:
110,58,139562,2,0,L|46:62,2,50.0066666666669,2|2|10,2:0|2:0|1:0,2:0:0:0:
139,18,140057,2,0,L|239:26,1,100.013333333332,2|8,2:0|1:0,2:0:0:0:
340,38,140716,2,0,L|348:99,1,50.0066666666669,8|8,2:0|2:0,2:0:0:0:
356,139,141046,1,2,2:0:0:0:
372,240,141375,6,0,B|340:244|340:244|308:264|308:264|268:268,2,100.013333333335,2|2|8,2:0|2:0|2:0,2:0:0:0:
473,228,142364,2,0,L|477:171,1,50.0066666666669,8|8,1:0|2:0,2:0:0:0:
481,127,142694,1,8,1:0:0:0:
485,79,142859,2,0,P|433:87|380:62,1,100.013333333332,2|2,2:0|2:0,2:0:0:0:
352,34,143353,2,0,P|304:14|243:30,1,100.013333333332,2|2,1:0|1:0,2:0:0:0:
167,67,144013,6,0,L|159:183,1,100.013333333332,6|0,1:0|1:0,1:0:0:0:
179,212,144507,2,0,P|134:211|82:244,1,100.106666666667,10|8,1:0|1:0,1:0:0:0:
158,307,145166,1,8,1:0:0:0:
256,336,145496,2,0,P|304:348|360:320,1,100.206666666666,8|8,1:0|1:0,1:0:0:0:
388,296,145991,1,0,1:0:0:0:
428,256,146155,2,0,L|488:264,2,50.0066666666669,8|2|10,1:0|1:0|1:0,1:0:0:0:
408,212,146650,6,0,L|416:107,1,100.013333333332,2|0,1:0|1:0,1:0:0:0:
416,64,147144,2,0,P|367:81|315:64,1,100.013333333332,10|8,1:0|1:0,1:0:0:0:
232,24,147804,1,8,1:0:0:0:
184,8,147969,2,0,P|132:-4|71:16,1,100.013333333332,0|0,1:0|1:0,1:0:0:0:
28,88,148628,2,0,L|36:196,1,100.103333333333,0|0,1:0|1:0,1:0:0:0:
24,288,149287,6,0,P|76:284|124:316,1,100.013333333332,14|2,1:0|1:0,1:0:0:0:
148,348,149782,1,10,1:0:0:0:
192,372,149947,2,0,L|297:356,1,100.013333333332,2|2,1:0|1:0,1:0:0:0:
320,316,150441,1,10,1:0:0:0:
368,332,150606,2,0,P|356:276|376:220,1,100.013333333332,2|2,1:0|1:0,1:0:0:0:
412,148,151265,1,2,1:0:0:0:
497,200,151595,2,0,L|505:256,1,50.0066666666669,2|10,1:0|1:0,1:0:0:0:
510,300,151925,6,0,B|465:280|465:280|348:304,1,150.019999999998,2|10,1:0|1:0,1:0:0:0:
272,333,152749,1,10,1:0:0:0:
223,349,152914,2,0,L|215:292,1,50.0066666666668,2|10,1:0|1:0,1:0:0:0:
171,276,153243,2,0,L|175:175,1,100.013333333332,2|0,1:0|1:0,1:0:0:0:
179,123,153738,1,10,1:0:0:0:
187,75,153903,2,0,L|251:67,1,50.0066666666668,2|8,1:0|1:0,1:0:0:0:
272,34,154232,2,0,L|332:42,1,50.0066666666669,0|8,1:0|1:0,1:0:0:0:
372,46,154562,6,0,B|344:87|344:87|356:200,2,150.020000000003,10|0|10,2:0|2:0|2:0,2:0:0:0:
445,115,155881,1,14,2:0:0:0:
461,216,156210,2,0,L|453:276,1,50.0066666666669,8|8,2:0|2:0,2:0:0:0:
449,316,156540,1,10,2:0:0:0:
356,353,156870,2,0,L|296:345,1,50.0066666666668,10|10,1:0|1:0,2:0:0:0:
256,337,157199,6,0,B|219:312|159:337|159:337|114:361|62:337,1,200.026666666672,14|10,2:0|2:0,2:0:0:0:
46,236,158188,1,2,2:0:0:0:
30,135,158518,2,0,B|62:95|62:95|212:84,1,200.110000000002,10|10,2:0|2:0,2:0:0:0:
312,75,159507,1,2,2:0:0:0:
413,58,159837,6,0,L|401:260,1,200.026666666672,10|10,2:0|2:0,2:0:0:0:
308,216,160826,1,2,2:0:0:0:
219,167,161155,2,0,B|199:240|199:240|215:292|215:292|199:369,1,200.026666666672,10|10,2:0|2:0,2:0:0:0:
300,349,162144,2,0,L|360:337,1,50.0066666666669,8|0,2:0|2:0,2:0:0:0:
401,329,162474,5,10,2:0:0:0:
489,147,163133,1,10,2:0:0:0:
312,54,163793,1,10,2:0:0:0:
199,224,164452,1,10,2:0:0:0:
110,179,164782,1,10,2:0:0:0:
22,131,165111,5,10,2:0:0:0:
86,321,165771,1,10,2:0:0:0:
280,268,166430,1,10,2:0:0:0:
231,71,167090,1,10,2:0:0:0:
312,10,167419,1,10,2:0:0:0:
401,54,167749,6,0,B|437:87|437:87|429:208,1,150.019999999998,6|2,2:0|1:0,1:0:0:0:
409,341,168738,2,0,B|372:329|332:345|332:345|292:365|249:343,1,150.166666666665,2|2,1:0|1:0,1:0:0:0:
114,316,169727,2,0,L|127:152,1,150.166666666665,2|2,1:0|1:0,1:0:0:0:
135,14,170716,5,2,1:0:0:0:
227,54,171045,1,2,1:0:0:0:
320,95,171376,6,0,L|308:256,1,150.019999999998,6|2,2:0|1:0,1:0:0:0:
425,341,172365,2,0,B|469:312|469:312|477:200,1,150.019999999998,2|2,1:0|1:0,1:0:0:0:
481,62,173354,5,2,1:0:0:0:
393,18,173683,1,2,1:0:0:0:
320,95,174013,2,0,P|272:115|215:103,1,100.013333333332,2|2,1:0|1:0,1:0:0:0:
131,71,174672,2,0,L|118:187,1,100.013333333332,2|2,1:0|1:0,1:0:0:0:
106,272,175332,1,6,2:0:0:0:
308,288,175991,6,0,B|332:252|332:252|453:264,1,150.019999999998,6|10,2:0|1:0,2:0:0:0:
489,268,176650,1,10,1:0:0:0:
473,167,176980,2,0,L|465:111,1,50.0066666666668,10|10,2:0|1:0,2:0:0:0:
453,67,177310,1,10,1:0:0:0:
360,103,177639,1,10,2:0:0:0:
272,50,177969,2,0,P|219:34|167:54,1,100.013333333332,10|10,1:0|2:0,2:0:0:0:
94,103,178628,5,10,2:0:0:0:
135,196,178958,1,10,2:0:0:0:
38,228,179288,1,10,2:0:0:0:
62,325,179617,1,10,2:0:0:0:
163,341,179947,2,0,B|207:312|207:312|316:333,1,150.019999999998,10|10,2:0|1:0,2:0:0:0:
352,341,180606,2,0,P|336:272|348:236,1,100.013333333332,10|8,2:0|2:0,2:0:0:0:
385,151,181266,6,0,L|449:159,2,50.0066666666668,10|8|8,2:0|1:0|1:0,2:0:0:0:
348,115,181760,1,8,2:0:0:0:
272,179,182090,2,0,L|211:175,1,50.0066666666668,10|10,1:0|2:0,2:0:0:0:
171,171,182419,1,10,1:0:0:0:
122,167,182584,2,0,L|114:54,2,100.013333333336,8|8|8,2:0|2:0|2:0,2:0:0:0:
135,268,183573,2,0,L|195:276,1,50.0066666666668,10|2,1:0|2:0,2:0:0:0:
235,280,183903,5,6,2:0:0:0:
251,192,193793,6,0,P|207:151|112:168,1,150.019999999998,10|8,2:0|2:0,2:0:0:0:
78,187,194452,1,12,2:0:0:0:
223,325,195112,2,0,P|272:329|308:312,2,75.0100000000007,2|2|2,2:0|2:0|2:0,2:0:0:0:
175,308,195771,1,10,2:0:0:0:
74,135,196430,1,10,2:0:0:0:
256,46,197090,5,8,2:0:0:0:
344,228,197749,2,0,L|340:308,2,75.0100000000007,10|2|2,1:0|2:0|2:0,2:0:0:0:
296,212,198408,2,0,P|243:224|199:204,1,100.013333333332,14|2,1:0|2:0,2:0:0:0:
110,224,199068,1,14,1:0:0:0:
74,135,199397,1,10,2:0:0:0:
131,39,199727,6,0,B|173:10|173:10|296:31,1,165.179671702068,4|8,1:0|1:0,1:0:0:0:
345,47,200386,2,0,P|329:89|345:142,2,82.5898358510341,2|2|10,1:0|1:0|1:0,1:0:0:0:
387,5,201046,1,2,1:0:0:0:
494,39,201375,1,2,1:0:0:0:
494,154,201705,2,0,P|502:213|477:269,1,110.231003356935,2|2,1:0|1:0,1:0:0:0:
403,343,202364,5,2,1:0:0:0:
308,281,202694,1,2,1:0:0:0:
226,359,203024,2,0,L|160:347,1,55.2823350118002,2|8,1:0|1:0,1:0:0:0:
119,323,203354,2,0,L|49:327,1,55.2823350118002,2|8,1:0|1:0,1:0:0:0:
8,335,203683,2,0,P|24:276|8:224,1,110.231003356935,2|0,1:0|1:0,1:0:0:0:
41,178,204178,1,10,1:0:0:0:
61,125,204343,2,0,L|-6:133,2,55.1155016784674,10|8|8,1:0|1:0|1:0,1:0:0:0:
130,49,205002,5,10,1:0:0:0:
217,108,205332,1,0,1:0:0:0:
276,21,205661,1,0,1:0:0:0:
362,79,205991,1,0,1:0:0:0:
408,108,206156,1,10,1:0:0:0:
450,137,206321,2,0,L|457:249,1,110.231003356935,2|0,1:0|1:0,1:0:0:0:
371,327,206980,2,0,L|304:319,1,55.2823350118002,8|8,1:0|1:0,1:0:0:0:
260,311,207310,2,0,L|250:240,1,55.2823350118002,8|8,1:0|1:0,1:0:0:0:
238,200,207639,6,0,P|292:165|304:101,1,110.231003356935,10|0,1:0|1:0,1:0:0:0:
246,23,208299,2,0,P|288:26|329:15,2,82.5898358510341,2|2|10,1:0|1:0|1:0,1:0:0:0:
192,8,208958,1,2,1:0:0:0:
128,100,209288,1,2,1:0:0:0:
156,208,209617,2,0,P|205:193|264:212,1,110.231003356935,2|2,1:0|1:0,1:0:0:0:
268,327,210277,6,0,L|391:331,1,110.231003356935,2|2,1:0|1:0,1:0:0:0:
453,240,210936,2,0,P|477:277|522:302,2,82.5898358510341,2|2|10,1:0|1:0|1:0,1:0:0:0:
428,192,211595,2,0,L|432:129,1,55.2823350118002,2|8,1:0|1:0,1:0:0:0:
432,75,211925,2,0,L|371:67,1,55.2823350118002,2|8,1:0|1:0,1:0:0:0:
321,63,212255,1,2,1:0:0:0:
264,162,212584,1,2,1:0:0:0:
197,257,212914,6,0,P|154:265|78:249,1,110.231003356935,2|0,1:0|1:0,1:0:0:0:
0,182,213573,2,0,L|8:96,2,82.5898358510341,2|2|10,1:0|1:0|1:0,1:0:0:0:
0,240,214233,2,0,L|4:307,1,55.2823350118002,2|8,1:0|1:0,1:0:0:0:
12,351,214562,2,0,L|82:347,1,55.2823350118002,2|8,1:0|1:0,1:0:0:0:
127,347,214892,1,2,1:0:0:0:
242,343,215222,1,2,1:0:0:0:
292,240,215551,6,0,P|329:228|362:240,1,55.2823350118002,2|8,1:0|1:0,1:0:0:0:
395,261,215881,2,0,P|436:265|465:253,1,55.2823350118002,2|8,1:0|1:0,1:0:0:0:
494,224,216211,2,0,L|502:96,1,110.231003356935,2|2,1:0|1:0,1:0:0:0:
428,23,216870,2,0,P|374:43|313:27,1,110.231003356935,2|0,1:0|1:0,1:0:0:0:
268,18,217364,1,10,1:0:0:0:
214,1,217529,2,0,B|193:125,1,110.231003356935,2|8,1:0|1:0,1:0:0:0:
103,178,218189,5,12,1:0:0:0:
107,290,218518,1,8,1:0:0:0:
181,377,218848,2,0,P|227:359|308:372,1,110.231003356935,10|10,1:0|1:0,1:0:0:0:
403,364,219507,2,0,P|415:319|411:290,1,55.2823350118002,10|0,1:0|1:0,1:0:0:0:
387,261,219837,2,0,P|383:232|391:192,1,55.2823350118002,8|0,1:0|1:0,1:0:0:0:
415,154,220167,1,8,1:0:0:0:
436,43,220496,6,0,L|321:51,1,110.231003356935,8|8,1:0|1:0,1:0:0:0:
230,121,221156,2,0,P|189:121|165:109,1,55.2823350118002,10|0,1:0|1:0,1:0:0:0:
123,92,221485,2,0,L|115:154,1,55.2823350118002,10|0,1:0|1:0,1:0:0:0:
78,192,221815,1,10,1:0:0:0:
82,307,222145,1,10,1:0:0:0:
177,368,222474,2,0,L|296:359,1,110.231003356935,10|10,1:0|1:0,1:0:0:0:
403,347,223134,1,10,1:0:0:0:
408,236,223463,6,0,B|383:199|383:199|246:207,1,165.179671702068,10|0,1:0|1:0,1:0:0:0:
208,216,224123,2,0,L|221:130,2,82.5898358510341,10|2|2,1:0|1:0|1:0,1:0:0:0:
156,232,224782,2,0,P|114:236|86:224,1,55.2823350118002,10|0,1:0|1:0,1:0:0:0:
48,216,225112,2,0,L|60:150,1,55.2823350118002,10|0,1:0|1:0,1:0:0:0:
68,108,225441,1,10,1:0:0:0:
152,18,225771,1,10,1:0:0:0:
264,43,226101,6,0,P|304:59|379:35,1,110.231003356935,10|10,1:0|1:0,1:0:0:0:
477,14,226760,2,0,L|486:142,1,110.231003356935,10|10,1:0|1:0,1:0:0:0:
499,228,227419,2,0,P|446:244|383:224,1,110.231003356935,10|8,1:0|1:0,1:0:0:0:
337,212,227914,1,2,1:0:0:0:
284,192,228079,2,0,L|272:307,1,110.231003356935,10|8,1:0|1:0,1:0:0:0:
181,372,228738,5,10,1:0:0:0:
69,359,229068,1,8,1:0:0:0:
41,249,229397,1,8,1:0:0:0:
20,138,229727,2,0,L|91:142,1,55.2823350118002,8|2,1:0|1:0,1:0:0:0:
123,113,230057,2,0,P|178:129|246:109,1,110.231003356935,10|8,1:0|1:0,1:0:0:0:
313,39,230716,2,0,L|387:43,1,55.2823350118002,8|8,1:0|1:0,1:0:0:0:
423,47,231046,2,0,L|419:121,1,55.2823350118002,8|10,1:0|1:0,1:0:0:0:
415,154,231375,5,14,2:0:0:0:
304,337,232035,1,10,2:0:0:0:
118,260,232694,1,10,2:0:0:0:
171,67,233354,1,10,2:0:0:0:
251,127,233683,1,10,2:0:0:0:
328,58,234013,5,14,2:0:0:0:
364,256,234672,1,10,2:0:0:0:
187,357,235332,1,10,2:0:0:0:
26,236,235991,1,10,2:0:0:0:
46,135,236321,1,10,2:0:0:0:
66,38,236650,5,14,2:0:0:0:
256,192,236980,12,0,239947,2:0:0:0:
