osu file format v14

[General]
AudioFilename: audio.mp3
AudioLeadIn: 0
PreviewTime: 98520
Countdown: 0
SampleSet: Soft
StackLeniency: 0.3
Mode: 0
LetterboxInBreaks: 0
WidescreenStoryboard: 1

[Editor]
Bookmarks:2275,32257,51377,98518,122255,138738,144013,157199,167749,175991,183903,199727,239947
DistanceSpacing: 1.4
BeatDivisor: 4
GridSize: 8
TimelineZoom: 1.5

[Metadata]
Title:Ange du Blanc Pur
TitleUnicode:Ange du Blanc Pur
Artist:ke-ji feat. Nanahira
ArtistUnicode:ke-ji feat. ななひら
Creator:Astronic
Version:Hard
Source:
Tags:japanese metal colory starry confetto しらこいし shirakoishi rock jrock j-rock
BeatmapID:2477066
BeatmapSetID:1188740

[Difficulty]
HPDrainRate:4.5
CircleSize:3.6
OverallDifficulty:7
ApproachRate:8
SliderMultiplier:1.2
SliderTickRate:1

[Events]
//Background and Video events
0,0,"bg.jpg",0,0
//Break Periods
2,122456,137329
2,184103,193043
//Storyboard Layer 0 (Background)
//Storyboard Layer 1 (Fail)
//Storyboard Layer 2 (Pass)
//Storyboard Layer 3 (Foreground)
//Storyboard Layer 4 (Overlay)
//Storyboard Sound Samples

[TimingPoints]
2275,333.333333333333,4,2,1,60,1,0
16274,372.670807453416,4,2,1,60,1,0
16646,483.870967741935,4,2,1,60,1,0
16887,545.454545454546,4,2,1,60,1,0
17159,416.666666666667,4,2,1,60,1,0
17367,600,4,2,1,60,1,0
17967,833.333333333333,4,2,1,60,1,0
18383,869.565217391304,4,2,1,60,1,0
19252,1016.94915254237,4,2,1,60,1,0
20268,1000,4,2,1,60,1,0
24268,333.333333333333,4,2,1,60,1,0
31767,-100,4,2,1,5,0,0
32257,329.67032967033,4,2,1,60,1,0
32586,-111.111111111111,4,2,1,60,0,0
42806,329.67032967033,3,2,2,60,1,0
43300,-111.111111111111,3,2,2,60,0,0
46432,329.67032967033,3,2,2,60,1,0
46926,-111.111111111111,3,2,2,60,0,0
48410,329.67032967033,4,2,2,60,1,0
49069,-111.111111111111,4,2,2,60,0,0
51377,-100,4,2,1,70,0,0
59206,-100,4,2,1,5,0,0
59289,-100,4,2,1,70,0,0
61596,329.67032967033,3,2,1,70,1,0
61925,-100,3,2,1,50,0,0
62090,-111.111111111111,3,2,1,50,0,0
65552,329.67032967033,4,2,1,60,1,0
70744,-100,4,2,1,5,0,0
70826,-100,4,2,1,70,0,0
78985,-100,4,2,1,5,0,0
79068,-100,4,2,1,70,0,0
81376,329.67032967033,3,2,1,70,1,0
81705,-100,3,2,1,50,0,0
82035,-111.111111111111,3,2,1,50,0,0
85332,329.67032967033,4,2,1,50,1,0
85661,-100,4,2,1,60,0,0
90606,-100,4,2,1,70,0,0
98189,-100,4,2,1,100,0,0
98518,-90.9090909090909,4,2,2,85,0,1
122255,329.67032967033,6,2,1,85,1,0
136101,329.67032967033,4,2,1,85,1,0
138079,-111.111111111111,4,2,1,60,0,0
138738,-111.111111111111,4,2,1,70,0,0
144013,-100,4,2,2,85,0,0
154562,-100,4,2,1,85,0,0
157199,-100,4,2,1,60,0,0
157529,-111.111111111111,4,2,1,60,0,0
167749,329.67032967033,3,2,2,60,1,0
167749,-111.111111111111,3,2,2,60,0,0
171376,329.67032967033,3,2,2,60,1,0
171376,-111.111111111111,3,2,2,60,0,0
173354,329.67032967033,4,2,2,60,1,0
174013,-111.111111111111,4,2,2,60,0,0
175991,-100,4,2,1,70,0,0
183903,-100,4,2,1,50,0,0
193958,-125,4,2,1,50,0,0
199397,-125,4,2,1,100,0,0
199727,-90.9090909090909,4,2,2,85,0,1
228738,-86.9565217391304,4,2,2,95,0,1
231375,-86.9565217391304,4,2,1,85,0,0
231705,-100,4,2,1,85,0,0
239947,-100,4,2,1,5,0,0

[Colours]
Combo1 : 255,128,192
Combo2 : 128,255,255
Combo3 : 255,255,128
Combo4 : 128,255,128

[HitObjects]
256,192,29601,12,0,31767,2:0:0:0:
256,192,32257,5,6,2:0:0:0:
360,208,32586,2,0,L|352:264,2,36.1511989013672,2|2|2,2:0|2:0|2:0,2:0:0:0:
392,184,32916,2,0,P|408:136|392:72,1,108.125996704102,10|2,2:0|2:0,2:0:0:0:
312,16,33575,1,10,2:0:0:0:
216,56,33905,2,0,L|224:112,2,36.1511989013672,2|2|2,2:0|2:0|2:0,2:0:0:0:
192,32,34235,2,0,P|144:24|72:48,1,108.125996704102,10|2,2:0|2:0,2:0:0:0:
40,136,34894,5,10,2:0:0:0:
88,232,35224,2,0,L|80:280,2,36.1511989013672,2|2|2,2:0|2:0|2:0,2:0:0:0:
120,208,35553,2,0,L|240:200,1,108.125996704102,10|2,2:0|2:0,2:0:0:0:
336,192,36213,1,10,2:0:0:0:
432,248,36542,2,0,L|424:288,2,36.1511989013672,2|2|2,2:0|2:0|2:0,2:0:0:0:
464,224,36872,2,0,L|456:144,1,72.3023978027358,10|0,2:0|2:0,2:0:0:0:
456,120,37202,2,0,L|504:128,2,36.1511989013672,8|8|8,2:0|2:0|2:0,2:0:0:0:
448,88,37531,5,10,2:0:0:0:
352,48,37861,2,0,L|360:8,2,36.1511989013672,8|8|8,2:0|2:0|2:0,2:0:0:0:
344,88,38191,2,0,P|304:96|256:80,1,72.3023978027358,10|0,2:0|2:0,2:0:0:0:
240,80,38520,2,0,L|232:152,1,72.3023978027358,8|8,2:0|2:0,2:0:0:0:
225,187,38850,1,10,2:0:0:0:
216,296,39180,2,0,L|264:288,2,36.1511989013672,8|8|8,2:0|2:0|2:0,2:0:0:0:
192,320,39509,2,0,P|152:312|112:328,1,72.3023978027358,10|8,2:0|2:0,2:0:0:0:
88,336,39839,2,0,L|80:264,1,72.3023978027358,10|8,2:0|2:0,2:0:0:0:
80,232,40169,5,10,2:0:0:0:
72,128,40498,2,0,L|32:136,2,36.1511989013672,8|8|8,2:0|2:0|2:0,2:0:0:0:
112,96,40828,2,0,P|152:88|184:104,1,72.0395978027348,10|0,2:0|2:0,2:0:0:0:
224,128,41158,2,0,L|232:48,1,72.0395978027348,8|8,2:0|2:0,2:0:0:0:
256,8,41487,1,10,2:0:0:0:
327,48,41817,2,0,L|322:92,2,36.1511989013672,8|8|8,2:0|2:0|2:0,2:0:0:0:
376,40,42147,2,0,L|448:32,1,54.1115983520509,10|2,2:0|2:0,2:0:0:0:
492,75,42476,2,0,L|484:139,1,54.1655983520509,10|10,2:0|1:0,2:0:0:0:
440,192,42806,5,6,2:0:0:0:
440,320,43135,1,0,1:0:0:0:
440,320,43218,1,0,1:0:0:0:
440,320,43300,2,0,P|384:304|328:328,1,108.125996704102,2|0,1:0|1:0,1:0:0:0:
296,352,43795,2,0,L|184:344,1,108.125996704102,2|0,1:0|1:0,1:0:0:0:
136,344,44289,1,2,1:0:0:0:
8,288,44619,1,0,1:0:0:0:
8,288,44701,1,0,1:0:0:0:
8,288,44784,2,0,P|32:256|32:184,1,108.125996704102,2|0,1:0|1:0,1:0:0:0:
24,136,45278,2,0,L|144:128,1,108.125996704102,2|0,1:0|1:0,1:0:0:0:
160,80,45773,6,0,L|224:88,1,54.2267983520512,2|0,1:0|1:0,1:0:0:0:
264,112,46102,2,0,L|320:104,1,54.2267983520513,2|0,1:0|1:0,1:0:0:0:
370,94,46432,5,6,2:0:0:0:
472,224,46761,1,0,1:0:0:0:
472,224,46844,1,0,1:0:0:0:
472,224,46926,2,0,L|352:216,1,108.125996704102,2|0,1:0|1:0,1:0:0:0:
312,216,47421,2,0,P|288:256|224:272,1,108.125996704102,2|0,1:0|1:0,1:0:0:0:
176,272,47915,2,0,L|168:160,1,108.125996704102,2|0,1:0|1:0,1:0:0:0:
168,112,48410,5,2,1:0:0:0:
72,72,48739,1,2,1:0:0:0:
16,168,49069,2,0,L|24:232,1,54.2267983520512,2|0,1:0|1:0,1:0:0:0:
64,264,49399,2,0,L|56:328,1,54.2267983520512,2|0,1:0|1:0,1:0:0:0:
48,368,49728,2,0,L|160:360,1,108.125996704102,2|2,1:0|1:0,1:0:0:0:
264,352,50388,1,6,2:0:0:0:
432,224,51047,5,6,1:0:0:0:
392,64,51377,2,0,L|328:72,1,60.2520000000014,10|2,2:0|2:0,2:0:0:0:
272,128,51706,1,2,2:0:0:0:
272,128,51871,2,0,L|200:120,1,60.2520000000014,10|8,1:0|2:0,2:0:0:0:
128,112,52201,2,0,P|128:176|80:224,1,120.14,10|8,1:0|1:0,2:0:0:0:
24,256,52695,2,0,L|32:328,1,60.2520000000014,10|8,2:0|1:0,2:0:0:0:
104,360,53025,2,0,L|232:352,1,120.14,2|10,2:0|2:0,2:0:0:0:
392,344,53684,6,0,L|400:280,1,60.2520000000014,10|8,1:0|1:0,2:0:0:0:
472,240,54014,2,0,L|464:176,1,60.2520000000014,8|8,2:0|1:0,2:0:0:0:
448,16,54508,2,0,L|384:24,1,60.2520000000014,10|8,1:0|2:0,2:0:0:0:
320,80,54838,2,0,P|264:96|200:72,1,120.14,10|8,1:0|1:0,2:0:0:0:
128,40,55333,2,0,L|120:112,1,60.2520000000014,8|8,2:0|1:0,2:0:0:0:
40,248,55827,1,10,1:0:0:0:
40,248,55992,2,0,L|48:312,1,60.2520000000014,10|10,2:0|1:0,2:0:0:0:
120,352,56322,6,0,P|168:328|248:352,1,120.14,10|8,1:0|2:0,2:0:0:0:
312,368,56816,1,8,1:0:0:0:
464,304,57146,1,2,2:0:0:0:
400,248,57311,1,10,2:0:0:0:
400,248,57475,2,0,L|392:120,1,120.14,10|8,1:0|1:0,2:0:0:0:
384,40,57970,2,0,L|320:32,1,60.2520000000014,8|8,2:0|1:0,2:0:0:0:
160,24,58464,1,10,1:0:0:0:
160,24,58629,2,0,L|152:88,1,60.2520000000014,10|2,2:0|2:0,2:0:0:0:
88,136,58959,6,0,L|96:240,1,90.1960000000014,10|0,1:0|2:0,2:0:0:0:
96,264,59289,1,10,2:0:0:0:
168,312,59453,2,0,B|200:328|232:312|232:312|264:296|296:312,1,120.14,10|10,1:0|1:0,2:0:0:0:
368,328,59948,1,8,2:0:0:0:
440,280,60113,2,0,L|432:152,1,120.14,10|10,1:0|1:0,2:0:0:0:
424,80,60607,1,10,2:0:0:0:
424,80,60772,2,0,B|392:64|360:80|360:80|328:96|288:80,1,120.14,2|8,2:0|1:0,2:0:0:0:
224,72,61267,1,10,2:0:0:0:
184,168,61431,1,8,2:0:0:0:
184,168,61514,1,8,2:0:0:0:
184,168,61596,6,0,P|128:192|56:176,1,120.14,6|8,2:0|1:0,2:0:0:0:
40,104,62090,2,0,L|-16:112,2,54.0629983520513,2|10|2,1:0|1:0|2:0,2:0:0:0:
88,40,62585,2,0,L|152:48,1,54.2267983520512,2|10,2:0|2:0,2:0:0:0:
176,48,62832,1,8,2:0:0:0:
176,48,62914,2,0,L|240:40,1,54.2267983520513,8|8,2:0|1:0,2:0:0:0:
304,24,63244,2,0,L|368:32,1,54.2267983520513,8|8,1:0|1:0,2:0:0:0:
432,48,63574,6,0,L|440:160,1,108.125996704102,6|8,1:0|2:0,2:0:0:0:
480,224,64068,1,2,2:0:0:0:
480,224,64233,2,0,L|472:288,1,54.2267983520513,2|2,2:0|2:0,2:0:0:0:
432,344,64563,2,0,P|392:328|360:328,1,54.2267983520512,6|10,1:0|2:0,2:0:0:0:
344,328,64810,1,8,2:0:0:0:
344,328,64892,2,0,L|288:336,1,54.2267983520513,8|10,2:0|1:0,2:0:0:0:
216,360,65222,2,0,L|152:352,1,54.2267983520513,8|8,1:0|1:0,2:0:0:0:
64,336,65552,5,6,1:0:0:0:
72,168,65881,2,0,L|64:32,1,120.14,8|8,1:0|1:0,2:0:0:0:
232,64,66541,6,0,L|240:184,1,120.14,8|8,1:0|1:0,2:0:0:0:
248,352,67200,1,10,1:0:0:0:
416,344,67530,1,10,1:0:0:0:
408,176,67859,1,10,1:0:0:0:
239,183,68189,6,0,L|167:191,1,60.2520000000014,10|8,1:0|1:0,2:0:0:0:
120,248,68519,1,8,1:0:0:0:
40,216,68683,1,10,1:0:0:0:
40,216,68848,2,0,L|48:144,1,60.2520000000014,8|8,1:0|1:0,2:0:0:0:
56,72,69178,2,0,L|120:64,1,60.2520000000014,10|8,1:0|1:0,2:0:0:0:
200,56,69508,5,14,1:0:0:0:
280,104,69672,1,14,1:0:0:0:
352,48,69837,1,14,1:0:0:0:
448,96,70002,1,14,1:0:0:0:
512,232,70332,1,8,2:0:0:0:
512,232,70414,1,8,2:0:0:0:
512,232,70497,2,0,L|504:336,1,90.1960000000014,8|0,2:0|2:0,2:0:0:0:
504,368,70826,5,4,2:0:0:0:
360,280,71156,6,0,P|328:272|288:280,1,60.2520000000014,10|10,2:0|1:0,2:0:0:0:
224,304,71486,1,2,2:0:0:0:
224,304,71650,2,0,L|136:296,1,60.2520000000014,10|8,1:0|2:0,2:0:0:0:
80,328,71980,2,0,B|72:296|80:272|80:272|88:240|80:208,1,120.14,10|8,1:0|1:0,2:0:0:0:
72,128,72475,2,0,L|192:120,2,120.14,10|2|10,2:0|2:0|2:0,2:0:0:0:
0,176,73299,1,8,1:0:0:0:
0,176,73464,6,0,L|-8:240,1,60.2520000000014,10|8,1:0|1:0,2:0:0:0:
0,320,73793,1,8,2:0:0:0:
80,328,73958,1,8,1:0:0:0:
248,344,74288,2,0,L|312:336,1,60.2520000000014,10|10,1:0|2:0,2:0:0:0:
392,328,74617,2,0,P|384:264|416:208,1,120.14,10|8,1:0|1:0,2:0:0:0:
488,184,75112,1,8,2:0:0:0:
464,104,75277,2,0,L|392:96,1,60.2520000000014,8|0,1:0|2:0,2:0:0:0:
320,88,75606,2,0,L|328:24,2,60.0700000000014,10|10|10,1:0|2:0|1:0,2:0:0:0:
312,168,76101,6,0,L|240:176,1,60.2520000000014,10|8,1:0|1:0,2:0:0:0:
168,184,76431,1,8,2:0:0:0:
128,256,76595,1,8,1:0:0:0:
264,352,76925,2,0,L|328:344,1,60.2520000000014,10|10,1:0|2:0,2:0:0:0:
408,328,77255,2,0,L|416:208,1,120.14,10|8,1:0|1:0,2:0:0:0:
480,152,77749,1,8,2:0:0:0:
464,72,77914,1,8,1:0:0:0:
304,24,78244,1,10,1:0:0:0:
304,24,78409,2,0,L|240:32,1,60.2520000000014,10|10,2:0|1:0,2:0:0:0:
184,88,78738,6,0,P|144:96|88:80,1,90.1960000000014,10|0,1:0|2:0,2:0:0:0:
56,72,79068,1,10,2:0:0:0:
16,144,79233,2,0,L|24:264,1,120.14,10|10,1:0|1:0,2:0:0:0:
24,344,79727,1,8,2:0:0:0:
24,344,79892,2,0,L|96:352,1,60.2520000000014,10|0,1:0|2:0,2:0:0:0:
168,360,80222,2,0,L|240:352,1,60.2520000000014,10|8,1:0|2:0,2:0:0:0:
312,344,80552,2,0,P|328:288|304:224,1,120.14,10|8,1:0|1:0,2:0:0:0:
240,176,81046,1,10,2:0:0:0:
240,176,81128,1,8,2:0:0:0:
240,176,81211,1,8,2:0:0:0:
304,80,81376,6,0,B|392:88|392:88|416:120,1,120.14,12|8,2:0|1:0,2:0:0:0:
456,192,81870,1,10,1:0:0:0:
456,192,82035,2,0,L|464:264,1,54.2267983520513,10|10,1:0|1:0,2:0:0:0:
472,320,82365,1,14,1:0:0:0:
400,352,82529,1,8,2:0:0:0:
400,352,82612,1,8,2:0:0:0:
400,352,82694,2,0,L|336:344,1,54.2267983520513,8|10,2:0|1:0,2:0:0:0:
288,296,83024,2,0,L|216:304,1,54.2267983520513,8|8,1:0|1:0,2:0:0:0:
112,328,83354,6,0,L|104:208,1,108.125996704102,14|8,1:0|1:0,2:0:0:0:
104,144,83848,1,10,1:0:0:0:
104,144,84013,2,0,L|112:88,1,54.2267983520513,10|10,1:0|1:0,2:0:0:0:
120,16,84343,2,0,L|176:24,1,54.2267983520513,14|8,1:0|2:0,2:0:0:0:
208,32,84590,1,8,2:0:0:0:
208,32,84672,2,0,L|272:24,1,54.2267983520513,8|10,2:0|1:0,2:0:0:0:
336,8,85002,2,0,L|344:72,1,54.2267983520513,8|8,1:0|1:0,2:0:0:0:
360,136,85332,5,10,1:0:0:0:
376,304,85661,2,0,L|256:312,1,120.14,8|8,1:0|1:0,2:0:0:0:
240,143,86321,2,0,L|360:135,1,120.14,8|8,1:0|1:0,2:0:0:0:
224,232,86980,1,10,1:0:0:0:
208,64,87310,1,10,1:0:0:0:
376,48,87639,1,10,1:0:0:0:
392,216,87969,6,0,L|384:280,1,60.2520000000014,10|8,1:0|1:0,2:0:0:0:
368,360,88299,1,8,1:0:0:0:
368,360,88463,2,0,L|304:368,1,60.2520000000014,10|8,1:0|1:0,2:0:0:0:
240,320,88793,1,8,1:0:0:0:
240,320,88958,2,0,L|168:312,1,60.2520000000014,10|8,1:0|1:0,2:0:0:0:
96,304,89288,5,14,1:0:0:0:
40,232,89452,1,14,1:0:0:0:
48,136,89617,1,14,1:0:0:0:
144,88,89782,1,14,1:0:0:0:
368,160,90112,1,8,2:0:0:0:
368,160,90194,1,8,2:0:0:0:
368,160,90277,2,0,L|376:96,1,60.2520000000014,8|0,2:0|2:0,2:0:0:0:
392,16,90606,6,0,B|360:8|328:16|328:16|288:24|256:16,1,120.14,14|8,2:0|2:0,2:0:0:0:
208,72,91101,1,10,1:0:0:0:
208,72,91266,2,0,L|136:64,1,60.2520000000014,10|8,1:0|1:0,2:0:0:0:
64,56,91595,2,0,L|56:120,1,60.2520000000014,10|2,2:0|2:0,2:0:0:0:
8,184,91925,2,0,L|16:256,1,60.2520000000014,10|8,1:0|1:0,2:0:0:0:
24,328,92255,2,0,L|96:336,1,60.2520000000014,10|0,2:0|2:0,2:0:0:0:
168,352,92584,1,10,1:0:0:0:
168,352,92667,1,8,1:0:0:0:
168,352,92749,1,8,1:0:0:0:
224,288,92914,1,10,2:0:0:0:
384,336,93244,6,0,L|392:264,1,60.2520000000014,10|8,2:0|1:0,2:0:0:0:
456,224,93573,2,0,L|448:160,1,60.2520000000014,10|8,2:0|1:0,2:0:0:0:
440,80,93903,1,10,2:0:0:0:
376,24,94068,1,8,1:0:0:0:
296,56,94233,2,0,L|232:64,1,60.2520000000014,10|8,2:0|1:0,2:0:0:0:
152,72,94562,2,0,P|168:120|144:200,1,120.14,10|8,2:0|2:0,2:0:0:0:
88,240,95057,1,10,1:0:0:0:
88,240,95222,2,0,L|96:304,1,60.2520000000014,10|8,2:0|1:0,2:0:0:0:
152,360,95551,2,0,L|224:352,1,60.2520000000014,8|8,2:0|1:0,2:0:0:0:
296,344,95881,5,10,2:0:0:0:
296,344,96046,2,0,L|304:272,1,60.2520000000014,8|8,1:0|1:0,2:0:0:0:
368,232,96375,1,8,2:0:0:0:
368,232,96540,2,0,L|360:168,1,60.2520000000014,8|10,1:0|1:0,2:0:0:0:
352,88,96870,1,10,2:0:0:0:
352,88,97035,2,0,L|292:95,1,60.2520000000014,10|8,1:0|2:0,2:0:0:0:
232,152,97364,1,8,2:0:0:0:
232,152,97447,1,8,2:0:0:0:
232,152,97529,2,0,L|240:200,6,30.0046666666669,8|8|8|8|8|0|0,2:0|2:0|2:0|2:0|2:0|2:0|2:0,2:0:0:0:
224,64,98189,1,8,2:0:0:0:
152,232,98518,6,0,P|184:264|280:264,1,132.15400402832,4|0,1:0|1:0,1:0:0:0:
352,232,99013,1,8,1:0:0:0:
352,232,99178,2,0,L|344:336,2,99.0154030212417,2|2|10,1:0|1:0|1:0,1:0:0:0:
360,144,99837,1,2,1:0:0:0:
360,144,99919,1,0,1:0:0:0:
360,144,100002,1,8,1:0:0:0:
280,96,100167,2,0,L|208:88,1,66.0748020141613,2|8,1:0|1:0,1:0:0:0:
160,168,100496,2,0,L|248:176,1,66.0748020141613,2|8,1:0|1:0,1:0:0:0:
312,232,100826,1,2,1:0:0:0:
312,232,100908,1,0,1:0:0:0:
312,232,100991,1,8,1:0:0:0:
396,231,101156,6,0,P|376:288|306:316,1,132.00880402832,2|0,1:0|1:0,1:0:0:0:
240,368,101650,1,8,1:0:0:0:
168,312,101815,2,0,L|176:208,2,99.0154030212417,2|2|10,1:0|1:0|1:0,1:0:0:0:
80,344,102474,1,2,1:0:0:0:
80,344,102557,1,0,1:0:0:0:
80,344,102639,1,8,1:0:0:0:
8,280,102804,2,0,L|16:208,1,66.0748020141613,2|8,1:0|1:0,1:0:0:0:
96,168,103134,2,0,L|88:96,1,66.0748020141613,2|8,1:0|1:0,1:0:0:0:
80,8,103463,2,0,L|40:16,2,33.0022010070801,2|0|8,1:0|1:0|1:0,1:0:0:0:
184,48,103793,6,0,B|224:32|264:48|264:48|296:64|336:48,1,132.15400402832,2|0,1:0|1:0,1:0:0:0:
400,88,104288,1,8,1:0:0:0:
488,120,104452,2,0,L|496:16,2,99.0154030212417,2|2|10,1:0|1:0|1:0,1:0:0:0:
480,216,105112,1,2,1:0:0:0:
480,216,105194,1,0,1:0:0:0:
480,216,105277,1,8,1:0:0:0:
440,304,105441,2,0,L|352:296,1,66.0748020141613,2|8,1:0|1:0,1:0:0:0:
344,208,105771,2,0,L|272:216,1,66.0748020141613,2|8,1:0|1:0,1:0:0:0:
208,280,106101,1,2,1:0:0:0:
208,280,106183,1,0,1:0:0:0:
208,280,106266,1,8,1:0:0:0:
112,248,106430,6,0,L|120:112,1,132.15400402832,2|2,1:0|1:0,1:0:0:0:
128,24,106925,1,8,1:0:0:0:
128,24,107090,2,0,L|200:32,1,66.2772020141616,2|8,1:0|1:0,1:0:0:0:
256,96,107419,2,0,L|336:88,1,66.2772020141616,2|8,1:0|1:0,1:0:0:0:
416,80,107749,2,0,P|400:136|432:208,1,132.15400402832,2|0,1:0|1:0,1:0:0:0:
496,264,108244,1,10,1:0:0:0:
496,264,108326,1,2,1:0:0:0:
496,264,108408,2,0,L|504:304,2,33.1386010070801,10|8|8,1:0|1:0|1:0,1:0:0:0:
416,304,108738,2,0,L|424:344,2,33.1386010070801,8|8|8,1:0|1:0|1:0,1:0:0:0:
336,240,109068,6,0,P|288:224|208:264,1,132.15400402832,14|0,1:0|1:0,1:0:0:0:
152,320,109562,1,8,1:0:0:0:
64,288,109727,2,0,L|56:184,2,99.0154030212417,2|2|8,1:0|1:0|1:0,1:0:0:0:
152,320,110386,1,2,1:0:0:0:
152,320,110469,1,0,1:0:0:0:
152,320,110551,1,8,1:0:0:0:
232,368,110716,2,0,P|272:360|296:336,1,66.0748020141613,2|8,1:0|1:0,1:0:0:0:
304,256,111046,2,0,L|376:264,1,66.0748020141613,2|8,1:0|1:0,1:0:0:0:
448,328,111375,1,2,1:0:0:0:
448,328,111458,1,0,1:0:0:0:
448,328,111540,1,8,1:0:0:0:
512,256,111705,6,0,L|504:120,1,132.15400402832,2|0,1:0|1:0,1:0:0:0:
496,32,112200,1,8,1:0:0:0:
416,80,112364,2,0,L|424:200,2,99.0154030212417,2|2|10,1:0|1:0|1:0,1:0:0:0:
344,40,113024,1,2,1:0:0:0:
344,40,113106,1,0,1:0:0:0:
344,40,113189,1,8,1:0:0:0:
312,128,113353,2,0,L|240:120,1,66.0748020141613,2|8,1:0|1:0,1:0:0:0:
224,32,113683,2,0,L|152:40,1,66.0748020141613,2|8,1:0|1:0,1:0:0:0:
80,88,114013,2,0,L|72:48,2,33.0022010070801,2|0|8,1:0|1:0|1:0,1:0:0:0:
8,136,114342,6,0,L|0:272,1,132.15400402832,2|0,1:0|1:0,1:0:0:0:
56,344,114837,1,8,1:0:0:0:
128,280,115002,2,0,L|136:176,2,99.0154030212417,2|2|10,1:0|1:0|1:0,1:0:0:0:
208,328,115661,1,2,1:0:0:0:
208,328,115744,1,0,1:0:0:0:
208,328,115826,1,8,1:0:0:0:
256,248,115991,2,0,P|288:256|320:288,1,66.0748020141613,2|8,1:0|1:0,1:0:0:0:
344,360,116321,2,0,L|424:368,1,66.0748020141613,2|8,1:0|1:0,1:0:0:0:
488,320,116650,1,2,1:0:0:0:
488,320,116733,1,0,1:0:0:0:
488,320,116815,1,8,1:0:0:0:
504,224,116980,6,0,P|478:165|398:148,1,132.15400402832,2|2,1:0|1:0,1:0:0:0:
336,168,117474,1,8,1:0:0:0:
279,239,117639,2,0,L|207:231,1,66.2772020141616,2|8,1:0|1:0,1:0:0:0:
120,224,117969,2,0,L|112:144,1,66.2772020141616,2|8,1:0|1:0,1:0:0:0:
104,64,118299,1,2,1:0:0:0:
184,16,118463,2,0,L|256:24,1,66.2772020141616,8|0,1:0|1:0,1:0:0:0:
328,80,118793,1,10,1:0:0:0:
328,80,118875,1,2,1:0:0:0:
328,80,118958,2,0,L|320:120,2,33.1386010070801,10|8|8,1:0|1:0|1:0,1:0:0:0:
408,32,119288,2,0,L|400:0,2,33.0022010070801,8|8|8,1:0|1:0|1:0,1:0:0:0:
488,72,119617,6,0,L|469:219,1,132.15400402832,10|8,1:0|1:0,1:0:0:0:
360,352,120277,2,0,P|304:360|240:320,1,132.15400402832,8|8,1:0|1:0,1:0:0:0:
152,288,120771,1,2,1:0:0:0:
152,288,120853,1,2,1:0:0:0:
152,288,120936,2,0,L|144:208,1,66.2772020141616,10|0,1:0|1:0,1:0:0:0:
136,128,121266,2,0,L|88:136,2,33.0022010070801,8|0|0,1:0|1:0|1:0,1:0:0:0:
200,64,121595,2,0,L|192:16,2,33.1386010070801,8|8|8,1:0|1:0|1:0,1:0:0:0:
272,121,121925,1,8,1:0:0:0:
304,124,122007,1,8,1:0:0:0:
337,127,122090,1,8,1:0:0:0:
424,136,122255,5,12,2:0:0:0:
256,192,138079,6,0,L|208:200,3,36.0419989013672,8|8|8|8,2:0|2:0|2:0|2:0,2:0:0:0:
368,176,138738,2,0,L|360:296,2,108.125996704102,12|0|8,2:0|2:0|2:0,2:0:0:0:
400,104,139562,1,2,2:0:0:0:
400,104,139727,2,0,L|336:96,1,54.2267983520513,2|10,2:0|1:0,2:0:0:0:
280,56,140057,6,0,P|224:72|168:56,2,108.125996704102,2|8|8,2:0|1:0|2:0,2:0:0:0:
336,0,140881,1,8,2:0:0:0:
336,0,141046,2,0,L|408:16,1,54.2267983520512,2|8,2:0|1:0,2:0:0:0:
464,40,141375,6,0,L|456:152,1,108.125996704102,2|2,2:0|2:0,2:0:0:0:
480,232,141870,1,8,1:0:0:0:
480,232,142035,2,0,P|424:224|368:256,1,108.125996704102,8|8,2:0|1:0,2:0:0:0:
345,317,142529,1,8,2:0:0:0:
264,304,142694,5,8,1:0:0:0:
200,352,142859,1,2,2:0:0:0:
200,352,143024,2,0,L|136:344,1,54.2267983520512,2|2,2:0|2:0,2:0:0:0:
72,336,143353,1,2,1:0:0:0:
72,336,143436,1,8,1:2:0:0:
72,336,143518,2,0,L|64:376,4,27.0314991760254,8|8|2|8|2,1:2|1:2|1:0|1:2|1:0,2:0:0:0:
120,264,144013,6,0,P|136:216|112:136,1,120.14,6|0,1:0|1:0,1:0:0:0:
80,72,144507,2,0,L|208:64,1,120.14,10|8,1:0|1:0,1:0:0:0:
280,64,145002,2,0,L|288:16,2,30.126,0|0|8,1:0|1:0|1:0,1:0:0:0:
368,72,145331,1,0,1:0:0:0:
368,72,145414,1,0,1:0:0:0:
368,72,145496,2,0,L|376:104,2,30.126,8|0|0,1:0|1:0|1:0,1:0:0:0:
448,48,145826,2,0,L|455:18,2,30.126,8|0|0,1:0|1:0|1:0,1:0:0:0:
464,136,146155,1,8,1:0:0:0:
480,216,146320,2,0,L|488:288,1,60.2520000000014,2|10,1:0|1:0,1:0:0:0:
448,352,146650,6,0,B|416:336|384:352|384:352|344:368|312:352,1,120.14,2|0,1:0|1:0,1:0:0:0:
264,312,147144,2,0,L|136:320,1,120.14,10|8,1:0|1:0,1:0:0:0:
56,328,147639,1,0,1:0:0:0:
56,328,147721,1,0,1:0:0:0:
56,328,147804,1,8,1:0:0:0:
8,256,147969,2,0,L|16:184,1,60.0680000000011,0|8,1:0|1:0,1:0:0:0:
96,168,148298,2,0,L|104:240,1,60.0680000000011,0|8,1:0|1:0,1:0:0:0:
192,200,148628,2,0,L|184:170,2,30.126,0|0|8,1:0|1:0|1:0,1:0:0:0:
280,232,148958,1,0,1:0:0:0:
280,232,149040,1,0,1:0:0:0:
280,232,149122,1,8,1:0:0:0:
360,264,149287,6,0,L|424:256,1,60.2520000000014,14|8,1:0|1:0,1:0:0:0:
504,248,149617,2,0,L|496:184,1,60.2520000000014,2|10,1:0|1:0,1:0:0:0:
480,104,149947,2,0,L|416:96,1,60.2520000000014,2|10,1:0|1:0,1:0:0:0:
368,32,150276,2,0,L|304:40,1,60.2520000000014,2|10,1:0|1:0,1:0:0:0:
248,96,150606,1,2,1:0:0:0:
168,64,150771,1,10,1:0:0:0:
88,88,150936,2,0,L|80:160,1,60.2520000000014,2|10,1:0|1:0,1:0:0:0:
24,208,151265,2,0,L|32:272,1,60.2520000000014,2|10,1:0|1:0,1:0:0:0:
48,352,151595,1,2,1:0:0:0:
128,312,151760,1,10,1:0:0:0:
200,360,151925,6,0,P|248:360|296:296,1,120.14,2|0,1:0|1:0,1:0:0:0:
280,224,152419,2,0,L|288:160,1,60.2520000000014,10|0,1:0|1:0,1:0:0:0:
296,80,152749,1,10,1:0:0:0:
296,80,152914,2,0,L|360:72,1,60.2520000000014,2|10,1:0|1:0,1:0:0:0:
440,56,153243,2,0,L|448:176,1,120.14,2|0,1:0|1:0,1:0:0:0:
488,256,153738,1,10,1:0:0:0:
488,256,153903,2,0,L|424:264,1,60.2520000000014,2|8,1:0|1:0,1:0:0:0:
376,328,154232,1,0,1:0:0:0:
376,328,154315,1,0,1:0:0:0:
376,328,154397,1,8,1:0:0:0:
304,280,154562,6,0,P|264:264|216:272,1,80.3360000000014,10|10,2:0|2:0,2:0:0:0:
192,280,154892,2,0,L|184:200,1,80.3360000000014,10|10,2:0|2:0,2:0:0:0:
176,160,155221,2,0,L|136:168,5,40.0224,10|10|10|10|10|10,2:0|2:0|2:0|2:0|2:0|2:0,2:0:0:0:
96,176,155881,1,14,2:0:0:0:
64,296,156210,2,0,L|32:288,4,30.035,8|8|8|8|10,2:0|2:0|2:0|2:0|2:0,2:0:0:0:
192,336,156870,1,10,1:0:0:0:
192,336,156952,1,10,1:0:0:0:
192,336,157035,1,10,1:0:0:0:
280,320,157199,5,14,2:0:0:0:
376,296,157529,2,0,L|368:336,2,36.1511989013672,2|2|2,2:0|2:0|2:0,2:0:0:0:
400,264,157859,2,0,L|392:152,1,108.125996704102,10|2,2:0|2:0,2:0:0:0:
384,48,158518,1,10,2:0:0:0:
296,104,158848,2,0,L|288:144,2,36.1511989013672,2|2|2,2:0|2:0|2:0,2:0:0:0:
272,80,159177,2,0,P|232:64|160:80,1,108.125996704102,10|2,2:0|2:0,2:0:0:0:
80,136,159837,5,10,2:0:0:0:
96,240,160166,2,0,L|56:248,2,36.1511989013672,2|2|2,2:0|2:0|2:0,2:0:0:0:
112,272,160496,2,0,L|232:280,1,108.125996704102,10|2,2:0|2:0,2:0:0:0:
328,288,161155,1,10,2:0:0:0:
432,296,161485,2,0,L|440:336,2,36.1511989013672,2|2|2,2:0|2:0|2:0,2:0:0:0:
440,264,161815,2,0,L|448:176,1,72.3023978027358,10|0,2:0|2:0,2:0:0:0:
456,160,162144,2,0,L|496:152,2,36.1511989013672,8|8|8,2:0|2:0|2:0,2:0:0:0:
464,120,162474,5,10,2:0:0:0:
384,48,162804,2,0,L|392:8,2,36.1511989013672,8|8|8,2:0|2:0|2:0,2:0:0:0:
352,72,163133,2,0,P|312:80|264:64,1,72.3023978027358,10|0,2:0|2:0,2:0:0:0:
248,56,163463,2,0,L|176:64,1,72.3023978027358,8|8,2:0|2:0,2:0:0:0:
144,72,163793,1,10,2:0:0:0:
88,168,164122,2,0,L|40:160,2,36.1511989013672,8|8|8,2:0|2:0|2:0,2:0:0:0:
104,200,164452,2,0,L|184:192,1,72.3023978027358,10|8,2:0|2:0,2:0:0:0:
208,208,164782,2,0,L|296:200,1,72.3023978027358,10|8,2:0|2:0,2:0:0:0:
312,200,165111,5,10,2:0:0:0:
416,192,165441,2,0,L|424:144,2,36.1511989013672,8|8|8,2:0|2:0|2:0,2:0:0:0:
440,216,165771,2,0,P|448:256|440:288,1,72.3023978027358,10|0,2:0|2:0,2:0:0:0:
424,320,166101,2,0,L|344:328,1,72.3023978027358,8|8,2:0|2:0,2:0:0:0:
320,328,166430,1,10,2:0:0:0:
216,328,166760,2,0,L|224:288,2,36.1511989013672,8|8|8,2:0|2:0|2:0,2:0:0:0:
208,360,167090,2,0,L|144:368,1,54.0575983520509,10|2,2:0|2:0,2:0:0:0:
80,376,167419,1,10,2:0:0:0:
48,272,167749,6,0,P|40:216|72:160,1,108.125996704102,6|0,2:0|1:0,1:0:0:0:
96,128,168243,2,0,L|216:120,1,108.125996704102,2|0,1:0|1:0,1:0:0:0:
256,112,168738,1,2,1:0:0:0:
416,88,169067,1,0,1:0:0:0:
416,88,169150,1,0,1:0:0:0:
416,88,169232,2,0,L|424:200,1,108.125996704102,2|0,1:0|1:0,1:0:0:0:
464,232,169727,2,0,P|416:224|352:257,1,108.122396704102,2|0,1:0|1:0,1:0:0:0:
320,280,170221,1,2,1:0:0:0:
160,312,170551,1,0,1:0:0:0:
160,312,170633,1,0,1:0:0:0:
160,312,170716,6,0,L|152:251,1,54.0611983520512,2|0,1:0|1:0,1:0:0:0:
112,224,171045,2,0,L|120:160,1,54.2267983520513,2|0,1:0|1:0,1:0:0:0:
128,120,171376,6,0,B|160:112|192:120|192:120|224:128|248:120,1,108.125996704102,6|0,2:0|1:0,1:0:0:0:
280,152,171870,2,0,P|328:168|392:144,1,108.125996704102,2|0,1:0|1:0,1:0:0:0:
424,120,172365,1,2,1:0:0:0:
296,24,172694,1,0,1:0:0:0:
296,24,172777,1,0,1:0:0:0:
296,24,172859,2,0,L|184:32,1,108.125996704102,2|0,1:0|1:0,1:0:0:0:
136,40,173354,5,2,1:0:0:0:
48,104,173683,1,2,1:0:0:0:
56,208,174013,2,0,L|64:272,1,54.2267983520512,2|0,1:0|1:0,1:0:0:0:
72,312,174343,2,0,L|136:320,1,54.2267983520512,2|0,1:0|1:0,1:0:0:0:
176,344,174672,2,0,P|224:328|296:344,1,108.125996704102,2|2,1:0|1:0,1:0:0:0:
384,360,175332,5,6,2:0:0:0:
448,128,175991,6,0,P|400:112|320:136,1,120.14,6|8,2:0|2:0,2:0:0:0:
272,184,176485,1,10,1:0:0:0:
272,184,176650,2,0,L|208:192,1,60.2520000000014,10|8,1:0|1:0,2:0:0:0:
128,208,176980,1,10,2:0:0:0:
80,136,177145,1,10,1:0:0:0:
128,64,177310,2,0,L|192:56,1,60.2520000000014,10|8,1:0|1:0,2:0:0:0:
256,8,177639,2,0,L|320:16,1,60.2520000000014,10|0,2:0|2:0,2:0:0:0:
408,40,177969,1,10,1:0:0:0:
408,40,178051,1,8,1:0:0:0:
408,40,178134,1,8,1:0:0:0:
488,56,178299,2,0,L|496:128,1,60.2520000000014,10|0,2:0|2:0,2:0:0:0:
504,200,178628,6,0,L|496:264,1,60.2520000000014,10|8,2:0|1:0,2:0:0:0:
480,344,178958,2,0,L|400:352,1,60.2520000000014,10|8,2:0|1:0,2:0:0:0:
344,304,179288,2,0,P|296:288|224:312,1,120.14,10|10,2:0|2:0,2:0:0:0:
160,352,179782,1,8,1:0:0:0:
80,320,179947,2,0,L|72:256,1,60.2520000000014,10|8,2:0|1:0,2:0:0:0:
16,192,180277,1,8,2:0:0:0:
32,112,180441,1,10,1:0:0:0:
104,64,180606,2,0,P|152:48|224:72,1,120.14,10|8,2:0|2:0,2:0:0:0:
336,184,181266,5,10,2:0:0:0:
336,184,181430,2,0,L|344:248,1,60.2520000000014,8|8,1:0|1:0,2:0:0:0:
352,328,181760,1,8,2:0:0:0:
440,352,181925,1,8,1:0:0:0:
496,280,182090,1,10,1:0:0:0:
432,216,182255,1,10,2:0:0:0:
432,216,182419,2,0,L|424:144,1,60.2520000000014,10|8,1:0|2:0,2:0:0:0:
416,72,182749,2,0,L|448:80,5,30.0289333333334,8|8|8|8|8|8,2:0|2:0|2:0|2:0|2:0|2:0,2:0:0:0:
384,64,183244,2,0,L|312:72,1,60.0680000000011,8|0,2:0|2:0,2:0:0:0:
248,48,183573,1,10,1:0:0:0:
192,120,183738,1,2,2:0:0:0:
192,120,183821,1,0,2:0:0:0:
192,120,183903,5,6,2:0:0:0:
256,192,193793,5,10,2:0:0:0:
256,192,193875,1,8,2:0:0:0:
256,192,193958,2,0,L|264:232,4,24.028,8|8|8|8|8,2:0|2:0|2:0|2:0|2:0,2:0:0:0:
248,144,194452,2,0,B|280:120|280:120|384:136,1,144.0224,12|0,2:0|2:0,2:0:0:0:
432,144,195112,2,0,L|424:64,2,72.0112000000014,2|2|2,2:0|2:0|2:0,2:0:0:0:
440,192,195771,5,10,2:0:0:0:
488,272,196101,1,2,2:0:0:0:
440,352,196430,2,0,P|400:336|336:352,1,96.1120000000014,10|2,2:0|2:0,2:0:0:0:
256,368,197090,5,8,2:0:0:0:
200,288,197419,2,0,L|192:248,2,32.1344,8|8|8,1:0|1:0|1:0,2:0:0:0:
176,312,197749,2,0,L|88:304,2,72.0112000000014,10|2|2,1:0|2:0|2:0,2:0:0:0:
152,352,198408,6,0,L|45:345,1,96.1120000000014,14|2,1:0|2:0,2:0:0:0:
0,264,199068,2,0,L|8:160,1,96.1120000000014,14|10,1:0|2:0,2:0:0:0:
136,32,199727,6,0,P|176:16|272:56,1,132.15400402832,4|0,1:0|1:0,1:0:0:0:
327,106,200222,1,8,1:0:0:0:
392,168,200386,2,0,L|384:272,2,99.0154030212417,2|2|10,1:0|1:0|1:0,1:0:0:0:
464,104,201046,1,2,1:0:0:0:
464,104,201128,1,0,1:0:0:0:
464,104,201211,1,8,1:0:0:0:
392,168,201375,2,0,L|400:240,1,66.0748020141613,2|8,1:0|1:0,1:0:0:0:
496,232,201705,2,0,L|488:304,1,66.0748020141613,2|8,1:0|1:0,1:0:0:0:
424,352,202035,2,0,L|391:357,2,33.1386010070801,2|0|8,1:0|1:0|1:0,1:0:0:0:
320,312,202364,6,0,P|264:296|192:320,1,132.15400402832,2|2,1:0|1:0,1:0:0:0:
112,360,202859,1,8,1:0:0:0:
32,320,203024,2,0,L|40:248,1,66.2772020141616,2|8,1:0|1:0,1:0:0:0:
120,208,203354,2,0,L|112:136,1,66.2772020141616,2|8,1:0|1:0,1:0:0:0:
104,48,203683,2,0,B|144:64|184:48|184:48|224:32|256:48,1,132.15400402832,2|0,1:0|1:0,1:0:0:0:
320,64,204178,1,10,1:0:0:0:
320,64,204260,1,2,1:0:0:0:
320,64,204343,2,0,L|315:102,6,33.0051343404139,10|8|8|8|8|8|8,1:0|1:0|1:0|1:0|1:0|1:0|1:0,1:0:0:0:
408,88,205002,6,0,L|400:160,1,66.2772020141616,10|8,1:0|1:0,1:0:0:0:
384,248,205332,2,0,L|312:256,1,66.2772020141616,0|8,1:0|1:0,1:0:0:0:
256,184,205661,2,0,L|184:176,1,66.2772020141616,0|8,1:0|1:0,1:0:0:0:
112,120,205991,1,0,1:0:0:0:
40,176,206156,1,10,1:0:0:0:
40,176,206238,1,2,1:0:0:0:
40,176,206321,2,0,L|32:248,1,66.2772020141616,2|8,1:0|1:0,1:0:0:0:
16,344,206650,1,0,1:0:0:0:
104,296,206815,1,8,1:0:0:0:
184,352,206980,1,8,1:0:0:0:
184,352,207062,1,8,1:0:0:0:
184,352,207145,2,0,L|192:304,4,33.0385010070801,8|8|8|8|8,1:0|1:0|1:0|1:0|1:0,1:0:0:0:
288,296,207639,6,0,P|352:312|432:280,1,132.14960402832,10|0,1:0|1:0,1:0:0:0:
504,248,208134,1,8,1:0:0:0:
464,160,208299,2,0,L|472:56,2,99.0154030212417,2|2|10,1:0|1:0|1:0,1:0:0:0:
392,216,208958,2,0,L|320:208,1,66.2772020141616,2|8,1:0|1:0,1:0:0:0:
280,128,209288,2,0,L|208:136,1,66.2772020141616,2|8,1:0|1:0,1:0:0:0:
120,152,209617,1,2,1:0:0:0:
120,152,209700,1,0,1:0:0:0:
120,152,209782,1,8,1:0:0:0:
24,152,209947,2,0,L|32:104,2,33.1386010070801,2|0|8,1:0|1:0|1:0,1:0:0:0:
24,248,210277,6,0,P|32:304|104:344,1,132.15400402832,2|2,1:0|1:0,1:0:0:0:
176,304,210771,1,8,1:0:0:0:
248,240,210936,2,0,L|240:136,2,99.0154030212417,2|2|10,1:0|1:0|1:0,1:0:0:0:
312,304,211595,2,0,L|384:296,1,66.2772020141616,2|8,1:0|1:0,1:0:0:0:
472,280,211925,2,0,L|480:208,1,66.2772020141616,2|8,1:0|1:0,1:0:0:0:
496,120,212255,1,2,1:0:0:0:
496,120,212337,1,0,1:0:0:0:
496,120,212419,1,8,1:0:0:0:
408,136,212584,2,0,L|400:96,2,33.1386010070801,2|0|8,1:0|1:0|1:0,1:0:0:0:
344,200,212914,6,0,P|288:208|224:168,1,132.15400402832,2|0,1:0|1:0,1:0:0:0:
160,104,213408,1,8,1:0:0:0:
184,16,213573,2,0,L|80:8,2,99.0154030212417,2|2|10,1:0|1:0|1:0,1:0:0:0:
280,24,214233,1,2,1:0:0:0:
280,24,214315,1,0,1:0:0:0:
280,24,214397,1,8,1:0:0:0:
368,32,214562,2,0,L|360:80,2,33.1386010070801,2|0|8,1:0|1:0|1:0,1:0:0:0:
464,40,214892,2,0,L|440:184,1,132.15400402832,2|2,1:0|1:0,1:0:0:0:
480,256,215386,1,8,1:0:0:0:
440,336,215551,6,0,L|360:328,1,66.2772020141616,2|8,1:0|1:0,1:0:0:0:
304,272,215881,2,0,L|224:280,1,66.2772020141616,2|8,1:0|1:0,1:0:0:0:
144,288,216211,1,2,1:0:0:0:
144,288,216293,1,0,1:0:0:0:
144,288,216375,1,8,1:0:0:0:
56,304,216540,2,0,L|64:360,2,33.1386010070801,2|0|8,1:0|1:0|1:0,1:0:0:0:
0,224,216870,2,0,P|24:168|16:96,1,132.15400402832,2|0,1:0|1:0,1:0:0:0:
64,24,217364,1,10,1:0:0:0:
64,24,217447,1,2,1:0:0:0:
64,24,217529,2,0,L|72:-16,6,33.0051343404139,2|0|8|8|8|8|8,1:0|1:0|1:0|1:0|1:0|1:0|1:0,1:0:0:0:
160,88,218189,6,0,L|240:80,1,66.2772020141616,12|0,1:0|1:0,1:0:0:0:
280,8,218518,2,0,L|352:16,1,66.2772020141616,8|0,1:0|1:0,1:0:0:0:
440,32,218848,2,0,L|448:104,1,66.2772020141616,10|0,1:0|1:0,1:0:0:0:
504,168,219178,2,0,L|496:248,1,66.2772020141616,10|0,1:0|1:0,1:0:0:0:
488,328,219507,1,10,1:0:0:0:
304,296,219837,1,8,1:0:0:0:
304,296,219919,1,0,1:0:0:0:
304,296,220002,1,0,1:0:0:0:
248,368,220167,2,0,L|176:360,1,66.0748020141613,8|0,1:0|1:0,1:0:0:0:
88,352,220496,2,0,L|80:280,1,66.0748020141613,8|0,1:0|1:0,1:0:0:0:
144,224,220826,6,0,L|149:191,2,33.1386010070801,8|0|0,1:0|1:0|1:0,1:0:0:0:
56,192,221156,2,0,L|72:112,1,66.2772020141616,10|0,1:0|1:0,1:0:0:0:
88,40,221485,2,0,L|160:32,1,66.2772020141616,10|0,1:0|1:0,1:0:0:0:
232,0,221815,2,0,L|304:8,1,66.2772020141616,10|0,1:0|1:0,1:0:0:0:
392,16,222145,1,10,1:0:0:0:
456,192,222474,1,10,1:0:0:0:
456,192,222557,1,0,1:0:0:0:
456,192,222639,1,0,1:0:0:0:
376,232,222804,2,0,L|328:224,2,33.1386010070801,10|0|0,1:0|1:0|1:0,1:0:0:0:
456,280,223134,2,0,L|448:352,1,66.2772020141616,10|0,1:0|1:0,1:0:0:0:
360,360,223463,6,0,P|312:344|232:360,1,132.15400402832,10|8,1:0|1:0,1:0:0:0:
168,296,223958,1,0,1:0:0:0:
96,232,224123,2,0,L|-8:240,2,99.0154030212417,10|2|2,1:0|1:0|1:0,1:0:0:0:
120,144,224782,2,0,L|200:152,1,66.2772020141616,10|0,1:0|1:0,1:0:0:0:
264,200,225112,2,0,L|344:192,1,66.2772020141616,10|0,1:0|1:0,1:0:0:0:
424,184,225441,1,10,1:0:0:0:
424,184,225524,1,0,1:0:0:0:
424,184,225606,1,0,1:0:0:0:
480,112,225771,2,0,L|485:79,2,33.1386010070801,10|0|0,1:0|1:0|1:0,1:0:0:0:
392,72,226101,6,0,L|320:64,1,66.2772020141616,10|0,1:0|1:0,1:0:0:0:
256,8,226430,2,0,L|176:16,1,66.2772020141616,10|0,1:0|1:0,1:0:0:0:
96,24,226760,2,0,L|88:96,1,66.2772020141616,10|0,1:0|1:0,1:0:0:0:
24,160,227090,2,0,L|32:232,1,66.2772020141616,10|0,1:0|1:0,1:0:0:0:
32,320,227419,2,0,B|72:336|104:320|104:320|144:304|176:320,1,132.15400402832,10|8,1:0|1:0,1:0:0:0:
248,352,227914,1,2,1:0:0:0:
248,352,227996,1,2,1:0:0:0:
248,352,228079,2,0,L|256:312,6,33.0051343404139,10|8|8|8|8|8|8,1:0|1:0|1:0|1:0|1:0|1:0|1:0,1:0:0:0:
344,352,228738,6,0,L|357:277,1,69.289801316072,10|0,1:0|1:0,1:0:0:0:
448,256,229068,2,0,L|440:176,1,69.289801316072,8|0,1:0|1:0,1:0:0:0:
432,88,229397,2,0,L|352:80,1,69.289801316072,8|0,1:0|1:0,1:0:0:0:
296,8,229727,1,8,1:0:0:0:
224,72,229892,1,2,1:0:0:0:
224,72,229974,1,2,1:0:0:0:
224,72,230057,2,0,L|216:144,1,69.289801316072,10|0,1:0|1:0,1:0:0:0:
136,192,230386,2,0,L|144:264,1,69.289801316072,8|0,1:0|1:0,1:0:0:0:
160,352,230716,1,8,1:0:0:0:
160,352,230799,1,8,1:0:0:0:
160,352,230881,2,0,L|120:360,4,34.5402506580353,8|8|8|8|10,1:0|1:0|1:0|1:0|1:0,1:0:0:0:
268,331,231375,5,14,2:0:0:0:
408,304,231705,2,0,L|416:360,2,40.168,8|8|8,2:0|2:0|2:0,2:0:0:0:
400,256,232035,2,0,L|408:176,1,80.3360000000014,10|0,2:0|2:0,2:0:0:0:
416,128,232364,2,0,L|464:136,2,40.168,8|8|8,2:0|2:0|2:0,2:0:0:0:
400,80,232694,5,10,2:0:0:0:
264,48,233024,2,0,L|272:8,2,40.168,8|8|8,2:0|2:0|2:0,2:0:0:0:
248,96,233354,2,0,P|208:104|160:88,1,80.3360000000014,10|8,2:0|2:0,2:0:0:0:
128,80,233683,2,0,L|120:160,1,80.3360000000014,10|8,2:0|2:0,2:0:0:0:
112,208,234013,5,14,2:0:0:0:
224,296,234343,2,0,L|216:352,2,40.168,8|8|8,2:0|2:0|2:0,2:0:0:0:
232,248,234672,2,0,P|288:264|336:256,1,80.3360000000014,10|0,2:0|2:0,2:0:0:0:
352,248,235002,2,0,L|344:200,2,40.168,8|8|8,2:0|2:0|2:0,2:0:0:0:
400,265,235332,5,10,2:0:0:0:
456,136,235661,2,0,L|504:144,2,40.168,8|8|8,2:0|2:0|2:0,2:0:0:0:
432,96,235991,2,0,L|352:88,1,80.3360000000014,10|8,2:0|2:0,2:0:0:0:
304,80,236321,2,0,L|296:32,2,40.168,10|8|8,2:0|2:0|2:0,2:0:0:0:
264,104,236650,5,14,2:0:0:0:
256,192,236980,12,0,239947,2:0:0:0:
