osu file format v14

[General]
AudioFilename: audio.mp3
AudioLeadIn: 0
PreviewTime: 98520
Countdown: 0
SampleSet: Soft
StackLeniency: 0.3
Mode: 0
LetterboxInBreaks: 0
WidescreenStoryboard: 1

[Editor]
Bookmarks: 2275,32257,51377,98518,122255,138738,144013,157199,167749,175991,183903,199727,239947
DistanceSpacing: 1
BeatDivisor: 4
GridSize: 4
TimelineZoom: 1.5

[Metadata]
Title:Ange du Blanc Pur
TitleUnicode:Ange du Blanc Pur
Artist:ke-ji feat. Nanahira
ArtistUnicode:ke-ji feat. ななひら
Creator:Astronic
Version:Extra
Source:
Tags:japanese metal colory starry confetto しらこいし shirakoishi rock jrock j-rock
BeatmapID:2477065
BeatmapSetID:1188740

[Difficulty]
HPDrainRate:5.5
CircleSize:4
OverallDifficulty:9
ApproachRate:9.3
SliderMultiplier:1.65
SliderTickRate:1

[Events]
//Background and Video events
0,0,"bg.jpg",0,0
//Break Periods
2,122456,137525
//Storyboard Layer 0 (Background)
//Storyboard Layer 1 (Fail)
//Storyboard Layer 2 (Pass)
//Storyboard Layer 3 (Foreground)
//Storyboard Layer 4 (Overlay)
//Storyboard Sound Samples

[TimingPoints]
2275,333.333333333333,4,2,1,60,1,0
16274,372.670807453416,4,2,1,60,1,0
16646,483.870967741935,4,2,1,60,1,0
16887,545.454545454546,4,2,1,60,1,0
17159,416.666666666667,4,2,1,60,1,0
17367,600,4,2,1,60,1,0
17967,833.333333333333,4,2,1,60,1,0
18383,869.565217391304,4,2,1,60,1,0
19252,1016.94915254237,4,2,1,60,1,0
20268,1000,4,2,1,60,1,0
24268,333.333333333333,4,2,1,60,1,0
31767,-100,4,2,1,5,0,0
32257,329.67032967033,4,2,1,60,1,0
32586,-125,4,2,1,60,0,0
42806,329.67032967033,3,2,2,60,1,0
43135,-111.111111111111,3,2,2,60,0,0
46432,329.67032967033,3,2,2,60,1,0
48410,329.67032967033,4,2,2,60,1,0
51377,-100,4,2,1,70,0,0
54343,-100,4,2,1,60,0,0
54508,-100,4,2,1,70,0,0
55661,-100,4,2,1,60,0,0
55827,-100,4,2,1,70,0,0
56980,-100,4,2,1,60,0,0
57146,-100,4,2,1,70,0,0
58299,-100,4,2,1,60,0,0
58464,-100,4,2,1,70,0,0
59617,-100,4,2,1,60,0,0
59783,-100,4,2,1,70,0,0
60277,-100,4,2,1,60,0,0
60442,-100,4,2,1,70,0,0
61596,329.67032967033,3,2,1,70,1,0
61925,-100,3,2,1,50,0,0
62090,-111.111111111111,3,2,1,50,0,0
65552,329.67032967033,4,2,1,60,1,0
70826,-100,4,2,1,70,0,0
81376,329.67032967033,3,2,1,70,1,0
81705,-100,3,2,1,50,0,0
82035,-111.111111111111,3,2,1,50,0,0
85332,329.67032967033,4,2,1,50,1,0
85332,-111.111111111111,4,2,1,50,0,0
85661,-111.111111111111,4,2,1,60,0,0
85991,-100,4,2,1,60,0,0
90606,-90.9090909090909,4,2,1,70,0,0
98106,-90.9090909090909,4,2,1,5,0,0
98189,-90.9090909090909,4,2,1,100,0,0
98518,-90.9090909090909,4,2,2,85,0,1
119617,-83.3333333333333,4,2,2,85,0,1
122255,329.67032967033,6,2,1,85,1,0
136101,329.67032967033,4,2,1,85,1,0
138079,-125,4,2,1,60,0,0
138738,-125,4,2,1,70,0,0
144013,-125,4,2,2,85,0,0
144507,-100,4,2,2,85,0,0
152419,-90.9090909090909,4,2,2,85,0,0
154562,-100,4,2,1,85,0,0
157199,-100,4,2,1,60,0,0
157529,-125,4,2,1,60,0,0
167749,329.67032967033,3,2,2,60,1,0
168078,-125,3,2,2,60,0,0
171376,329.67032967033,3,2,2,60,1,0
173354,329.67032967033,4,2,2,60,1,0
175991,-100,4,2,1,70,0,0
183491,-100,4,2,1,5,0,0
183573,-100,4,2,1,70,0,0
183903,-200,4,2,1,50,0,0
195771,-166.666666666667,4,2,1,50,0,0
196430,-142.857142857143,4,2,1,50,0,0
197090,-125,4,2,1,50,0,0
198408,-111.111111111111,4,2,1,50,0,0
199397,-111.111111111111,4,2,1,100,0,0
199727,-90.9090909090909,4,2,2,85,0,1
205332,-83.3333333333333,4,2,2,85,0,1
207639,-76.9230769230769,4,2,2,85,0,1
228738,-66.6666666666667,4,2,2,95,0,1
231375,-66.6666666666667,4,2,1,85,0,0
231705,-100,4,2,1,85,0,0
236650,-270.27027027027,4,2,1,85,0,0
239946,-270.27027027027,4,2,1,5,0,0

[Colours]
Combo1 : 255,128,192
Combo2 : 128,255,255
Combo3 : 255,255,128
Combo4 : 128,255,128

[HitObjects]
256,192,29601,12,0,31767,2:0:0:0:
256,112,32257,5,6,2:0:0:0:
256,112,32586,2,0,L|304:104,2,44.0726,2|2|2,2:0|2:0|2:0,2:0:0:0:
168,128,32916,2,0,L|160:216,1,88.1452000000012,10|0,2:0|2:0,2:0:0:0:
240,288,33246,2,0,L|248:200,1,88.1452000000012,2|0,2:0|2:0,2:0:0:0:
155,304,33575,5,10,2:0:0:0:
155,304,33905,2,0,L|104:312,2,44.0726,2|2|2,2:0|2:0|2:0,2:0:0:0:
328,280,34235,2,0,L|336:192,1,88.1452000000012,10|0,2:0|2:0,2:0:0:0:
387,112,34564,2,0,L|299:104,1,88.1452000000012,2|0,2:0|2:0,2:0:0:0:
170,95,34894,5,10,2:0:0:0:
170,95,35224,2,0,L|160:40,2,44.0726,2|2|2,2:0|2:0|2:0,2:0:0:0:
72,192,35553,2,0,L|80:104,1,88.1452000000012,10|0,2:0|2:0,2:0:0:0:
160,208,35883,2,0,L|168:120,1,88.1452000000012,2|0,2:0|2:0,2:0:0:0:
88,24,36213,5,10,2:0:0:0:
88,24,36542,2,0,L|32:32,2,44.0726,2|2|2,2:0|2:0|2:0,2:0:0:0:
240,0,36872,2,0,L|255:87,1,88.1452000000012,10|0,2:0|2:0,2:0:0:0:
267,183,37202,2,0,L|323:191,2,44.0726,8|8|8,2:0|2:0|2:0,2:0:0:0:
123,291,37531,6,0,L|211:283,1,88.1452000000012,10|0,2:0|2:0,2:0:0:0:
328,274,37861,5,8,2:0:0:0:
361,269,37971,1,8,2:0:0:0:
393,264,38081,1,8,2:0:0:0:
426,261,38191,6,0,L|432:168,1,88.1452000000012,10|0,2:0|2:0,2:0:0:0:
464,16,38520,5,8,2:0:0:0:
431,21,38630,1,8,2:0:0:0:
399,26,38740,1,8,2:0:0:0:
366,29,38850,6,0,L|360:122,1,88.1452000000012,10|0,2:0|2:0,2:0:0:0:
222,70,39180,5,8,2:0:0:0:
190,54,39289,1,8,2:0:0:0:
158,38,39399,1,8,2:0:0:0:
126,22,39509,6,0,L|118:78,2,44.0726,10|8|8,2:0|2:0|2:0,2:0:0:0:
254,86,39839,2,0,L|262:142,2,44.0726,10|8|8,2:0|2:0|2:0,2:0:0:0:
110,151,40169,6,0,L|100:244,1,88.1452000000012,10|0,2:0|2:0,2:0:0:0:
160,328,40498,5,8,2:0:0:0:
192,320,40608,1,8,2:0:0:0:
232,312,40718,1,8,2:0:0:0:
264,304,40828,6,0,L|272:216,1,88.1452000000012,10|0,2:0|2:0,2:0:0:0:
280,80,41158,5,8,2:0:0:0:
320,72,41267,1,8,2:0:0:0:
360,64,41377,1,8,2:0:0:0:
400,56,41487,6,0,L|392:144,1,88.1452000000012,10|0,2:0|2:0,2:0:0:0:
271,216,41817,5,8,2:0:0:0:
232,224,41927,1,8,2:0:0:0:
200,232,42037,1,8,2:0:0:0:
168,240,42147,6,0,L|160:192,3,33.0044000000007,10|2|2|10,2:0|2:0|2:0|1:0,2:0:0:0:
264,304,42476,2,0,L|258:336,3,33.0044000000007,10|10|10|10,2:0|1:0|1:0|1:0,2:0:0:0:
352,264,42806,5,6,2:0:0:0:
355,227,42888,1,0,1:0:0:0:
359,190,42970,1,0,1:0:0:0:
363,153,43053,1,0,1:0:0:0:
368,112,43135,2,0,L|328:104,1,37.1299488670349,0|0,1:0|1:0,1:0:0:0:
272,48,43300,5,2,1:0:0:0:
239,29,43382,1,0,1:0:0:0:
203,23,43465,1,0,1:0:0:0:
167,29,43547,1,0,1:0:0:0:
136,48,43630,2,0,L|128:96,1,37.1299488670349,0|0,1:0|1:0,1:0:0:0:
56,144,43795,5,2,1:0:0:0:
59,180,43877,1,0,1:0:0:0:
63,217,43959,1,0,1:0:0:0:
67,254,44042,1,0,1:0:0:0:
72,296,44124,2,0,L|120:304,1,37.1299488670349,0|0,1:0|1:0,1:0:0:0:
176,352,44289,5,2,1:0:0:0:
212,348,44371,1,0,1:0:0:0:
249,344,44454,1,0,1:0:0:0:
286,341,44536,1,0,1:0:0:0:
320,336,44619,2,0,L|328:288,1,37.1299488670349,0|0,1:0|1:0,1:0:0:0:
240,216,44784,5,2,1:0:0:0:
240,216,44866,1,0,1:0:0:0:
240,216,44948,2,0,L|248:272,3,37.1299488670349,0|0|0|0,1:0|1:0|1:0|1:0,1:0:0:0:
448,176,45278,5,2,1:0:0:0:
448,176,45360,1,0,1:0:0:0:
448,176,45443,2,0,L|453:121,3,37.1299488670349,0|0|0|0,1:0|1:0|1:0|1:0,1:0:0:0:
324,68,45773,6,0,L|332:111,3,37.1662488670349,2|0|0|0,1:0|1:0|1:0|1:0,1:0:0:0:
240,216,46102,2,0,L|245:170,3,37.1662488670349,2|0|0|0,1:0|1:0|1:0|1:0,1:0:0:0:
240,96,46432,5,6,2:0:0:0:
205,74,46514,1,0,1:0:0:0:
165,66,46596,1,0,1:0:0:0:
124,73,46679,1,0,1:0:0:0:
88,96,46761,2,0,L|96:144,1,41.2555,0|0,1:0|1:0,1:0:0:0:
182,274,46926,5,2,1:0:0:0:
215,296,47008,1,0,1:0:0:0:
256,300,47091,1,0,1:0:0:0:
293,282,47173,1,0,1:0:0:0:
312,248,47256,2,0,L|322:195,1,41.2555,0|0,1:0|1:0,1:0:0:0:
392,56,47421,5,2,1:0:0:0:
395,97,47503,1,0,1:0:0:0:
399,138,47585,1,0,1:0:0:0:
403,179,47668,1,0,1:0:0:0:
408,224,47750,2,0,L|400:272,1,41.2555,0|0,1:0|1:0,1:0:0:0:
246,136,47915,5,2,1:0:0:0:
246,136,47997,1,0,1:0:0:0:
246,136,48080,2,0,L|238:88,3,41.2555000000005,0|0|0|0,1:0|1:0|1:0|1:0,1:0:0:0:
64,288,48410,5,2,1:0:0:0:
64,288,48492,1,0,1:0:0:0:
64,288,48574,2,0,L|72:240,1,41.2555,0|0,1:0|1:0,1:0:0:0:
208,104,48739,5,2,1:0:0:0:
208,104,48822,1,0,1:0:0:0:
208,104,48904,2,0,L|214:144,1,41.2555,0|0,1:0|1:0,1:0:0:0:
240,256,49069,5,2,1:0:0:0:
240,256,49151,1,0,1:0:0:0:
240,256,49234,2,0,L|199:262,1,41.2555,0|0,1:0|1:0,1:0:0:0:
56,128,49399,5,2,1:0:0:0:
56,128,49481,1,0,1:0:0:0:
56,128,49563,2,0,L|96:121,1,41.2555,0|0,1:0|1:0,1:0:0:0:
200,24,49728,6,0,L|140:36,2,55.1402500000002,2|0|0,1:0|1:0|1:0,1:0:0:0:
320,88,50058,2,0,L|380:100,2,55.1402500000002,2|0|0,1:0|1:0|1:0,1:0:0:0:
208,104,50388,5,6,2:0:0:0:
208,104,51047,5,6,1:0:0:0:
208,104,51377,2,0,L|216:192,1,82.5110000000012,10|2,2:0|2:0,2:0:0:0:
320,328,51706,2,0,L|328:240,1,82.5110000000012,2|10,2:0|1:0,2:0:0:0:
176,264,52036,1,8,2:0:0:0:
304,165,52201,2,0,B|344:141|344:141|468:153,1,165.022,10|8,1:0|1:0,2:0:0:0:
402,320,52695,2,0,L|314:328,1,82.5110000000012,10|8,2:0|1:0,2:0:0:0:
376,168,53025,2,0,L|464:176,1,82.5110000000012,2|8,2:0|1:0,2:0:0:0:
327,245,53355,1,10,2:0:0:0:
280,88,53519,1,8,1:0:0:0:
176,264,53684,5,10,1:0:0:0:
376,168,53849,1,8,1:0:0:0:
208,104,54014,1,8,2:0:0:0:
327,245,54179,2,0,L|319:333,1,82.5110000000012,8|0,1:0|2:0,2:0:0:0:
176,264,54508,1,10,1:0:0:0:
272,176,54673,1,8,2:0:0:0:
232,328,54838,2,0,P|156:345|94:286,1,165.022,10|8,1:0|1:0,2:0:0:0:
80,128,55333,1,8,2:0:0:0:
176,264,55497,2,0,L|80:272,1,82.5110000000012,8|0,1:0|2:0,2:0:0:0:
9,282,55827,1,10,1:0:0:0:
161,118,55992,1,10,2:0:0:0:
93,270,56157,1,10,1:0:0:0:
0,136,56322,6,0,L|8:48,1,82.5110000000012,10|8,1:0|1:0,2:0:0:0:
248,112,56651,1,8,2:0:0:0:
248,112,56816,2,0,L|256:200,1,82.5110000000012,8|0,1:0|2:0,2:0:0:0:
237,25,57146,1,2,2:0:0:0:
168,200,57311,1,10,2:0:0:0:
408,112,57475,2,0,B|376:96|328:112|328:112|288:128|247:111,1,165.022,10|8,1:0|1:0,2:0:0:0:
376,272,57970,1,8,2:0:0:0:
376,272,58135,2,0,L|368:184,1,82.5110000000012,8|0,1:0|2:0,2:0:0:0:
264,280,58464,1,10,1:0:0:0:
440,328,58629,1,10,2:0:0:0:
368,189,58794,1,2,2:0:0:0:
280,368,58959,6,0,P|320:352|376:368,1,82.5110000000012,10|8,1:0|1:0,2:0:0:0:
255,194,59289,1,10,2:0:0:0:
121,343,59453,2,0,L|209:335,1,82.5110000000012,10|0,1:0|2:0,2:0:0:0:
168,200,59783,2,0,L|80:192,1,82.5110000000012,10|8,1:0|2:0,2:0:0:0:
112,360,60113,2,0,L|200:352,1,82.5110000000012,10|0,1:0|2:0,2:0:0:0:
168,184,60442,2,0,L|80:176,1,82.5110000000012,10|10,1:0|2:0,2:0:0:0:
38,350,60772,2,0,L|214:334,1,165.022,2|8,2:0|1:0,2:0:0:0:
384,328,61267,1,10,2:0:0:0:
384,328,61349,1,8,2:0:0:0:
384,328,61431,2,0,L|392:280,1,41.2555,8|8,2:0|2:0,2:0:0:0:
416,160,61596,6,0,B|368:144|336:160|336:160|288:184|240:160,1,165.022,6|8,2:0|1:0,2:0:0:0:
136,96,62090,2,0,P|176:88|216:104,1,74.2598977340711,2|10,1:0|1:0,2:0:0:0:
255,166,62420,1,2,2:0:0:0:
85,176,62585,1,2,2:0:0:0:
240,256,62749,1,10,2:0:0:0:
240,256,62832,1,8,2:0:0:0:
240,256,62914,2,0,L|320:248,1,74.2598977340711,8|8,2:0|1:0,2:0:0:0:
136,96,63244,2,0,L|62:88,1,74.2598977340711,8|8,1:0|1:0,2:0:0:0:
92,271,63574,6,0,L|244:255,1,148.51979546814,6|8,1:0|2:0,2:0:0:0:
19,237,64068,1,2,2:0:0:0:
19,237,64233,2,0,P|11:277|27:317,1,74.2598977340711,2|2,2:0|2:0,2:0:0:0:
160,352,64563,1,6,1:0:0:0:
176,176,64727,1,10,2:0:0:0:
176,176,64810,1,8,2:0:0:0:
176,176,64892,2,0,L|168:96,1,74.2598977340711,8|10,2:0|1:0,2:0:0:0:
26,163,65222,2,0,L|18:236,1,74.2598977340711,8|8,1:0|1:0,2:0:0:0:
248,88,65552,6,0,L|268:267,1,165.022,6|8,1:0|1:0,2:0:0:0:
266,251,66211,2,0,P|306:259|354:243,1,82.5110000000012,8|0,1:0|2:0,2:0:0:0:
432,104,66541,2,0,P|405:134|394:184,1,82.5110000000012,8|0,1:0|2:0,2:0:0:0:
472,320,66870,6,0,P|458:281|421:247,1,82.5110000000012,8|0,1:0|2:0,2:0:0:0:
216,240,67200,2,0,P|238:273|283:296,1,82.5110000000012,10|0,1:0|2:0,2:0:0:0:
456,80,67530,2,0,P|415:82|373:110,1,82.5110000000012,10|0,1:0|2:0,2:0:0:0:
488,352,67859,2,0,P|506:315|503:264,1,82.5110000000012,10|0,1:0|2:0,2:0:0:0:
304,176,68189,5,10,1:0:0:0:
384,328,68354,1,8,1:0:0:0:
480,176,68519,1,8,1:0:0:0:
274,294,68683,1,10,1:0:0:0:
505,274,68848,5,8,1:0:0:0:
379,103,69013,1,8,1:0:0:0:
345,248,69178,1,10,1:0:0:0:
397,22,69343,1,8,1:0:0:0:
216,240,69508,5,14,1:0:0:0:
480,176,69672,1,14,1:0:0:0:
320,48,69837,1,14,1:0:0:0:
274,294,70002,1,14,1:0:0:0:
274,294,70332,5,8,2:0:0:0:
274,294,70414,1,8,2:0:0:0:
274,294,70497,2,0,P|230:315|175:306,1,82.5110000000012,8|0,2:0|2:0,2:0:0:0:
32,280,70826,6,0,L|40:192,1,82.5110000000012,4|0,2:0|2:0,2:0:0:0:
55,37,71156,1,10,2:0:0:0:
128,208,71321,1,10,1:0:0:0:
137,49,71486,2,0,P|177:33|233:49,1,82.5110000000012,2|10,2:0|1:0,2:0:0:0:
49,119,71815,1,8,2:0:0:0:
216,240,71980,2,0,B|256:216|256:216|272:88,1,165.022,10|8,1:0|1:0,2:0:0:0:
128,208,72475,2,0,L|136:304,1,82.5110000000012,10|8,2:0|1:0,2:0:0:0:
288,186,72804,2,0,L|299:94,1,82.5110000000012,2|8,2:0|1:0,2:0:0:0:
216,240,73134,2,0,L|224:336,1,82.5110000000012,10|8,2:0|1:0,2:0:0:0:
368,208,73464,5,10,1:0:0:0:
297,104,73628,1,8,1:0:0:0:
304,264,73793,1,8,2:0:0:0:
379,126,73958,2,0,P|377:79|358:46,1,82.5110000000012,8|0,1:0|2:0,2:0:0:0:
215,38,74288,1,10,1:0:0:0:
288,186,74453,1,10,2:0:0:0:
205,18,74617,2,0,B|165:2|125:18|125:18|77:42|37:18,1,165.022,10|8,1:0|1:0,2:0:0:0:
162,94,75112,1,8,2:0:0:0:
24,184,75277,2,0,L|16:96,1,82.5110000000012,8|0,1:0|2:0,2:0:0:0:
30,266,75606,1,10,1:0:0:0:
209,165,75771,1,10,2:0:0:0:
16,101,75936,1,10,1:0:0:0:
191,245,76101,6,0,P|241:241|276:211,1,82.5110000000012,10|8,1:0|1:0,2:0:0:0:
162,94,76431,1,8,2:0:0:0:
111,254,76595,2,0,L|119:342,1,82.5110000000012,8|0,1:0|2:0,2:0:0:0:
266,223,76925,1,10,1:0:0:0:
104,168,77090,1,10,2:0:0:0:
346,250,77255,2,0,B|378:218|378:218|371:98,1,165.3465,10|8,1:0|1:0,2:0:0:0:
209,165,77749,1,8,2:0:0:0:
422,218,77914,2,0,L|414:122,1,82.5110000000012,8|0,1:0|2:0,2:0:0:0:
408,24,78244,1,10,1:0:0:0:
288,144,78409,1,10,2:0:0:0:
415,135,78573,1,10,1:0:0:0:
216,82,78738,6,0,L|208:170,1,82.5110000000012,10|8,1:0|1:0,2:0:0:0:
224,0,79068,1,10,2:0:0:0:
47,163,79233,2,0,B|87:179|127:163|127:163|167:147|211:165,1,165.3465,10|10,1:0|1:0,2:0:0:0:
89,89,79727,1,8,2:0:0:0:
168,239,79892,2,0,L|256:247,1,82.5110000000012,10|0,1:0|2:0,2:0:0:0:
171,81,80222,2,0,L|83:89,1,82.5110000000012,10|8,1:0|2:0,2:0:0:0:
135,251,80552,2,0,L|325:268,1,165.022,10|8,1:0|1:0,2:0:0:0:
328,138,81046,1,10,2:0:0:0:
328,138,81128,1,8,2:0:0:0:
328,138,81211,2,0,L|272:146,1,41.2555,8|8,2:0|2:0,2:0:0:0:
208,344,81376,6,0,B|344:360|344:360|367:327,1,165.3465,12|8,2:0|1:0,2:0:0:0:
400,192,81870,1,10,1:0:0:0:
400,192,82035,2,0,L|408:272,1,74.2598977340711,10|10,1:0|1:0,2:0:0:0:
384,72,82365,1,14,1:0:0:0:
488,176,82529,1,8,2:0:0:0:
488,176,82612,1,8,2:0:0:0:
488,176,82694,1,8,2:0:0:0:
320,232,82859,1,10,1:0:0:0:
320,232,83024,2,0,L|240:224,1,74.2598977340711,8|8,1:0|1:0,2:0:0:0:
152,96,83354,6,0,L|321:79,1,148.81184546814,14|8,1:0|1:0,2:0:0:0:
168,216,83848,1,10,1:0:0:0:
168,216,84013,2,0,L|88:208,1,74.2598977340711,10|10,1:0|1:0,2:0:0:0:
160,72,84343,1,14,1:0:0:0:
8,200,84507,1,8,2:0:0:0:
8,200,84590,1,8,2:0:0:0:
8,200,84672,2,0,L|16:280,1,74.2598977340711,8|10,2:0|1:0,2:0:0:0:
152,368,85002,2,0,L|160:288,1,74.2598977340711,8|8,1:0|1:0,2:0:0:0:
176,96,85332,6,0,B|216:80|256:96|256:96|304:112|343:95,1,148.81184546814,10|8,1:0|1:0,2:0:0:0:
321,102,85991,2,0,L|313:190,1,82.5110000000012,8|0,1:0|2:0,2:0:0:0:
464,200,86321,2,0,L|387:146,1,82.9235000000007,8|0,1:0|2:0,2:0:0:0:
304,280,86650,6,0,L|384:242,1,82.5110000000012,8|0,1:0|2:0,2:0:0:0:
224,176,86980,2,0,L|216:264,1,82.5110000000012,10|0,1:0|2:0,2:0:0:0:
448,88,87310,2,0,L|373:35,1,82.9235000000007,10|0,1:0|2:0,2:0:0:0:
416,320,87639,2,0,L|496:282,1,82.5110000000012,10|0,1:0|2:0,2:0:0:0:
216,258,87969,5,10,1:0:0:0:
464,200,88134,1,8,1:0:0:0:
304,280,88299,1,8,1:0:0:0:
321,102,88463,1,10,1:0:0:0:
416,320,88628,5,8,1:0:0:0:
224,176,88793,1,8,1:0:0:0:
448,88,88958,1,10,1:0:0:0:
378,245,89123,1,8,1:0:0:0:
380,40,89288,5,14,1:0:0:0:
216,258,89452,1,14,1:0:0:0:
301,23,89617,1,14,1:0:0:0:
464,200,89782,1,14,1:0:0:0:
464,200,90112,5,8,2:0:0:0:
464,200,90194,1,8,2:0:0:0:
464,200,90277,2,0,L|456:114,1,82.9235000000007,8|0,2:0|2:0,2:0:0:0:
301,23,90606,6,0,B|269:-1|213:23|213:23|165:47|125:23,1,181.524205538941,14|8,2:0|2:0,2:0:0:0:
256,184,91101,1,10,1:0:0:0:
256,184,91266,2,0,L|263:86,1,91.215852769471,10|8,1:0|1:0,2:0:0:0:
127,24,91595,1,10,2:0:0:0:
263,93,91760,1,2,2:0:0:0:
71,170,91925,2,0,L|64:80,1,90.7621027694715,10|8,1:0|1:0,2:0:0:0:
248,274,92255,2,0,L|256:175,1,91.215852769471,10|0,2:0|2:0,2:0:0:0:
80,256,92584,1,10,1:0:0:0:
80,256,92667,1,8,1:0:0:0:
80,256,92749,1,8,1:0:0:0:
255,183,92914,2,0,P|303:175|343:191,1,90.7621027694715,10|0,2:0|2:0,2:0:0:0:
242,356,93244,5,10,2:0:0:0:
168,224,93408,1,8,1:0:0:0:
392,256,93573,1,10,2:0:0:0:
160,312,93738,1,8,1:0:0:0:
341,189,93903,5,10,2:0:0:0:
136,328,94068,1,8,1:0:0:0:
298,119,94233,2,0,P|338:107|401:136,1,91.215852769471,10|8,2:0|1:0,2:0:0:0:
416,336,94562,6,0,L|320:328,1,90.7621027694715,10|8,2:0|1:0,2:0:0:0:
168,224,94892,1,8,2:0:0:0:
384,119,95057,1,10,1:0:0:0:
325,328,95222,6,0,L|316:229,1,91.215852769471,10|8,2:0|1:0,2:0:0:0:
368,40,95551,1,8,2:0:0:0:
396,200,95716,1,8,1:0:0:0:
181,89,95881,5,10,2:0:0:0:
410,116,96046,1,8,1:0:0:0:
238,272,96211,1,8,1:0:0:0:
158,74,96375,5,8,2:0:0:0:
317,237,96540,1,8,1:0:0:0:
375,18,96705,1,10,1:0:0:0:
168,224,96870,5,10,2:0:0:0:
396,200,97035,1,10,1:0:0:0:
112,160,97200,1,8,2:0:0:0:
96,168,97282,1,8,2:0:0:0:
80,176,97364,1,8,2:0:0:0:
64,184,97447,1,8,2:0:0:0:
48,192,97529,6,0,L|40:144,3,45.3810513847358,8|8|8|8,2:0|2:0|2:0|2:0,2:0:0:0:
119,368,97859,2,0,B|159:344|159:344|167:248,1,136.143154154205,8|0,2:0|2:0,2:0:0:0:
168,224,98189,1,8,2:0:0:0:
168,224,98518,5,4,1:0:0:0:
207,202,98601,1,0,1:0:0:0:
252,201,98683,1,10,1:0:0:0:
293,221,98766,1,0,1:0:0:0:
320,256,98848,2,0,L|312:312,3,45.3810513847358,0|0|8|0,1:0|1:0|1:0|1:0,1:0:0:0:
400,232,99178,5,2,1:0:0:0:
441,214,99260,1,0,1:0:0:0:
466,177,99342,1,8,1:0:0:0:
469,132,99425,1,2,1:0:0:0:
449,93,99507,1,0,1:0:0:0:
410,70,99590,1,0,1:0:0:0:
366,70,99672,1,10,1:0:0:0:
327,93,99755,1,0,1:0:0:0:
304,136,99837,6,0,L|352:128,3,45.3810513847358,2|0|8|0,1:0|1:0|1:0|1:0,1:0:0:0:
248,72,100167,2,0,L|255:23,3,45.3810513847358,2|0|8|0,1:0|1:0|1:0|1:0,1:0:0:0:
166,100,100496,2,0,L|122:78,3,45.3810513847359,2|0|8|0,1:0|1:0|1:0|1:0,1:0:0:0:
173,184,100826,2,0,L|138:218,3,45.3810513847358,2|0|8|0,1:0|1:0|1:0|1:0,1:0:0:0:
252,201,101156,5,2,1:0:0:0:
244,245,101238,1,0,1:0:0:0:
257,288,101321,1,8,1:0:0:0:
289,319,101403,1,0,1:0:0:0:
332,332,101485,2,0,L|376:340,3,45.3790347180689,0|0|8|0,1:0|1:0|1:0|1:0,1:0:0:0:
168,344,101815,5,2,1:0:0:0:
123,351,101897,1,0,1:0:0:0:
81,336,101980,1,8,1:0:0:0:
51,303,102062,1,2,1:0:0:0:
42,259,102145,1,0,1:0:0:0:
54,216,102227,1,0,1:0:0:0:
87,185,102310,1,10,1:0:0:0:
130,173,102392,1,0,1:0:0:0:
173,184,102474,6,0,L|141:216,3,45.3810513847359,2|0|8|0,1:0|1:0|1:0|1:0,1:0:0:0:
254,201,102804,2,0,L|274:241,3,45.3810513847358,2|0|8|0,1:0|1:0|1:0|1:0,1:0:0:0:
304,136,103134,2,0,L|348:128,3,45.3810513847358,2|0|8|0,1:0|1:0|1:0|1:0,1:0:0:0:
248,72,103463,2,0,L|254:27,3,45.3810513847359,2|0|8|0,1:0|1:0|1:0|1:0,1:0:0:0:
166,100,103793,5,2,1:0:0:0:
169,145,103875,1,0,1:0:0:0:
173,190,103958,1,8,1:0:0:0:
177,235,104040,1,0,1:0:0:0:
180,276,104123,2,0,L|120:272,3,45.3790347180689,0|0|8|0,1:0|1:0|1:0|1:0,1:0:0:0:
281,249,104452,5,2,1:0:0:0:
318,225,104535,1,0,1:0:0:0:
340,185,104617,1,8,1:0:0:0:
338,140,104700,1,2,1:0:0:0:
315,102,104782,1,0,1:0:0:0:
276,80,104864,1,0,1:0:0:0:
231,81,104947,1,10,1:0:0:0:
192,104,105029,1,0,1:0:0:0:
169,145,105112,6,0,L|177:193,3,45.3810513847358,2|0|8|0,1:0|1:0|1:0|1:0,1:0:0:0:
113,81,105441,2,0,L|120:36,3,45.3810513847359,2|0|8|0,1:0|1:0|1:0|1:0,1:0:0:0:
89,161,105771,2,0,L|97:209,3,45.3810513847358,2|0|8|0,1:0|1:0|1:0|1:0,1:0:0:0:
25,105,106101,2,0,L|32:60,3,45.3810513847358,2|0|8|0,1:0|1:0|1:0|1:0,1:0:0:0:
12,192,106430,5,2,1:0:0:0:
8,236,106513,1,0,1:0:0:0:
31,275,106595,1,8,1:0:0:0:
71,293,106678,1,0,1:0:0:0:
116,288,106760,1,2,1:0:0:0:
159,277,106842,1,0,1:0:0:0:
204,282,106925,1,8,1:0:0:0:
244,303,107007,1,0,1:0:0:0:
276,336,107090,6,0,L|228:344,3,45.3810513847358,2|0|8|0,1:0|1:0|1:0|1:0,1:0:0:0:
464,280,107419,2,0,L|512:288,3,45.3810513847359,2|0|8|0,1:0|1:0|1:0|1:0,1:0:0:0:
408,216,107749,5,2,1:0:0:0:
404,170,107832,1,0,1:0:0:0:
400,125,107914,1,8,1:0:0:0:
396,80,107996,1,0,1:0:0:0:
392,32,108079,2,0,L|344:40,1,45.3810513847352,0|0,1:0|1:0,1:0:0:0:
224,152,108244,5,10,1:0:0:0:
224,152,108326,1,2,1:0:0:0:
224,152,108408,2,0,L|176:144,1,45.3810513847352,10|8,1:0|1:0,1:0:0:0:
32,128,108573,5,8,1:0:0:0:
22,171,108656,1,8,1:0:0:0:
33,215,108738,1,8,1:0:0:0:
64,248,108821,1,8,1:0:0:0:
106,263,108903,1,8,1:0:0:0:
151,256,108985,1,8,1:0:0:0:
192,232,109068,5,14,1:0:0:0:
233,217,109150,1,0,1:0:0:0:
277,225,109233,1,8,1:0:0:0:
310,256,109315,1,0,1:0:0:0:
324,299,109397,1,0,1:0:0:0:
312,341,109480,1,0,1:0:0:0:
281,373,109562,1,8,1:0:0:0:
237,384,109645,1,0,1:0:0:0:
192,372,109727,6,0,L|184:276,1,90.9375527694707,2|10,1:0|1:0,1:0:0:0:
180,196,109974,1,2,1:0:0:0:
180,196,110057,2,0,L|232:204,1,45.7440513847352,0|2,1:0|1:0,1:0:0:0:
372,172,110222,2,0,L|327:165,1,45.7440513847352,8|0,1:0|1:0,1:0:0:0:
304,88,110386,6,0,L|312:40,3,45.3810513847358,2|0|8|0,1:0|1:0|1:0|1:0,1:0:0:0:
229,28,110716,2,0,L|181:20,3,45.3810513847358,2|0|8|0,1:0|1:0|1:0|1:0,1:0:0:0:
172,104,111046,2,0,L|164:152,3,45.3810513847358,2|0|8|0,1:0|1:0|1:0|1:0,1:0:0:0:
247,164,111375,2,0,L|295:172,3,45.3810513847358,2|0|8|0,1:0|1:0|1:0|1:0,1:0:0:0:
80,144,111705,5,2,1:0:0:0:
83,189,111788,1,0,1:0:0:0:
87,234,111870,1,8,1:0:0:0:
91,279,111952,1,0,1:0:0:0:
96,320,112035,2,0,L|48:312,3,45.3810513847358,0|0|8|0,1:0|1:0|1:0|1:0,1:0:0:0:
200,336,112364,6,0,P|240:348|288:332,1,90.9375527694707,2|8,1:0|1:0,1:0:0:0:
344,276,112612,1,2,1:0:0:0:
344,276,112694,2,0,L|396:280,1,45.7440513847352,0|0,1:0|1:0,1:0:0:0:
472,348,112859,2,0,L|420:352,1,45.7440513847352,10|0,1:0|1:0,1:0:0:0:
495,266,113024,5,2,1:0:0:0:
487,222,113106,1,0,1:0:0:0:
457,188,113189,1,8,1:0:0:0:
414,175,113271,1,0,1:0:0:0:
368,184,113353,6,0,L|376:136,3,45.3810513847358,2|0|8|0,1:0|1:0|1:0|1:0,1:0:0:0:
256,120,113683,2,0,L|293:150,3,45.3810513847358,2|0|8|0,1:0|1:0|1:0|1:0,1:0:0:0:
376,56,114013,2,0,L|330:73,3,45.3810513847358,2|0|8|0,1:0|1:0|1:0|1:0,1:0:0:0:
259,38,114342,5,2,1:0:0:0:
214,43,114425,1,0,1:0:0:0:
180,72,114507,1,8,1:0:0:0:
168,115,114590,1,0,1:0:0:0:
183,155,114672,1,0,1:0:0:0:
172,198,114755,1,0,1:0:0:0:
141,231,114837,1,8,1:0:0:0:
98,244,114919,1,0,1:0:0:0:
56,232,115002,6,0,L|68:140,1,90.9375527694707,2|8,1:0|1:0,1:0:0:0:
160,264,115249,1,2,1:0:0:0:
160,264,115332,2,0,L|164:320,1,45.7440513847352,0|0,1:0|1:0,1:0:0:0:
44,360,115496,2,0,L|47:314,1,45.7440513847352,10|0,1:0|1:0,1:0:0:0:
248,240,115661,5,2,1:0:0:0:
277,206,115744,1,0,1:0:0:0:
319,193,115826,1,8,1:0:0:0:
363,205,115908,1,0,1:0:0:0:
392,238,115991,1,2,1:0:0:0:
399,282,116073,1,0,1:0:0:0:
382,323,116156,1,8,1:0:0:0:
345,348,116238,1,0,1:0:0:0:
299,346,116321,6,0,L|307:298,3,45.3810513847358,2|0|8|0,1:0|1:0|1:0|1:0,1:0:0:0:
392,238,116650,2,0,L|384:190,3,45.3810513847358,2|0|8|0,1:0|1:0|1:0|1:0,1:0:0:0:
465,157,116980,5,2,1:0:0:0:
436,122,117062,1,0,1:0:0:0:
394,106,117145,1,8,1:0:0:0:
350,112,117227,1,0,1:0:0:0:
312,136,117310,1,2,1:0:0:0:
283,170,117392,1,0,1:0:0:0:
240,183,117474,1,8,1:0:0:0:
197,172,117557,1,0,1:0:0:0:
166,140,117639,5,2,1:0:0:0:
157,96,117722,1,0,1:0:0:0:
173,54,117804,1,8,1:0:0:0:
208,27,117886,1,0,1:0:0:0:
256,24,117969,2,0,L|248:72,3,45.3810513847358,2|0|8|0,1:0|1:0|1:0|1:0,1:0:0:0:
229,265,118299,5,2,1:0:0:0:
184,257,118381,1,0,1:0:0:0:
143,238,118463,1,8,1:0:0:0:
109,208,118546,1,0,1:0:0:0:
85,170,118628,1,0,1:0:0:0:
72,127,118711,1,0,1:0:0:0:
71,81,118793,1,10,1:0:0:0:
84,38,118875,1,2,1:0:0:0:
112,0,118958,5,10,1:0:0:0:
144,8,119040,1,8,1:0:0:0:
168,16,119123,1,8,1:0:0:0:
192,24,119205,1,8,1:0:0:0:
216,32,119288,1,8,1:0:0:0:
240,40,119370,1,8,1:0:0:0:
264,48,119452,1,8,1:0:0:0:
288,56,119535,1,8,1:0:0:0:
312,64,119617,6,0,L|304:8,3,49.5065984893799,10|0|0|0,1:0|1:0|1:0|1:0,1:0:0:0:
424,112,119947,2,0,L|416:161,3,49.5065984893799,8|0|0|0,1:0|1:0|1:0|1:0,1:0:0:0:
327,143,120277,5,8,1:0:0:0:
335,192,120359,1,0,1:0:0:0:
366,230,120441,1,0,1:0:0:0:
411,248,120524,1,0,1:0:0:0:
456,240,120606,2,0,L|464:304,3,49.5065984893799,8|0|2|2,1:0|1:0|1:0|1:0,1:0:0:0:
390,329,120936,5,10,1:0:0:0:
361,358,121018,1,0,1:0:0:0:
323,374,121101,1,0,1:0:0:0:
282,376,121183,1,0,1:0:0:0:
244,362,121266,1,8,1:0:0:0:
213,335,121348,1,0,1:0:0:0:
194,299,121430,1,0,1:0:0:0:
190,258,121513,1,0,1:0:0:0:
197,217,121595,5,8,1:0:0:0:
219,171,121678,1,8,1:0:0:0:
218,119,121760,1,8,1:0:0:0:
191,75,121842,1,8,1:0:0:0:
146,49,121925,1,8,1:0:0:0:
95,48,122007,1,8,1:0:0:0:
50,71,122090,1,8,1:0:0:0:
20,114,122172,1,8,1:0:0:0:
16,164,122255,5,12,2:0:0:0:
256,192,138079,6,0,L|328:184,2,44.0726,8|8|8,2:0|2:0|2:0,2:0:0:0:
172,203,138408,1,8,2:0:0:0:
172,203,138738,6,0,L|160:72,2,132.0726,12|0|8,2:0|2:0|2:0,2:0:0:0:
216,333,139562,1,2,2:0:0:0:
216,333,139727,2,0,L|224:253,1,66.0088000000012,2|10,2:0|1:0,2:0:0:0:
136,104,140057,2,0,L|148:235,2,132.0176,2|8|8,2:0|1:0|2:0,2:0:0:0:
256,192,140881,1,8,2:0:0:0:
256,192,141046,2,0,L|328:184,1,66.0088000000012,2|8,2:0|1:0,2:0:0:0:
456,168,141375,6,0,B|472:128|456:96|456:96|440:64|456:32,2,132.0176,2|2|8,2:0|2:0|2:0,2:0:0:0:
456,168,142364,1,8,1:0:0:0:
288,104,142529,1,8,2:0:0:0:
321,184,142694,1,8,1:0:0:0:
328,32,142859,1,2,2:0:0:0:
320,208,143024,2,0,L|272:200,1,33.0044,2|0,2:0|2:0,2:0:0:0:
176,120,143188,2,0,L|224:112,1,33.0044,2|0,2:0|2:0,2:0:0:0:
320,224,143353,6,0,L|312:264,3,33.0044000000007,2|8|8|8,1:0|1:2|1:2|1:2,2:0:0:0:
182,152,143683,2,0,L|175:119,3,33.0044000000007,2|8|2|8,1:0|1:2|1:0|1:2,2:0:0:0:
208,288,144013,5,6,1:0:0:0:
182,308,144095,1,0,1:0:0:0:
151,316,144177,1,8,1:0:0:0:
119,310,144260,1,0,1:0:0:0:
92,290,144342,1,0,1:0:0:0:
77,262,144425,1,0,1:0:0:0:
72,224,144507,6,0,L|128:232,3,41.2555000000005,10|0|0|0,1:0|1:0|1:0|1:0,1:0:0:0:
40,352,144837,2,0,L|0:346,3,41.2555000000005,8|0|0|0,1:0|1:0|1:0|1:0,1:0:0:0:
240,368,145166,5,8,1:0:0:0:
274,346,145249,1,0,1:0:0:0:
294,310,145331,1,0,1:0:0:0:
295,269,145414,1,0,1:0:0:0:
276,233,145496,1,8,1:0:0:0:
243,210,145579,1,0,1:0:0:0:
200,208,145661,6,0,L|208:160,3,41.2555000000005,0|0|8|0,1:0|1:0|1:0|1:0,1:0:0:0:
144,112,145991,5,0,1:0:0:0:
178,89,146073,1,0,1:0:0:0:
218,86,146155,1,8,1:0:0:0:
256,102,146238,1,0,1:0:0:0:
280,136,146320,1,2,1:0:0:0:
312,160,146403,1,0,1:0:0:0:
353,163,146485,1,10,1:0:0:0:
390,146,146568,1,0,1:0:0:0:
413,112,146650,5,2,1:0:0:0:
415,72,146732,1,0,1:0:0:0:
397,36,146815,1,8,1:0:0:0:
362,14,146897,1,0,1:0:0:0:
320,16,146980,2,0,L|328:64,1,41.2555,0|0,1:0|1:0,1:0:0:0:
472,184,147144,5,10,1:0:0:0:
472,184,147227,1,0,1:0:0:0:
472,184,147309,2,0,L|464:240,1,41.2555,0|0,1:0|1:0,1:0:0:0:
352,312,147474,5,8,1:0:0:0:
317,334,147557,1,0,1:0:0:0:
277,337,147639,1,0,1:0:0:0:
240,319,147721,1,0,1:0:0:0:
216,280,147804,1,8,1:0:0:0:
211,239,147886,1,0,1:0:0:0:
190,204,147969,5,0,1:0:0:0:
156,182,148051,1,0,1:0:0:0:
115,176,148133,1,8,1:0:0:0:
76,188,148216,1,0,1:0:0:0:
46,216,148298,1,0,1:0:0:0:
31,254,148381,1,0,1:0:0:0:
34,295,148463,1,8,1:0:0:0:
54,331,148546,1,0,1:0:0:0:
88,352,148628,6,0,L|128:344,3,41.2555000000005,0|0|8|0,1:0|1:0|1:0|1:0,1:0:0:0:
211,239,148958,2,0,L|171:231,3,41.2555000000005,0|0|8|0,1:0|1:0|1:0|1:0,1:0:0:0:
69,148,149287,6,0,L|77:196,1,41.2555,14|0,1:0|1:0,1:0:0:0:
188,96,149452,2,0,L|194:55,1,41.2555,8|0,1:0|1:0,1:0:0:0:
61,151,149617,6,0,L|70:203,1,41.2555,2|0,1:0|1:0,1:0:0:0:
195,92,149782,2,0,L|202:48,1,41.2555,10|0,1:0|1:0,1:0:0:0:
160,180,149947,6,0,L|216:188,1,41.2555,2|0,1:0|1:0,1:0:0:0:
112,64,150111,2,0,L|56:72,1,41.2555,10|0,1:0|1:0,1:0:0:0:
162,188,150276,6,0,L|224:197,1,41.2555,2|0,1:0|1:0,1:0:0:0:
109,55,150441,2,0,L|47:63,1,41.2555,10|0,1:0|1:0,1:0:0:0:
284,40,150606,5,2,1:0:0:0:
321,24,150688,1,0,1:0:0:0:
362,27,150771,1,10,1:0:0:0:
396,49,150853,1,0,1:0:0:0:
420,88,150936,6,0,L|412:128,1,41.2555,2|0,1:0|1:0,1:0:0:0:
320,248,151101,2,0,L|312:208,1,41.2555,10|0,1:0|1:0,1:0:0:0:
436,96,151265,6,0,L|428:136,1,41.2555,2|0,1:0|1:0,1:0:0:0:
336,256,151430,2,0,L|328:216,1,41.2555,10|0,1:0|1:0,1:0:0:0:
400,336,151595,5,2,1:0:0:0:
366,359,151677,1,0,1:0:0:0:
326,365,151760,1,10,1:0:0:0:
287,351,151842,1,0,1:0:0:0:
256,320,151925,5,2,1:0:0:0:
229,283,152007,1,0,1:0:0:0:
190,261,152090,1,8,1:0:0:0:
145,256,152172,1,0,1:0:0:0:
102,270,152254,1,0,1:0:0:0:
68,300,152337,1,0,1:0:0:0:
48,336,152419,6,0,L|104:328,1,45.3810513847352,10|0,1:0|1:0,1:0:0:0:
235,254,152584,2,0,L|190:260,1,45.3810513847352,0|0,1:0|1:0,1:0:0:0:
32,200,152749,6,0,L|88:192,1,45.3810513847352,10|0,1:0|1:0,1:0:0:0:
219,118,152914,2,0,L|174:124,1,45.3810513847352,2|0,1:0|1:0,1:0:0:0:
16,72,153079,2,0,L|72:64,1,45.3810513847352,10|0,1:0|1:0,1:0:0:0:
208,0,153243,5,2,1:0:0:0:
240,31,153326,1,0,1:0:0:0:
282,48,153408,1,8,1:0:0:0:
327,50,153491,1,0,1:0:0:0:
368,32,153573,1,0,1:0:0:0:
412,29,153655,1,0,1:0:0:0:
455,45,153738,1,10,1:0:0:0:
486,77,153820,1,0,1:0:0:0:
504,120,153903,6,0,L|448:128,3,45.3810513847359,2|0|8|0,1:0|1:0|1:0|1:0,1:0:0:0:
352,176,154232,2,0,L|400:184,3,45.3810513847359,0|0|8|0,1:0|1:0|1:0|1:0,1:0:0:0:
472,208,154562,6,0,L|464:272,2,55.0907500000012,10|10|10,2:0|2:0|2:0,2:0:0:0:
448,352,154892,2,0,L|384:344,2,55.0907500000012,10|10|10,2:0|2:0|2:0,2:0:0:0:
304,336,155221,2,0,L|312:272,2,55.0907500000012,10|10|10,2:0|2:0|2:0,2:0:0:0:
320,192,155551,2,0,L|384:200,2,55.0907500000012,10|10|10,2:0|2:0|2:0,2:0:0:0:
216,328,155881,5,14,2:0:0:0:
216,328,156210,2,0,L|168:320,1,41.2555,8|8,2:0|2:0,2:0:0:0:
40,232,156375,2,0,L|88:224,1,41.2555,8|8,2:0|2:0,2:0:0:0:
233,203,156540,1,10,2:0:0:0:
233,203,156870,2,0,L|240:152,3,41.2555000000005,10|10|10|10,1:0|1:0|1:0|1:0,2:0:0:0:
248,80,157199,5,14,2:0:0:0:
248,80,157529,2,0,L|192:88,2,44.0726,2|2|2,2:0|2:0|2:0,2:0:0:0:
336,72,157859,2,0,P|376:96|432:88,1,88.1452000000012,10|0,2:0|2:0,2:0:0:0:
496,64,158188,2,0,L|488:152,1,88.1452000000012,2|0,2:0|2:0,2:0:0:0:
472,296,158518,5,10,2:0:0:0:
472,296,158848,2,0,L|480:344,2,44.0726,2|2|2,2:0|2:0|2:0,2:0:0:0:
429,221,159177,2,0,L|325:229,1,88.1452000000012,10|0,2:0|2:0,2:0:0:0:
192,160,159507,2,0,L|288:168,1,88.1452000000012,2|0,2:0|2:0,2:0:0:0:
105,153,159837,5,10,2:0:0:0:
105,153,160166,2,0,L|96:104,2,44.0726,2|2|2,2:0|2:0|2:0,2:0:0:0:
136,328,160496,2,0,L|232:320,1,88.1452000000012,10|0,2:0|2:0,2:0:0:0:
120,240,160826,2,0,L|24:232,1,88.1452000000012,2|0,2:0|2:0,2:0:0:0:
140,352,161155,5,10,2:0:0:0:
140,352,161485,2,0,L|79:348,2,44.0726,2|2|2,2:0|2:0|2:0,2:0:0:0:
223,320,161815,2,0,P|263:312|327:344,1,88.1452000000012,10|0,2:0|2:0,2:0:0:0:
432,368,162144,5,8,2:0:0:0:
440,336,162254,1,8,2:0:0:0:
448,304,162364,1,8,2:0:0:0:
456,264,162474,6,0,L|368:272,1,88.1452000000012,10|0,2:0|2:0,2:0:0:0:
265,160,162804,5,8,2:0:0:0:
297,168,162914,1,8,2:0:0:0:
329,176,163024,1,8,2:0:0:0:
361,184,163133,6,0,L|369:280,1,88.1452000000012,10|0,2:0|2:0,2:0:0:0:
223,320,163463,5,8,2:0:0:0:
192,328,163573,1,8,2:0:0:0:
160,336,163683,1,8,2:0:0:0:
132,344,163793,6,0,P|116:296|132:256,1,88.1452000000012,10|0,2:0|2:0,2:0:0:0:
265,160,164122,5,8,2:0:0:0:
288,144,164232,1,8,2:0:0:0:
312,128,164342,1,8,2:0:0:0:
336,112,164452,6,0,L|328:64,2,44.0726,10|8|8,2:0|2:0|2:0,2:0:0:0:
265,160,164782,2,0,L|257:203,2,44.0726,10|8|8,2:0|2:0|2:0,2:0:0:0:
288,0,165111,5,10,2:0:0:0:
288,0,165441,5,8,2:0:0:0:
256,8,165551,1,8,2:0:0:0:
224,16,165661,1,8,2:0:0:0:
192,24,165771,6,0,L|184:112,1,88.1452000000012,10|0,2:0|2:0,2:0:0:0:
96,192,166101,5,8,2:0:0:0:
104,224,166210,1,8,2:0:0:0:
112,256,166320,1,8,2:0:0:0:
120,288,166430,6,0,P|160:304|208:288,1,88.1452000000012,10|0,2:0|2:0,2:0:0:0:
344,208,166760,5,8,2:0:0:0:
376,216,166870,1,8,2:0:0:0:
408,224,166980,1,8,2:0:0:0:
440,232,167090,6,0,L|448:272,3,33.0044000000007,10|2|2|2,2:0|2:0|2:0|2:0,2:0:0:0:
359,127,167419,2,0,L|367:87,3,33.0044000000007,10|2|2|2,2:0|2:0|2:0|2:0,2:0:0:0:
320,288,167749,5,6,2:0:0:0:
296,310,167831,1,0,1:0:0:0:
266,324,167913,1,0,1:0:0:0:
233,328,167996,1,0,1:0:0:0:
200,320,168078,2,0,L|192:288,1,33.0044,0|0,1:0|1:0,1:0:0:0:
112,256,168243,5,2,1:0:0:0:
113,223,168325,1,0,1:0:0:0:
115,190,168408,1,0,1:0:0:0:
116,157,168490,1,0,1:0:0:0:
120,120,168573,2,0,L|159:112,1,33.1364,0|0,1:0|1:0,1:0:0:0:
200,40,168738,5,2,1:0:0:0:
231,31,168820,1,0,1:0:0:0:
264,33,168902,1,0,1:0:0:0:
294,46,168985,1,0,1:0:0:0:
320,72,169067,2,0,L|328:120,1,33.0044,0|0,1:0|1:0,1:0:0:0:
352,224,169232,5,2,1:0:0:0:
383,216,169314,1,0,1:0:0:0:
410,197,169397,1,0,1:0:0:0:
427,169,169479,1,0,1:0:0:0:
432,136,169562,2,0,L|425:98,1,33.1364,0|0,1:0|1:0,1:0:0:0:
280,176,169727,5,2,1:0:0:0:
280,176,169809,1,0,1:0:0:0:
280,176,169891,2,0,L|240:168,3,33.0044000000007,0|0|0|0,1:0|1:0|1:0|1:0,1:0:0:0:
408,304,170221,5,2,1:0:0:0:
408,304,170303,1,0,1:0:0:0:
408,304,170386,2,0,L|453:294,3,33.0366666666671,0|0|0|0,1:0|1:0|1:0|1:0,1:0:0:0:
205,352,170716,5,2,1:0:0:0:
205,352,170798,1,0,1:0:0:0:
205,352,170880,2,0,L|194:297,1,33.3036,0|0,1:0|1:0,1:0:0:0:
117,223,171045,5,2,1:0:0:0:
117,223,171128,1,0,1:0:0:0:
117,223,171210,2,0,L|111:258,1,33.1364,0|0,1:0|1:0,1:0:0:0:
32,360,171376,5,6,2:0:0:0:
32,360,171458,1,0,1:0:0:0:
32,360,171540,2,0,L|24:312,3,41.2555000000005,0|0|0|0,1:0|1:0|1:0|1:0,1:0:0:0:
58,156,171870,5,2,1:0:0:0:
92,134,171952,1,0,1:0:0:0:
133,132,172035,1,0,1:0:0:0:
170,150,172117,1,0,1:0:0:0:
192,184,172200,2,0,L|248:176,1,41.2555,0|0,1:0|1:0,1:0:0:0:
432,144,172365,5,2,1:0:0:0:
393,157,172447,1,0,1:0:0:0:
352,154,172529,1,0,1:0:0:0:
315,136,172612,1,0,1:0:0:0:
288,104,172694,2,0,L|296:56,1,41.2555,0|0,1:0|1:0,1:0:0:0:
432,144,172859,5,2,1:0:0:0:
428,185,172941,1,0,1:0:0:0:
424,226,173024,1,0,1:0:0:0:
420,267,173106,1,0,1:0:0:0:
416,304,173189,2,0,L|368:312,1,41.2555,0|0,1:0|1:0,1:0:0:0:
304,232,173354,5,2,1:0:0:0:
304,232,173436,1,0,1:0:0:0:
304,232,173518,2,0,L|352:240,1,41.2555,0|0,1:0|1:0,1:0:0:0:
216,224,173683,5,2,1:0:0:0:
216,224,173766,1,0,1:0:0:0:
216,224,173848,2,0,L|208:272,1,41.2555,0|0,1:0|1:0,1:0:0:0:
224,136,174013,5,2,1:0:0:0:
224,136,174095,1,0,1:0:0:0:
224,136,174178,2,0,L|176:128,1,41.2555,0|0,1:0|1:0,1:0:0:0:
312,144,174343,5,2,1:0:0:0:
312,144,174425,1,0,1:0:0:0:
312,144,174507,2,0,L|320:96,1,41.2555,0|0,1:0|1:0,1:0:0:0:
216,224,174672,6,0,L|208:296,2,55.1402500000002,2|0|0,1:0|1:0|1:0,1:0:0:0:
48,216,175002,2,0,L|41:161,2,55.1402500000002,2|0|0,1:0|1:0|1:0,1:0:0:0:
64,352,175332,5,6,2:0:0:0:
64,352,175991,6,0,B|112:328|152:352|152:352|192:368|232:352,1,165.022,6|8,2:0|2:0,2:0:0:0:
360,256,176485,1,10,1:0:0:0:
200,192,176650,2,0,L|192:280,1,82.5110000000012,10|8,1:0|1:0,2:0:0:0:
264,360,176980,1,10,2:0:0:0:
280,224,177145,1,10,1:0:0:0:
343,340,177310,2,0,P|385:338|431:303,1,82.5110000000012,10|8,1:0|1:0,2:0:0:0:
367,173,177639,2,0,L|359:261,1,82.5110000000012,10|0,2:0|2:0,2:0:0:0:
376,88,177969,1,10,1:0:0:0:
376,88,178051,1,8,1:0:0:0:
376,88,178134,1,8,1:0:0:0:
280,224,178299,2,0,L|184:232,1,82.5110000000012,10|0,2:0|2:0,2:0:0:0:
104,120,178628,5,10,2:0:0:0:
216,312,178793,1,8,1:0:0:0:
40,168,178958,1,10,2:0:0:0:
232,328,179123,1,8,1:0:0:0:
168,72,179288,5,10,2:0:0:0:
16,288,179452,1,8,1:0:0:0:
272,144,179617,1,10,2:0:0:0:
24,88,179782,1,8,1:0:0:0:
280,224,179947,6,0,L|376:216,1,82.5110000000012,10|8,2:0|1:0,2:0:0:0:
472,104,180277,1,8,2:0:0:0:
248,64,180441,1,10,1:0:0:0:
368,296,180606,5,10,2:0:0:0:
408,48,180771,1,8,1:0:0:0:
192,152,180936,1,8,2:0:0:0:
445,182,181101,1,8,1:0:0:0:
168,72,181266,5,10,2:0:0:0:
216,312,181430,1,8,1:0:0:0:
384,125,181595,1,8,1:0:0:0:
120,272,181760,5,8,2:0:0:0:
362,217,181925,1,8,1:0:0:0:
200,4,182090,1,10,1:0:0:0:
216,312,182255,5,10,2:0:0:0:
324,40,182419,1,10,1:0:0:0:
104,120,182584,2,0,L|56:136,3,41.2555000000005,8|8|8|8,2:0|2:0|2:0|2:0,2:0:0:0:
192,104,182914,5,8,2:0:0:0:
231,92,182996,1,8,2:0:0:0:
272,98,183079,1,8,2:0:0:0:
307,119,183161,1,8,2:0:0:0:
328,152,183244,2,0,P|384:184|464:168,1,123.7665,8|0,2:0|2:0,2:0:0:0:
480,160,183573,2,0,L|472:120,5,27.5704,10|2|2|2|2|2,1:0|2:0|2:0|2:0|2:0|2:0,2:0:0:0:
488,192,183903,6,0,B|464:240|488:280|488:280|512:320|488:364,2,165.10175,6|2|2,2:0|2:0|2:0,2:0:0:0:
488,192,185881,2,0,L|312:184,1,165.022,2|2,2:0|2:0,2:0:0:0:
323,184,187200,2,0,L|315:112,2,61.8832500000012,2|2|2,2:0|2:0|2:0,2:0:0:0:
332,267,187859,6,0,B|276:275|276:275|224:256|224:256|164:267,2,165.022,2|2|2,2:0|2:0|2:0,2:0:0:0:
332,267,189837,1,2,2:0:0:0:
332,267,190496,2,0,P|272:312|192:288,2,165.022,2|2|2,2:0|2:0|2:0,2:0:0:0:
332,267,192474,6,0,L|340:179,1,82.5110000000012,2|2,2:0|2:0,2:0:0:0:
344,104,193134,1,2,2:0:0:0:
344,104,193628,1,2,2:0:0:0:
344,104,193711,1,2,2:0:0:0:
344,104,193793,2,0,L|376:96,3,20.6277500000007,10|8|8|8,2:0|2:0|2:0|2:0,2:0:0:0:
264,72,194123,2,0,L|232:64,3,20.6277500000007,8|8|8|8,2:0|2:0|2:0|2:0,2:0:0:0:
440,72,194452,1,12,2:0:0:0:
440,72,195112,6,0,L|432:8,2,61.8832500000012,2|2|2,2:0|2:0|2:0,2:0:0:0:
496,136,195771,2,0,L|488:248,1,99.0131969787611,10|2,2:0|2:0,2:0:0:0:
488,234,196430,2,0,P|432:232|384:266,1,115.51539647522,10|2,2:0|2:0,2:0:0:0:
384,264,197090,2,0,L|304:272,1,66.0088000000012,8|0,2:0|2:0,2:0:0:0:
232,280,197419,6,0,L|240:340,2,44.1606,8|8|8,1:0|1:0|1:0,2:0:0:0:
148,292,197749,2,0,L|156:352,2,44.1606,10|8|10,1:0|1:0|1:0,2:0:0:0:
104,214,198079,1,8,1:0:0:0:
256,168,198244,1,2,2:0:0:0:
256,168,198408,2,0,L|336:160,1,74.2598977340711,14|0,1:0|2:0,2:0:0:0:
104,214,198738,2,0,L|24:206,1,74.2598977340711,2|0,2:0|2:0,2:0:0:0:
257,86,199068,2,0,L|337:78,1,74.2598977340711,14|0,1:0|2:0,2:0:0:0:
105,132,199397,1,10,2:0:0:0:
105,132,199727,6,0,L|44:124,3,45.3810513847359,4|0|8|0,1:0|1:0|1:0|1:0,1:0:0:0:
258,83,200057,2,0,L|318:75,3,45.3810513847359,0|0|8|0,1:0|1:0|1:0|1:0,1:0:0:0:
101,214,200386,5,2,1:0:0:0:
131,250,200469,1,0,1:0:0:0:
172,269,200551,1,8,1:0:0:0:
218,267,200634,1,2,1:0:0:0:
257,241,200716,1,0,1:0:0:0:
296,217,200799,1,0,1:0:0:0:
341,219,200881,1,10,1:0:0:0:
377,246,200963,1,0,1:0:0:0:
393,288,201046,5,2,1:0:0:0:
383,332,201128,1,0,1:0:0:0:
349,363,201211,1,8,1:0:0:0:
305,370,201293,1,0,1:0:0:0:
257,354,201375,6,0,L|305:345,3,45.3810513847359,2|0|8|0,1:0|1:0|1:0|1:0,1:0:0:0:
438,295,201705,2,0,L|389:286,3,45.3810513847359,2|0|8|0,1:0|1:0|1:0|1:0,1:0:0:0:
257,241,202035,2,0,L|305:232,3,45.3810513847359,2|0|8|0,1:0|1:0|1:0|1:0,1:0:0:0:
445,184,202364,5,2,1:0:0:0:
453,168,202447,1,0,1:0:0:0:
461,152,202529,1,8,1:0:0:0:
469,136,202612,1,0,1:0:0:0:
478,117,202694,5,2,1:0:0:0:
437,91,202777,1,0,1:0:0:0:
393,84,202859,1,8,1:0:0:0:
349,98,202941,1,0,1:0:0:0:
314,125,203024,1,2,1:0:0:0:
277,155,203106,1,0,1:0:0:0:
233,162,203189,1,8,1:0:0:0:
190,147,203271,1,0,1:0:0:0:
160,109,203354,6,0,L|168:60,3,45.3810513847359,2|0|8|0,1:0|1:0|1:0|1:0,1:0:0:0:
101,176,203683,5,2,1:0:0:0:
108,204,203766,1,0,1:0:0:0:
112,233,203848,1,8,1:0:0:0:
116,261,203930,1,0,1:0:0:0:
120,285,204013,1,0,1:0:0:0:
124,313,204095,1,0,1:0:0:0:
128,338,204178,6,0,L|176:329,1,45.3810513847352,10|2,1:0|1:0,1:0:0:0:
257,241,204343,2,0,L|212:232,1,45.3810513847352,10|8,1:0|1:0,1:0:0:0:
340,212,204507,5,8,1:0:0:0:
383,230,204590,1,8,1:0:0:0:
413,264,204672,1,8,1:0:0:0:
423,307,204755,1,8,1:0:0:0:
411,350,204837,2,0,L|358:341,1,45.3810513847352,8|8,1:0|1:0,1:0:0:0:
257,241,205002,5,10,1:0:0:0:
237,195,205084,1,0,1:0:0:0:
241,146,205167,1,8,1:0:0:0:
267,101,205249,1,0,1:0:0:0:
310,77,205332,6,0,L|362:68,3,49.5065984893799,0|0|8|0,1:0|1:0|1:0|1:0,1:0:0:0:
241,146,205661,2,0,L|188:137,3,49.5065984893799,0|0|8|0,1:0|1:0|1:0|1:0,1:0:0:0:
408,176,205991,6,0,L|415:126,1,49.7045984893801,0|0,1:0|1:0,1:0:0:0:
310,77,206156,2,0,L|317:126,1,49.7045984893801,10|2,1:0|1:0,1:0:0:0:
300,264,206321,5,2,1:0:0:0:
254,282,206403,1,0,1:0:0:0:
205,279,206485,1,8,1:0:0:0:
163,254,206568,1,0,1:0:0:0:
128,220,206650,5,0,1:0:0:0:
116,241,206733,1,0,1:0:0:0:
101,261,206815,1,8,1:0:0:0:
89,281,206897,1,0,1:0:0:0:
77,297,206980,5,8,1:0:0:0:
40,263,207062,1,8,1:0:0:0:
25,216,207145,1,8,1:0:0:0:
34,168,207227,1,8,1:0:0:0:
64,127,207310,1,8,1:0:0:0:
113,108,207392,1,8,1:0:0:0:
161,114,207474,1,8,1:0:0:0:
202,145,207557,1,8,1:0:0:0:
221,188,207639,6,0,L|229:244,3,53.6321475452429,10|0|8|0,1:0|1:0|1:0|1:0,1:0:0:0:
281,132,207969,2,0,L|288:77,3,53.6321475452429,0|0|8|0,1:0|1:0|1:0|1:0,1:0:0:0:
314,208,208299,5,2,1:0:0:0:
359,236,208381,1,0,1:0:0:0:
413,237,208463,1,8,1:0:0:0:
460,208,208546,2,0,L|468:152,1,54.0611475452428,2|0,1:0|1:0,1:0:0:0:
452,20,208711,1,0,1:0:0:0:
452,20,208793,2,0,L|460:80,1,54.0611475452428,10|0,1:0|1:0,1:0:0:0:
369,81,208958,6,0,L|362:28,3,53.6321475452429,2|0|8|0,1:0|1:0|1:0|1:0,1:0:0:0:
208,91,209288,2,0,L|202:145,3,53.6321475452429,2|0|8|0,1:0|1:0|1:0|1:0,1:0:0:0:
390,217,209617,2,0,L|383:164,3,53.6321475452429,2|0|8|0,1:0|1:0|1:0|1:0,1:0:0:0:
190,223,209947,2,0,L|184:277,3,53.6321475452429,2|0|8|0,1:0|1:0|1:0|1:0,1:0:0:0:
176,362,210277,5,2,1:0:0:0:
230,358,210359,1,0,1:0:0:0:
283,354,210441,1,8,1:0:0:0:
338,350,210524,1,0,1:0:0:0:
395,346,210606,2,0,L|403:289,3,53.6321475452429,2|0|8|0,1:0|1:0|1:0|1:0,1:0:0:0:
478,253,210936,5,2,1:0:0:0:
485,199,211018,1,0,1:0:0:0:
455,155,211101,1,8,1:0:0:0:
400,136,211183,2,0,L|344:144,1,54.0611475452428,2|0,1:0|1:0,1:0:0:0:
308,220,211348,1,0,1:0:0:0:
308,220,211430,2,0,L|244:212,1,54.0611475452428,10|0,1:0|1:0,1:0:0:0:
174,183,211595,5,2,1:0:0:0:
153,134,211678,1,0,1:0:0:0:
159,79,211760,1,8,1:0:0:0:
189,34,211843,1,0,1:0:0:0:
241,12,211925,6,0,L|306:20,3,53.6321475452429,2|0|8|0,1:0|1:0|1:0|1:0,1:0:0:0:
73,101,212255,2,0,L|18:107,3,53.6321475452429,2|0|8|0,1:0|1:0|1:0|1:0,1:0:0:0:
233,113,212584,2,0,L|298:121,3,53.6321475452429,2|0|8|0,1:0|1:0|1:0|1:0,1:0:0:0:
69,204,212914,5,2,1:0:0:0:
65,225,212996,1,0,1:0:0:0:
61,249,213079,1,8,1:0:0:0:
57,269,213161,1,0,1:0:0:0:
53,289,213244,2,0,L|-3:297,3,53.6321475452429,0|0|8|0,1:0|1:0|1:0|1:0,1:0:0:0:
101,354,213573,5,2,1:0:0:0:
153,373,213656,1,0,1:0:0:0:
206,365,213738,1,8,1:0:0:0:
248,328,213821,2,0,L|252:268,1,54.0611475452428,2|0,1:0|1:0,1:0:0:0:
312,156,213985,1,0,1:0:0:0:
312,156,214068,2,0,L|320:216,1,54.0611475452428,10|0,1:0|1:0,1:0:0:0:
421,203,214233,5,2,1:0:0:0:
454,247,214315,1,0,1:0:0:0:
458,300,214397,1,8,1:0:0:0:
431,348,214480,1,0,1:0:0:0:
387,370,214562,6,0,L|378:304,3,53.6321475452429,2|0|8|0,1:0|1:0|1:0|1:0,1:0:0:0:
211,256,214892,2,0,L|260:276,3,53.6321475452429,2|0|8|0,1:0|1:0|1:0|1:0,1:0:0:0:
415,151,215222,2,0,L|371:183,3,53.6321475452429,2|0|8|0,1:0|1:0|1:0|1:0,1:0:0:0:
237,41,215551,5,2,1:0:0:0:
197,5,215634,1,0,1:0:0:0:
143,2,215716,1,8,1:0:0:0:
96,31,215799,1,0,1:0:0:0:
79,81,215881,1,2,1:0:0:0:
95,135,215963,1,0,1:0:0:0:
141,165,216046,1,8,1:0:0:0:
194,163,216128,1,0,1:0:0:0:
233,125,216211,5,2,1:0:0:0:
285,115,216293,1,0,1:0:0:0:
336,135,216375,1,8,1:0:0:0:
372,174,216458,1,0,1:0:0:0:
385,227,216540,1,2,1:0:0:0:
370,278,216623,1,0,1:0:0:0:
333,317,216705,1,8,1:0:0:0:
282,332,216788,1,0,1:0:0:0:
229,322,216870,6,0,L|285:313,3,53.6321475452429,2|0|8|0,1:0|1:0|1:0|1:0,1:0:0:0:
180,249,217200,2,0,L|125:240,1,53.632147545243,0|0,1:0|1:0,1:0:0:0:
164,360,217364,2,0,L|217:351,1,53.632147545243,10|2,1:0|1:0,1:0:0:0:
93,318,217529,5,2,1:0:0:0:
54,280,217612,1,0,1:0:0:0:
46,228,217694,1,8,1:0:0:0:
72,181,217777,1,8,1:0:0:0:
124,161,217859,5,8,1:0:0:0:
136,117,217941,1,8,1:0:0:0:
148,77,218024,1,8,1:0:0:0:
160,41,218106,1,8,1:0:0:0:
172,0,218189,6,0,L|110:8,3,53.6321475452429,12|0|0|0,1:0|1:0|1:0|1:0,1:0:0:0:
217,156,218518,5,8,1:0:0:0:
217,156,218601,1,0,1:0:0:0:
217,156,218683,2,0,L|278:147,1,53.6321475452436,0|0,1:0|1:0,1:0:0:0:
411,132,218848,5,10,1:0:0:0:
411,132,218930,1,0,1:0:0:0:
411,132,219013,2,0,L|356:139,1,53.6321475452436,0|0,1:0|1:0,1:0:0:0:
225,245,219178,5,10,1:0:0:0:
225,245,219260,1,0,1:0:0:0:
225,245,219343,2,0,L|286:236,1,53.6321475452436,0|0,1:0|1:0,1:0:0:0:
419,220,219507,5,10,1:0:0:0:
419,220,219590,1,0,1:0:0:0:
419,220,219672,2,0,L|364:227,1,53.6321475452436,0|0,1:0|1:0,1:0:0:0:
229,334,219837,5,8,1:0:0:0:
229,334,219919,1,0,1:0:0:0:
229,334,220002,2,0,P|192:329|163:309,1,53.6321475452436,0|0,1:0|1:0,1:0:0:0:
97,322,220167,5,8,1:0:0:0:
97,322,220249,1,0,1:0:0:0:
97,322,220332,2,0,P|101:285|121:256,1,53.6321475452436,0|0,1:0|1:0,1:0:0:0:
105,192,220496,5,8,1:0:0:0:
105,192,220579,1,0,1:0:0:0:
105,192,220661,2,0,P|141:196|170:216,1,53.6321475452436,0|0,1:0|1:0,1:0:0:0:
237,193,220826,5,8,1:0:0:0:
237,193,220908,1,0,1:0:0:0:
237,193,220991,2,0,P|232:229|212:258,1,53.6321475452436,0|0,1:0|1:0,1:0:0:0:
89,105,221156,6,0,L|32:113,3,53.6321475452429,10|0|0|0,1:0|1:0|1:0|1:0,1:0:0:0:
237,101,221485,2,0,L|290:108,3,53.6321475452429,10|0|0|0,1:0|1:0|1:0|1:0,1:0:0:0:
89,20,221815,2,0,L|32:28,3,53.6321475452429,10|0|0|0,1:0|1:0|1:0|1:0,1:0:0:0:
237,16,222145,2,0,L|290:23,3,53.6321475452429,10|0|0|0,1:0|1:0|1:0|1:0,1:0:0:0:
366,65,222474,5,10,1:0:0:0:
387,81,222557,1,0,1:0:0:0:
403,97,222639,1,0,1:0:0:0:
419,113,222722,1,0,1:0:0:0:
435,132,222804,6,0,L|443:75,3,53.6321475452429,10|0|0|0,1:0|1:0|1:0|1:0,1:0:0:0:
427,216,223134,2,0,L|471:250,3,53.6321475452429,10|0|0|0,1:0|1:0|1:0|1:0,1:0:0:0:
358,168,223463,2,0,L|304:189,3,53.6321475452429,10|0|0|0,1:0|1:0|1:0|1:0,1:0:0:0:
415,318,223793,5,8,1:0:0:0:
374,353,223875,1,0,1:0:0:0:
323,366,223958,1,0,1:0:0:0:
271,352,224040,1,0,1:0:0:0:
233,309,224123,1,10,1:0:0:0:
226,256,224205,1,0,1:0:0:0:
194,212,224288,1,0,1:0:0:0:
146,189,224370,1,2,1:0:0:0:
90,192,224452,5,8,1:0:0:0:
45,221,224535,1,0,1:0:0:0:
19,268,224617,1,2,1:0:0:0:
18,322,224700,1,0,1:0:0:0:
45,370,224782,6,0,L|101:361,3,53.6321475452429,10|0|0|0,1:0|1:0|1:0|1:0,1:0:0:0:
233,309,225112,2,0,L|176:300,3,53.6321475452429,10|0|0|0,1:0|1:0|1:0|1:0,1:0:0:0:
19,268,225441,2,0,L|75:259,3,53.6321475452429,10|0|0|0,1:0|1:0|1:0|1:0,1:0:0:0:
207,207,225771,2,0,L|150:198,3,53.6321475452429,10|0|0|0,1:0|1:0|1:0|1:0,1:0:0:0:
346,237,226101,5,10,1:0:0:0:
399,240,226183,1,0,1:0:0:0:
449,215,226266,1,0,1:0:0:0:
478,171,226348,1,0,1:0:0:0:
479,115,226430,1,10,1:0:0:0:
452,69,226513,1,0,1:0:0:0:
404,42,226595,1,0,1:0:0:0:
350,44,226678,1,0,1:0:0:0:
306,77,226760,5,10,1:0:0:0:
262,108,226843,1,0,1:0:0:0:
210,117,226925,1,0,1:0:0:0:
159,99,227007,1,0,1:0:0:0:
120,61,227090,2,0,L|128:4,3,53.6321475452429,10|0|0|0,1:0|1:0|1:0|1:0,1:0:0:0:
45,109,227419,5,10,1:0:0:0:
49,144,227502,1,0,1:0:0:0:
53,176,227584,1,0,1:0:0:0:
57,208,227667,1,0,1:0:0:0:
60,240,227749,6,0,L|4:232,1,53.8466475452432,8|0,1:0|1:0,1:0:0:0:
144,208,227914,2,0,L|197:200,1,53.8466475452432,2|2,1:0|1:0,1:0:0:0:
136,289,228079,5,10,1:0:0:0:
178,321,228161,1,8,1:0:0:0:
231,323,228244,1,8,1:0:0:0:
276,294,228326,1,8,1:0:0:0:
297,244,228408,1,8,1:0:0:0:
323,197,228491,1,8,1:0:0:0:
370,173,228573,1,8,1:0:0:0:
423,178,228656,1,8,1:0:0:0:
468,207,228738,6,0,L|476:284,3,61.8832523603451,10|0|0|0,1:0|1:0|1:0|1:0,1:0:0:0:
370,89,229068,2,0,L|380:24,3,61.8832523603451,8|0|0|0,1:0|1:0|1:0|1:0,1:0:0:0:
297,244,229397,2,0,L|304:316,3,61.8832523603451,8|0|0|0,1:0|1:0|1:0|1:0,1:0:0:0:
228,152,229727,5,8,1:0:0:0:
169,135,229810,1,0,1:0:0:0:
113,158,229892,1,2,1:0:0:0:
83,211,229974,1,2,1:0:0:0:
91,271,230057,5,10,1:0:0:0:
135,313,230139,1,0,1:0:0:0:
195,320,230222,1,0,1:0:0:0:
247,288,230304,1,0,1:0:0:0:
280,248,230386,1,8,1:0:0:0:
311,195,230469,1,0,1:0:0:0:
367,172,230551,1,0,1:0:0:0:
426,186,230634,1,0,1:0:0:0:
464,232,230716,5,8,1:0:0:0:
432,289,230799,1,8,1:0:0:0:
378,325,230881,1,8,1:0:0:0:
313,331,230963,1,8,1:0:0:0:
252,305,231046,1,8,1:0:0:0:
211,254,231128,1,8,1:0:0:0:
199,190,231211,1,10,1:0:0:0:
219,128,231293,1,8,1:0:0:0:
265,82,231375,5,14,2:0:0:0:
265,82,231705,6,0,L|324:76,2,55.0907500000012,8|8|8,2:0|2:0|2:0,2:0:0:0:
140,100,232035,1,10,2:0:0:0:
140,100,232364,2,0,L|148:44,2,55.0907500000012,8|8|8,2:0|2:0|2:0,2:0:0:0:
124,236,232694,5,10,2:0:0:0:
124,236,233024,2,0,L|64:244,2,55.0907500000012,8|8|8,2:0|2:0|2:0,2:0:0:0:
168,308,233354,2,0,L|204:355,2,55.0907500000012,10|8|8,2:0|2:0|2:0,2:0:0:0:
208,228,233683,2,0,L|231:172,2,55.0907500000012,10|8|8,2:0|2:0|2:0,2:0:0:0:
264,100,234013,5,14,2:0:0:0:
264,100,234343,2,0,L|200:104,2,55.0907500000012,8|8|8,2:0|2:0|2:0,2:0:0:0:
432,88,234672,1,10,2:0:0:0:
432,88,235002,2,0,L|436:28,2,55.0907500000012,8|8|8,2:0|2:0|2:0,2:0:0:0:
424,288,235332,5,10,2:0:0:0:
424,288,235661,5,8,2:0:0:0:
380,304,235771,1,8,2:0:0:0:
336,320,235881,1,8,2:0:0:0:
296,300,235991,5,10,2:0:0:0:
248,296,236101,1,8,2:0:0:0:
200,292,236211,1,8,2:0:0:0:
152,304,236321,6,0,L|160:360,2,55.0907500000012,10|8|8,2:0|2:0|2:0,2:0:0:0:
160,216,236650,6,0,B|196:184|241:130|253:58|224:20|156:40|128:56|128:56|97:33|48:12|-4:44|0:108|36:184|112:212|68:280,1,610.59565990479,14|0,2:0|2:0,2:0:0:0:
