osu file format v14

[General]
AudioFilename: audio.mp3
AudioLeadIn: 0
PreviewTime: 25616
Countdown: 0
SampleSet: Normal
StackLeniency: 0.7
Mode: 1
LetterboxInBreaks: 0
WidescreenStoryboard: 1

[Editor]
Bookmarks: 33389,88353
DistanceSpacing: 0.7
BeatDivisor: 6
GridSize: 32
TimelineZoom: 2.4

[Metadata]
Title:Joyeuse
TitleUnicode:Joyeuse
Artist:ke-ji
ArtistUnicode:ke-ji
Creator:Cynplytholowazy
Version:EXHAUST
Source:SOUND VOLTEX II -infinite infection-
Tags:制作決定記念 オリジナル楽曲コンテスト Seisaku Kettei Kinen Production Confirmation Commemorative Original Song Contest SDVX VIVID WAVE ULTIMATE TRACKS -FLOOR ANTHEM- EP.01 BEMANI KONAMI Electronic Instrumental
BeatmapID:2264423
BeatmapSetID:1082553

[Difficulty]
HPDrainRate:6
CircleSize:10
OverallDifficulty:5.5
ApproachRate:10
SliderMultiplier:1.05
SliderTickRate:1

[Events]
//Background and Video events
0,0,"02076e.png",0,80
//Break Periods
//Storyboard Layer 0 (Background)
//Storyboard Layer 1 (Fail)
//Storyboard Layer 2 (Pass)
//Storyboard Layer 3 (Foreground)
//Storyboard Layer 4 (Overlay)
//Storyboard Sound Samples

[TimingPoints]
1029,230.769230769231,4,1,0,80,1,0
6567,218.978102189781,6,1,0,85,1,0
6567,-102.669404517454,6,1,0,85,0,0
7880,218.978102189781,6,1,0,90,1,0
14449,-111.111111111111,6,1,0,80,0,0
15106,-100,6,1,0,80,0,0
15763,218.978102189781,6,1,0,85,1,0
18062,218.978102189781,6,1,0,80,1,0
20361,218.978102189781,6,1,0,80,1,0
22660,218.978102189781,6,1,0,80,1,0
24959,218.978102189781,6,1,0,80,1,8
25616,218.978102189781,5,1,0,90,1,1
25616,-95.2380952380952,5,1,0,90,0,1
26491,218.978102189781,5,1,0,90,1,1
26491,-95.2380952380952,5,1,0,90,0,1
27585,218.978102189781,5,1,0,90,1,1
27585,-95.2380952380952,5,1,0,90,0,1
28460,218.978102189781,5,1,0,90,1,1
28460,-95.2380952380952,5,1,0,90,0,9
29554,218.978102189781,5,1,0,90,1,1
29554,-95.2380952380952,5,1,0,90,0,9
30433,218.978102189781,5,1,0,90,1,1
30433,-95.2380952380952,5,1,0,90,0,1
31527,218.978102189781,5,1,0,90,1,1
31527,-95.2380952380952,5,1,0,90,0,1
32404,218.978102189781,5,1,0,90,1,1
32404,-95.2380952380952,5,1,0,90,0,1
33389,-95.2380952380952,5,1,0,90,0,0
33498,218.978102189781,4,1,0,90,1,0
33498,-100,4,1,0,80,0,0
35249,218.978102189781,4,1,0,80,1,8
35251,218.978102189781,6,1,0,80,1,0
44448,218.978102189781,6,1,0,80,1,0
47075,218.978102189781,4,1,0,80,1,0
47075,-111.111111111111,4,1,0,80,0,0
47102,-111.111111111111,4,1,0,80,0,1
62841,218.978102189781,4,1,0,80,1,0
62841,-105.263157894737,4,1,0,80,0,1
78607,218.978102189781,6,1,0,80,1,0
78607,-100,6,1,0,80,0,0
79920,218.978102189781,6,1,0,80,1,8
79920,-100,6,1,0,80,0,0
80579,218.978102189781,5,1,0,80,1,1
80579,-95.2380952380952,5,1,0,80,0,1
81455,218.978102189781,5,1,0,80,1,1
81455,-95.2380952380952,5,1,0,80,0,1
82549,218.978102189781,5,1,0,80,1,1
82549,-95.2380952380952,5,1,0,80,0,1
83426,218.978102189781,5,1,0,80,1,1
83426,-95.2380952380952,5,1,0,80,0,1
84520,218.978102189781,5,1,0,80,1,1
84520,-95.2380952380952,5,1,0,80,0,1
85397,218.978102189781,5,1,0,80,1,1
85397,-95.2380952380952,5,1,0,80,0,1
86491,218.978102189781,5,1,0,80,1,1
86491,-95.2380952380952,5,1,0,80,0,1
87367,218.978102189781,5,1,0,80,1,1
87367,-95.2380952380952,5,1,0,80,0,1
88352,-95.2380952380952,5,1,0,80,0,0
88461,218.978102189781,4,1,0,80,1,8
88462,218.978102189781,4,1,0,80,1,0
88462,-100,4,1,0,80,0,0
93717,218.978102189781,6,1,0,80,1,1
96563,-100,6,1,0,80,0,0

[HitObjects]
256,192,1029,5,4,0:0:0:0:
256,192,1259,1,0,0:0:0:0:
256,192,1375,1,0,0:0:0:0:
256,192,1490,1,2,0:0:0:0:
256,192,1605,1,2,0:0:0:0:
256,192,1721,1,0,0:0:0:0:
256,192,1836,1,0,0:0:0:0:
256,192,1952,1,2,0:0:0:0:
256,192,2182,1,2,0:0:0:0:
256,192,2413,1,2,0:0:0:0:
256,192,2644,1,2,0:0:0:0:
256,192,2759,1,2,0:0:0:0:
256,192,2875,1,4,0:0:0:0:
256,192,3105,1,0,0:0:0:0:
256,192,3221,1,0,0:0:0:0:
256,192,3336,1,2,0:0:0:0:
256,192,3452,1,2,0:0:0:0:
256,192,3567,1,0,0:0:0:0:
256,192,3682,1,0,0:0:0:0:
256,192,3798,1,2,0:0:0:0:
256,192,4029,1,2,0:0:0:0:
256,192,4259,1,2,0:0:0:0:
256,192,4490,1,2,0:0:0:0:
256,192,4605,1,2,0:0:0:0:
256,192,4721,1,4,0:0:0:0:
256,192,4952,1,0,0:0:0:0:
256,192,5067,1,0,0:0:0:0:
256,192,5182,1,2,0:0:0:0:
256,192,5298,1,2,0:0:0:0:
256,192,5413,1,0,0:0:0:0:
256,192,5644,1,4,0:0:0:0:
256,192,5875,1,0,0:0:0:0:
256,192,5990,1,2,0:0:0:0:
256,192,6105,1,2,0:0:0:0:
256,192,6221,1,0,0:0:0:0:
256,192,6336,1,2,0:0:0:0:
256,192,6567,1,4,0:0:0:0:
256,192,6785,1,0,0:0:0:0:
256,192,6858,1,2,0:0:0:0:
256,192,6931,1,0,0:0:0:0:
256,192,7004,1,2,0:0:0:0:
256,192,7223,1,2,0:0:0:0:
256,192,7442,1,2,0:0:0:0:
256,192,7552,1,2,0:0:0:0:
256,192,7661,1,0,0:0:0:0:
256,192,7880,1,6,0:0:0:0:
256,192,8098,1,0,0:0:0:0:
256,192,8208,1,0,0:0:0:0:
256,192,8317,1,2,0:0:0:0:
256,192,8427,1,0,0:0:0:0:
256,192,8536,1,6,0:0:0:0:
256,192,8755,1,0,0:0:0:0:
256,192,8865,1,0,0:0:0:0:
256,192,8974,1,2,0:0:0:0:
256,192,9084,1,2,0:0:0:0:
256,192,9193,1,4,0:0:0:0:
256,192,9412,1,0,0:0:0:0:
256,192,9522,1,0,0:0:0:0:
256,192,9631,1,0,0:0:0:0:
256,192,9741,1,2,0:0:0:0:
256,192,9850,1,4,0:0:0:0:
256,192,10069,1,0,0:0:0:0:
256,192,10179,1,2,0:0:0:0:
256,192,10288,1,2,0:0:0:0:
256,192,10398,1,0,0:0:0:0:
256,192,10507,1,6,0:0:0:0:
256,192,10726,1,0,0:0:0:0:
256,192,10836,1,0,0:0:0:0:
256,192,10945,1,2,0:0:0:0:
256,192,11164,1,2,0:0:0:0:
256,192,11274,1,0,0:0:0:0:
256,192,11383,1,2,0:0:0:0:
256,192,11493,1,0,0:0:0:0:
256,192,11602,1,2,0:0:0:0:
256,192,11821,1,2,0:0:0:0:
256,192,11894,1,2,0:0:0:0:
256,192,11967,1,0,0:0:0:0:
256,192,12040,1,2,0:0:0:0:
256,192,12259,1,2,0:0:0:0:
256,192,12369,1,0,0:0:0:0:
256,192,12478,1,2,0:0:0:0:
256,192,12588,1,0,0:0:0:0:
256,192,12697,1,2,0:0:0:0:
256,192,12916,1,2,0:0:0:0:
256,192,13025,1,2,0:0:0:0:
256,192,13135,1,4,0:0:0:0:
256,192,13354,1,4,0:0:0:0:
256,192,13573,1,6,0:0:0:0:
256,192,13792,1,6,0:0:0:0:
256,192,14120,1,0,0:0:0:0:
256,192,14449,1,0,0:0:0:0:
256,192,14777,1,0,0:0:0:0:
256,192,15106,1,2,0:0:0:0:
256,192,15215,1,2,0:0:0:0:
256,192,15325,1,2,0:0:0:0:
256,192,15434,1,0,0:0:0:0:
256,192,15763,1,4,0:0:0:0:
256,192,16091,1,0,0:0:0:0:
256,192,16200,1,0,0:0:0:0:
256,192,16310,1,0,0:0:0:0:
256,192,16419,1,0,0:0:0:0:
256,192,16748,1,0,0:0:0:0:
256,192,16857,1,0,0:0:0:0:
256,192,16967,1,0,0:0:0:0:
256,192,17076,1,0,0:0:0:0:
256,192,17405,1,4,0:0:0:0:
256,192,17624,1,0,0:0:0:0:
256,192,17733,1,6,0:0:0:0:
256,192,17898,1,6,0:0:0:0:
256,192,18062,1,4,0:0:0:0:
256,192,18390,1,0,0:0:0:0:
256,192,18499,1,0,0:0:0:0:
256,192,18609,1,0,0:0:0:0:
256,192,18718,1,0,0:0:0:0:
256,192,19047,1,0,0:0:0:0:
256,192,19156,1,0,0:0:0:0:
256,192,19266,1,0,0:0:0:0:
256,192,19375,1,0,0:0:0:0:
256,192,19704,1,4,0:0:0:0:
256,192,19923,1,0,0:0:0:0:
256,192,20032,1,6,0:0:0:0:
256,192,20197,1,6,0:0:0:0:
256,192,20361,1,4,0:0:0:0:
256,192,20689,1,0,0:0:0:0:
256,192,20798,1,0,0:0:0:0:
256,192,20908,1,0,0:0:0:0:
256,192,21017,1,0,0:0:0:0:
256,192,21346,1,0,0:0:0:0:
256,192,21455,1,0,0:0:0:0:
256,192,21565,1,0,0:0:0:0:
256,192,21674,1,0,0:0:0:0:
256,192,22003,1,4,0:0:0:0:
256,192,22222,1,0,0:0:0:0:
256,192,22331,1,6,0:0:0:0:
256,192,22496,1,6,0:0:0:0:
256,192,22660,1,4,0:0:0:0:
256,192,22988,1,0,0:0:0:0:
256,192,23097,1,0,0:0:0:0:
256,192,23207,1,0,0:0:0:0:
256,192,23316,1,0,0:0:0:0:
256,192,23645,1,0,0:0:0:0:
256,192,23754,1,0,0:0:0:0:
256,192,23864,1,0,0:0:0:0:
256,192,23973,1,0,0:0:0:0:
256,192,24302,1,4,0:0:0:0:
256,192,24521,1,0,0:0:0:0:
256,192,24630,1,6,0:0:0:0:
256,192,24849,1,2,0:0:0:0:
256,192,24959,1,4,0:0:0:0:
256,192,25177,1,0,0:0:0:0:
256,192,25287,1,0,0:0:0:0:
256,192,25396,1,0,0:0:0:0:
256,192,25616,1,4,0:0:0:0:
256,192,25834,1,2,0:0:0:0:
256,192,25944,1,0,0:0:0:0:
256,192,26163,1,2,0:0:0:0:
256,192,26272,1,0,0:0:0:0:
256,192,26382,1,0,0:0:0:0:
256,192,26491,1,6,0:0:0:0:
256,192,26709,1,0,0:0:0:0:
256,192,26928,1,2,0:0:0:0:
256,192,27001,1,2,0:0:0:0:
256,192,27074,1,2,0:0:0:0:
256,192,27147,1,2,0:0:0:0:
256,192,27293,1,0,0:0:0:0:
256,192,27585,1,4,0:0:0:0:
256,192,27803,1,2,0:0:0:0:
256,192,27913,1,0,0:0:0:0:
256,192,28132,1,2,0:0:0:0:
256,192,28241,1,0,0:0:0:0:
256,192,28351,1,2,0:0:0:0:
256,192,28460,1,4,0:0:0:0:
256,192,28678,1,2,0:0:0:0:
256,192,28897,1,0,0:0:0:0:
256,192,28970,1,0,0:0:0:0:
256,192,29043,1,0,0:0:0:0:
256,192,29116,1,0,0:0:0:0:
256,192,29262,1,2,0:0:0:0:
256,192,29554,1,4,0:0:0:0:
256,192,29772,1,2,0:0:0:0:
256,192,29882,1,0,0:0:0:0:
256,192,30101,1,2,0:0:0:0:
256,192,30210,1,0,0:0:0:0:
256,192,30320,1,0,0:0:0:0:
256,192,30433,1,6,0:0:0:0:
256,192,30651,1,0,0:0:0:0:
256,192,30870,1,2,0:0:0:0:
256,192,30943,1,2,0:0:0:0:
256,192,31016,1,2,0:0:0:0:
256,192,31089,1,2,0:0:0:0:
256,192,31235,1,0,0:0:0:0:
256,192,31527,1,4,0:0:0:0:
256,192,31745,1,2,0:0:0:0:
256,192,31855,1,0,0:0:0:0:
256,192,32074,1,2,0:0:0:0:
256,192,32183,1,0,0:0:0:0:
256,192,32293,1,2,0:0:0:0:
256,192,32404,1,4,0:0:0:0:
256,192,32622,1,2,0:0:0:0:
256,192,32841,1,0,0:0:0:0:
256,192,32914,1,0,0:0:0:0:
256,192,32987,1,0,0:0:0:0:
256,192,33060,1,0,0:0:0:0:
256,192,33206,1,2,0:0:0:0:
256,192,33498,1,2,0:0:0:0:
256,192,33644,1,2,0:0:0:0:
256,192,33717,1,0,0:0:0:0:
256,192,33863,1,2,0:0:0:0:
256,192,33936,1,0,0:0:0:0:
256,192,34082,1,2,0:0:0:0:
256,192,34155,1,0,0:0:0:0:
256,192,34301,1,2,0:0:0:0:
256,192,34374,1,0,0:0:0:0:
256,192,34520,1,2,0:0:0:0:
256,192,34593,1,0,0:0:0:0:
256,192,34739,1,2,0:0:0:0:
256,192,34812,1,0,0:0:0:0:
256,192,35251,1,6,0:0:0:0:
256,192,35469,1,0,0:0:0:0:
256,192,35579,1,0,0:0:0:0:
256,192,35688,1,2,0:0:0:0:
256,192,35798,1,0,0:0:0:0:
256,192,35907,1,6,0:0:0:0:
256,192,36126,1,0,0:0:0:0:
256,192,36236,1,2,0:0:0:0:
256,192,36345,1,2,0:0:0:0:
256,192,36455,1,0,0:0:0:0:
256,192,36564,1,6,0:0:0:0:
256,192,36783,1,2,0:0:0:0:
256,192,36893,1,2,0:0:0:0:
256,192,37002,1,0,0:0:0:0:
256,192,37112,1,0,0:0:0:0:
256,192,37221,1,6,0:0:0:0:
256,192,37440,1,2,0:0:0:0:
256,192,37550,1,4,0:0:0:0:
256,192,37878,1,6,0:0:0:0:
256,192,38097,1,0,0:0:0:0:
256,192,38207,1,2,0:0:0:0:
256,192,38316,1,0,0:0:0:0:
256,192,38426,1,0,0:0:0:0:
256,192,38535,1,6,0:0:0:0:
256,192,38754,1,0,0:0:0:0:
256,192,38864,1,2,0:0:0:0:
256,192,38973,1,2,0:0:0:0:
256,192,39083,1,0,0:0:0:0:
256,192,39192,1,6,0:0:0:0:
256,192,39411,1,2,0:0:0:0:
256,192,39521,1,2,0:0:0:0:
256,192,39630,1,0,0:0:0:0:
256,192,39740,1,0,0:0:0:0:
256,192,39849,1,6,0:0:0:0:
256,192,40068,1,2,0:0:0:0:
256,192,40178,1,4,0:0:0:0:
256,192,40506,1,6,0:0:0:0:
256,192,40725,1,2,0:0:0:0:
256,192,40834,1,0,0:0:0:0:
256,192,40944,1,2,0:0:0:0:
256,192,41053,1,2,0:0:0:0:
256,192,41163,1,4,0:0:0:0:
256,192,41382,1,2,0:0:0:0:
256,192,41491,1,2,0:0:0:0:
256,192,41601,1,0,0:0:0:0:
256,192,41820,1,6,0:0:0:0:
256,192,42039,1,0,0:0:0:0:
256,192,42148,1,2,0:0:0:0:
256,192,42258,1,2,0:0:0:0:
256,192,42367,1,0,0:0:0:0:
256,192,42477,1,6,0:0:0:0:
256,192,42696,1,2,0:0:0:0:
256,192,42805,1,4,0:0:0:0:
256,192,43134,1,6,0:0:0:0:
256,192,43353,1,0,0:0:0:0:
256,192,43462,1,2,0:0:0:0:
256,192,43572,1,0,0:0:0:0:
256,192,43681,1,0,0:0:0:0:
256,192,43791,1,6,0:0:0:0:
256,192,44010,1,0,0:0:0:0:
256,192,44119,1,2,0:0:0:0:
256,192,44229,1,2,0:0:0:0:
256,192,44338,1,0,0:0:0:0:
256,192,44448,1,6,0:0:0:0:
256,192,44630,1,0,0:0:0:0:
256,192,44703,1,2,0:0:0:0:
256,192,44776,1,0,0:0:0:0:
256,192,44849,1,2,0:0:0:0:
256,192,44922,1,0,0:0:0:0:
256,192,45104,1,4,0:0:0:0:
256,192,45323,1,2,0:0:0:0:
256,192,45542,1,0,0:0:0:0:
256,192,45652,1,0,0:0:0:0:
256,192,45761,1,6,0:0:0:0:
256,192,45943,1,0,0:0:0:0:
256,192,46016,1,2,0:0:0:0:
256,192,46089,1,0,0:0:0:0:
256,192,46162,1,2,0:0:0:0:
256,192,46235,1,0,0:0:0:0:
256,192,46417,1,4,0:0:0:0:
256,192,46636,1,0,0:0:0:0:
256,192,46855,1,2,0:0:0:0:
256,192,47102,1,6,0:0:0:0:
256,192,47293,1,2,0:0:0:0:
256,192,47512,1,0,0:0:0:0:
256,192,47622,1,0,0:0:0:0:
256,192,47731,1,2,0:0:0:0:
256,192,47950,1,0,0:0:0:0:
256,192,48169,1,2,0:0:0:0:
256,192,48279,1,0,0:0:0:0:
256,192,48607,1,2,0:0:0:0:
256,192,48826,1,0,0:0:0:0:
256,192,49045,1,2,0:0:0:0:
256,192,49264,1,0,0:0:0:0:
256,192,49374,1,0,0:0:0:0:
256,192,49483,1,2,0:0:0:0:
256,192,49702,1,6,0:0:0:0:
256,192,49921,1,0,0:0:0:0:
256,192,50140,1,6,0:0:0:0:
256,192,50359,1,2,0:0:0:0:
256,192,50469,1,0,0:0:0:0:
256,192,50578,1,6,0:0:0:0:
256,192,50797,1,2,0:0:0:0:
256,192,50907,1,0,0:0:0:0:
256,192,51126,1,0,0:0:0:0:
256,192,51235,1,2,0:0:0:0:
256,192,51454,1,4,0:0:0:0:
256,192,51673,1,2,0:0:0:0:
256,192,51783,1,0,0:0:0:0:
256,192,52111,1,2,0:0:0:0:
256,192,52330,1,4,0:0:0:0:
256,192,52549,1,0,0:0:0:0:
256,192,52658,1,0,0:0:0:0:
256,192,52768,1,2,0:0:0:0:
256,192,52987,1,0,0:0:0:0:
256,192,53206,1,6,0:0:0:0:
256,192,53352,1,0,0:0:0:0:
256,192,53498,1,0,0:0:0:0:
256,192,53644,1,2,0:0:0:0:
256,192,54082,1,6,0:0:0:0:
256,192,54301,1,2,0:0:0:0:
256,192,54410,1,0,0:0:0:0:
256,192,54629,1,0,0:0:0:0:
256,192,54739,1,2,0:0:0:0:
256,192,54958,1,0,0:0:0:0:
256,192,55177,1,0,0:0:0:0:
256,192,55286,1,0,0:0:0:0:
256,192,55396,1,2,0:0:0:0:
256,192,55615,1,0,0:0:0:0:
256,192,55834,1,2,0:0:0:0:
256,192,56053,1,0,0:0:0:0:
256,192,56162,1,2,0:0:0:0:
256,192,56381,1,2,0:0:0:0:
256,192,56491,1,0,0:0:0:0:
256,192,56710,1,4,0:0:0:0:
256,192,56929,1,0,0:0:0:0:
256,192,57147,1,6,0:0:0:0:
256,192,57585,1,6,0:0:0:0:
256,192,57804,1,0,0:0:0:0:
256,192,57914,1,2,0:0:0:0:
256,192,58242,1,2,0:0:0:0:
256,192,58461,1,0,0:0:0:0:
256,192,58680,1,2,0:0:0:0:
256,192,58790,1,0,0:0:0:0:
256,192,59118,1,0,0:0:0:0:
256,192,59337,1,0,0:0:0:0:
256,192,59556,1,2,0:0:0:0:
256,192,59775,1,0,0:0:0:0:
256,192,59885,1,0,0:0:0:0:
256,192,59994,1,2,0:0:0:0:
256,192,60213,1,0,0:0:0:0:
256,192,60432,1,2,0:0:0:0:
256,192,60651,1,0,0:0:0:0:
256,192,60761,1,0,0:0:0:0:
256,192,60870,1,2,0:0:0:0:
256,192,61089,1,6,0:0:0:0:
256,192,61527,1,4,0:0:0:0:
256,192,61746,1,2,0:0:0:0:
256,192,61965,1,2,0:0:0:0:
256,192,62075,1,2,0:0:0:0:
256,192,62184,1,0,0:0:0:0:
256,192,62403,1,0,0:0:0:0:
256,192,62476,1,0,0:0:0:0:
256,192,62549,1,0,0:0:0:0:
256,192,62622,1,2,0:0:0:0:
256,192,62841,1,6,0:0:0:0:
256,192,63059,1,0,0:0:0:0:
256,192,63169,1,2,0:0:0:0:
256,192,63497,1,0,0:0:0:0:
256,192,63716,1,0,0:0:0:0:
256,192,63935,1,2,0:0:0:0:
256,192,64045,1,0,0:0:0:0:
256,192,64373,1,0,0:0:0:0:
256,192,64446,1,2,0:0:0:0:
256,192,64519,1,2,0:0:0:0:
256,192,64592,1,0,0:0:0:0:
256,192,64811,1,2,0:0:0:0:
256,192,65030,1,0,0:0:0:0:
256,192,65140,1,0,0:0:0:0:
256,192,65249,1,2,0:0:0:0:
256,192,65468,1,6,0:0:0:0:
256,192,65687,1,0,0:0:0:0:
256,192,65906,1,4,0:0:0:0:
256,192,66125,1,2,0:0:0:0:
256,192,66344,1,6,0:0:0:0:
256,192,66563,1,0,0:0:0:0:
256,192,66673,1,2,0:0:0:0:
256,192,66837,1,2,0:0:0:0:
256,192,67001,1,2,0:0:0:0:
256,192,67220,1,4,0:0:0:0:
256,192,67384,1,2,0:0:0:0:
256,192,67549,1,2,0:0:0:0:
256,192,67658,1,0,0:0:0:0:
256,192,67986,1,0,0:0:0:0:
256,192,68096,1,6,0:0:0:0:
256,192,68315,1,2,0:0:0:0:
256,192,68388,1,0,0:0:0:0:
256,192,68461,1,0,0:0:0:0:
256,192,68534,1,6,0:0:0:0:
256,192,68753,1,2,0:0:0:0:
256,192,68826,1,0,0:0:0:0:
256,192,68899,1,0,0:0:0:0:
256,192,68972,1,6,0:0:0:0:
256,192,69191,1,2,0:0:0:0:
256,192,69264,1,2,0:0:0:0:
256,192,69337,1,0,0:0:0:0:
256,192,69410,1,0,0:0:0:0:
256,192,69629,1,0,0:0:0:0:
256,192,69702,1,0,0:0:0:0:
256,192,69775,1,0,0:0:0:0:
256,192,69848,1,6,0:0:0:0:
256,192,70067,1,0,0:0:0:0:
256,192,70140,1,0,0:0:0:0:
256,192,70213,1,2,0:0:0:0:
256,192,70286,1,2,0:0:0:0:
256,192,70505,1,0,0:0:0:0:
256,192,70578,1,0,0:0:0:0:
256,192,70651,1,2,0:0:0:0:
256,192,70724,1,2,0:0:0:0:
256,192,70943,1,0,0:0:0:0:
256,192,71016,1,0,0:0:0:0:
256,192,71089,1,2,0:0:0:0:
256,192,71162,1,2,0:0:0:0:
256,192,71381,1,0,0:0:0:0:
256,192,71454,1,0,0:0:0:0:
256,192,71527,1,2,0:0:0:0:
256,192,71600,1,2,0:0:0:0:
256,192,71819,1,2,0:0:0:0:
256,192,71892,1,0,0:0:0:0:
256,192,71965,1,0,0:0:0:0:
256,192,72038,1,2,0:0:0:0:
256,192,72257,1,2,0:0:0:0:
256,192,72330,1,0,0:0:0:0:
256,192,72403,1,0,0:0:0:0:
256,192,72476,1,6,0:0:0:0:
256,192,72695,1,2,0:0:0:0:
256,192,72768,1,2,0:0:0:0:
256,192,72841,1,0,0:0:0:0:
256,192,72913,1,2,0:0:0:0:
256,192,73351,1,6,0:0:0:0:
256,192,73570,1,2,0:0:0:0:
256,192,73680,1,2,0:0:0:0:
256,192,73789,1,0,0:0:0:0:
256,192,73899,1,2,0:0:0:0:
256,192,74008,1,2,0:0:0:0:
256,192,74227,1,4,0:0:0:0:
256,192,74446,1,2,0:0:0:0:
256,192,74556,1,0,0:0:0:0:
256,192,74665,1,2,0:0:0:0:
256,192,74775,1,0,0:0:0:0:
256,192,74884,1,2,0:0:0:0:
256,192,75103,1,4,0:0:0:0:
256,192,75322,1,0,0:0:0:0:
256,192,75395,1,0,0:0:0:0:
256,192,75468,1,2,0:0:0:0:
256,192,75541,1,2,0:0:0:0:
256,192,75760,1,0,0:0:0:0:
256,192,75833,1,0,0:0:0:0:
256,192,75906,1,2,0:0:0:0:
256,192,75979,1,2,0:0:0:0:
256,192,76198,1,0,0:0:0:0:
256,192,76271,1,0,0:0:0:0:
256,192,76344,1,2,0:0:0:0:
256,192,76417,1,2,0:0:0:0:
256,192,76636,1,0,0:0:0:0:
256,192,76855,1,4,0:0:0:0:
256,192,77074,1,0,0:0:0:0:
256,192,77147,1,2,0:0:0:0:
256,192,77220,1,2,0:0:0:0:
256,192,77293,1,2,0:0:0:0:
256,192,77512,1,0,0:0:0:0:
256,192,77585,1,2,0:0:0:0:
256,192,77658,1,0,0:0:0:0:
256,192,77731,1,6,0:0:0:0:
256,192,78169,1,2,0:0:0:0:
256,192,78278,1,2,0:0:0:0:
256,192,78388,1,0,0:0:0:0:
256,192,78607,1,6,0:0:0:0:
256,192,78825,1,0,0:0:0:0:
256,192,78935,1,6,0:0:0:0:
256,192,79154,1,0,0:0:0:0:
256,192,79263,1,6,0:0:0:0:
256,192,79482,1,2,0:0:0:0:
256,192,79592,1,4,0:0:0:0:
256,192,79811,1,2,0:0:0:0:
256,192,79920,1,4,0:0:0:0:
256,192,80139,1,0,0:0:0:0:
256,192,80249,1,0,0:0:0:0:
256,192,80358,1,0,0:0:0:0:
256,192,80579,1,4,0:0:0:0:
256,192,80797,1,2,0:0:0:0:
256,192,80907,1,0,0:0:0:0:
256,192,81126,1,2,0:0:0:0:
256,192,81235,1,0,0:0:0:0:
256,192,81345,1,0,0:0:0:0:
256,192,81455,1,6,0:0:0:0:
256,192,81673,1,0,0:0:0:0:
256,192,81892,1,2,0:0:0:0:
256,192,81965,1,2,0:0:0:0:
256,192,82038,1,2,0:0:0:0:
256,192,82111,1,2,0:0:0:0:
256,192,82184,1,2,0:0:0:0:
256,192,82257,1,0,0:0:0:0:
256,192,82549,1,4,0:0:0:0:
256,192,82767,1,2,0:0:0:0:
256,192,82877,1,0,0:0:0:0:
256,192,83096,1,2,0:0:0:0:
256,192,83205,1,0,0:0:0:0:
256,192,83315,1,2,0:0:0:0:
256,192,83426,1,4,0:0:0:0:
256,192,83644,1,2,0:0:0:0:
256,192,83863,1,0,0:0:0:0:
256,192,83936,1,0,0:0:0:0:
256,192,84009,1,0,0:0:0:0:
256,192,84082,1,0,0:0:0:0:
256,192,84155,1,0,0:0:0:0:
256,192,84228,1,2,0:0:0:0:
256,192,84520,1,4,0:0:0:0:
256,192,84738,1,2,0:0:0:0:
256,192,84848,1,0,0:0:0:0:
256,192,85067,1,2,0:0:0:0:
256,192,85176,1,0,0:0:0:0:
256,192,85286,1,0,0:0:0:0:
256,192,85397,1,6,0:0:0:0:
256,192,85615,1,0,0:0:0:0:
256,192,85834,1,2,0:0:0:0:
256,192,85907,1,2,0:0:0:0:
256,192,85980,1,2,0:0:0:0:
256,192,86053,1,2,0:0:0:0:
256,192,86126,1,2,0:0:0:0:
256,192,86199,1,0,0:0:0:0:
256,192,86491,1,4,0:0:0:0:
256,192,86709,1,2,0:0:0:0:
256,192,86819,1,0,0:0:0:0:
256,192,87038,1,2,0:0:0:0:
256,192,87147,1,0,0:0:0:0:
256,192,87257,1,2,0:0:0:0:
256,192,87367,1,4,0:0:0:0:
256,192,87585,1,2,0:0:0:0:
256,192,87804,1,0,0:0:0:0:
256,192,87877,1,0,0:0:0:0:
256,192,87950,1,0,0:0:0:0:
256,192,88023,1,0,0:0:0:0:
256,192,88096,1,0,0:0:0:0:
256,192,88169,1,2,0:0:0:0:
256,192,88461,1,0,0:0:0:0:
256,192,88607,1,2,0:0:0:0:
256,192,88680,1,0,0:0:0:0:
256,192,88826,1,2,0:0:0:0:
256,192,88899,1,0,0:0:0:0:
256,192,89045,1,2,0:0:0:0:
256,192,89118,1,0,0:0:0:0:
256,192,89264,1,2,0:0:0:0:
256,192,89337,1,0,0:0:0:0:
256,192,89483,1,2,0:0:0:0:
256,192,89556,1,0,0:0:0:0:
256,192,89776,1,0,0:0:0:0:
256,192,89885,1,2,0:0:0:0:
256,192,89995,1,0,0:0:0:0:
256,192,90104,1,0,0:0:0:0:
256,192,90214,1,2,0:0:0:0:
256,192,90323,1,0,0:0:0:0:
256,192,90433,1,0,0:0:0:0:
256,192,90652,1,2,0:0:0:0:
256,192,90725,1,2,0:0:0:0:
256,192,90798,1,0,0:0:0:0:
256,192,90871,1,2,0:0:0:0:
256,192,91090,1,2,0:0:0:0:
256,192,91199,1,2,0:0:0:0:
256,192,91309,1,2,0:0:0:0:
256,192,91418,1,0,0:0:0:0:
256,192,91528,1,2,0:0:0:0:
256,192,91637,1,2,0:0:0:0:
256,192,92842,1,2,0:0:0:0:
256,192,92915,1,2,0:0:0:0:
256,192,92988,1,4,0:0:0:0:
256,192,93717,1,6,0:0:0:0:
256,192,93826,12,0,96235,0:0:0:0:
256,192,96344,5,2,0:0:0:0:
256,192,96417,1,2,0:0:0:0:
256,192,96490,1,0,0:0:0:0:
256,192,96563,1,0,0:0:0:0:
