osu file format v14

[General]
AudioFilename: audio.mp3
AudioLeadIn: 0
PreviewTime: 115504
Countdown: 0
SampleSet: None
StackLeniency: 0.7
Mode: 3
LetterboxInBreaks: 0
SpecialStyle: 0
WidescreenStoryboard: 0

[Editor]
DistanceSpacing: 2
BeatDivisor: 4
GridSize: 16
TimelineZoom: 1.9

[Metadata]
Title:HAELEQUIN ~Knights of the Round~
TitleUnicode:HAELEQUIN ~Knights of the Round~
Artist:ke-ji
ArtistUnicode:ke-ji
Creator:R e m u r i n g
Version:REMUQUIN
Source:
Tags:
BeatmapID:1258864
BeatmapSetID:595292

[Difficulty]
HPDrainRate:7
CircleSize:7
OverallDifficulty:7
ApproachRate:5
SliderMultiplier:1.4
SliderTickRate:1

[Events]
//Background and Video events
0,0,"BG.png",0,0
//Break Periods
//Storyboard Layer 0 (Background)
//Storyboard Layer 1 (Fail)
//Storyboard Layer 2 (Pass)
//Storyboard Layer 3 (Foreground)
//Storyboard Sound Samples

[TimingPoints]
1129,375,4,1,0,0,1,0

[HitObjects]
109,192,754,5,0,0:0:0:0:
256,192,847,1,0,0:0:0:0:
402,192,941,1,0,0:0:0:0:
182,192,1035,1,0,0:0:0:0:
36,192,1129,1,0,0:0:0:0:
329,192,1129,1,0,0:0:0:0:
256,192,1129,128,0,1691:0:0:0:0:
475,192,1129,128,0,1879:0:0:0:0:
182,192,1691,1,0,0:0:0:0:
109,192,1785,1,0,0:0:0:0:
402,192,1879,128,0,2629:0:0:0:0:
256,192,1879,1,0,0:0:0:0:
36,192,1879,128,0,2160:0:0:0:0:
182,192,2160,128,0,2441:0:0:0:0:
256,192,2441,128,0,2629:0:0:0:0:
329,192,2629,128,0,3379:0:0:0:0:
475,192,2629,1,0,0:0:0:0:
36,192,2629,128,0,2910:0:0:0:0:
182,192,2910,128,0,3191:0:0:0:0:
109,192,3191,128,0,3379:0:0:0:0:
256,192,3379,128,0,4129:0:0:0:0:
36,192,3379,1,0,0:0:0:0:
475,192,3379,128,0,3754:0:0:0:0:
402,192,3754,128,0,4129:0:0:0:0:
182,192,4129,128,0,4879:0:0:0:0:
36,192,4129,1,0,0:0:0:0:
329,192,4129,128,0,4410:0:0:0:0:
402,192,4410,128,0,4691:0:0:0:0:
475,192,4691,128,0,4879:0:0:0:0:
109,192,4879,128,0,5629:0:0:0:0:
36,192,4879,1,0,0:0:0:0:
256,192,4879,128,0,5160:0:0:0:0:
402,192,5160,128,0,5441:0:0:0:0:
182,192,5441,128,0,5629:0:0:0:0:
36,192,5629,128,0,6379:0:0:0:0:
329,192,5629,1,0,0:0:0:0:
475,192,5629,128,0,5910:0:0:0:0:
329,192,5910,128,0,6191:0:0:0:0:
182,192,5910,1,0,0:0:0:0:
182,192,6191,128,0,6379:0:0:0:0:
475,192,6191,1,0,0:0:0:0:
475,192,6379,128,0,7129:0:0:0:0:
256,192,6379,1,0,0:0:0:0:
402,192,6379,128,0,6754:0:0:0:0:
36,192,6754,1,0,0:0:0:0:
109,192,6754,1,0,0:0:0:0:
182,192,6847,1,0,0:0:0:0:
256,192,6941,1,0,0:0:0:0:
329,192,6941,1,0,0:0:0:0:
402,192,7035,1,0,0:0:0:0:
256,192,7129,128,0,7691:0:0:0:0:
36,192,7129,1,0,0:0:0:0:
182,192,7129,1,0,0:0:0:0:
109,192,7129,1,0,0:0:0:0:
36,192,7504,1,0,0:0:0:0:
475,192,7504,1,0,0:0:0:0:
182,192,7691,1,0,0:0:0:0:
109,192,7785,1,0,0:0:0:0:
36,192,7879,128,0,8160:0:0:0:0:
402,192,7879,1,0,0:0:0:0:
256,192,7879,1,0,0:0:0:0:
109,192,8160,128,0,8441:0:0:0:0:
402,192,8254,1,0,0:0:0:0:
256,192,8254,1,0,0:0:0:0:
182,192,8441,128,0,8629:0:0:0:0:
475,192,8629,128,0,8910:0:0:0:0:
256,192,8629,1,0,0:0:0:0:
36,192,8629,1,0,0:0:0:0:
402,192,8910,128,0,9191:0:0:0:0:
36,192,9004,1,0,0:0:0:0:
182,192,9004,1,0,0:0:0:0:
329,192,9191,128,0,9379:0:0:0:0:
36,192,9379,128,0,9754:0:0:0:0:
109,192,9379,1,0,0:0:0:0:
475,192,9379,1,0,0:0:0:0:
475,192,9754,128,0,10129:0:0:0:0:
329,192,9754,1,0,0:0:0:0:
109,192,9754,1,0,0:0:0:0:
182,192,9941,1,0,0:0:0:0:
402,192,10129,1,0,0:0:0:0:
36,192,10129,128,0,10410:0:0:0:0:
109,192,10129,1,0,0:0:0:0:
182,192,10410,128,0,10691:0:0:0:0:
402,192,10504,1,0,0:0:0:0:
475,192,10504,1,0,0:0:0:0:
329,192,10691,128,0,10879:0:0:0:0:
475,192,10879,128,0,11160:0:0:0:0:
36,192,10879,1,0,0:0:0:0:
256,192,10879,1,0,0:0:0:0:
36,192,11160,1,0,0:0:0:0:
402,192,11160,1,0,0:0:0:0:
256,192,11160,128,0,11441:0:0:0:0:
36,192,11441,128,0,13691:0:0:0:0:
109,192,11441,1,0,0:0:0:0:
182,192,11441,1,0,0:0:0:0:
329,192,11441,1,0,0:0:0:0:
402,192,11441,1,0,0:0:0:0:
475,192,11441,1,0,0:0:0:0:
402,192,12004,1,0,0:0:0:0:
329,192,12097,1,0,0:0:0:0:
256,192,12191,1,0,0:0:0:0:
182,192,12285,1,0,0:0:0:0:
109,192,12379,1,0,0:0:0:0:
329,192,12472,1,0,0:0:0:0:
402,192,12566,1,0,0:0:0:0:
256,192,12660,1,0,0:0:0:0:
329,192,12754,1,0,0:0:0:0:
182,192,12847,1,0,0:0:0:0:
256,192,12941,1,0,0:0:0:0:
329,192,13035,1,0,0:0:0:0:
475,192,13129,128,0,13691:0:0:0:0:
36,192,13879,1,0,0:0:0:0:
182,192,13879,1,0,0:0:0:0:
329,192,13879,1,0,0:0:0:0:
475,192,13879,1,0,0:0:0:0:
36,192,13972,1,0,0:0:0:0:
182,192,13972,1,0,0:0:0:0:
329,192,13972,1,0,0:0:0:0:
475,192,13972,1,0,0:0:0:0:
109,192,14066,1,0,0:0:0:0:
402,192,14066,1,0,0:0:0:0:
182,192,14160,1,0,0:0:0:0:
329,192,14160,1,0,0:0:0:0:
256,192,14254,1,0,0:0:0:0:
475,192,14254,1,0,0:0:0:0:
36,192,14347,1,0,0:0:0:0:
402,192,14347,1,0,0:0:0:0:
109,192,14441,1,0,0:0:0:0:
329,192,14441,1,0,0:0:0:0:
182,192,14535,1,0,0:0:0:0:
402,192,14535,1,0,0:0:0:0:
256,192,14629,1,0,0:0:0:0:
36,192,14629,128,0,14816:0:0:0:0:
475,192,14629,128,0,14816:0:0:0:0:
329,192,14629,1,0,0:0:0:0:
109,192,14629,1,0,0:0:0:0:
402,192,14816,1,0,0:0:0:0:
329,192,14910,1,0,0:0:0:0:
182,192,15004,1,0,0:0:0:0:
256,192,15097,1,0,0:0:0:0:
36,192,15191,128,0,15379:0:0:0:0:
475,192,15191,128,0,15379:0:0:0:0:
329,192,15191,1,0,0:0:0:0:
182,192,15379,1,0,0:0:0:0:
329,192,15472,1,0,0:0:0:0:
109,192,15566,1,0,0:0:0:0:
256,192,15660,1,0,0:0:0:0:
36,192,15754,128,0,15941:0:0:0:0:
475,192,15754,128,0,15941:0:0:0:0:
402,192,15754,1,0,0:0:0:0:
109,192,15941,1,0,0:0:0:0:
256,192,16035,1,0,0:0:0:0:
402,192,16129,1,0,0:0:0:0:
182,192,16222,1,0,0:0:0:0:
36,192,16316,128,0,16504:0:0:0:0:
475,192,16316,128,0,16504:0:0:0:0:
329,192,16316,1,0,0:0:0:0:
109,192,16504,1,0,0:0:0:0:
256,192,16597,1,0,0:0:0:0:
402,192,16691,1,0,0:0:0:0:
182,192,16785,1,0,0:0:0:0:
109,192,16879,1,0,0:0:0:0:
36,192,16879,1,0,0:0:0:0:
475,192,16879,128,0,17254:0:0:0:0:
329,192,16879,128,0,17066:0:0:0:0:
182,192,17066,1,0,0:0:0:0:
329,192,17160,1,0,0:0:0:0:
36,192,17254,128,0,17629:0:0:0:0:
182,192,17254,128,0,17441:0:0:0:0:
402,192,17254,1,0,0:0:0:0:
109,192,17254,1,0,0:0:0:0:
256,192,17441,1,0,0:0:0:0:
329,192,17535,1,0,0:0:0:0:
109,192,17629,128,0,17816:0:0:0:0:
402,192,17629,128,0,17816:0:0:0:0:
256,192,17629,1,0,0:0:0:0:
475,192,17629,1,0,0:0:0:0:
329,192,17816,1,0,0:0:0:0:
182,192,17910,1,0,0:0:0:0:
329,192,18004,1,0,0:0:0:0:
256,192,18097,1,0,0:0:0:0:
109,192,18191,128,0,18379:0:0:0:0:
402,192,18191,128,0,18379:0:0:0:0:
182,192,18191,1,0,0:0:0:0:
329,192,18379,1,0,0:0:0:0:
182,192,18472,1,0,0:0:0:0:
329,192,18566,1,0,0:0:0:0:
256,192,18660,1,0,0:0:0:0:
109,192,18754,128,0,18941:0:0:0:0:
402,192,18754,128,0,18941:0:0:0:0:
182,192,18754,1,0,0:0:0:0:
329,192,18941,1,0,0:0:0:0:
182,192,19035,1,0,0:0:0:0:
329,192,19129,1,0,0:0:0:0:
256,192,19222,1,0,0:0:0:0:
109,192,19316,128,0,19504:0:0:0:0:
402,192,19316,128,0,19504:0:0:0:0:
182,192,19316,1,0,0:0:0:0:
329,192,19504,1,0,0:0:0:0:
182,192,19597,1,0,0:0:0:0:
329,192,19691,1,0,0:0:0:0:
402,192,19785,1,0,0:0:0:0:
182,192,19879,128,0,20254:0:0:0:0:
36,192,19879,128,0,20066:0:0:0:0:
475,192,19879,1,0,0:0:0:0:
256,192,19879,1,0,0:0:0:0:
329,192,20066,1,0,0:0:0:0:
402,192,20160,1,0,0:0:0:0:
329,192,20254,128,0,20629:0:0:0:0:
475,192,20254,128,0,20441:0:0:0:0:
36,192,20254,1,0,0:0:0:0:
256,192,20254,1,0,0:0:0:0:
109,192,20441,1,0,0:0:0:0:
182,192,20535,1,0,0:0:0:0:
256,192,20629,1,0,0:0:0:0:
36,192,20629,128,0,20816:0:0:0:0:
475,192,20629,128,0,20816:0:0:0:0:
109,192,20629,1,0,0:0:0:0:
329,192,20816,1,0,0:0:0:0:
109,192,20910,1,0,0:0:0:0:
402,192,21004,1,0,0:0:0:0:
182,192,21097,1,0,0:0:0:0:
36,192,21191,128,0,21379:0:0:0:0:
475,192,21191,128,0,21379:0:0:0:0:
329,192,21191,1,0,0:0:0:0:
402,192,21379,1,0,0:0:0:0:
109,192,21472,1,0,0:0:0:0:
329,192,21566,1,0,0:0:0:0:
182,192,21660,1,0,0:0:0:0:
36,192,21754,128,0,21941:0:0:0:0:
475,192,21754,128,0,21941:0:0:0:0:
402,192,21754,1,0,0:0:0:0:
109,192,21941,1,0,0:0:0:0:
402,192,22035,1,0,0:0:0:0:
182,192,22129,1,0,0:0:0:0:
329,192,22222,1,0,0:0:0:0:
36,192,22316,128,0,22504:0:0:0:0:
475,192,22316,128,0,22504:0:0:0:0:
109,192,22316,1,0,0:0:0:0:
256,192,22504,1,0,0:0:0:0:
402,192,22597,1,0,0:0:0:0:
36,192,22691,1,0,0:0:0:0:
182,192,22785,1,0,0:0:0:0:
256,192,22879,1,0,0:0:0:0:
36,192,22879,1,0,0:0:0:0:
475,192,22879,128,0,23254:0:0:0:0:
329,192,22879,128,0,23066:0:0:0:0:
36,192,23254,128,0,23629:0:0:0:0:
182,192,23254,128,0,23441:0:0:0:0:
109,192,23254,1,0,0:0:0:0:
329,192,23254,1,0,0:0:0:0:
402,192,23441,1,0,0:0:0:0:
256,192,23535,1,0,0:0:0:0:
475,192,23629,1,0,0:0:0:0:
109,192,23629,128,0,23816:0:0:0:0:
402,192,23629,128,0,23816:0:0:0:0:
182,192,23629,1,0,0:0:0:0:
329,192,23816,1,0,0:0:0:0:
182,192,23910,1,0,0:0:0:0:
329,192,24004,1,0,0:0:0:0:
256,192,24097,1,0,0:0:0:0:
182,192,24191,1,0,0:0:0:0:
109,192,24191,128,0,24379:0:0:0:0:
402,192,24191,128,0,24379:0:0:0:0:
329,192,24379,1,0,0:0:0:0:
182,192,24472,1,0,0:0:0:0:
329,192,24566,1,0,0:0:0:0:
256,192,24660,1,0,0:0:0:0:
182,192,24754,1,0,0:0:0:0:
109,192,24754,128,0,24941:0:0:0:0:
402,192,24754,128,0,24941:0:0:0:0:
329,192,24941,1,0,0:0:0:0:
182,192,25035,1,0,0:0:0:0:
329,192,25129,1,0,0:0:0:0:
256,192,25222,1,0,0:0:0:0:
182,192,25316,1,0,0:0:0:0:
109,192,25316,128,0,25504:0:0:0:0:
402,192,25316,128,0,25504:0:0:0:0:
329,192,25504,1,0,0:0:0:0:
182,192,25597,1,0,0:0:0:0:
329,192,25691,1,0,0:0:0:0:
256,192,25785,1,0,0:0:0:0:
402,192,25879,1,0,0:0:0:0:
36,192,25879,128,0,26254:0:0:0:0:
109,192,25879,128,0,25972:0:0:0:0:
475,192,25879,128,0,26066:0:0:0:0:
182,192,25972,128,0,26066:0:0:0:0:
256,192,26066,128,0,26160:0:0:0:0:
329,192,26160,128,0,26254:0:0:0:0:
475,192,26254,128,0,26629:0:0:0:0:
402,192,26254,128,0,26347:0:0:0:0:
109,192,26254,128,0,26441:0:0:0:0:
182,192,26254,1,0,0:0:0:0:
329,192,26347,128,0,26441:0:0:0:0:
256,192,26441,128,0,26535:0:0:0:0:
36,192,26441,1,0,0:0:0:0:
182,192,26535,128,0,26629:0:0:0:0:
109,192,26535,1,0,0:0:0:0:
36,192,26629,1,0,0:0:0:0:
402,192,26629,1,0,0:0:0:0:
329,192,26629,128,0,27004:0:0:0:0:
256,192,26629,1,0,0:0:0:0:
182,192,27191,1,0,0:0:0:0:
475,192,27191,1,0,0:0:0:0:
329,192,27191,128,0,27379:0:0:0:0:
109,192,27379,128,0,27566:0:0:0:0:
256,192,27566,128,0,27754:0:0:0:0:
402,192,27754,128,0,27941:0:0:0:0:
36,192,27754,1,0,0:0:0:0:
475,192,27754,1,0,0:0:0:0:
182,192,27941,128,0,28129:0:0:0:0:
329,192,28129,128,0,28316:0:0:0:0:
109,192,28129,1,0,0:0:0:0:
402,192,28129,1,0,0:0:0:0:
36,192,28316,1,0,0:0:0:0:
182,192,28410,1,0,0:0:0:0:
475,192,28691,128,0,29254:0:0:0:0:
36,192,28691,1,0,0:0:0:0:
256,192,28691,1,0,0:0:0:0:
36,192,29254,1,0,0:0:0:0:
109,192,29254,1,0,0:0:0:0:
329,192,29441,1,0,0:0:0:0:
182,192,29535,1,0,0:0:0:0:
109,192,29629,128,0,30097:0:0:0:0:
36,192,29629,1,0,0:0:0:0:
256,192,29629,1,0,0:0:0:0:
475,192,29629,1,0,0:0:0:0:
109,192,30191,128,0,30379:0:0:0:0:
329,192,30191,1,0,0:0:0:0:
475,192,30191,1,0,0:0:0:0:
402,192,30379,128,0,30566:0:0:0:0:
256,192,30566,128,0,30754:0:0:0:0:
109,192,30754,128,0,30941:0:0:0:0:
36,192,30754,1,0,0:0:0:0:
475,192,30754,1,0,0:0:0:0:
402,192,30941,128,0,31129:0:0:0:0:
475,192,31129,128,0,32066:0:0:0:0:
36,192,31316,1,0,0:0:0:0:
329,192,31316,1,0,0:0:0:0:
36,192,31879,1,0,0:0:0:0:
329,192,31879,1,0,0:0:0:0:
256,192,32066,128,0,32254:0:0:0:0:
36,192,32254,1,0,0:0:0:0:
475,192,32254,1,0,0:0:0:0:
109,192,32347,1,0,0:0:0:0:
402,192,32347,1,0,0:0:0:0:
182,192,32441,1,0,0:0:0:0:
329,192,32441,1,0,0:0:0:0:
109,192,32535,1,0,0:0:0:0:
402,192,32535,1,0,0:0:0:0:
36,192,32629,1,0,0:0:0:0:
475,192,32629,1,0,0:0:0:0:
182,192,32629,1,0,0:0:0:0:
329,192,32629,128,0,32910:0:0:0:0:
182,192,32910,128,0,33191:0:0:0:0:
36,192,32910,1,0,0:0:0:0:
109,192,32910,1,0,0:0:0:0:
256,192,33191,128,0,33754:0:0:0:0:
402,192,33191,1,0,0:0:0:0:
475,192,33191,1,0,0:0:0:0:
329,192,33191,1,0,0:0:0:0:
36,192,33754,1,0,0:0:0:0:
475,192,33754,1,0,0:0:0:0:
182,192,33754,1,0,0:0:0:0:
256,192,33941,128,0,34129:0:0:0:0:
109,192,34129,128,0,34316:0:0:0:0:
36,192,34129,1,0,0:0:0:0:
329,192,34129,1,0,0:0:0:0:
475,192,34129,1,0,0:0:0:0:
402,192,34316,128,0,34504:0:0:0:0:
256,192,34316,1,0,0:0:0:0:
475,192,34316,1,0,0:0:0:0:
182,192,34504,128,0,34691:0:0:0:0:
475,192,34504,1,0,0:0:0:0:
109,192,34504,1,0,0:0:0:0:
256,192,34691,128,0,35254:0:0:0:0:
36,192,34691,1,0,0:0:0:0:
329,192,34691,1,0,0:0:0:0:
475,192,34691,1,0,0:0:0:0:
36,192,35066,1,0,0:0:0:0:
109,192,35066,1,0,0:0:0:0:
402,192,35160,1,0,0:0:0:0:
475,192,35160,1,0,0:0:0:0:
182,192,35254,1,0,0:0:0:0:
329,192,35347,1,0,0:0:0:0:
36,192,35441,1,0,0:0:0:0:
109,192,35441,1,0,0:0:0:0:
182,192,35535,1,0,0:0:0:0:
256,192,35535,1,0,0:0:0:0:
329,192,35629,1,0,0:0:0:0:
475,192,35629,1,0,0:0:0:0:
36,192,35629,1,0,0:0:0:0:
402,192,35629,128,0,36191:0:0:0:0:
256,192,35879,1,0,0:0:0:0:
109,192,35879,1,0,0:0:0:0:
36,192,36004,1,0,0:0:0:0:
329,192,36004,1,0,0:0:0:0:
109,192,36129,1,0,0:0:0:0:
475,192,36129,1,0,0:0:0:0:
182,192,36191,128,0,36379:0:0:0:0:
36,192,36254,1,0,0:0:0:0:
256,192,36254,1,0,0:0:0:0:
329,192,36379,128,0,36660:0:0:0:0:
109,192,36379,1,0,0:0:0:0:
475,192,36379,1,0,0:0:0:0:
182,192,36504,1,0,0:0:0:0:
256,192,36629,1,0,0:0:0:0:
402,192,36629,1,0,0:0:0:0:
475,192,36660,128,0,36941:0:0:0:0:
329,192,36754,1,0,0:0:0:0:
109,192,36754,1,0,0:0:0:0:
36,192,36879,1,0,0:0:0:0:
256,192,36879,1,0,0:0:0:0:
109,192,36941,128,0,37129:0:0:0:0:
182,192,37129,128,0,37254:0:0:0:0:
329,192,37129,1,0,0:0:0:0:
402,192,37129,1,0,0:0:0:0:
475,192,37129,1,0,0:0:0:0:
256,192,37254,128,0,37379:0:0:0:0:
36,192,37316,1,0,0:0:0:0:
329,192,37379,128,0,37504:0:0:0:0:
109,192,37379,1,0,0:0:0:0:
182,192,37441,1,0,0:0:0:0:
402,192,37504,1,0,0:0:0:0:
475,192,37504,128,0,37879:0:0:0:0:
256,192,37504,1,0,0:0:0:0:
36,192,37504,1,0,0:0:0:0:
36,192,37879,1,0,0:0:0:0:
109,192,37879,1,0,0:0:0:0:
402,192,37941,1,0,0:0:0:0:
475,192,37941,1,0,0:0:0:0:
36,192,38004,1,0,0:0:0:0:
182,192,38004,1,0,0:0:0:0:
329,192,38066,1,0,0:0:0:0:
475,192,38066,1,0,0:0:0:0:
36,192,38160,1,0,0:0:0:0:
256,192,38160,1,0,0:0:0:0:
109,192,38254,1,0,0:0:0:0:
329,192,38254,1,0,0:0:0:0:
182,192,38347,1,0,0:0:0:0:
402,192,38347,1,0,0:0:0:0:
256,192,38441,1,0,0:0:0:0:
475,192,38441,1,0,0:0:0:0:
36,192,38535,1,0,0:0:0:0:
329,192,38535,1,0,0:0:0:0:
109,192,38629,1,0,0:0:0:0:
402,192,38629,1,0,0:0:0:0:
182,192,38629,1,0,0:0:0:0:
475,192,38629,128,0,39191:0:0:0:0:
256,192,38722,1,0,0:0:0:0:
36,192,38816,1,0,0:0:0:0:
329,192,38816,1,0,0:0:0:0:
109,192,38910,1,0,0:0:0:0:
402,192,39004,1,0,0:0:0:0:
329,192,39097,1,0,0:0:0:0:
256,192,39191,1,0,0:0:0:0:
36,192,39191,1,0,0:0:0:0:
109,192,39191,1,0,0:0:0:0:
182,192,39285,1,0,0:0:0:0:
256,192,39379,1,0,0:0:0:0:
402,192,39379,1,0,0:0:0:0:
109,192,39472,1,0,0:0:0:0:
36,192,39566,1,0,0:0:0:0:
475,192,39566,1,0,0:0:0:0:
182,192,39566,1,0,0:0:0:0:
256,192,39660,1,0,0:0:0:0:
329,192,39754,1,0,0:0:0:0:
475,192,39754,1,0,0:0:0:0:
402,192,39847,1,0,0:0:0:0:
36,192,39941,1,0,0:0:0:0:
475,192,39941,1,0,0:0:0:0:
256,192,39941,1,0,0:0:0:0:
109,192,40035,1,0,0:0:0:0:
329,192,40129,1,0,0:0:0:0:
182,192,40129,128,0,40316:0:0:0:0:
402,192,40222,1,0,0:0:0:0:
109,192,40222,1,0,0:0:0:0:
475,192,40316,1,0,0:0:0:0:
36,192,40316,1,0,0:0:0:0:
256,192,40316,1,0,0:0:0:0:
109,192,40410,1,0,0:0:0:0:
329,192,40410,1,0,0:0:0:0:
402,192,40504,1,0,0:0:0:0:
256,192,40597,1,0,0:0:0:0:
182,192,40691,1,0,0:0:0:0:
475,192,40691,1,0,0:0:0:0:
36,192,40691,128,0,41254:0:0:0:0:
402,192,40785,1,0,0:0:0:0:
256,192,40879,1,0,0:0:0:0:
109,192,40879,1,0,0:0:0:0:
329,192,40972,1,0,0:0:0:0:
182,192,40972,1,0,0:0:0:0:
402,192,41066,1,0,0:0:0:0:
109,192,41066,1,0,0:0:0:0:
475,192,41066,1,0,0:0:0:0:
329,192,41160,1,0,0:0:0:0:
182,192,41160,1,0,0:0:0:0:
475,192,41254,1,0,0:0:0:0:
402,192,41347,1,0,0:0:0:0:
256,192,41347,1,0,0:0:0:0:
182,192,41441,1,0,0:0:0:0:
329,192,41441,1,0,0:0:0:0:
36,192,41441,1,0,0:0:0:0:
109,192,41535,1,0,0:0:0:0:
36,192,41629,1,0,0:0:0:0:
182,192,41629,1,0,0:0:0:0:
329,192,41629,1,0,0:0:0:0:
475,192,41629,1,0,0:0:0:0:
402,192,41754,1,0,0:0:0:0:
109,192,41754,1,0,0:0:0:0:
329,192,41879,1,0,0:0:0:0:
36,192,41910,1,0,0:0:0:0:
182,192,41910,1,0,0:0:0:0:
475,192,42004,1,0,0:0:0:0:
256,192,42004,1,0,0:0:0:0:
109,192,42004,1,0,0:0:0:0:
36,192,42129,1,0,0:0:0:0:
109,192,42191,1,0,0:0:0:0:
402,192,42191,1,0,0:0:0:0:
329,192,42285,1,0,0:0:0:0:
256,192,42379,1,0,0:0:0:0:
36,192,42379,1,0,0:0:0:0:
475,192,42379,1,0,0:0:0:0:
182,192,42379,1,0,0:0:0:0:
402,192,42504,1,0,0:0:0:0:
109,192,42504,1,0,0:0:0:0:
329,192,42629,1,0,0:0:0:0:
256,192,42754,1,0,0:0:0:0:
36,192,42754,1,0,0:0:0:0:
475,192,42754,1,0,0:0:0:0:
109,192,42879,1,0,0:0:0:0:
329,192,42879,1,0,0:0:0:0:
256,192,42941,1,0,0:0:0:0:
475,192,42941,1,0,0:0:0:0:
182,192,43004,1,0,0:0:0:0:
36,192,43004,1,0,0:0:0:0:
109,192,43129,1,0,0:0:0:0:
256,192,43129,1,0,0:0:0:0:
402,192,43129,1,0,0:0:0:0:
475,192,43129,128,0,44254:0:0:0:0:
329,192,43254,1,0,0:0:0:0:
109,192,43379,1,0,0:0:0:0:
182,192,43504,1,0,0:0:0:0:
329,192,43629,1,0,0:0:0:0:
256,192,43754,1,0,0:0:0:0:
109,192,43754,1,0,0:0:0:0:
36,192,43879,1,0,0:0:0:0:
182,192,43879,1,0,0:0:0:0:
402,192,43879,1,0,0:0:0:0:
329,192,44004,1,0,0:0:0:0:
256,192,44129,1,0,0:0:0:0:
36,192,44254,128,0,44629:0:0:0:0:
182,192,44254,1,0,0:0:0:0:
256,192,44379,1,0,0:0:0:0:
109,192,44379,1,0,0:0:0:0:
329,192,44504,1,0,0:0:0:0:
182,192,44504,1,0,0:0:0:0:
402,192,44629,128,0,45191:0:0:0:0:
475,192,44629,1,0,0:0:0:0:
109,192,44629,1,0,0:0:0:0:
256,192,44629,1,0,0:0:0:0:
182,192,44722,1,0,0:0:0:0:
329,192,44722,1,0,0:0:0:0:
109,192,44816,1,0,0:0:0:0:
256,192,44816,1,0,0:0:0:0:
36,192,44816,1,0,0:0:0:0:
182,192,44910,1,0,0:0:0:0:
475,192,44910,1,0,0:0:0:0:
256,192,45004,1,0,0:0:0:0:
36,192,45004,1,0,0:0:0:0:
109,192,45097,1,0,0:0:0:0:
329,192,45097,1,0,0:0:0:0:
182,192,45191,1,0,0:0:0:0:
475,192,45191,1,0,0:0:0:0:
36,192,45191,1,0,0:0:0:0:
256,192,45285,1,0,0:0:0:0:
402,192,45285,1,0,0:0:0:0:
36,192,45379,1,0,0:0:0:0:
475,192,45379,1,0,0:0:0:0:
109,192,45472,1,0,0:0:0:0:
402,192,45472,1,0,0:0:0:0:
182,192,45566,1,0,0:0:0:0:
329,192,45566,1,0,0:0:0:0:
475,192,45566,1,0,0:0:0:0:
109,192,45660,1,0,0:0:0:0:
402,192,45660,1,0,0:0:0:0:
36,192,45754,1,0,0:0:0:0:
329,192,45754,1,0,0:0:0:0:
109,192,45847,1,0,0:0:0:0:
402,192,45847,1,0,0:0:0:0:
182,192,45941,1,0,0:0:0:0:
475,192,45941,1,0,0:0:0:0:
36,192,45941,1,0,0:0:0:0:
256,192,46035,1,0,0:0:0:0:
402,192,46035,1,0,0:0:0:0:
329,192,46129,128,0,46410:0:0:0:0:
109,192,46129,1,0,0:0:0:0:
475,192,46129,1,0,0:0:0:0:
182,192,46222,1,0,0:0:0:0:
402,192,46222,1,0,0:0:0:0:
256,192,46316,1,0,0:0:0:0:
36,192,46316,1,0,0:0:0:0:
475,192,46316,1,0,0:0:0:0:
109,192,46410,1,0,0:0:0:0:
402,192,46410,1,0,0:0:0:0:
182,192,46504,1,0,0:0:0:0:
329,192,46504,1,0,0:0:0:0:
256,192,46597,1,0,0:0:0:0:
402,192,46597,1,0,0:0:0:0:
182,192,46691,128,0,47254:0:0:0:0:
475,192,46691,1,0,0:0:0:0:
36,192,46691,1,0,0:0:0:0:
402,192,46785,1,0,0:0:0:0:
109,192,46785,1,0,0:0:0:0:
329,192,46879,1,0,0:0:0:0:
36,192,46879,1,0,0:0:0:0:
256,192,46972,1,0,0:0:0:0:
475,192,46972,1,0,0:0:0:0:
402,192,47066,1,0,0:0:0:0:
109,192,47066,1,0,0:0:0:0:
36,192,47066,1,0,0:0:0:0:
329,192,47160,1,0,0:0:0:0:
475,192,47160,1,0,0:0:0:0:
256,192,47254,1,0,0:0:0:0:
402,192,47254,1,0,0:0:0:0:
329,192,47347,1,0,0:0:0:0:
36,192,47347,1,0,0:0:0:0:
109,192,47441,1,0,0:0:0:0:
475,192,47441,1,0,0:0:0:0:
256,192,47441,1,0,0:0:0:0:
182,192,47535,1,0,0:0:0:0:
402,192,47535,1,0,0:0:0:0:
329,192,47629,1,0,0:0:0:0:
475,192,47629,1,0,0:0:0:0:
36,192,47629,1,0,0:0:0:0:
109,192,47629,128,0,47910:0:0:0:0:
182,192,47816,1,0,0:0:0:0:
256,192,47816,1,0,0:0:0:0:
36,192,47910,128,0,48191:0:0:0:0:
329,192,47910,1,0,0:0:0:0:
402,192,47910,1,0,0:0:0:0:
109,192,48004,1,0,0:0:0:0:
182,192,48004,1,0,0:0:0:0:
256,192,48004,1,0,0:0:0:0:
475,192,48004,1,0,0:0:0:0:
329,192,48097,1,0,0:0:0:0:
402,192,48191,128,0,48379:0:0:0:0:
475,192,48191,1,0,0:0:0:0:
256,192,48285,1,0,0:0:0:0:
329,192,48379,128,0,48566:0:0:0:0:
182,192,48379,1,0,0:0:0:0:
36,192,48379,1,0,0:0:0:0:
109,192,48472,1,0,0:0:0:0:
475,192,48566,128,0,48754:0:0:0:0:
182,192,48566,1,0,0:0:0:0:
402,192,48566,1,0,0:0:0:0:
256,192,48660,1,0,0:0:0:0:
329,192,48660,1,0,0:0:0:0:
36,192,48754,128,0,48941:0:0:0:0:
109,192,48754,1,0,0:0:0:0:
182,192,48754,1,0,0:0:0:0:
402,192,48754,1,0,0:0:0:0:
256,192,48847,1,0,0:0:0:0:
182,192,48941,128,0,49129:0:0:0:0:
329,192,48941,1,0,0:0:0:0:
402,192,49035,1,0,0:0:0:0:
475,192,49129,1,0,0:0:0:0:
36,192,49129,1,0,0:0:0:0:
109,192,49129,1,0,0:0:0:0:
256,192,49129,1,0,0:0:0:0:
475,192,49504,1,0,0:0:0:0:
402,192,49504,1,0,0:0:0:0:
36,192,49504,1,0,0:0:0:0:
256,192,49504,128,0,50254:0:0:0:0:
402,192,49879,1,0,0:0:0:0:
402,192,50066,1,0,0:0:0:0:
109,192,50160,1,0,0:0:0:0:
36,192,50254,1,0,0:0:0:0:
329,192,50254,1,0,0:0:0:0:
475,192,50254,1,0,0:0:0:0:
182,192,50254,1,0,0:0:0:0:
36,192,50347,1,0,0:0:0:0:
182,192,50347,1,0,0:0:0:0:
329,192,50347,1,0,0:0:0:0:
475,192,50347,1,0,0:0:0:0:
109,192,50441,1,0,0:0:0:0:
402,192,50535,1,0,0:0:0:0:
36,192,50629,1,0,0:0:0:0:
182,192,50629,1,0,0:0:0:0:
329,192,50629,1,0,0:0:0:0:
475,192,50629,1,0,0:0:0:0:
329,192,50816,1,0,0:0:0:0:
402,192,50910,1,0,0:0:0:0:
475,192,51004,1,0,0:0:0:0:
329,192,51097,1,0,0:0:0:0:
256,192,51191,1,0,0:0:0:0:
182,192,51285,1,0,0:0:0:0:
109,192,51379,1,0,0:0:0:0:
256,192,51597,1,0,0:0:0:0:
329,192,51691,1,0,0:0:0:0:
402,192,51785,1,0,0:0:0:0:
256,192,51910,1,0,0:0:0:0:
182,192,52004,1,0,0:0:0:0:
109,192,52066,1,0,0:0:0:0:
36,192,52129,1,0,0:0:0:0:
329,192,52129,1,0,0:0:0:0:
402,192,52129,1,0,0:0:0:0:
475,192,52129,1,0,0:0:0:0:
256,192,52316,1,0,0:0:0:0:
402,192,52410,1,0,0:0:0:0:
329,192,52504,1,0,0:0:0:0:
256,192,52597,1,0,0:0:0:0:
182,192,52691,1,0,0:0:0:0:
109,192,52785,1,0,0:0:0:0:
36,192,52879,1,0,0:0:0:0:
182,192,53097,1,0,0:0:0:0:
329,192,53191,1,0,0:0:0:0:
475,192,53285,1,0,0:0:0:0:
256,192,53379,1,0,0:0:0:0:
182,192,53472,1,0,0:0:0:0:
109,192,53566,1,0,0:0:0:0:
36,192,53629,1,0,0:0:0:0:
329,192,53629,1,0,0:0:0:0:
402,192,53629,1,0,0:0:0:0:
475,192,53629,1,0,0:0:0:0:
256,192,53816,1,0,0:0:0:0:
36,192,53910,1,0,0:0:0:0:
109,192,54004,1,0,0:0:0:0:
182,192,54097,1,0,0:0:0:0:
256,192,54191,1,0,0:0:0:0:
329,192,54285,1,0,0:0:0:0:
402,192,54379,1,0,0:0:0:0:
475,192,54379,1,0,0:0:0:0:
182,192,54566,1,0,0:0:0:0:
329,192,54566,1,0,0:0:0:0:
36,192,54754,1,0,0:0:0:0:
109,192,54754,1,0,0:0:0:0:
329,192,54941,1,0,0:0:0:0:
475,192,54941,1,0,0:0:0:0:
36,192,55129,1,0,0:0:0:0:
182,192,55129,1,0,0:0:0:0:
329,192,55129,1,0,0:0:0:0:
475,192,55129,1,0,0:0:0:0:
109,192,55410,1,0,0:0:0:0:
329,192,55504,1,0,0:0:0:0:
402,192,55504,1,0,0:0:0:0:
36,192,55504,1,0,0:0:0:0:
182,192,55504,1,0,0:0:0:0:
256,192,55691,128,0,56441:0:0:0:0:
36,192,55879,1,0,0:0:0:0:
109,192,55879,1,0,0:0:0:0:
329,192,55879,1,0,0:0:0:0:
402,192,55879,1,0,0:0:0:0:
36,192,56254,1,0,0:0:0:0:
109,192,56254,1,0,0:0:0:0:
329,192,56254,1,0,0:0:0:0:
402,192,56254,1,0,0:0:0:0:
182,192,56441,1,0,0:0:0:0:
256,192,56535,1,0,0:0:0:0:
329,192,56629,1,0,0:0:0:0:
36,192,56629,1,0,0:0:0:0:
402,192,56629,1,0,0:0:0:0:
475,192,56629,1,0,0:0:0:0:
109,192,56722,1,0,0:0:0:0:
182,192,56816,1,0,0:0:0:0:
256,192,56910,1,0,0:0:0:0:
475,192,57004,1,0,0:0:0:0:
402,192,57097,1,0,0:0:0:0:
329,192,57191,1,0,0:0:0:0:
256,192,57285,1,0,0:0:0:0:
182,192,57379,1,0,0:0:0:0:
402,192,57472,1,0,0:0:0:0:
329,192,57566,1,0,0:0:0:0:
182,192,57660,1,0,0:0:0:0:
109,192,57754,1,0,0:0:0:0:
256,192,57847,1,0,0:0:0:0:
402,192,57941,1,0,0:0:0:0:
182,192,58035,1,0,0:0:0:0:
329,192,58129,1,0,0:0:0:0:
475,192,58222,1,0,0:0:0:0:
329,192,58316,1,0,0:0:0:0:
256,192,58410,1,0,0:0:0:0:
182,192,58504,1,0,0:0:0:0:
402,192,58597,1,0,0:0:0:0:
329,192,58691,1,0,0:0:0:0:
182,192,58785,1,0,0:0:0:0:
36,192,58879,1,0,0:0:0:0:
182,192,58972,1,0,0:0:0:0:
329,192,59066,1,0,0:0:0:0:
475,192,59160,1,0,0:0:0:0:
109,192,59191,1,0,0:0:0:0:
256,192,59222,1,0,0:0:0:0:
36,192,59254,128,0,59441:0:0:0:0:
182,192,59254,128,0,59441:0:0:0:0:
402,192,59254,128,0,59441:0:0:0:0:
475,192,59254,128,0,59441:0:0:0:0:
36,192,59629,1,0,0:0:0:0:
182,192,59629,1,0,0:0:0:0:
402,192,59629,1,0,0:0:0:0:
475,192,59629,1,0,0:0:0:0:
256,192,59722,1,0,0:0:0:0:
329,192,59816,1,0,0:0:0:0:
402,192,59910,1,0,0:0:0:0:
256,192,60004,1,0,0:0:0:0:
182,192,60097,1,0,0:0:0:0:
109,192,60191,1,0,0:0:0:0:
36,192,60285,1,0,0:0:0:0:
256,192,60379,1,0,0:0:0:0:
329,192,60472,1,0,0:0:0:0:
402,192,60566,1,0,0:0:0:0:
475,192,60660,1,0,0:0:0:0:
256,192,60754,1,0,0:0:0:0:
182,192,60847,1,0,0:0:0:0:
109,192,60941,1,0,0:0:0:0:
329,192,61035,1,0,0:0:0:0:
475,192,61129,128,0,61691:0:0:0:0:
36,192,61504,1,0,0:0:0:0:
109,192,61504,1,0,0:0:0:0:
402,192,61504,1,0,0:0:0:0:
329,192,61504,1,0,0:0:0:0:
256,192,61691,1,0,0:0:0:0:
182,192,61785,1,0,0:0:0:0:
36,192,61879,128,0,62441:0:0:0:0:
109,192,62254,1,0,0:0:0:0:
182,192,62254,1,0,0:0:0:0:
402,192,62254,1,0,0:0:0:0:
475,192,62254,1,0,0:0:0:0:
329,192,62441,1,0,0:0:0:0:
182,192,62535,1,0,0:0:0:0:
36,192,62629,1,0,0:0:0:0:
256,192,62629,1,0,0:0:0:0:
402,192,62629,1,0,0:0:0:0:
475,192,62629,128,0,65066:0:0:0:0:
109,192,62722,1,0,0:0:0:0:
329,192,62816,1,0,0:0:0:0:
182,192,62910,1,0,0:0:0:0:
36,192,63004,1,0,0:0:0:0:
256,192,63004,1,0,0:0:0:0:
402,192,63097,1,0,0:0:0:0:
109,192,63191,1,0,0:0:0:0:
256,192,63285,1,0,0:0:0:0:
36,192,63379,1,0,0:0:0:0:
402,192,63379,1,0,0:0:0:0:
109,192,63472,1,0,0:0:0:0:
329,192,63566,1,0,0:0:0:0:
182,192,63660,1,0,0:0:0:0:
36,192,63754,1,0,0:0:0:0:
402,192,63754,1,0,0:0:0:0:
329,192,63847,1,0,0:0:0:0:
182,192,63941,1,0,0:0:0:0:
109,192,64035,1,0,0:0:0:0:
36,192,64129,1,0,0:0:0:0:
402,192,64129,1,0,0:0:0:0:
329,192,64222,1,0,0:0:0:0:
256,192,64316,1,0,0:0:0:0:
182,192,64410,1,0,0:0:0:0:
109,192,64504,1,0,0:0:0:0:
402,192,64504,1,0,0:0:0:0:
329,192,64597,1,0,0:0:0:0:
36,192,64691,1,0,0:0:0:0:
109,192,64785,1,0,0:0:0:0:
182,192,64879,1,0,0:0:0:0:
329,192,64879,1,0,0:0:0:0:
36,192,64972,1,0,0:0:0:0:
182,192,65066,1,0,0:0:0:0:
329,192,65160,1,0,0:0:0:0:
182,192,65254,128,0,65441:0:0:0:0:
475,192,65254,1,0,0:0:0:0:
256,192,65254,1,0,0:0:0:0:
402,192,65347,1,0,0:0:0:0:
109,192,65441,128,0,65629:0:0:0:0:
329,192,65441,1,0,0:0:0:0:
256,192,65535,1,0,0:0:0:0:
36,192,65629,128,0,68066:0:0:0:0:
182,192,65629,1,0,0:0:0:0:
475,192,65629,1,0,0:0:0:0:
402,192,65722,1,0,0:0:0:0:
329,192,65816,1,0,0:0:0:0:
256,192,65910,1,0,0:0:0:0:
182,192,66004,1,0,0:0:0:0:
475,192,66004,1,0,0:0:0:0:
256,192,66097,1,0,0:0:0:0:
329,192,66191,1,0,0:0:0:0:
402,192,66285,1,0,0:0:0:0:
475,192,66379,1,0,0:0:0:0:
109,192,66379,1,0,0:0:0:0:
182,192,66472,1,0,0:0:0:0:
256,192,66566,1,0,0:0:0:0:
329,192,66660,1,0,0:0:0:0:
402,192,66754,1,0,0:0:0:0:
109,192,66754,1,0,0:0:0:0:
256,192,66847,1,0,0:0:0:0:
182,192,66941,1,0,0:0:0:0:
109,192,67035,1,0,0:0:0:0:
475,192,67129,1,0,0:0:0:0:
256,192,67129,1,0,0:0:0:0:
402,192,67222,1,0,0:0:0:0:
329,192,67316,1,0,0:0:0:0:
256,192,67410,1,0,0:0:0:0:
109,192,67504,1,0,0:0:0:0:
475,192,67504,1,0,0:0:0:0:
182,192,67597,1,0,0:0:0:0:
256,192,67691,1,0,0:0:0:0:
329,192,67785,1,0,0:0:0:0:
475,192,67879,1,0,0:0:0:0:
109,192,67879,1,0,0:0:0:0:
402,192,67972,1,0,0:0:0:0:
182,192,68066,1,0,0:0:0:0:
256,192,68160,1,0,0:0:0:0:
402,192,68254,128,0,68441:0:0:0:0:
36,192,68254,1,0,0:0:0:0:
109,192,68347,1,0,0:0:0:0:
329,192,68441,128,0,68629:0:0:0:0:
182,192,68441,1,0,0:0:0:0:
109,192,68535,1,0,0:0:0:0:
475,192,68629,128,0,71066:0:0:0:0:
256,192,68629,1,0,0:0:0:0:
402,192,68629,1,0,0:0:0:0:
36,192,68629,1,0,0:0:0:0:
109,192,68722,1,0,0:0:0:0:
329,192,68722,1,0,0:0:0:0:
182,192,68816,1,0,0:0:0:0:
402,192,68816,1,0,0:0:0:0:
256,192,68910,1,0,0:0:0:0:
36,192,68910,1,0,0:0:0:0:
329,192,69004,1,0,0:0:0:0:
109,192,69004,1,0,0:0:0:0:
182,192,69097,1,0,0:0:0:0:
402,192,69097,1,0,0:0:0:0:
36,192,69191,1,0,0:0:0:0:
256,192,69191,1,0,0:0:0:0:
109,192,69285,1,0,0:0:0:0:
329,192,69285,1,0,0:0:0:0:
182,192,69379,1,0,0:0:0:0:
402,192,69379,1,0,0:0:0:0:
36,192,69472,1,0,0:0:0:0:
256,192,69472,1,0,0:0:0:0:
109,192,69566,1,0,0:0:0:0:
329,192,69566,1,0,0:0:0:0:
182,192,69660,1,0,0:0:0:0:
402,192,69660,1,0,0:0:0:0:
36,192,69754,1,0,0:0:0:0:
256,192,69754,1,0,0:0:0:0:
109,192,69847,1,0,0:0:0:0:
329,192,69847,1,0,0:0:0:0:
182,192,69941,1,0,0:0:0:0:
402,192,69941,1,0,0:0:0:0:
36,192,70035,1,0,0:0:0:0:
329,192,70035,1,0,0:0:0:0:
109,192,70129,1,0,0:0:0:0:
402,192,70129,1,0,0:0:0:0:
182,192,70222,1,0,0:0:0:0:
256,192,70316,1,0,0:0:0:0:
329,192,70410,1,0,0:0:0:0:
402,192,70504,1,0,0:0:0:0:
36,192,70504,1,0,0:0:0:0:
329,192,70597,1,0,0:0:0:0:
256,192,70691,1,0,0:0:0:0:
182,192,70785,1,0,0:0:0:0:
109,192,70879,1,0,0:0:0:0:
329,192,70879,1,0,0:0:0:0:
256,192,70972,1,0,0:0:0:0:
182,192,71066,1,0,0:0:0:0:
109,192,71160,1,0,0:0:0:0:
182,192,71254,128,0,71441:0:0:0:0:
36,192,71254,1,0,0:0:0:0:
475,192,71254,1,0,0:0:0:0:
402,192,71347,1,0,0:0:0:0:
109,192,71441,128,0,71629:0:0:0:0:
329,192,71441,1,0,0:0:0:0:
402,192,71535,1,0,0:0:0:0:
36,192,71629,128,0,73129:0:0:0:0:
475,192,71629,1,0,0:0:0:0:
256,192,71629,1,0,0:0:0:0:
402,192,71816,1,0,0:0:0:0:
182,192,72004,1,0,0:0:0:0:
109,192,72004,1,0,0:0:0:0:
402,192,72379,1,0,0:0:0:0:
475,192,72379,1,0,0:0:0:0:
182,192,72566,1,0,0:0:0:0:
402,192,72754,1,0,0:0:0:0:
475,192,72754,1,0,0:0:0:0:
182,192,72941,1,0,0:0:0:0:
475,192,73129,128,0,74504:0:0:0:0:
256,192,73129,1,0,0:0:0:0:
402,192,73129,1,0,0:0:0:0:
109,192,73129,1,0,0:0:0:0:
182,192,73316,1,0,0:0:0:0:
329,192,73504,1,0,0:0:0:0:
402,192,73504,1,0,0:0:0:0:
182,192,73691,1,0,0:0:0:0:
109,192,73879,1,0,0:0:0:0:
402,192,73879,1,0,0:0:0:0:
329,192,73972,1,0,0:0:0:0:
182,192,73972,1,0,0:0:0:0:
256,192,74066,1,0,0:0:0:0:
36,192,74066,1,0,0:0:0:0:
402,192,74160,1,0,0:0:0:0:
109,192,74160,1,0,0:0:0:0:
329,192,74254,1,0,0:0:0:0:
182,192,74254,1,0,0:0:0:0:
256,192,74379,1,0,0:0:0:0:
256,192,74504,1,0,0:0:0:0:
256,192,74629,1,0,0:0:0:0:
109,192,74629,128,0,76004:0:0:0:0:
182,192,74629,128,0,75379:0:0:0:0:
36,192,74629,128,0,77504:0:0:0:0:
329,192,74629,128,0,74754:0:0:0:0:
402,192,74629,128,0,74879:0:0:0:0:
475,192,74629,128,0,75004:0:0:0:0:
256,192,74754,128,0,75004:0:0:0:0:
329,192,74879,128,0,75129:0:0:0:0:
402,192,75004,128,0,75254:0:0:0:0:
475,192,75129,128,0,75379:0:0:0:0:
256,192,75129,128,0,75504:0:0:0:0:
329,192,75254,128,0,75629:0:0:0:0:
402,192,75379,128,0,75754:0:0:0:0:
475,192,75504,128,0,75879:0:0:0:0:
182,192,75504,128,0,76129:0:0:0:0:
256,192,75629,128,0,76254:0:0:0:0:
329,192,75754,128,0,76379:0:0:0:0:
402,192,75879,128,0,76504:0:0:0:0:
475,192,76004,128,0,76629:0:0:0:0:
109,192,76129,128,0,76754:0:0:0:0:
182,192,76254,128,0,76879:0:0:0:0:
256,192,76379,128,0,77004:0:0:0:0:
329,192,76504,128,0,77129:0:0:0:0:
402,192,76629,128,0,77254:0:0:0:0:
475,192,76754,128,0,77379:0:0:0:0:
109,192,76879,128,0,77504:0:0:0:0:
182,192,77004,128,0,77504:0:0:0:0:
256,192,77129,128,0,77504:0:0:0:0:
329,192,77254,128,0,77504:0:0:0:0:
402,192,77379,128,0,77504:0:0:0:0:
475,192,77504,1,0,0:0:0:0:
256,192,77629,1,0,0:0:0:0:
402,192,77629,128,0,79004:0:0:0:0:
329,192,77629,128,0,78379:0:0:0:0:
475,192,77629,128,0,80504:0:0:0:0:
182,192,77629,128,0,77754:0:0:0:0:
109,192,77629,128,0,77879:0:0:0:0:
36,192,77629,128,0,78004:0:0:0:0:
256,192,77754,128,0,78004:0:0:0:0:
182,192,77879,128,0,78129:0:0:0:0:
109,192,78004,128,0,78254:0:0:0:0:
36,192,78129,128,0,78379:0:0:0:0:
256,192,78129,128,0,78504:0:0:0:0:
182,192,78254,128,0,78629:0:0:0:0:
109,192,78379,128,0,78754:0:0:0:0:
36,192,78504,128,0,78879:0:0:0:0:
329,192,78504,128,0,79129:0:0:0:0:
256,192,78629,128,0,79254:0:0:0:0:
182,192,78754,128,0,79379:0:0:0:0:
109,192,78879,128,0,79504:0:0:0:0:
36,192,79004,128,0,79629:0:0:0:0:
402,192,79129,128,0,79754:0:0:0:0:
329,192,79254,128,0,79879:0:0:0:0:
256,192,79379,128,0,80004:0:0:0:0:
182,192,79504,128,0,80129:0:0:0:0:
109,192,79629,128,0,80254:0:0:0:0:
36,192,79754,128,0,80379:0:0:0:0:
402,192,79879,128,0,80504:0:0:0:0:
329,192,80004,128,0,80504:0:0:0:0:
256,192,80129,128,0,80504:0:0:0:0:
182,192,80254,128,0,80504:0:0:0:0:
109,192,80379,128,0,80504:0:0:0:0:
36,192,80504,128,0,80629:0:0:0:0:
109,192,80629,1,0,0:0:0:0:
256,192,80629,128,0,80816:0:0:0:0:
402,192,80629,1,0,0:0:0:0:
36,192,80816,1,0,0:0:0:0:
109,192,80816,1,0,0:0:0:0:
402,192,80816,1,0,0:0:0:0:
182,192,80910,1,0,0:0:0:0:
329,192,80910,1,0,0:0:0:0:
36,192,81004,1,0,0:0:0:0:
256,192,81004,1,0,0:0:0:0:
475,192,81004,1,0,0:0:0:0:
109,192,81097,1,0,0:0:0:0:
329,192,81097,1,0,0:0:0:0:
182,192,81191,1,0,0:0:0:0:
402,192,81191,1,0,0:0:0:0:
256,192,81191,128,0,81566:0:0:0:0:
402,192,81566,1,0,0:0:0:0:
475,192,81566,1,0,0:0:0:0:
36,192,81566,1,0,0:0:0:0:
109,192,81660,1,0,0:0:0:0:
329,192,81660,1,0,0:0:0:0:
182,192,81754,1,0,0:0:0:0:
256,192,81754,1,0,0:0:0:0:
475,192,81754,1,0,0:0:0:0:
109,192,81847,1,0,0:0:0:0:
402,192,81847,1,0,0:0:0:0:
36,192,81941,1,0,0:0:0:0:
182,192,81941,1,0,0:0:0:0:
329,192,81941,128,0,82316:0:0:0:0:
36,192,82316,1,0,0:0:0:0:
256,192,82316,1,0,0:0:0:0:
402,192,82316,1,0,0:0:0:0:
109,192,82410,1,0,0:0:0:0:
182,192,82410,1,0,0:0:0:0:
36,192,82504,1,0,0:0:0:0:
329,192,82504,1,0,0:0:0:0:
475,192,82504,1,0,0:0:0:0:
182,192,82597,1,0,0:0:0:0:
256,192,82597,1,0,0:0:0:0:
36,192,82691,1,0,0:0:0:0:
109,192,82691,1,0,0:0:0:0:
402,192,82691,128,0,83066:0:0:0:0:
329,192,83066,128,0,83441:0:0:0:0:
36,192,83066,1,0,0:0:0:0:
182,192,83066,1,0,0:0:0:0:
182,192,83254,128,0,83441:0:0:0:0:
36,192,83441,128,0,83816:0:0:0:0:
475,192,83441,1,0,0:0:0:0:
109,192,83441,1,0,0:0:0:0:
109,192,83816,1,0,0:0:0:0:
329,192,83816,1,0,0:0:0:0:
475,192,83816,1,0,0:0:0:0:
36,192,83910,1,0,0:0:0:0:
256,192,83910,1,0,0:0:0:0:
109,192,84004,1,0,0:0:0:0:
182,192,84004,1,0,0:0:0:0:
402,192,84004,1,0,0:0:0:0:
256,192,84097,1,0,0:0:0:0:
475,192,84097,1,0,0:0:0:0:
36,192,84191,1,0,0:0:0:0:
109,192,84191,1,0,0:0:0:0:
329,192,84191,128,0,84566:0:0:0:0:
256,192,84379,1,0,0:0:0:0:
182,192,84472,1,0,0:0:0:0:
109,192,84566,1,0,0:0:0:0:
36,192,84566,1,0,0:0:0:0:
475,192,84566,1,0,0:0:0:0:
402,192,84660,1,0,0:0:0:0:
182,192,84660,1,0,0:0:0:0:
329,192,84754,1,0,0:0:0:0:
109,192,84754,1,0,0:0:0:0:
475,192,84754,1,0,0:0:0:0:
36,192,84847,1,0,0:0:0:0:
256,192,84847,1,0,0:0:0:0:
109,192,84941,1,0,0:0:0:0:
475,192,84941,1,0,0:0:0:0:
329,192,84941,128,0,85316:0:0:0:0:
182,192,85129,1,0,0:0:0:0:
36,192,85222,1,0,0:0:0:0:
109,192,85316,1,0,0:0:0:0:
256,192,85316,1,0,0:0:0:0:
475,192,85316,1,0,0:0:0:0:
182,192,85410,1,0,0:0:0:0:
329,192,85410,1,0,0:0:0:0:
256,192,85504,1,0,0:0:0:0:
36,192,85504,1,0,0:0:0:0:
475,192,85504,1,0,0:0:0:0:
109,192,85597,1,0,0:0:0:0:
329,192,85597,1,0,0:0:0:0:
182,192,85691,1,0,0:0:0:0:
36,192,85691,1,0,0:0:0:0:
402,192,85691,128,0,86066:0:0:0:0:
329,192,86066,128,0,86441:0:0:0:0:
36,192,86066,1,0,0:0:0:0:
109,192,86066,1,0,0:0:0:0:
475,192,86254,128,0,86629:0:0:0:0:
182,192,86254,1,0,0:0:0:0:
256,192,86629,128,0,87004:0:0:0:0:
36,192,86629,1,0,0:0:0:0:
109,192,86629,1,0,0:0:0:0:
329,192,86629,1,0,0:0:0:0:
402,192,86629,1,0,0:0:0:0:
36,192,87004,1,0,0:0:0:0:
182,192,87004,1,0,0:0:0:0:
475,192,87004,1,0,0:0:0:0:
329,192,87097,1,0,0:0:0:0:
182,192,87191,1,0,0:0:0:0:
36,192,87285,1,0,0:0:0:0:
475,192,87379,1,0,0:0:0:0:
256,192,87379,1,0,0:0:0:0:
182,192,87472,1,0,0:0:0:0:
402,192,87472,1,0,0:0:0:0:
109,192,87566,1,0,0:0:0:0:
329,192,87566,1,0,0:0:0:0:
36,192,87660,1,0,0:0:0:0:
256,192,87660,1,0,0:0:0:0:
182,192,87754,1,0,0:0:0:0:
475,192,87754,1,0,0:0:0:0:
109,192,87847,1,0,0:0:0:0:
402,192,87847,1,0,0:0:0:0:
36,192,87941,1,0,0:0:0:0:
329,192,87941,1,0,0:0:0:0:
475,192,88035,1,0,0:0:0:0:
256,192,88035,1,0,0:0:0:0:
109,192,88129,1,0,0:0:0:0:
402,192,88129,1,0,0:0:0:0:
182,192,88129,128,0,89629:0:0:0:0:
329,192,88129,128,0,89629:0:0:0:0:
36,192,88879,1,0,0:0:0:0:
256,192,88879,1,0,0:0:0:0:
475,192,88879,1,0,0:0:0:0:
109,192,89066,1,0,0:0:0:0:
402,192,89160,1,0,0:0:0:0:
36,192,89254,1,0,0:0:0:0:
475,192,89254,1,0,0:0:0:0:
109,192,89347,1,0,0:0:0:0:
256,192,89441,1,0,0:0:0:0:
402,192,89535,1,0,0:0:0:0:
475,192,89629,1,0,0:0:0:0:
36,192,89629,1,0,0:0:0:0:
256,192,89629,1,0,0:0:0:0:
109,192,89629,1,0,0:0:0:0:
329,192,89910,1,0,0:0:0:0:
182,192,90004,1,0,0:0:0:0:
109,192,90004,1,0,0:0:0:0:
329,192,90191,128,0,90379:0:0:0:0:
36,192,90379,1,0,0:0:0:0:
109,192,90379,1,0,0:0:0:0:
402,192,90566,128,0,90754:0:0:0:0:
109,192,90754,128,0,90941:0:0:0:0:
36,192,90754,1,0,0:0:0:0:
182,192,90754,1,0,0:0:0:0:
256,192,90941,128,0,91129:0:0:0:0:
475,192,91129,128,0,91316:0:0:0:0:
36,192,91129,1,0,0:0:0:0:
182,192,91129,1,0,0:0:0:0:
329,192,91316,128,0,91504:0:0:0:0:
182,192,91504,128,0,91691:0:0:0:0:
36,192,91504,1,0,0:0:0:0:
109,192,91504,1,0,0:0:0:0:
36,192,91691,128,0,91879:0:0:0:0:
402,192,91879,1,0,0:0:0:0:
475,192,91879,1,0,0:0:0:0:
182,192,91972,128,0,92160:0:0:0:0:
329,192,92160,128,0,92441:0:0:0:0:
36,192,92254,1,0,0:0:0:0:
109,192,92254,1,0,0:0:0:0:
475,192,92441,128,0,92629:0:0:0:0:
329,192,92629,1,0,0:0:0:0:
402,192,92629,1,0,0:0:0:0:
182,192,92629,128,0,92910:0:0:0:0:
329,192,92910,128,0,93004:0:0:0:0:
36,192,93004,1,0,0:0:0:0:
109,192,93004,1,0,0:0:0:0:
402,192,93191,128,0,93379:0:0:0:0:
109,192,93379,1,0,0:0:0:0:
36,192,93379,1,0,0:0:0:0:
402,192,93566,128,0,93754:0:0:0:0:
256,192,93754,128,0,93941:0:0:0:0:
36,192,93754,1,0,0:0:0:0:
109,192,93754,1,0,0:0:0:0:
109,192,93941,128,0,94129:0:0:0:0:
256,192,94129,128,0,94316:0:0:0:0:
182,192,94129,1,0,0:0:0:0:
329,192,94129,1,0,0:0:0:0:
402,192,94316,128,0,94504:0:0:0:0:
182,192,94504,128,0,94691:0:0:0:0:
256,192,94504,1,0,0:0:0:0:
329,192,94504,1,0,0:0:0:0:
36,192,94691,128,0,94879:0:0:0:0:
402,192,94879,1,0,0:0:0:0:
475,192,94879,1,0,0:0:0:0:
182,192,94972,128,0,95160:0:0:0:0:
329,192,95160,128,0,95441:0:0:0:0:
36,192,95254,1,0,0:0:0:0:
109,192,95254,1,0,0:0:0:0:
475,192,95441,128,0,95629:0:0:0:0:
36,192,95441,1,0,0:0:0:0:
256,192,95441,1,0,0:0:0:0:
109,192,95535,1,0,0:0:0:0:
329,192,95535,1,0,0:0:0:0:
182,192,95629,1,0,0:0:0:0:
402,192,95629,128,0,95910:0:0:0:0:
36,192,95629,1,0,0:0:0:0:
109,192,95910,128,0,96004:0:0:0:0:
329,192,96004,1,0,0:0:0:0:
402,192,96004,1,0,0:0:0:0:
182,192,96191,128,0,96379:0:0:0:0:
329,192,96379,1,0,0:0:0:0:
402,192,96379,1,0,0:0:0:0:
36,192,96566,128,0,96754:0:0:0:0:
182,192,96754,128,0,96941:0:0:0:0:
329,192,96754,1,0,0:0:0:0:
402,192,96754,1,0,0:0:0:0:
329,192,96941,128,0,97129:0:0:0:0:
475,192,97129,128,0,97316:0:0:0:0:
36,192,97129,1,0,0:0:0:0:
109,192,97129,1,0,0:0:0:0:
256,192,97316,128,0,97504:0:0:0:0:
109,192,97504,128,0,97691:0:0:0:0:
182,192,97504,1,0,0:0:0:0:
329,192,97504,1,0,0:0:0:0:
329,192,97691,128,0,97879:0:0:0:0:
402,192,97879,1,0,0:0:0:0:
475,192,97879,1,0,0:0:0:0:
329,192,97972,128,0,98160:0:0:0:0:
402,192,98160,128,0,98441:0:0:0:0:
109,192,98254,1,0,0:0:0:0:
182,192,98254,1,0,0:0:0:0:
329,192,98441,128,0,98629:0:0:0:0:
36,192,98629,128,0,100129:0:0:0:0:
109,192,98629,1,0,0:0:0:0:
402,192,98629,1,0,0:0:0:0:
475,192,98629,128,0,100129:0:0:0:0:
256,192,98629,1,0,0:0:0:0:
182,192,98754,1,0,0:0:0:0:
329,192,98754,1,0,0:0:0:0:
109,192,98879,1,0,0:0:0:0:
256,192,98879,1,0,0:0:0:0:
182,192,99004,1,0,0:0:0:0:
402,192,99004,1,0,0:0:0:0:
109,192,99129,1,0,0:0:0:0:
329,192,99129,1,0,0:0:0:0:
182,192,99254,1,0,0:0:0:0:
402,192,99254,1,0,0:0:0:0:
256,192,99254,1,0,0:0:0:0:
109,192,99379,1,0,0:0:0:0:
329,192,99379,1,0,0:0:0:0:
182,192,99504,1,0,0:0:0:0:
256,192,99629,1,0,0:0:0:0:
402,192,99629,1,0,0:0:0:0:
109,192,99754,1,0,0:0:0:0:
329,192,99754,1,0,0:0:0:0:
182,192,99879,1,0,0:0:0:0:
402,192,99879,1,0,0:0:0:0:
256,192,100004,1,0,0:0:0:0:
329,192,100004,1,0,0:0:0:0:
256,192,100129,128,0,101629:0:0:0:0:
109,192,100129,1,0,0:0:0:0:
182,192,100129,1,0,0:0:0:0:
329,192,100129,1,0,0:0:0:0:
402,192,100129,1,0,0:0:0:0:
36,192,100254,1,0,0:0:0:0:
109,192,100254,1,0,0:0:0:0:
329,192,100379,1,0,0:0:0:0:
475,192,100379,1,0,0:0:0:0:
182,192,100504,1,0,0:0:0:0:
402,192,100504,1,0,0:0:0:0:
36,192,100629,1,0,0:0:0:0:
109,192,100629,1,0,0:0:0:0:
402,192,100754,1,0,0:0:0:0:
475,192,100754,1,0,0:0:0:0:
329,192,100754,1,0,0:0:0:0:
36,192,100879,1,0,0:0:0:0:
182,192,100879,1,0,0:0:0:0:
109,192,101004,1,0,0:0:0:0:
402,192,101004,1,0,0:0:0:0:
182,192,101129,1,0,0:0:0:0:
329,192,101129,1,0,0:0:0:0:
36,192,101254,1,0,0:0:0:0:
109,192,101254,1,0,0:0:0:0:
182,192,101254,1,0,0:0:0:0:
329,192,101347,1,0,0:0:0:0:
402,192,101347,1,0,0:0:0:0:
475,192,101347,1,0,0:0:0:0:
36,192,101441,1,0,0:0:0:0:
109,192,101441,1,0,0:0:0:0:
182,192,101441,1,0,0:0:0:0:
475,192,101535,1,0,0:0:0:0:
402,192,101535,1,0,0:0:0:0:
329,192,101535,1,0,0:0:0:0:
182,192,101629,1,0,0:0:0:0:
329,192,101629,1,0,0:0:0:0:
36,192,101629,128,0,101910:0:0:0:0:
109,192,101629,128,0,101910:0:0:0:0:
402,192,101629,128,0,101910:0:0:0:0:
475,192,101629,128,0,101910:0:0:0:0:
256,192,101910,1,0,0:0:0:0:
182,192,102004,1,0,0:0:0:0:
109,192,102004,1,0,0:0:0:0:
36,192,102004,1,0,0:0:0:0:
402,192,102004,1,0,0:0:0:0:
329,192,102004,1,0,0:0:0:0:
475,192,102004,1,0,0:0:0:0:
36,192,102191,128,0,102472:0:0:0:0:
182,192,102191,128,0,102379:0:0:0:0:
329,192,102191,128,0,102379:0:0:0:0:
475,192,102191,128,0,102472:0:0:0:0:
329,192,102566,128,0,102660:0:0:0:0:
182,192,102566,128,0,102660:0:0:0:0:
36,192,102566,128,0,102847:0:0:0:0:
475,192,102566,128,0,102847:0:0:0:0:
256,192,102754,128,0,102941:0:0:0:0:
109,192,102754,128,0,103035:0:0:0:0:
402,192,102754,128,0,103035:0:0:0:0:
36,192,102941,128,0,103035:0:0:0:0:
475,192,102941,128,0,103035:0:0:0:0:
36,192,103129,128,0,103410:0:0:0:0:
475,192,103129,128,0,103410:0:0:0:0:
182,192,103129,128,0,103222:0:0:0:0:
329,192,103129,128,0,103222:0:0:0:0:
182,192,103316,128,0,103410:0:0:0:0:
329,192,103316,128,0,103410:0:0:0:0:
182,192,103504,128,0,103785:0:0:0:0:
475,192,103504,128,0,103597:0:0:0:0:
329,192,103504,128,0,103785:0:0:0:0:
36,192,103504,128,0,103597:0:0:0:0:
109,192,103691,128,0,103785:0:0:0:0:
402,192,103691,128,0,103785:0:0:0:0:
182,192,103879,1,0,0:0:0:0:
36,192,103879,1,0,0:0:0:0:
329,192,103879,1,0,0:0:0:0:
475,192,103879,1,0,0:0:0:0:
109,192,103972,128,0,104066:0:0:0:0:
256,192,103972,128,0,104066:0:0:0:0:
402,192,103972,128,0,104066:0:0:0:0:
182,192,104160,128,0,104535:0:0:0:0:
329,192,104160,128,0,104535:0:0:0:0:
36,192,104160,128,0,104347:0:0:0:0:
475,192,104160,128,0,104347:0:0:0:0:
36,192,104441,128,0,104535:0:0:0:0:
475,192,104441,128,0,104535:0:0:0:0:
256,192,104441,128,0,104535:0:0:0:0:
36,192,104629,128,0,105004:0:0:0:0:
182,192,104629,128,0,104816:0:0:0:0:
329,192,104629,128,0,104816:0:0:0:0:
475,192,104629,128,0,105004:0:0:0:0:
182,192,104910,128,0,105004:0:0:0:0:
329,192,104910,128,0,105004:0:0:0:0:
109,192,105004,1,0,0:0:0:0:
256,192,105004,1,0,0:0:0:0:
402,192,105004,1,0,0:0:0:0:
182,192,105191,128,0,105472:0:0:0:0:
329,192,105191,128,0,105379:0:0:0:0:
402,192,105191,128,0,105472:0:0:0:0:
109,192,105191,128,0,105379:0:0:0:0:
109,192,105566,128,0,105847:0:0:0:0:
329,192,105566,128,0,105847:0:0:0:0:
182,192,105566,128,0,105660:0:0:0:0:
402,192,105566,128,0,105660:0:0:0:0:
182,192,105754,128,0,106035:0:0:0:0:
402,192,105754,128,0,106035:0:0:0:0:
109,192,105941,128,0,106035:0:0:0:0:
329,192,105941,128,0,106035:0:0:0:0:
109,192,106129,128,0,106410:0:0:0:0:
329,192,106129,128,0,106410:0:0:0:0:
182,192,106129,128,0,106222:0:0:0:0:
402,192,106129,128,0,106222:0:0:0:0:
182,192,106316,128,0,106410:0:0:0:0:
402,192,106316,128,0,106410:0:0:0:0:
402,192,106504,128,0,106785:0:0:0:0:
329,192,106504,128,0,106597:0:0:0:0:
182,192,106504,128,0,106785:0:0:0:0:
109,192,106504,128,0,106597:0:0:0:0:
329,192,106691,128,0,106785:0:0:0:0:
109,192,106691,128,0,106785:0:0:0:0:
329,192,106879,1,0,0:0:0:0:
36,192,106879,1,0,0:0:0:0:
182,192,106879,1,0,0:0:0:0:
475,192,106879,1,0,0:0:0:0:
109,192,106972,128,0,107066:0:0:0:0:
256,192,106972,128,0,107066:0:0:0:0:
402,192,106972,128,0,107066:0:0:0:0:
36,192,107160,128,0,107535:0:0:0:0:
475,192,107160,128,0,107535:0:0:0:0:
109,192,107254,1,0,0:0:0:0:
182,192,107254,1,0,0:0:0:0:
329,192,107347,1,0,0:0:0:0:
402,192,107347,1,0,0:0:0:0:
256,192,107441,128,0,107535:0:0:0:0:
109,192,107441,1,0,0:0:0:0:
182,192,107441,1,0,0:0:0:0:
329,192,107535,1,0,0:0:0:0:
402,192,107535,1,0,0:0:0:0:
36,192,107629,1,0,0:0:0:0:
182,192,107629,1,0,0:0:0:0:
329,192,107629,1,0,0:0:0:0:
475,192,107629,1,0,0:0:0:0:
256,192,107629,128,0,108754:0:0:0:0:
109,192,107629,128,0,108754:0:0:0:0:
402,192,107629,128,0,108754:0:0:0:0:
36,192,108004,1,0,0:0:0:0:
182,192,108004,1,0,0:0:0:0:
329,192,108004,1,0,0:0:0:0:
475,192,108004,1,0,0:0:0:0:
36,192,108379,1,0,0:0:0:0:
182,192,108379,1,0,0:0:0:0:
329,192,108379,1,0,0:0:0:0:
475,192,108379,1,0,0:0:0:0:
36,192,108754,1,0,0:0:0:0:
182,192,108754,1,0,0:0:0:0:
329,192,108754,1,0,0:0:0:0:
475,192,108754,1,0,0:0:0:0:
256,192,109129,128,0,110254:0:0:0:0:
36,192,109129,128,0,110254:0:0:0:0:
475,192,109129,128,0,110254:0:0:0:0:
109,192,109129,1,0,0:0:0:0:
402,192,109129,1,0,0:0:0:0:
182,192,109129,1,0,0:0:0:0:
329,192,109129,1,0,0:0:0:0:
109,192,109504,1,0,0:0:0:0:
182,192,109504,1,0,0:0:0:0:
329,192,109504,1,0,0:0:0:0:
402,192,109504,1,0,0:0:0:0:
109,192,109879,1,0,0:0:0:0:
182,192,109879,1,0,0:0:0:0:
329,192,109879,1,0,0:0:0:0:
402,192,109879,1,0,0:0:0:0:
109,192,110254,1,0,0:0:0:0:
182,192,110254,1,0,0:0:0:0:
329,192,110254,1,0,0:0:0:0:
402,192,110254,1,0,0:0:0:0:
256,192,110441,128,0,110629:0:0:0:0:
109,192,110441,128,0,110629:0:0:0:0:
402,192,110441,128,0,110629:0:0:0:0:
109,192,110816,1,0,0:0:0:0:
329,192,110816,1,0,0:0:0:0:
182,192,110910,1,0,0:0:0:0:
402,192,110910,1,0,0:0:0:0:
36,192,111004,1,0,0:0:0:0:
475,192,111004,1,0,0:0:0:0:
256,192,111004,128,0,111191:0:0:0:0:
109,192,111191,1,0,0:0:0:0:
402,192,111191,1,0,0:0:0:0:
182,192,111285,1,0,0:0:0:0:
329,192,111285,1,0,0:0:0:0:
36,192,111379,1,0,0:0:0:0:
475,192,111379,1,0,0:0:0:0:
256,192,111379,128,0,111566:0:0:0:0:
402,192,111566,1,0,0:0:0:0:
182,192,111660,1,0,0:0:0:0:
36,192,111754,1,0,0:0:0:0:
329,192,111754,1,0,0:0:0:0:
475,192,111754,128,0,111941:0:0:0:0:
109,192,111941,1,0,0:0:0:0:
182,192,111941,1,0,0:0:0:0:
329,192,112035,1,0,0:0:0:0:
402,192,112035,1,0,0:0:0:0:
109,192,112129,1,0,0:0:0:0:
475,192,112129,1,0,0:0:0:0:
36,192,112129,128,0,112316:0:0:0:0:
402,192,112316,1,0,0:0:0:0:
182,192,112316,1,0,0:0:0:0:
109,192,112410,1,0,0:0:0:0:
329,192,112410,1,0,0:0:0:0:
36,192,112504,1,0,0:0:0:0:
475,192,112504,1,0,0:0:0:0:
256,192,112504,128,0,112691:0:0:0:0:
109,192,112691,1,0,0:0:0:0:
402,192,112691,1,0,0:0:0:0:
182,192,112785,1,0,0:0:0:0:
329,192,112785,1,0,0:0:0:0:
36,192,112879,1,0,0:0:0:0:
475,192,112879,1,0,0:0:0:0:
256,192,112879,128,0,113066:0:0:0:0:
109,192,113066,1,0,0:0:0:0:
329,192,113066,1,0,0:0:0:0:
182,192,113160,1,0,0:0:0:0:
402,192,113160,1,0,0:0:0:0:
475,192,113254,1,0,0:0:0:0:
36,192,113254,1,0,0:0:0:0:
256,192,113254,128,0,113441:0:0:0:0:
329,192,113441,1,0,0:0:0:0:
182,192,113535,1,0,0:0:0:0:
36,192,113629,1,0,0:0:0:0:
109,192,113629,1,0,0:0:0:0:
329,192,113629,128,0,115066:0:0:0:0:
402,192,113629,128,0,115097:0:0:0:0:
475,192,113629,128,0,115129:0:0:0:0:
36,192,115066,1,0,0:0:0:0:
109,192,115097,1,0,0:0:0:0:
182,192,115129,1,0,0:0:0:0:
36,192,115504,128,0,115785:0:0:0:0:
109,192,115504,128,0,115785:0:0:0:0:
182,192,115504,128,0,115785:0:0:0:0:
329,192,115504,128,0,115785:0:0:0:0:
475,192,115504,128,0,115785:0:0:0:0:
36,192,115879,128,0,116160:0:0:0:0:
182,192,115879,128,0,116160:0:0:0:0:
329,192,115879,128,0,116160:0:0:0:0:
402,192,115879,128,0,116160:0:0:0:0:
475,192,115879,128,0,116160:0:0:0:0:
36,192,116254,128,0,116535:0:0:0:0:
109,192,116254,128,0,116535:0:0:0:0:
182,192,116254,128,0,116535:0:0:0:0:
329,192,116254,128,0,116535:0:0:0:0:
402,192,116254,128,0,116535:0:0:0:0:
475,192,116254,128,0,116535:0:0:0:0:
109,192,116629,1,0,0:0:0:0:
182,192,116629,1,0,0:0:0:0:
329,192,116629,1,0,0:0:0:0:
402,192,116629,1,0,0:0:0:0:
256,192,116722,1,0,0:0:0:0:
475,192,116722,1,0,0:0:0:0:
36,192,116816,1,0,0:0:0:0:
109,192,116816,1,0,0:0:0:0:
329,192,116816,1,0,0:0:0:0:
402,192,116910,1,0,0:0:0:0:
182,192,116910,1,0,0:0:0:0:
256,192,117004,1,0,0:0:0:0:
475,192,117004,1,0,0:0:0:0:
182,192,117097,1,0,0:0:0:0:
402,192,117097,1,0,0:0:0:0:
36,192,117191,1,0,0:0:0:0:
329,192,117191,1,0,0:0:0:0:
475,192,117191,1,0,0:0:0:0:
109,192,117285,1,0,0:0:0:0:
256,192,117285,1,0,0:0:0:0:
182,192,117379,1,0,0:0:0:0:
402,192,117379,1,0,0:0:0:0:
36,192,117472,1,0,0:0:0:0:
329,192,117472,1,0,0:0:0:0:
109,192,117566,1,0,0:0:0:0:
256,192,117566,1,0,0:0:0:0:
475,192,117566,1,0,0:0:0:0:
402,192,117660,1,0,0:0:0:0:
329,192,117660,1,0,0:0:0:0:
109,192,117754,1,0,0:0:0:0:
256,192,117754,1,0,0:0:0:0:
36,192,117847,1,0,0:0:0:0:
182,192,117847,1,0,0:0:0:0:
109,192,117941,1,0,0:0:0:0:
475,192,117941,1,0,0:0:0:0:
329,192,117941,1,0,0:0:0:0:
182,192,118035,1,0,0:0:0:0:
402,192,118035,1,0,0:0:0:0:
329,192,118129,1,0,0:0:0:0:
36,192,118129,1,0,0:0:0:0:
475,192,118129,1,0,0:0:0:0:
109,192,118222,1,0,0:0:0:0:
256,192,118222,1,0,0:0:0:0:
182,192,118316,1,0,0:0:0:0:
475,192,118316,1,0,0:0:0:0:
36,192,118316,1,0,0:0:0:0:
256,192,118410,1,0,0:0:0:0:
402,192,118410,1,0,0:0:0:0:
182,192,118504,1,0,0:0:0:0:
329,192,118504,1,0,0:0:0:0:
36,192,118597,1,0,0:0:0:0:
402,192,118597,1,0,0:0:0:0:
109,192,118691,1,0,0:0:0:0:
329,192,118691,1,0,0:0:0:0:
475,192,118691,1,0,0:0:0:0:
182,192,118785,1,0,0:0:0:0:
402,192,118785,1,0,0:0:0:0:
36,192,118879,1,0,0:0:0:0:
256,192,118879,1,0,0:0:0:0:
329,192,118972,1,0,0:0:0:0:
109,192,118972,1,0,0:0:0:0:
182,192,119066,1,0,0:0:0:0:
402,192,119066,1,0,0:0:0:0:
475,192,119066,1,0,0:0:0:0:
36,192,119160,1,0,0:0:0:0:
329,192,119160,1,0,0:0:0:0:
109,192,119254,1,0,0:0:0:0:
402,192,119254,1,0,0:0:0:0:
182,192,119347,1,0,0:0:0:0:
475,192,119347,1,0,0:0:0:0:
256,192,119441,1,0,0:0:0:0:
36,192,119441,1,0,0:0:0:0:
402,192,119441,1,0,0:0:0:0:
109,192,119535,1,0,0:0:0:0:
329,192,119535,1,0,0:0:0:0:
182,192,119629,1,0,0:0:0:0:
402,192,119629,1,0,0:0:0:0:
475,192,119629,1,0,0:0:0:0:
36,192,119629,1,0,0:0:0:0:
256,192,119722,1,0,0:0:0:0:
109,192,119722,1,0,0:0:0:0:
182,192,119816,1,0,0:0:0:0:
329,192,119816,1,0,0:0:0:0:
475,192,119816,1,0,0:0:0:0:
36,192,119910,1,0,0:0:0:0:
402,192,119910,1,0,0:0:0:0:
109,192,120004,1,0,0:0:0:0:
329,192,120004,1,0,0:0:0:0:
182,192,120097,1,0,0:0:0:0:
402,192,120097,1,0,0:0:0:0:
256,192,120191,1,0,0:0:0:0:
475,192,120191,1,0,0:0:0:0:
36,192,120191,1,0,0:0:0:0:
109,192,120285,1,0,0:0:0:0:
329,192,120285,1,0,0:0:0:0:
182,192,120379,1,0,0:0:0:0:
402,192,120379,1,0,0:0:0:0:
36,192,120379,1,0,0:0:0:0:
109,192,120472,1,0,0:0:0:0:
256,192,120472,1,0,0:0:0:0:
182,192,120566,1,0,0:0:0:0:
329,192,120566,1,0,0:0:0:0:
475,192,120566,1,0,0:0:0:0:
109,192,120660,1,0,0:0:0:0:
402,192,120660,1,0,0:0:0:0:
36,192,120754,1,0,0:0:0:0:
329,192,120754,1,0,0:0:0:0:
256,192,120816,1,0,0:0:0:0:
109,192,120847,1,0,0:0:0:0:
329,192,120879,1,0,0:0:0:0:
402,192,120941,1,0,0:0:0:0:
475,192,120941,1,0,0:0:0:0:
36,192,120941,1,0,0:0:0:0:
256,192,121004,1,0,0:0:0:0:
182,192,121035,1,0,0:0:0:0:
329,192,121066,1,0,0:0:0:0:
36,192,121129,1,0,0:0:0:0:
402,192,121129,1,0,0:0:0:0:
109,192,121222,1,0,0:0:0:0:
329,192,121222,1,0,0:0:0:0:
182,192,121316,1,0,0:0:0:0:
402,192,121316,1,0,0:0:0:0:
36,192,121316,1,0,0:0:0:0:
256,192,121410,1,0,0:0:0:0:
475,192,121410,1,0,0:0:0:0:
182,192,121504,1,0,0:0:0:0:
402,192,121504,1,0,0:0:0:0:
109,192,121597,1,0,0:0:0:0:
329,192,121597,1,0,0:0:0:0:
36,192,121691,1,0,0:0:0:0:
256,192,121691,1,0,0:0:0:0:
475,192,121691,1,0,0:0:0:0:
109,192,121785,1,0,0:0:0:0:
182,192,121785,1,0,0:0:0:0:
256,192,121879,1,0,0:0:0:0:
402,192,121879,1,0,0:0:0:0:
182,192,121972,1,0,0:0:0:0:
329,192,121972,1,0,0:0:0:0:
109,192,122066,1,0,0:0:0:0:
36,192,122066,1,0,0:0:0:0:
475,192,122066,1,0,0:0:0:0:
182,192,122160,1,0,0:0:0:0:
402,192,122160,1,0,0:0:0:0:
256,192,122254,1,0,0:0:0:0:
475,192,122254,1,0,0:0:0:0:
36,192,122347,1,0,0:0:0:0:
402,192,122347,1,0,0:0:0:0:
109,192,122441,1,0,0:0:0:0:
329,192,122441,1,0,0:0:0:0:
182,192,122441,1,0,0:0:0:0:
256,192,122535,1,0,0:0:0:0:
402,192,122535,1,0,0:0:0:0:
109,192,122629,1,0,0:0:0:0:
329,192,122629,1,0,0:0:0:0:
182,192,122722,1,0,0:0:0:0:
475,192,122722,1,0,0:0:0:0:
36,192,122816,1,0,0:0:0:0:
256,192,122816,1,0,0:0:0:0:
402,192,122816,1,0,0:0:0:0:
109,192,122910,1,0,0:0:0:0:
329,192,122910,1,0,0:0:0:0:
182,192,123004,1,0,0:0:0:0:
402,192,123004,1,0,0:0:0:0:
256,192,123097,1,0,0:0:0:0:
475,192,123097,1,0,0:0:0:0:
36,192,123191,1,0,0:0:0:0:
182,192,123191,1,0,0:0:0:0:
329,192,123191,1,0,0:0:0:0:
109,192,123285,1,0,0:0:0:0:
402,192,123285,1,0,0:0:0:0:
182,192,123379,1,0,0:0:0:0:
475,192,123379,1,0,0:0:0:0:
256,192,123472,1,0,0:0:0:0:
36,192,123472,1,0,0:0:0:0:
329,192,123566,1,0,0:0:0:0:
109,192,123566,1,0,0:0:0:0:
475,192,123566,1,0,0:0:0:0:
182,192,123660,1,0,0:0:0:0:
402,192,123660,1,0,0:0:0:0:
256,192,123754,1,0,0:0:0:0:
475,192,123754,1,0,0:0:0:0:
36,192,123847,1,0,0:0:0:0:
402,192,123847,1,0,0:0:0:0:
109,192,123941,1,0,0:0:0:0:
329,192,123941,1,0,0:0:0:0:
475,192,123941,1,0,0:0:0:0:
182,192,124035,1,0,0:0:0:0:
402,192,124035,1,0,0:0:0:0:
256,192,124129,1,0,0:0:0:0:
475,192,124129,1,0,0:0:0:0:
36,192,124222,1,0,0:0:0:0:
329,192,124222,1,0,0:0:0:0:
109,192,124316,1,0,0:0:0:0:
402,192,124316,1,0,0:0:0:0:
475,192,124316,1,0,0:0:0:0:
182,192,124410,1,0,0:0:0:0:
329,192,124410,1,0,0:0:0:0:
36,192,124504,1,0,0:0:0:0:
256,192,124504,1,0,0:0:0:0:
109,192,124597,1,0,0:0:0:0:
329,192,124597,1,0,0:0:0:0:
182,192,124691,1,0,0:0:0:0:
402,192,124691,1,0,0:0:0:0:
475,192,124691,1,0,0:0:0:0:
36,192,124785,1,0,0:0:0:0:
329,192,124785,1,0,0:0:0:0:
109,192,124879,1,0,0:0:0:0:
402,192,124879,1,0,0:0:0:0:
182,192,124972,1,0,0:0:0:0:
475,192,124972,1,0,0:0:0:0:
36,192,125066,1,0,0:0:0:0:
256,192,125066,1,0,0:0:0:0:
402,192,125066,1,0,0:0:0:0:
109,192,125160,1,0,0:0:0:0:
329,192,125160,1,0,0:0:0:0:
182,192,125254,1,0,0:0:0:0:
402,192,125254,1,0,0:0:0:0:
36,192,125347,1,0,0:0:0:0:
256,192,125347,1,0,0:0:0:0:
109,192,125441,1,0,0:0:0:0:
329,192,125441,1,0,0:0:0:0:
475,192,125441,1,0,0:0:0:0:
182,192,125535,1,0,0:0:0:0:
402,192,125535,1,0,0:0:0:0:
36,192,125629,1,0,0:0:0:0:
256,192,125629,1,0,0:0:0:0:
475,192,125629,1,0,0:0:0:0:
36,192,125816,1,0,0:0:0:0:
329,192,125816,1,0,0:0:0:0:
402,192,125816,1,0,0:0:0:0:
109,192,125863,1,0,0:0:0:0:
182,192,125910,1,0,0:0:0:0:
329,192,125910,1,0,0:0:0:0:
402,192,125910,1,0,0:0:0:0:
36,192,125957,1,0,0:0:0:0:
109,192,126004,1,0,0:0:0:0:
475,192,126004,1,0,0:0:0:0:
182,192,126050,1,0,0:0:0:0:
256,192,126097,1,0,0:0:0:0:
402,192,126097,1,0,0:0:0:0:
329,192,126144,1,0,0:0:0:0:
182,192,126191,1,0,0:0:0:0:
402,192,126191,1,0,0:0:0:0:
36,192,126238,1,0,0:0:0:0:
256,192,126285,1,0,0:0:0:0:
109,192,126379,1,0,0:0:0:0:
182,192,126379,1,0,0:0:0:0:
402,192,126379,1,0,0:0:0:0:
475,192,126379,1,0,0:0:0:0:
36,192,126566,1,0,0:0:0:0:
182,192,126566,1,0,0:0:0:0:
329,192,126566,1,0,0:0:0:0:
402,192,126613,1,0,0:0:0:0:
475,192,126660,1,0,0:0:0:0:
36,192,126660,1,0,0:0:0:0:
182,192,126660,1,0,0:0:0:0:
256,192,126707,1,0,0:0:0:0:
329,192,126754,1,0,0:0:0:0:
109,192,126754,1,0,0:0:0:0:
402,192,126800,1,0,0:0:0:0:
475,192,126847,1,0,0:0:0:0:
36,192,126879,1,0,0:0:0:0:
182,192,126894,1,0,0:0:0:0:
256,192,126941,1,0,0:0:0:0:
329,192,126988,1,0,0:0:0:0:
402,192,127011,1,0,0:0:0:0:
36,192,127129,1,0,0:0:0:0:
109,192,127129,1,0,0:0:0:0:
475,192,127129,1,0,0:0:0:0:
402,192,127129,1,0,0:0:0:0:
36,192,127316,1,0,0:0:0:0:
256,192,127316,1,0,0:0:0:0:
329,192,127316,1,0,0:0:0:0:
109,192,127363,1,0,0:0:0:0:
402,192,127379,1,0,0:0:0:0:
475,192,127379,1,0,0:0:0:0:
182,192,127410,1,0,0:0:0:0:
329,192,127441,1,0,0:0:0:0:
256,192,127457,1,0,0:0:0:0:
36,192,127504,1,0,0:0:0:0:
402,192,127504,1,0,0:0:0:0:
109,192,127550,1,0,0:0:0:0:
182,192,127597,1,0,0:0:0:0:
475,192,127597,1,0,0:0:0:0:
256,192,127644,1,0,0:0:0:0:
36,192,127691,1,0,0:0:0:0:
402,192,127691,1,0,0:0:0:0:
109,192,127738,1,0,0:0:0:0:
182,192,127785,1,0,0:0:0:0:
329,192,127785,1,0,0:0:0:0:
36,192,127879,1,0,0:0:0:0:
256,192,127879,1,0,0:0:0:0:
475,192,127879,1,0,0:0:0:0:
36,192,127972,1,0,0:0:0:0:
256,192,127972,1,0,0:0:0:0:
475,192,127972,1,0,0:0:0:0:
109,192,128066,1,0,0:0:0:0:
402,192,128066,1,0,0:0:0:0:
36,192,128160,1,0,0:0:0:0:
256,192,128160,1,0,0:0:0:0:
475,192,128160,1,0,0:0:0:0:
182,192,128254,1,0,0:0:0:0:
329,192,128254,1,0,0:0:0:0:
109,192,128347,1,0,0:0:0:0:
402,192,128347,1,0,0:0:0:0:
182,192,128441,1,0,0:0:0:0:
475,192,128441,1,0,0:0:0:0:
256,192,128535,1,0,0:0:0:0:
402,192,128535,1,0,0:0:0:0:
36,192,128629,1,0,0:0:0:0:
109,192,128629,1,0,0:0:0:0:
329,192,128629,1,0,0:0:0:0:
182,192,128722,1,0,0:0:0:0:
402,192,128722,1,0,0:0:0:0:
36,192,128816,1,0,0:0:0:0:
256,192,128816,1,0,0:0:0:0:
475,192,128816,1,0,0:0:0:0:
109,192,128910,1,0,0:0:0:0:
402,192,128910,1,0,0:0:0:0:
182,192,129004,1,0,0:0:0:0:
329,192,129004,1,0,0:0:0:0:
36,192,129097,1,0,0:0:0:0:
256,192,129097,1,0,0:0:0:0:
109,192,129191,1,0,0:0:0:0:
329,192,129191,1,0,0:0:0:0:
475,192,129191,1,0,0:0:0:0:
182,192,129285,1,0,0:0:0:0:
402,192,129285,1,0,0:0:0:0:
36,192,129379,1,0,0:0:0:0:
329,192,129379,1,0,0:0:0:0:
109,192,129472,1,0,0:0:0:0:
256,192,129472,1,0,0:0:0:0:
182,192,129566,1,0,0:0:0:0:
329,192,129566,1,0,0:0:0:0:
36,192,129566,1,0,0:0:0:0:
256,192,129660,1,0,0:0:0:0:
402,192,129660,1,0,0:0:0:0:
182,192,129754,1,0,0:0:0:0:
475,192,129754,1,0,0:0:0:0:
256,192,129847,1,0,0:0:0:0:
402,192,129847,1,0,0:0:0:0:
329,192,129941,1,0,0:0:0:0:
182,192,129941,1,0,0:0:0:0:
36,192,129941,1,0,0:0:0:0:
109,192,130035,1,0,0:0:0:0:
256,192,130035,1,0,0:0:0:0:
182,192,130129,1,0,0:0:0:0:
329,192,130129,1,0,0:0:0:0:
36,192,130222,1,0,0:0:0:0:
402,192,130222,1,0,0:0:0:0:
109,192,130316,1,0,0:0:0:0:
256,192,130316,1,0,0:0:0:0:
475,192,130316,1,0,0:0:0:0:
329,192,130379,1,0,0:0:0:0:
402,192,130441,1,0,0:0:0:0:
36,192,130504,1,0,0:0:0:0:
475,192,130504,1,0,0:0:0:0:
256,192,130597,1,0,0:0:0:0:
109,192,130597,1,0,0:0:0:0:
36,192,130691,1,0,0:0:0:0:
402,192,130691,1,0,0:0:0:0:
475,192,130691,1,0,0:0:0:0:
329,192,130754,1,0,0:0:0:0:
256,192,130785,1,0,0:0:0:0:
182,192,130816,1,0,0:0:0:0:
36,192,130879,1,0,0:0:0:0:
109,192,130879,1,0,0:0:0:0:
402,192,130972,1,0,0:0:0:0:
182,192,130972,1,0,0:0:0:0:
256,192,131066,1,0,0:0:0:0:
475,192,131066,1,0,0:0:0:0:
36,192,131066,1,0,0:0:0:0:
329,192,131129,1,0,0:0:0:0:
402,192,131160,1,0,0:0:0:0:
475,192,131191,1,0,0:0:0:0:
36,192,131254,1,0,0:0:0:0:
182,192,131254,1,0,0:0:0:0:
256,192,131347,1,0,0:0:0:0:
402,192,131347,1,0,0:0:0:0:
36,192,131441,1,0,0:0:0:0:
182,192,131441,1,0,0:0:0:0:
329,192,131441,1,0,0:0:0:0:
402,192,131504,1,0,0:0:0:0:
475,192,131566,1,0,0:0:0:0:
36,192,131629,1,0,0:0:0:0:
182,192,131629,1,0,0:0:0:0:
329,192,131629,1,0,0:0:0:0:
109,192,131722,1,0,0:0:0:0:
402,192,131722,1,0,0:0:0:0:
182,192,131816,1,0,0:0:0:0:
475,192,131816,1,0,0:0:0:0:
256,192,131816,1,0,0:0:0:0:
109,192,131910,1,0,0:0:0:0:
329,192,131910,1,0,0:0:0:0:
182,192,132004,1,0,0:0:0:0:
402,192,132004,1,0,0:0:0:0:
36,192,132097,1,0,0:0:0:0:
256,192,132097,1,0,0:0:0:0:
109,192,132191,1,0,0:0:0:0:
329,192,132191,1,0,0:0:0:0:
475,192,132191,1,0,0:0:0:0:
182,192,132285,1,0,0:0:0:0:
402,192,132285,1,0,0:0:0:0:
329,192,132379,1,0,0:0:0:0:
36,192,132379,1,0,0:0:0:0:
109,192,132379,1,0,0:0:0:0:
256,192,132472,1,0,0:0:0:0:
475,192,132472,1,0,0:0:0:0:
182,192,132566,1,0,0:0:0:0:
402,192,132566,1,0,0:0:0:0:
36,192,132566,1,0,0:0:0:0:
109,192,132660,1,0,0:0:0:0:
329,192,132660,1,0,0:0:0:0:
182,192,132754,1,0,0:0:0:0:
475,192,132754,1,0,0:0:0:0:
36,192,132847,1,0,0:0:0:0:
402,192,132847,1,0,0:0:0:0:
109,192,132941,1,0,0:0:0:0:
329,192,132941,1,0,0:0:0:0:
475,192,132941,1,0,0:0:0:0:
182,192,133035,1,0,0:0:0:0:
256,192,133035,1,0,0:0:0:0:
36,192,133129,1,0,0:0:0:0:
329,192,133129,1,0,0:0:0:0:
475,192,133129,1,0,0:0:0:0:
109,192,133222,1,0,0:0:0:0:
402,192,133222,1,0,0:0:0:0:
182,192,133316,1,0,0:0:0:0:
329,192,133316,1,0,0:0:0:0:
36,192,133316,1,0,0:0:0:0:
109,192,133410,1,0,0:0:0:0:
256,192,133410,1,0,0:0:0:0:
402,192,133441,1,0,0:0:0:0:
36,192,133504,1,0,0:0:0:0:
329,192,133504,1,0,0:0:0:0:
256,192,133566,1,0,0:0:0:0:
475,192,133629,1,0,0:0:0:0:
36,192,133691,1,0,0:0:0:0:
182,192,133691,1,0,0:0:0:0:
402,192,133691,1,0,0:0:0:0:
329,192,133754,1,0,0:0:0:0:
256,192,133816,1,0,0:0:0:0:
109,192,133879,1,0,0:0:0:0:
402,192,133879,1,0,0:0:0:0:
475,192,133879,1,0,0:0:0:0:
182,192,133972,1,0,0:0:0:0:
36,192,134066,1,0,0:0:0:0:
109,192,134066,1,0,0:0:0:0:
329,192,134066,1,0,0:0:0:0:
402,192,134129,1,0,0:0:0:0:
182,192,134160,1,0,0:0:0:0:
475,192,134191,1,0,0:0:0:0:
36,192,134254,1,0,0:0:0:0:
256,192,134254,1,0,0:0:0:0:
109,192,134316,1,0,0:0:0:0:
329,192,134347,1,0,0:0:0:0:
182,192,134379,1,0,0:0:0:0:
402,192,134441,1,0,0:0:0:0:
36,192,134441,1,0,0:0:0:0:
256,192,134441,1,0,0:0:0:0:
109,192,134504,1,0,0:0:0:0:
329,192,134535,1,0,0:0:0:0:
182,192,134566,1,0,0:0:0:0:
36,192,134629,1,0,0:0:0:0:
256,192,134629,1,0,0:0:0:0:
475,192,134629,1,0,0:0:0:0:
402,192,134691,1,0,0:0:0:0:
109,192,134722,1,0,0:0:0:0:
329,192,134754,1,0,0:0:0:0:
256,192,134816,1,0,0:0:0:0:
475,192,134816,1,0,0:0:0:0:
36,192,134816,1,0,0:0:0:0:
402,192,134879,1,0,0:0:0:0:
109,192,134910,1,0,0:0:0:0:
329,192,134941,1,0,0:0:0:0:
256,192,135004,1,0,0:0:0:0:
36,192,135004,1,0,0:0:0:0:
109,192,135074,1,0,0:0:0:0:
182,192,135097,1,0,0:0:0:0:
256,192,135144,1,0,0:0:0:0:
329,192,135191,1,0,0:0:0:0:
402,192,135191,1,0,0:0:0:0:
475,192,135191,1,0,0:0:0:0:
109,192,135254,1,0,0:0:0:0:
36,192,135285,1,0,0:0:0:0:
256,192,135285,1,0,0:0:0:0:
182,192,135316,1,0,0:0:0:0:
329,192,135379,1,0,0:0:0:0:
402,192,135379,1,0,0:0:0:0:
475,192,135379,1,0,0:0:0:0:
109,192,135472,1,0,0:0:0:0:
182,192,135472,1,0,0:0:0:0:
36,192,135566,1,0,0:0:0:0:
256,192,135566,1,0,0:0:0:0:
475,192,135566,1,0,0:0:0:0:
109,192,135660,1,0,0:0:0:0:
402,192,135660,1,0,0:0:0:0:
256,192,135754,1,0,0:0:0:0:
329,192,135754,1,0,0:0:0:0:
182,192,135847,1,0,0:0:0:0:
402,192,135847,1,0,0:0:0:0:
36,192,135941,1,0,0:0:0:0:
109,192,135941,1,0,0:0:0:0:
475,192,135941,1,0,0:0:0:0:
329,192,136035,1,0,0:0:0:0:
402,192,136035,1,0,0:0:0:0:
256,192,136129,1,0,0:0:0:0:
182,192,136129,1,0,0:0:0:0:
36,192,136129,1,0,0:0:0:0:
475,192,136222,1,0,0:0:0:0:
36,192,136316,1,0,0:0:0:0:
182,192,136316,1,0,0:0:0:0:
256,192,136316,1,0,0:0:0:0:
36,192,136410,1,0,0:0:0:0:
182,192,136410,1,0,0:0:0:0:
109,192,136504,1,0,0:0:0:0:
475,192,136504,1,0,0:0:0:0:
329,192,136597,1,0,0:0:0:0:
402,192,136597,1,0,0:0:0:0:
329,192,136691,1,0,0:0:0:0:
402,192,136691,1,0,0:0:0:0:
256,192,136691,1,0,0:0:0:0:
36,192,136785,1,0,0:0:0:0:
109,192,136879,1,0,0:0:0:0:
182,192,136879,1,0,0:0:0:0:
329,192,136879,1,0,0:0:0:0:
182,192,136972,1,0,0:0:0:0:
329,192,136972,1,0,0:0:0:0:
109,192,137066,1,0,0:0:0:0:
402,192,137066,1,0,0:0:0:0:
36,192,137160,1,0,0:0:0:0:
475,192,137160,1,0,0:0:0:0:
475,192,137254,1,0,0:0:0:0:
36,192,137254,1,0,0:0:0:0:
256,192,137254,1,0,0:0:0:0:
109,192,137347,1,0,0:0:0:0:
329,192,137347,1,0,0:0:0:0:
182,192,137441,1,0,0:0:0:0:
402,192,137441,1,0,0:0:0:0:
256,192,137535,1,0,0:0:0:0:
475,192,137535,1,0,0:0:0:0:
329,192,137629,1,0,0:0:0:0:
109,192,137629,1,0,0:0:0:0:
36,192,137629,1,0,0:0:0:0:
402,192,137629,128,0,138285:0:0:0:0:
256,192,137722,1,0,0:0:0:0:
36,192,137816,1,0,0:0:0:0:
182,192,137816,1,0,0:0:0:0:
475,192,137816,1,0,0:0:0:0:
256,192,137910,1,0,0:0:0:0:
109,192,137910,1,0,0:0:0:0:
329,192,138004,1,0,0:0:0:0:
36,192,138004,1,0,0:0:0:0:
109,192,138097,1,0,0:0:0:0:
256,192,138097,1,0,0:0:0:0:
36,192,138191,1,0,0:0:0:0:
475,192,138191,1,0,0:0:0:0:
182,192,138191,1,0,0:0:0:0:
109,192,138285,1,0,0:0:0:0:
329,192,138285,1,0,0:0:0:0:
402,192,138379,128,0,138941:0:0:0:0:
36,192,138379,1,0,0:0:0:0:
256,192,138379,1,0,0:0:0:0:
109,192,138472,1,0,0:0:0:0:
329,192,138472,1,0,0:0:0:0:
182,192,138566,1,0,0:0:0:0:
475,192,138566,1,0,0:0:0:0:
36,192,138566,1,0,0:0:0:0:
256,192,138660,1,0,0:0:0:0:
329,192,138660,1,0,0:0:0:0:
36,192,138754,1,0,0:0:0:0:
182,192,138754,1,0,0:0:0:0:
109,192,138847,1,0,0:0:0:0:
329,192,138847,1,0,0:0:0:0:
36,192,138941,1,0,0:0:0:0:
182,192,138941,1,0,0:0:0:0:
475,192,138941,1,0,0:0:0:0:
256,192,138941,1,0,0:0:0:0:
402,192,139035,1,0,0:0:0:0:
329,192,139035,1,0,0:0:0:0:
109,192,139129,128,0,139879:0:0:0:0:
256,192,139129,1,0,0:0:0:0:
475,192,139129,1,0,0:0:0:0:
36,192,139129,1,0,0:0:0:0:
329,192,139222,1,0,0:0:0:0:
182,192,139316,1,0,0:0:0:0:
402,192,139316,1,0,0:0:0:0:
36,192,139316,1,0,0:0:0:0:
256,192,139410,1,0,0:0:0:0:
475,192,139410,1,0,0:0:0:0:
329,192,139504,1,0,0:0:0:0:
36,192,139504,1,0,0:0:0:0:
475,192,139597,1,0,0:0:0:0:
182,192,139597,1,0,0:0:0:0:
402,192,139691,1,0,0:0:0:0:
256,192,139691,1,0,0:0:0:0:
36,192,139691,1,0,0:0:0:0:
182,192,139785,1,0,0:0:0:0:
329,192,139785,1,0,0:0:0:0:
36,192,139879,1,0,0:0:0:0:
256,192,139879,1,0,0:0:0:0:
109,192,139972,1,0,0:0:0:0:
329,192,139972,1,0,0:0:0:0:
182,192,140066,1,0,0:0:0:0:
402,192,140066,1,0,0:0:0:0:
36,192,140066,1,0,0:0:0:0:
256,192,140160,1,0,0:0:0:0:
475,192,140160,1,0,0:0:0:0:
36,192,140254,1,0,0:0:0:0:
402,192,140254,1,0,0:0:0:0:
109,192,140347,1,0,0:0:0:0:
329,192,140347,1,0,0:0:0:0:
182,192,140441,1,0,0:0:0:0:
475,192,140441,1,0,0:0:0:0:
256,192,140441,1,0,0:0:0:0:
109,192,140535,1,0,0:0:0:0:
402,192,140535,1,0,0:0:0:0:
36,192,140629,128,0,141004:0:0:0:0:
329,192,140629,1,0,0:0:0:0:
475,192,140629,1,0,0:0:0:0:
256,192,140722,1,0,0:0:0:0:
402,192,140722,1,0,0:0:0:0:
182,192,140816,1,0,0:0:0:0:
329,192,140816,1,0,0:0:0:0:
475,192,140816,1,0,0:0:0:0:
256,192,140910,1,0,0:0:0:0:
402,192,140910,1,0,0:0:0:0:
109,192,141004,128,0,141379:0:0:0:0:
329,192,141004,1,0,0:0:0:0:
475,192,141004,1,0,0:0:0:0:
182,192,141097,1,0,0:0:0:0:
402,192,141097,1,0,0:0:0:0:
256,192,141191,1,0,0:0:0:0:
475,192,141191,1,0,0:0:0:0:
36,192,141191,1,0,0:0:0:0:
329,192,141285,1,0,0:0:0:0:
402,192,141285,1,0,0:0:0:0:
182,192,141379,128,0,141754:0:0:0:0:
475,192,141379,1,0,0:0:0:0:
256,192,141379,1,0,0:0:0:0:
36,192,141472,1,0,0:0:0:0:
329,192,141472,1,0,0:0:0:0:
109,192,141566,1,0,0:0:0:0:
402,192,141566,1,0,0:0:0:0:
475,192,141566,1,0,0:0:0:0:
256,192,141660,1,0,0:0:0:0:
329,192,141660,1,0,0:0:0:0:
36,192,141754,128,0,142129:0:0:0:0:
109,192,141754,1,0,0:0:0:0:
475,192,141754,1,0,0:0:0:0:
402,192,141847,1,0,0:0:0:0:
182,192,141847,1,0,0:0:0:0:
256,192,141941,1,0,0:0:0:0:
475,192,141941,1,0,0:0:0:0:
109,192,141941,1,0,0:0:0:0:
182,192,142035,1,0,0:0:0:0:
329,192,142035,1,0,0:0:0:0:
256,192,142129,1,0,0:0:0:0:
402,192,142129,1,0,0:0:0:0:
109,192,142222,1,0,0:0:0:0:
475,192,142222,1,0,0:0:0:0:
36,192,142316,1,0,0:0:0:0:
402,192,142316,1,0,0:0:0:0:
182,192,142316,1,0,0:0:0:0:
109,192,142410,1,0,0:0:0:0:
329,192,142410,1,0,0:0:0:0:
182,192,142504,1,0,0:0:0:0:
402,192,142504,1,0,0:0:0:0:
36,192,142597,1,0,0:0:0:0:
475,192,142597,1,0,0:0:0:0:
109,192,142691,1,0,0:0:0:0:
256,192,142691,1,0,0:0:0:0:
402,192,142691,1,0,0:0:0:0:
182,192,142785,1,0,0:0:0:0:
329,192,142785,1,0,0:0:0:0:
475,192,142879,128,0,143629:0:0:0:0:
36,192,142879,1,0,0:0:0:0:
256,192,142879,1,0,0:0:0:0:
109,192,142972,1,0,0:0:0:0:
329,192,142972,1,0,0:0:0:0:
182,192,143066,1,0,0:0:0:0:
402,192,143066,1,0,0:0:0:0:
36,192,143066,1,0,0:0:0:0:
329,192,143160,1,0,0:0:0:0:
256,192,143160,1,0,0:0:0:0:
36,192,143254,1,0,0:0:0:0:
182,192,143254,1,0,0:0:0:0:
109,192,143347,1,0,0:0:0:0:
256,192,143347,1,0,0:0:0:0:
329,192,143441,1,0,0:0:0:0:
36,192,143441,1,0,0:0:0:0:
402,192,143441,1,0,0:0:0:0:
109,192,143535,1,0,0:0:0:0:
256,192,143535,1,0,0:0:0:0:
36,192,143629,1,0,0:0:0:0:
329,192,143629,1,0,0:0:0:0:
256,192,143722,1,0,0:0:0:0:
402,192,143754,1,0,0:0:0:0:
182,192,143816,1,0,0:0:0:0:
475,192,143816,1,0,0:0:0:0:
329,192,143879,1,0,0:0:0:0:
475,192,143910,1,0,0:0:0:0:
256,192,144004,1,0,0:0:0:0:
402,192,144004,1,0,0:0:0:0:
329,192,144097,1,0,0:0:0:0:
182,192,144129,1,0,0:0:0:0:
109,192,144191,1,0,0:0:0:0:
36,192,144191,1,0,0:0:0:0:
402,192,144254,1,0,0:0:0:0:
256,192,144285,1,0,0:0:0:0:
329,192,144379,1,0,0:0:0:0:
182,192,144379,1,0,0:0:0:0:
36,192,144472,1,0,0:0:0:0:
402,192,144504,1,0,0:0:0:0:
109,192,144566,1,0,0:0:0:0:
256,192,144566,1,0,0:0:0:0:
402,192,144629,1,0,0:0:0:0:
182,192,144660,1,0,0:0:0:0:
109,192,144754,1,0,0:0:0:0:
475,192,144754,1,0,0:0:0:0:
36,192,144847,1,0,0:0:0:0:
402,192,144879,1,0,0:0:0:0:
109,192,144941,1,0,0:0:0:0:
256,192,144941,1,0,0:0:0:0:
329,192,145004,1,0,0:0:0:0:
182,192,145035,1,0,0:0:0:0:
402,192,145066,1,0,0:0:0:0:
256,192,145129,1,0,0:0:0:0:
475,192,145129,1,0,0:0:0:0:
329,192,145222,1,0,0:0:0:0:
182,192,145222,1,0,0:0:0:0:
36,192,145293,1,0,0:0:0:0:
402,192,145316,1,0,0:0:0:0:
475,192,145316,1,0,0:0:0:0:
109,192,145339,1,0,0:0:0:0:
182,192,145386,1,0,0:0:0:0:
256,192,145410,1,0,0:0:0:0:
329,192,145441,1,0,0:0:0:0:
36,192,145504,1,0,0:0:0:0:
475,192,145504,1,0,0:0:0:0:
402,192,145597,1,0,0:0:0:0:
182,192,145597,1,0,0:0:0:0:
329,192,145660,1,0,0:0:0:0:
36,192,145691,1,0,0:0:0:0:
256,192,145691,1,0,0:0:0:0:
182,192,145722,1,0,0:0:0:0:
475,192,145785,1,0,0:0:0:0:
402,192,145785,1,0,0:0:0:0:
329,192,145847,1,0,0:0:0:0:
256,192,145879,1,0,0:0:0:0:
182,192,145910,1,0,0:0:0:0:
402,192,145972,1,0,0:0:0:0:
109,192,145972,1,0,0:0:0:0:
36,192,146035,1,0,0:0:0:0:
256,192,146066,1,0,0:0:0:0:
475,192,146066,1,0,0:0:0:0:
182,192,146097,1,0,0:0:0:0:
109,192,146160,1,0,0:0:0:0:
329,192,146160,1,0,0:0:0:0:
36,192,146254,1,0,0:0:0:0:
475,192,146254,1,0,0:0:0:0:
402,192,146316,1,0,0:0:0:0:
109,192,146347,1,0,0:0:0:0:
256,192,146379,1,0,0:0:0:0:
182,192,146441,1,0,0:0:0:0:
475,192,146441,1,0,0:0:0:0:
329,192,146441,1,0,0:0:0:0:
402,192,146535,1,0,0:0:0:0:
256,192,146566,1,0,0:0:0:0:
36,192,146629,1,0,0:0:0:0:
109,192,146629,1,0,0:0:0:0:
475,192,146629,128,0,147191:0:0:0:0:
182,192,146816,1,0,0:0:0:0:
256,192,146816,1,0,0:0:0:0:
402,192,146910,1,0,0:0:0:0:
329,192,146910,1,0,0:0:0:0:
36,192,147004,1,0,0:0:0:0:
109,192,147004,1,0,0:0:0:0:
182,192,147097,1,0,0:0:0:0:
329,192,147191,1,0,0:0:0:0:
256,192,147191,1,0,0:0:0:0:
182,192,147254,1,0,0:0:0:0:
109,192,147285,1,0,0:0:0:0:
475,192,147316,128,0,147629:0:0:0:0:
329,192,147379,1,0,0:0:0:0:
36,192,147379,1,0,0:0:0:0:
109,192,147566,1,0,0:0:0:0:
182,192,147566,1,0,0:0:0:0:
402,192,147629,128,0,147816:0:0:0:0:
256,192,147660,1,0,0:0:0:0:
36,192,147660,1,0,0:0:0:0:
109,192,147754,1,0,0:0:0:0:
329,192,147754,1,0,0:0:0:0:
182,192,147816,1,0,0:0:0:0:
475,192,147879,128,0,148129:0:0:0:0:
36,192,147879,1,0,0:0:0:0:
109,192,147879,1,0,0:0:0:0:
182,192,148004,1,0,0:0:0:0:
256,192,148004,1,0,0:0:0:0:
36,192,148129,128,0,149441:0:0:0:0:
109,192,148129,1,0,0:0:0:0:
402,192,148129,1,0,0:0:0:0:
329,192,148129,1,0,0:0:0:0:
256,192,148316,1,0,0:0:0:0:
182,192,148316,1,0,0:0:0:0:
329,192,148379,1,0,0:0:0:0:
402,192,148379,1,0,0:0:0:0:
475,192,148441,1,0,0:0:0:0:
109,192,148504,1,0,0:0:0:0:
182,192,148597,1,0,0:0:0:0:
256,192,148691,1,0,0:0:0:0:
329,192,148785,1,0,0:0:0:0:
402,192,148879,1,0,0:0:0:0:
475,192,148879,1,0,0:0:0:0:
182,192,148972,1,0,0:0:0:0:
109,192,148972,1,0,0:0:0:0:
329,192,149066,1,0,0:0:0:0:
256,192,149066,1,0,0:0:0:0:
402,192,149160,1,0,0:0:0:0:
475,192,149160,1,0,0:0:0:0:
329,192,149254,1,0,0:0:0:0:
182,192,149347,1,0,0:0:0:0:
329,192,149410,1,0,0:0:0:0:
182,192,149535,1,0,0:0:0:0:
256,192,149629,1,0,0:0:0:0:
36,192,149629,1,0,0:0:0:0:
475,192,149629,1,0,0:0:0:0:
329,192,149722,1,0,0:0:0:0:
109,192,149722,1,0,0:0:0:0:
182,192,149816,1,0,0:0:0:0:
475,192,149816,1,0,0:0:0:0:
402,192,149816,1,0,0:0:0:0:
36,192,149910,1,0,0:0:0:0:
256,192,149910,1,0,0:0:0:0:
402,192,150004,1,0,0:0:0:0:
329,192,150004,1,0,0:0:0:0:
109,192,150097,1,0,0:0:0:0:
256,192,150129,1,0,0:0:0:0:
329,192,150191,1,0,0:0:0:0:
36,192,150191,1,0,0:0:0:0:
475,192,150191,1,0,0:0:0:0:
182,192,150285,1,0,0:0:0:0:
256,192,150379,1,0,0:0:0:0:
329,192,150379,1,0,0:0:0:0:
182,192,150472,1,0,0:0:0:0:
402,192,150472,1,0,0:0:0:0:
36,192,150566,1,0,0:0:0:0:
256,192,150566,1,0,0:0:0:0:
475,192,150566,1,0,0:0:0:0:
402,192,150660,1,0,0:0:0:0:
109,192,150660,1,0,0:0:0:0:
329,192,150754,1,0,0:0:0:0:
182,192,150754,1,0,0:0:0:0:
475,192,150847,1,0,0:0:0:0:
256,192,150847,1,0,0:0:0:0:
402,192,150941,1,0,0:0:0:0:
109,192,150941,1,0,0:0:0:0:
329,192,150941,1,0,0:0:0:0:
256,192,151035,1,0,0:0:0:0:
182,192,151035,1,0,0:0:0:0:
329,192,151129,1,0,0:0:0:0:
36,192,151129,1,0,0:0:0:0:
402,192,151222,1,0,0:0:0:0:
109,192,151222,1,0,0:0:0:0:
182,192,151316,1,0,0:0:0:0:
256,192,151316,1,0,0:0:0:0:
475,192,151316,1,0,0:0:0:0:
329,192,151410,1,0,0:0:0:0:
36,192,151410,1,0,0:0:0:0:
402,192,151504,1,0,0:0:0:0:
109,192,151504,1,0,0:0:0:0:
182,192,151597,1,0,0:0:0:0:
475,192,151597,1,0,0:0:0:0:
256,192,151691,1,0,0:0:0:0:
36,192,151691,1,0,0:0:0:0:
329,192,151691,1,0,0:0:0:0:
109,192,151785,1,0,0:0:0:0:
402,192,151785,1,0,0:0:0:0:
182,192,151879,1,0,0:0:0:0:
256,192,151879,1,0,0:0:0:0:
36,192,151972,1,0,0:0:0:0:
329,192,151972,1,0,0:0:0:0:
109,192,152066,1,0,0:0:0:0:
402,192,152066,1,0,0:0:0:0:
475,192,152160,1,0,0:0:0:0:
256,192,152160,1,0,0:0:0:0:
182,192,152160,1,0,0:0:0:0:
36,192,152254,1,0,0:0:0:0:
329,192,152254,1,0,0:0:0:0:
109,192,152347,1,0,0:0:0:0:
402,192,152347,1,0,0:0:0:0:
475,192,152441,1,0,0:0:0:0:
182,192,152441,1,0,0:0:0:0:
329,192,152535,1,0,0:0:0:0:
36,192,152535,1,0,0:0:0:0:
256,192,152535,1,0,0:0:0:0:
402,192,152629,1,0,0:0:0:0:
109,192,152629,1,0,0:0:0:0:
182,192,152722,1,0,0:0:0:0:
256,192,152722,1,0,0:0:0:0:
402,192,152816,1,0,0:0:0:0:
36,192,152816,1,0,0:0:0:0:
109,192,152816,1,0,0:0:0:0:
182,192,152910,1,0,0:0:0:0:
475,192,152910,1,0,0:0:0:0:
256,192,153004,1,0,0:0:0:0:
402,192,153004,1,0,0:0:0:0:
475,192,153097,1,0,0:0:0:0:
182,192,153097,1,0,0:0:0:0:
36,192,153191,1,0,0:0:0:0:
109,192,153191,1,0,0:0:0:0:
475,192,153191,1,0,0:0:0:0:
402,192,153285,1,0,0:0:0:0:
182,192,153285,1,0,0:0:0:0:
36,192,153379,1,0,0:0:0:0:
475,192,153379,1,0,0:0:0:0:
329,192,153379,1,0,0:0:0:0:
256,192,153472,1,0,0:0:0:0:
109,192,153472,1,0,0:0:0:0:
182,192,153566,1,0,0:0:0:0:
475,192,153566,1,0,0:0:0:0:
329,192,153566,1,0,0:0:0:0:
256,192,153660,1,0,0:0:0:0:
36,192,153660,1,0,0:0:0:0:
329,192,153754,1,0,0:0:0:0:
109,192,153754,1,0,0:0:0:0:
402,192,153847,1,0,0:0:0:0:
182,192,153847,1,0,0:0:0:0:
475,192,153941,1,0,0:0:0:0:
256,192,153941,1,0,0:0:0:0:
36,192,153941,1,0,0:0:0:0:
329,192,154035,1,0,0:0:0:0:
109,192,154035,1,0,0:0:0:0:
402,192,154129,1,0,0:0:0:0:
182,192,154129,1,0,0:0:0:0:
36,192,154129,1,0,0:0:0:0:
256,192,154222,1,0,0:0:0:0:
475,192,154222,1,0,0:0:0:0:
402,192,154316,1,0,0:0:0:0:
329,192,154316,1,0,0:0:0:0:
109,192,154316,1,0,0:0:0:0:
36,192,154410,1,0,0:0:0:0:
256,192,154410,1,0,0:0:0:0:
109,192,154504,1,0,0:0:0:0:
329,192,154504,1,0,0:0:0:0:
182,192,154597,1,0,0:0:0:0:
402,192,154597,1,0,0:0:0:0:
36,192,154691,1,0,0:0:0:0:
475,192,154691,1,0,0:0:0:0:
256,192,154691,1,0,0:0:0:0:
109,192,154785,1,0,0:0:0:0:
402,192,154785,1,0,0:0:0:0:
256,192,154879,1,0,0:0:0:0:
475,192,154879,1,0,0:0:0:0:
36,192,154879,128,0,155629:0:0:0:0:
329,192,154972,1,0,0:0:0:0:
402,192,155066,1,0,0:0:0:0:
182,192,155066,1,0,0:0:0:0:
475,192,155160,1,0,0:0:0:0:
109,192,155254,1,0,0:0:0:0:
182,192,155347,1,0,0:0:0:0:
256,192,155441,1,0,0:0:0:0:
475,192,155441,1,0,0:0:0:0:
109,192,155535,1,0,0:0:0:0:
182,192,155629,1,0,0:0:0:0:
329,192,155629,1,0,0:0:0:0:
475,192,155629,1,0,0:0:0:0:
402,192,155722,1,0,0:0:0:0:
109,192,155722,1,0,0:0:0:0:
36,192,155816,1,0,0:0:0:0:
182,192,155816,1,0,0:0:0:0:
329,192,155816,1,0,0:0:0:0:
402,192,155910,1,0,0:0:0:0:
109,192,155910,1,0,0:0:0:0:
256,192,155910,1,0,0:0:0:0:
475,192,156004,1,0,0:0:0:0:
329,192,156004,1,0,0:0:0:0:
36,192,156097,1,0,0:0:0:0:
402,192,156097,1,0,0:0:0:0:
475,192,156191,1,0,0:0:0:0:
109,192,156191,1,0,0:0:0:0:
256,192,156191,1,0,0:0:0:0:
182,192,156285,1,0,0:0:0:0:
329,192,156285,1,0,0:0:0:0:
256,192,156379,1,0,0:0:0:0:
402,192,156379,1,0,0:0:0:0:
329,192,156472,1,0,0:0:0:0:
475,192,156472,1,0,0:0:0:0:
109,192,156566,1,0,0:0:0:0:
36,192,156566,1,0,0:0:0:0:
182,192,156566,1,0,0:0:0:0:
329,192,156660,1,0,0:0:0:0:
256,192,156660,1,0,0:0:0:0:
475,192,156754,5,0,0:0:0:0:
402,192,156754,1,0,0:0:0:0:
329,192,156847,1,0,0:0:0:0:
36,192,156847,1,0,0:0:0:0:
109,192,156941,1,0,0:0:0:0:
256,192,156941,1,0,0:0:0:0:
402,192,156941,1,0,0:0:0:0:
475,192,157035,1,0,0:0:0:0:
182,192,157035,1,0,0:0:0:0:
329,192,157129,1,0,0:0:0:0:
109,192,157129,1,0,0:0:0:0:
256,192,157222,1,0,0:0:0:0:
36,192,157222,1,0,0:0:0:0:
182,192,157316,1,0,0:0:0:0:
109,192,157316,1,0,0:0:0:0:
475,192,157316,1,0,0:0:0:0:
256,192,157410,1,0,0:0:0:0:
402,192,157410,1,0,0:0:0:0:
329,192,157504,1,0,0:0:0:0:
182,192,157504,1,0,0:0:0:0:
109,192,157597,1,0,0:0:0:0:
256,192,157597,1,0,0:0:0:0:
182,192,157691,1,0,0:0:0:0:
475,192,157691,1,0,0:0:0:0:
36,192,157691,1,0,0:0:0:0:
256,192,157785,1,0,0:0:0:0:
109,192,157785,1,0,0:0:0:0:
329,192,157879,128,0,158629:0:0:0:0:
182,192,157879,1,0,0:0:0:0:
256,192,157972,1,0,0:0:0:0:
36,192,158066,1,0,0:0:0:0:
475,192,158066,1,0,0:0:0:0:
256,192,158160,1,0,0:0:0:0:
182,192,158254,1,0,0:0:0:0:
475,192,158254,1,0,0:0:0:0:
109,192,158347,1,0,0:0:0:0:
402,192,158347,1,0,0:0:0:0:
256,192,158441,1,0,0:0:0:0:
36,192,158441,1,0,0:0:0:0:
182,192,158535,1,0,0:0:0:0:
109,192,158535,1,0,0:0:0:0:
475,192,158629,128,0,159191:0:0:0:0:
36,192,158629,1,0,0:0:0:0:
182,192,158629,1,0,0:0:0:0:
109,192,158629,1,0,0:0:0:0:
256,192,158629,1,0,0:0:0:0:
402,192,158629,1,0,0:0:0:0:
329,192,158722,1,0,0:0:0:0:
256,192,158722,1,0,0:0:0:0:
182,192,158816,1,0,0:0:0:0:
402,192,158816,1,0,0:0:0:0:
109,192,158910,1,0,0:0:0:0:
329,192,158910,1,0,0:0:0:0:
182,192,159004,1,0,0:0:0:0:
256,192,159004,1,0,0:0:0:0:
329,192,159191,128,0,160129:0:0:0:0:
36,192,159191,1,0,0:0:0:0:
109,192,159191,1,0,0:0:0:0:
256,192,159191,1,0,0:0:0:0:
182,192,159191,1,0,0:0:0:0:
402,192,159191,1,0,0:0:0:0:
256,192,159285,1,0,0:0:0:0:
36,192,159285,1,0,0:0:0:0:
109,192,159347,1,0,0:0:0:0:
256,192,159472,1,0,0:0:0:0:
182,192,159472,1,0,0:0:0:0:
402,192,159566,1,0,0:0:0:0:
475,192,159566,1,0,0:0:0:0:
109,192,159754,1,0,0:0:0:0:
256,192,159754,1,0,0:0:0:0:
182,192,159847,1,0,0:0:0:0:
402,192,159847,1,0,0:0:0:0:
36,192,159941,1,0,0:0:0:0:
475,192,159941,1,0,0:0:0:0:
256,192,160035,1,0,0:0:0:0:
109,192,160035,1,0,0:0:0:0:
36,192,160129,128,0,160691:0:0:0:0:
109,192,160129,1,0,0:0:0:0:
256,192,160129,1,0,0:0:0:0:
182,192,160129,1,0,0:0:0:0:
402,192,160129,1,0,0:0:0:0:
475,192,160129,1,0,0:0:0:0:
182,192,160316,1,0,0:0:0:0:
475,192,160316,1,0,0:0:0:0:
402,192,160410,1,0,0:0:0:0:
256,192,160410,1,0,0:0:0:0:
329,192,160504,1,0,0:0:0:0:
109,192,160504,1,0,0:0:0:0:
182,192,160597,1,0,0:0:0:0:
256,192,160597,1,0,0:0:0:0:
182,192,160691,128,0,161629:0:0:0:0:
109,192,160691,1,0,0:0:0:0:
256,192,160691,1,0,0:0:0:0:
329,192,160691,1,0,0:0:0:0:
402,192,160691,1,0,0:0:0:0:
475,192,160691,1,0,0:0:0:0:
36,192,160879,1,0,0:0:0:0:
329,192,160879,1,0,0:0:0:0:
256,192,160972,1,0,0:0:0:0:
475,192,160972,1,0,0:0:0:0:
36,192,161066,1,0,0:0:0:0:
329,192,161066,1,0,0:0:0:0:
109,192,161160,1,0,0:0:0:0:
402,192,161160,1,0,0:0:0:0:
256,192,161254,1,0,0:0:0:0:
475,192,161254,1,0,0:0:0:0:
402,192,161441,1,0,0:0:0:0:
329,192,161441,1,0,0:0:0:0:
36,192,161535,1,0,0:0:0:0:
109,192,161535,1,0,0:0:0:0:
329,192,161629,1,0,0:0:0:0:
402,192,161629,1,0,0:0:0:0:
256,192,161629,1,0,0:0:0:0:
109,192,161629,1,0,0:0:0:0:
36,192,161629,1,0,0:0:0:0:
475,192,161629,128,0,162191:0:0:0:0:
329,192,161722,1,0,0:0:0:0:
182,192,161722,1,0,0:0:0:0:
402,192,161816,1,0,0:0:0:0:
256,192,161816,1,0,0:0:0:0:
256,192,162004,1,0,0:0:0:0:
402,192,162004,1,0,0:0:0:0:
182,192,162097,1,0,0:0:0:0:
329,192,162097,1,0,0:0:0:0:
329,192,162191,128,0,163129:0:0:0:0:
109,192,162191,1,0,0:0:0:0:
36,192,162191,1,0,0:0:0:0:
182,192,162191,1,0,0:0:0:0:
256,192,162191,1,0,0:0:0:0:
402,192,162191,1,0,0:0:0:0:
109,192,162285,1,0,0:0:0:0:
402,192,162285,1,0,0:0:0:0:
182,192,162379,1,0,0:0:0:0:
475,192,162379,1,0,0:0:0:0:
36,192,162566,1,0,0:0:0:0:
109,192,162566,1,0,0:0:0:0:
182,192,162660,1,0,0:0:0:0:
256,192,162660,1,0,0:0:0:0:
36,192,162754,1,0,0:0:0:0:
109,192,162754,1,0,0:0:0:0:
182,192,162847,1,0,0:0:0:0:
402,192,162847,1,0,0:0:0:0:
256,192,162941,1,0,0:0:0:0:
475,192,162941,1,0,0:0:0:0:
182,192,163129,128,0,163691:0:0:0:0:
36,192,163129,1,0,0:0:0:0:
109,192,163129,1,0,0:0:0:0:
256,192,163129,1,0,0:0:0:0:
402,192,163129,1,0,0:0:0:0:
475,192,163129,1,0,0:0:0:0:
475,192,163222,1,0,0:0:0:0:
329,192,163222,1,0,0:0:0:0:
36,192,163316,1,0,0:0:0:0:
402,192,163316,1,0,0:0:0:0:
475,192,163410,1,0,0:0:0:0:
109,192,163410,1,0,0:0:0:0:
402,192,163504,1,0,0:0:0:0:
256,192,163504,1,0,0:0:0:0:
36,192,163691,128,0,164629:0:0:0:0:
109,192,163691,1,0,0:0:0:0:
256,192,163691,1,0,0:0:0:0:
329,192,163691,1,0,0:0:0:0:
402,192,163691,1,0,0:0:0:0:
475,192,163691,1,0,0:0:0:0:
182,192,163785,1,0,0:0:0:0:
256,192,163785,1,0,0:0:0:0:
329,192,163879,1,0,0:0:0:0:
402,192,163879,1,0,0:0:0:0:
182,192,163972,1,0,0:0:0:0:
109,192,163972,1,0,0:0:0:0:
329,192,164066,1,0,0:0:0:0:
256,192,164066,1,0,0:0:0:0:
402,192,164160,1,0,0:0:0:0:
475,192,164160,1,0,0:0:0:0:
109,192,164254,1,0,0:0:0:0:
182,192,164254,1,0,0:0:0:0:
329,192,164347,1,0,0:0:0:0:
256,192,164347,1,0,0:0:0:0:
402,192,164441,1,0,0:0:0:0:
109,192,164441,1,0,0:0:0:0:
329,192,164535,1,0,0:0:0:0:
182,192,164535,1,0,0:0:0:0:
109,192,164629,1,0,0:0:0:0:
475,192,164629,128,0,165191:0:0:0:0:
402,192,164629,1,0,0:0:0:0:
329,192,164722,1,0,0:0:0:0:
256,192,164816,1,0,0:0:0:0:
36,192,164816,1,0,0:0:0:0:
329,192,164910,1,0,0:0:0:0:
109,192,165004,1,0,0:0:0:0:
182,192,165097,1,0,0:0:0:0:
329,192,165191,128,0,166129:0:0:0:0:
256,192,165191,1,0,0:0:0:0:
36,192,165191,1,0,0:0:0:0:
109,192,165285,1,0,0:0:0:0:
182,192,165379,1,0,0:0:0:0:
475,192,165472,1,0,0:0:0:0:
36,192,165566,1,0,0:0:0:0:
402,192,165566,1,0,0:0:0:0:
109,192,165660,1,0,0:0:0:0:
182,192,165754,1,0,0:0:0:0:
256,192,165847,1,0,0:0:0:0:
475,192,165941,1,0,0:0:0:0:
402,192,165941,1,0,0:0:0:0:
36,192,166035,1,0,0:0:0:0:
182,192,166129,128,0,166691:0:0:0:0:
109,192,166129,1,0,0:0:0:0:
256,192,166222,1,0,0:0:0:0:
329,192,166316,1,0,0:0:0:0:
402,192,166316,1,0,0:0:0:0:
475,192,166410,1,0,0:0:0:0:
256,192,166504,1,0,0:0:0:0:
109,192,166597,1,0,0:0:0:0:
36,192,166691,128,0,167629:0:0:0:0:
329,192,166691,1,0,0:0:0:0:
475,192,166691,1,0,0:0:0:0:
402,192,166785,1,0,0:0:0:0:
329,192,166879,1,0,0:0:0:0:
182,192,166972,1,0,0:0:0:0:
109,192,167066,1,0,0:0:0:0:
475,192,167066,1,0,0:0:0:0:
402,192,167160,1,0,0:0:0:0:
329,192,167254,1,0,0:0:0:0:
256,192,167254,1,0,0:0:0:0:
109,192,167347,1,0,0:0:0:0:
182,192,167347,1,0,0:0:0:0:
329,192,167441,1,0,0:0:0:0:
256,192,167441,1,0,0:0:0:0:
182,192,167535,1,0,0:0:0:0:
402,192,167535,1,0,0:0:0:0:
329,192,167629,1,0,0:0:0:0:
475,192,167629,1,0,0:0:0:0:
109,192,167629,128,0,167722:0:0:0:0:
182,192,167722,128,0,167816:0:0:0:0:
329,192,167816,1,0,0:0:0:0:
475,192,167816,1,0,0:0:0:0:
256,192,167816,128,0,167910:0:0:0:0:
182,192,167910,128,0,168004:0:0:0:0:
329,192,168004,1,0,0:0:0:0:
475,192,168004,1,0,0:0:0:0:
109,192,168004,128,0,168097:0:0:0:0:
36,192,168097,128,0,168191:0:0:0:0:
329,192,168191,1,0,0:0:0:0:
475,192,168191,1,0,0:0:0:0:
109,192,168191,128,0,168285:0:0:0:0:
182,192,168285,128,0,168379:0:0:0:0:
329,192,168379,1,0,0:0:0:0:
475,192,168379,1,0,0:0:0:0:
256,192,168379,128,0,168472:0:0:0:0:
182,192,168472,128,0,168566:0:0:0:0:
329,192,168566,1,0,0:0:0:0:
475,192,168566,1,0,0:0:0:0:
109,192,168566,128,0,168660:0:0:0:0:
256,192,168660,128,0,168754:0:0:0:0:
36,192,168754,1,0,0:0:0:0:
329,192,168754,1,0,0:0:0:0:
475,192,168754,1,0,0:0:0:0:
182,192,168754,1,0,0:0:0:0:
109,192,168847,1,0,0:0:0:0:
256,192,168847,1,0,0:0:0:0:
402,192,168847,1,0,0:0:0:0:
36,192,168941,1,0,0:0:0:0:
182,192,168941,1,0,0:0:0:0:
329,192,168941,1,0,0:0:0:0:
475,192,168941,1,0,0:0:0:0:
109,192,169035,1,0,0:0:0:0:
256,192,169035,1,0,0:0:0:0:
402,192,169035,1,0,0:0:0:0:
36,192,169129,1,0,0:0:0:0:
182,192,169129,1,0,0:0:0:0:
475,192,169129,128,0,169222:0:0:0:0:
402,192,169222,128,0,169316:0:0:0:0:
36,192,169316,1,0,0:0:0:0:
182,192,169316,1,0,0:0:0:0:
329,192,169316,128,0,169410:0:0:0:0:
256,192,169410,128,0,169504:0:0:0:0:
36,192,169504,1,0,0:0:0:0:
182,192,169504,1,0,0:0:0:0:
329,192,169504,128,0,169597:0:0:0:0:
402,192,169597,128,0,169691:0:0:0:0:
36,192,169691,1,0,0:0:0:0:
182,192,169691,1,0,0:0:0:0:
475,192,169691,128,0,169785:0:0:0:0:
402,192,169785,128,0,169879:0:0:0:0:
36,192,169879,1,0,0:0:0:0:
182,192,169879,1,0,0:0:0:0:
329,192,169879,128,0,169972:0:0:0:0:
256,192,169972,128,0,170066:0:0:0:0:
36,192,170066,1,0,0:0:0:0:
182,192,170066,1,0,0:0:0:0:
329,192,170066,128,0,170160:0:0:0:0:
402,192,170160,128,0,170254:0:0:0:0:
36,192,170254,1,0,0:0:0:0:
182,192,170254,1,0,0:0:0:0:
475,192,170254,128,0,170347:0:0:0:0:
402,192,170347,128,0,170441:0:0:0:0:
36,192,170441,1,0,0:0:0:0:
182,192,170441,1,0,0:0:0:0:
329,192,170441,128,0,170535:0:0:0:0:
402,192,170535,128,0,170629:0:0:0:0:
475,192,170629,1,0,0:0:0:0:
36,192,170629,1,0,0:0:0:0:
109,192,170629,1,0,0:0:0:0:
182,192,170722,1,0,0:0:0:0:
256,192,170722,1,0,0:0:0:0:
329,192,170722,1,0,0:0:0:0:
36,192,170816,1,0,0:0:0:0:
109,192,170816,1,0,0:0:0:0:
402,192,170816,1,0,0:0:0:0:
182,192,170910,1,0,0:0:0:0:
256,192,170910,1,0,0:0:0:0:
329,192,170910,1,0,0:0:0:0:
36,192,171004,1,0,0:0:0:0:
402,192,171004,1,0,0:0:0:0:
475,192,171004,1,0,0:0:0:0:
109,192,171097,1,0,0:0:0:0:
182,192,171191,1,0,0:0:0:0:
329,192,171191,1,0,0:0:0:0:
475,192,171191,1,0,0:0:0:0:
256,192,171285,1,0,0:0:0:0:
329,192,171379,1,0,0:0:0:0:
475,192,171379,1,0,0:0:0:0:
182,192,171379,1,0,0:0:0:0:
109,192,171472,1,0,0:0:0:0:
36,192,171566,1,0,0:0:0:0:
329,192,171566,1,0,0:0:0:0:
475,192,171566,1,0,0:0:0:0:
109,192,171660,1,0,0:0:0:0:
182,192,171754,1,0,0:0:0:0:
329,192,171754,1,0,0:0:0:0:
475,192,171754,1,0,0:0:0:0:
256,192,171847,1,0,0:0:0:0:
329,192,171941,1,0,0:0:0:0:
475,192,171941,1,0,0:0:0:0:
256,192,172035,1,0,0:0:0:0:
36,192,172129,1,0,0:0:0:0:
329,192,172129,1,0,0:0:0:0:
182,192,172191,1,0,0:0:0:0:
475,192,172191,1,0,0:0:0:0:
256,192,172254,1,0,0:0:0:0:
109,192,172254,1,0,0:0:0:0:
402,192,172316,1,0,0:0:0:0:
475,192,172379,1,0,0:0:0:0:
36,192,172379,1,0,0:0:0:0:
329,192,172441,1,0,0:0:0:0:
109,192,172441,1,0,0:0:0:0:
402,192,172504,1,0,0:0:0:0:
475,192,172566,1,0,0:0:0:0:
182,192,172566,1,0,0:0:0:0:
329,192,172629,1,0,0:0:0:0:
109,192,172629,1,0,0:0:0:0:
402,192,172691,1,0,0:0:0:0:
36,192,172691,1,0,0:0:0:0:
109,192,172754,1,0,0:0:0:0:
475,192,172754,1,0,0:0:0:0:
182,192,172816,1,0,0:0:0:0:
329,192,172816,1,0,0:0:0:0:
36,192,172879,1,0,0:0:0:0:
402,192,172879,1,0,0:0:0:0:
475,192,172941,1,0,0:0:0:0:
109,192,172941,1,0,0:0:0:0:
182,192,173004,1,0,0:0:0:0:
402,192,173004,1,0,0:0:0:0:
475,192,173066,1,0,0:0:0:0:
256,192,173066,1,0,0:0:0:0:
329,192,173129,1,0,0:0:0:0:
36,192,173129,1,0,0:0:0:0:
402,192,173191,1,0,0:0:0:0:
109,192,173191,1,0,0:0:0:0:
475,192,173254,1,0,0:0:0:0:
182,192,173254,1,0,0:0:0:0:
36,192,173316,1,0,0:0:0:0:
256,192,173316,1,0,0:0:0:0:
329,192,173379,1,0,0:0:0:0:
109,192,173379,1,0,0:0:0:0:
182,192,173441,1,0,0:0:0:0:
402,192,173504,1,0,0:0:0:0:
256,192,173566,128,0,173629:0:0:0:0:
182,192,174004,128,0,177191:0:0:0:0:
109,192,174004,128,0,177191:0:0:0:0:
256,192,174004,128,0,177191:0:0:0:0:
36,192,174004,128,0,177191:0:0:0:0:
475,192,176207,1,0,0:0:0:0:
402,192,176285,1,0,0:0:0:0:
329,192,176347,1,0,0:0:0:0:
256,192,177379,1,0,0:0:0:0:
36,192,177379,1,0,0:0:0:0:
475,192,177379,1,0,0:0:0:0:
329,192,177441,1,0,0:0:0:0:
109,192,177441,1,0,0:0:0:0:
402,192,177504,1,0,0:0:0:0:
182,192,177504,1,0,0:0:0:0:
256,192,177566,1,0,0:0:0:0:
36,192,177566,1,0,0:0:0:0:
475,192,177566,1,0,0:0:0:0:
