osu file format v14

[General]
AudioFilename: audio.mp3
AudioLeadIn: 0
PreviewTime: 115504
Countdown: 0
SampleSet: Normal
StackLeniency: 0.2
Mode: 1
LetterboxInBreaks: 0
WidescreenStoryboard: 0

[Editor]
Bookmarks: 1108,14608,26608,38608,50608,62608,75358,89608,101608,116608,137608,158608
DistanceSpacing: 2.4
BeatDivisor: 4
GridSize: 32
TimelineZoom: 2.96

[Metadata]
Title:HAELEQUIN ~Knights of the Round~
TitleUnicode:HAELEQUIN ~Knights of the Round~
Artist:ke-ji
ArtistUnicode:ke-ji
Creator:Jaye
Version:The Don of 24Bursts
Source:
Tags:HAELEQUIN/HAELEQ∩INZ Comiket 87 C87 KLAMNOP NEXT NEXT-101
BeatmapID:1683002
BeatmapSetID:801816

[Difficulty]
HPDrainRate:5.5
CircleSize:2
OverallDifficulty:6
ApproachRate:10
SliderMultiplier:1.6
SliderTickRate:1

[Events]
//Background and Video events
0,0,"jv.png",0,-100
//Break Periods
//Storyboard Layer 0 (Background)
//Storyboard Layer 1 (Fail)
//Storyboard Layer 2 (Pass)
//Storyboard Layer 3 (Foreground)
//Storyboard Layer 4 (Overlay)
//Storyboard Sound Samples

[TimingPoints]
1108,375,4,1,0,100,1,0
116608,-100,4,1,0,100,0,1
158608,-100,4,1,0,100,0,0

[HitObjects]
256,192,733,5,0,0:0:0:0:
256,192,826,1,0,0:0:0:0:
256,192,920,1,0,0:0:0:0:
256,192,1014,1,0,0:0:0:0:
256,192,1108,1,12,0:0:0:0:
256,192,1670,1,0,0:0:0:0:
256,192,1764,1,8,0:0:0:0:
256,192,1858,1,0,0:0:0:0:
256,192,2139,1,0,0:0:0:0:
256,192,2420,1,8,0:0:0:0:
256,192,2608,1,0,0:0:0:0:
256,192,2889,1,0,0:0:0:0:
256,192,2983,1,8,0:0:0:0:
256,192,3170,1,8,0:0:0:0:
256,192,3358,1,0,0:0:0:0:
256,192,3733,1,8,0:0:0:0:
256,192,3826,1,0,0:0:0:0:
256,192,3920,1,8,0:0:0:0:
256,192,4108,1,0,0:0:0:0:
256,192,4389,1,0,0:0:0:0:
256,192,4670,1,8,0:0:0:0:
256,192,4858,1,0,0:0:0:0:
256,192,5139,1,0,0:0:0:0:
256,192,5233,1,8,0:0:0:0:
256,192,5420,1,8,0:0:0:0:
256,192,5608,1,0,0:0:0:0:
256,192,5795,1,8,0:0:0:0:
256,192,5889,1,0,0:0:0:0:
256,192,6076,1,0,0:0:0:0:
256,192,6170,1,0,0:0:0:0:
256,192,6358,1,8,0:0:0:0:
256,192,6733,1,0,0:0:0:0:
256,192,6826,1,8,0:0:0:0:
256,192,6920,1,8,0:0:0:0:
256,192,7014,1,0,0:0:0:0:
256,192,7108,1,12,0:0:0:0:
256,192,7389,1,0,0:0:0:0:
256,192,7483,1,8,0:0:0:0:
256,192,7670,1,8,0:0:0:0:
256,192,7764,1,8,0:0:0:0:
256,192,7858,1,0,0:0:0:0:
256,192,8045,1,0,0:0:0:0:
256,192,8139,1,8,0:0:0:0:
256,192,8326,1,8,0:0:0:0:
256,192,8420,1,0,0:0:0:0:
256,192,8608,1,0,0:0:0:0:
256,192,8795,1,0,0:0:0:0:
256,192,8889,1,0,0:0:0:0:
256,192,8983,1,8,0:0:0:0:
256,192,9170,1,8,0:0:0:0:
256,192,9358,1,0,0:0:0:0:
256,192,9451,1,8,0:0:0:0:
256,192,9545,1,8,0:0:0:0:
256,192,9639,1,0,0:0:0:0:
256,192,9733,1,0,0:0:0:0:
256,192,9920,1,0,0:0:0:0:
256,192,10108,1,8,0:0:0:0:
256,192,10295,1,0,0:0:0:0:
256,192,10389,1,0,0:0:0:0:
256,192,10483,1,8,0:0:0:0:
256,192,10670,1,0,0:0:0:0:
256,192,10858,1,12,0:0:0:0:
256,192,11139,1,12,0:0:0:0:
256,192,11420,1,12,0:0:0:0:
256,192,11983,1,8,0:0:0:0:
256,192,12076,1,8,0:0:0:0:
256,192,12170,1,8,0:0:0:0:
256,192,12264,1,0,0:0:0:0:
256,192,12358,1,8,0:0:0:0:
256,192,12451,1,0,0:0:0:0:
256,192,12545,1,0,0:0:0:0:
256,192,12639,1,0,0:0:0:0:
256,192,13858,1,8,0:0:0:0:
256,192,13951,1,8,0:0:0:0:
256,192,14045,1,0,0:0:0:0:
256,192,14139,1,0,0:0:0:0:
256,192,14233,1,0,0:0:0:0:
256,192,14326,1,8,0:0:0:0:
256,192,14420,1,0,0:0:0:0:
256,192,14514,1,0,0:0:0:0:
256,192,14608,1,12,0:0:0:0:
256,192,15170,1,12,0:0:0:0:
256,192,15733,1,12,0:0:0:0:
256,192,16295,1,12,0:0:0:0:
256,192,16858,1,4,0:0:0:0:
256,192,17233,1,12,0:0:0:0:
256,192,17608,1,12,0:0:0:0:
256,192,18170,1,12,0:0:0:0:
256,192,18733,1,12,0:0:0:0:
256,192,19295,1,12,0:0:0:0:
256,192,19858,1,12,0:0:0:0:
256,192,20233,1,4,0:0:0:0:
256,192,20608,1,12,0:0:0:0:
256,192,20795,1,0,0:0:0:0:
256,192,20889,1,0,0:0:0:0:
256,192,20983,1,0,0:0:0:0:
256,192,21170,1,12,0:0:0:0:
256,192,21358,1,0,0:0:0:0:
256,192,21451,1,8,0:0:0:0:
256,192,21545,1,0,0:0:0:0:
256,192,21733,1,12,0:0:0:0:
256,192,21920,1,0,0:0:0:0:
256,192,22014,1,0,0:0:0:0:
256,192,22108,1,0,0:0:0:0:
256,192,22295,1,12,0:0:0:0:
256,192,22483,1,0,0:0:0:0:
256,192,22576,1,8,0:0:0:0:
256,192,22670,1,0,0:0:0:0:
256,192,22858,1,4,0:0:0:0:
256,192,23045,1,0,0:0:0:0:
256,192,23139,1,0,0:0:0:0:
256,192,23233,1,12,0:0:0:0:
256,192,23420,1,8,0:0:0:0:
256,192,23608,1,12,0:0:0:0:
256,192,23795,1,0,0:0:0:0:
256,192,23889,1,0,0:0:0:0:
256,192,23983,1,0,0:0:0:0:
256,192,24170,1,12,0:0:0:0:
256,192,24358,1,0,0:0:0:0:
256,192,24451,1,8,0:0:0:0:
256,192,24545,1,0,0:0:0:0:
256,192,24733,1,12,0:0:0:0:
256,192,24920,1,0,0:0:0:0:
256,192,25014,1,0,0:0:0:0:
256,192,25108,1,0,0:0:0:0:
256,192,25295,1,12,0:0:0:0:
256,192,25483,1,0,0:0:0:0:
256,192,25576,1,8,0:0:0:0:
256,192,25670,1,0,0:0:0:0:
256,192,25858,1,12,0:0:0:0:
256,192,26045,1,0,0:0:0:0:
256,192,26139,1,8,0:0:0:0:
256,192,26233,1,4,0:0:0:0:
256,192,26420,1,0,0:0:0:0:
256,192,26514,1,0,0:0:0:0:
256,192,26608,1,8,0:0:0:0:
256,192,27170,1,0,0:0:0:0:
256,192,27358,1,8,0:0:0:0:
256,192,27545,1,8,0:0:0:0:
256,192,27733,1,0,0:0:0:0:
256,192,27920,1,8,0:0:0:0:
256,192,28108,1,8,0:0:0:0:
256,192,28389,1,0,0:0:0:0:
256,192,28670,1,0,0:0:0:0:
256,192,29045,1,0,0:0:0:0:
256,192,29233,1,8,0:0:0:0:
256,192,29420,1,0,0:0:0:0:
256,192,29514,1,8,0:0:0:0:
256,192,29608,1,8,0:0:0:0:
256,192,29795,1,8,0:0:0:0:
256,192,29889,1,0,0:0:0:0:
256,192,29983,1,8,0:0:0:0:
256,192,30170,1,0,0:0:0:0:
256,192,30358,1,8,0:0:0:0:
256,192,30545,1,8,0:0:0:0:
256,192,30733,1,8,0:0:0:0:
256,192,30920,1,0,0:0:0:0:
256,192,31108,1,8,0:0:0:0:
256,192,31295,1,8,0:0:0:0:
256,192,31483,1,0,0:0:0:0:
256,192,31670,1,8,0:0:0:0:
256,192,31764,1,0,0:0:0:0:
256,192,31858,1,8,0:0:0:0:
256,192,32233,1,8,0:0:0:0:
256,192,32326,1,0,0:0:0:0:
256,192,32420,1,8,0:0:0:0:
256,192,32514,1,8,0:0:0:0:
256,192,32608,1,0,0:0:0:0:
256,192,32795,1,0,0:0:0:0:
256,192,32889,1,8,0:0:0:0:
256,192,33170,1,0,0:0:0:0:
256,192,33733,1,8,0:0:0:0:
256,192,33920,1,0,0:0:0:0:
256,192,34108,1,0,0:0:0:0:
256,192,34295,1,8,0:0:0:0:
256,192,34389,1,0,0:0:0:0:
256,192,34483,1,8,0:0:0:0:
256,192,34576,1,8,0:0:0:0:
256,192,34670,1,8,0:0:0:0:
256,192,35045,1,8,0:0:0:0:
256,192,35139,1,8,0:0:0:0:
256,192,35233,1,0,0:0:0:0:
256,192,35326,1,0,0:0:0:0:
256,192,35420,1,0,0:0:0:0:
256,192,35514,1,8,0:0:0:0:
256,192,35608,1,8,0:0:0:0:
256,192,35858,1,0,0:0:0:0:
256,192,35983,1,8,0:0:0:0:
256,192,36108,1,8,0:0:0:0:
256,192,36233,1,0,0:0:0:0:
256,192,36358,1,8,0:0:0:0:
256,192,36483,1,0,0:0:0:0:
256,192,36608,1,8,0:0:0:0:
256,192,36733,1,8,0:0:0:0:
256,192,36858,1,8,0:0:0:0:
256,192,36983,1,0,0:0:0:0:
256,192,37108,1,8,0:0:0:0:
256,192,37201,1,0,0:0:0:0:
256,192,37295,1,0,0:0:0:0:
256,192,37358,1,0,0:0:0:0:
256,192,37420,1,0,0:0:0:0:
256,192,37483,1,8,0:0:0:0:
256,192,37858,1,0,0:0:0:0:
256,192,37920,1,0,0:0:0:0:
256,192,37983,1,0,0:0:0:0:
256,192,38045,1,8,0:0:0:0:
256,192,38139,1,8,0:0:0:0:
256,192,38233,1,0,0:0:0:0:
256,192,38326,1,8,0:0:0:0:
256,192,38420,1,8,0:0:0:0:
256,192,38514,1,0,0:0:0:0:
256,192,38608,1,8,0:0:0:0:
256,192,38795,1,8,0:0:0:0:
256,192,38983,1,0,0:0:0:0:
256,192,39076,1,0,0:0:0:0:
256,192,39170,1,8,0:0:0:0:
256,192,39358,1,0,0:0:0:0:
256,192,39545,1,8,0:0:0:0:
256,192,39639,1,0,0:0:0:0:
256,192,39733,1,0,0:0:0:0:
256,192,39826,1,0,0:0:0:0:
256,192,39920,1,8,0:0:0:0:
256,192,40108,1,0,0:0:0:0:
256,192,40295,1,8,0:0:0:0:
256,192,40483,1,0,0:0:0:0:
256,192,40576,1,0,0:0:0:0:
256,192,40670,1,8,0:0:0:0:
256,192,40858,1,0,0:0:0:0:
256,192,41045,1,8,0:0:0:0:
256,192,41139,1,8,0:0:0:0:
256,192,41233,1,0,0:0:0:0:
256,192,41326,1,0,0:0:0:0:
256,192,41420,1,8,0:0:0:0:
256,192,41608,1,8,0:0:0:0:
256,192,41733,1,8,0:0:0:0:
256,192,41858,1,0,0:0:0:0:
256,192,41983,1,8,0:0:0:0:
256,192,42108,1,0,0:0:0:0:
256,192,42233,1,0,0:0:0:0:
256,192,42358,1,8,0:0:0:0:
256,192,42483,1,8,0:0:0:0:
256,192,42608,1,0,0:0:0:0:
256,192,42733,1,8,0:0:0:0:
256,192,42858,1,0,0:0:0:0:
256,192,42983,1,0,0:0:0:0:
256,192,43108,1,8,0:0:0:0:
256,192,43233,1,0,0:0:0:0:
256,192,43358,1,0,0:0:0:0:
256,192,43483,1,8,0:0:0:0:
256,192,43608,1,8,0:0:0:0:
256,192,43733,1,0,0:0:0:0:
256,192,43858,1,8,0:0:0:0:
256,192,43983,1,8,0:0:0:0:
256,192,44108,1,0,0:0:0:0:
256,192,44233,1,8,0:0:0:0:
256,192,44420,1,0,0:0:0:0:
256,192,44514,1,8,0:0:0:0:
256,192,44608,1,0,0:0:0:0:
256,192,44701,1,0,0:0:0:0:
256,192,44795,1,8,0:0:0:0:
256,192,44983,1,0,0:0:0:0:
256,192,45076,1,0,0:0:0:0:
256,192,45170,1,8,0:0:0:0:
256,192,45358,1,0,0:0:0:0:
256,192,45545,1,8,0:0:0:0:
256,192,45639,1,0,0:0:0:0:
256,192,45733,1,0,0:0:0:0:
256,192,45826,1,0,0:0:0:0:
256,192,45920,1,8,0:0:0:0:
256,192,46108,1,0,0:0:0:0:
256,192,46295,1,8,0:0:0:0:
256,192,46389,1,0,0:0:0:0:
256,192,46576,1,0,0:0:0:0:
256,192,46670,1,8,0:0:0:0:
256,192,46858,1,0,0:0:0:0:
256,192,46951,1,0,0:0:0:0:
256,192,47045,1,8,0:0:0:0:
256,192,47139,1,8,0:0:0:0:
256,192,47233,1,0,0:0:0:0:
256,192,47326,1,0,0:0:0:0:
256,192,47420,1,8,0:0:0:0:
256,192,47514,1,0,0:0:0:0:
256,192,47608,1,8,0:0:0:0:
256,192,47795,1,0,0:0:0:0:
256,192,47889,1,0,0:0:0:0:
256,192,47983,1,8,0:0:0:0:
256,192,48076,1,8,0:0:0:0:
256,192,48170,1,0,0:0:0:0:
256,192,48264,1,8,0:0:0:0:
256,192,48358,1,8,0:0:0:0:
256,192,48545,1,8,0:0:0:0:
256,192,48639,1,0,0:0:0:0:
256,192,48733,1,0,0:0:0:0:
256,192,48920,1,8,0:0:0:0:
256,192,49108,1,0,0:0:0:0:
256,192,49389,1,8,0:0:0:0:
256,192,49483,1,0,0:0:0:0:
256,192,49858,1,8,0:0:0:0:
256,192,49951,1,0,0:0:0:0:
256,192,50045,1,0,0:0:0:0:
256,192,50139,1,0,0:0:0:0:
256,192,50233,1,8,0:0:0:0:
256,192,50326,1,8,0:0:0:0:
256,192,50420,1,8,0:0:0:0:
256,192,50514,1,8,0:0:0:0:
256,192,50608,1,4,0:0:0:0:
256,192,50795,1,8,0:0:0:0:
256,192,50889,1,0,0:0:0:0:
256,192,50983,1,8,0:0:0:0:
256,192,51076,1,8,0:0:0:0:
256,192,51170,1,8,0:0:0:0:
256,192,51264,1,0,0:0:0:0:
256,192,51358,1,0,0:0:0:0:
256,192,51545,1,0,0:0:0:0:
256,192,51639,1,8,0:0:0:0:
256,192,51733,1,8,0:0:0:0:
256,192,51826,1,0,0:0:0:0:
256,192,51920,1,8,0:0:0:0:
256,192,52014,1,0,0:0:0:0:
256,192,52108,1,8,0:0:0:0:
256,192,52295,1,8,0:0:0:0:
256,192,52389,1,0,0:0:0:0:
256,192,52483,1,8,0:0:0:0:
256,192,52576,1,8,0:0:0:0:
256,192,52670,1,0,0:0:0:0:
256,192,52764,1,8,0:0:0:0:
256,192,52858,1,0,0:0:0:0:
256,192,53045,1,0,0:0:0:0:
256,192,53139,1,8,0:0:0:0:
256,192,53233,1,8,0:0:0:0:
256,192,53326,1,0,0:0:0:0:
256,192,53420,1,0,0:0:0:0:
256,192,53514,1,8,0:0:0:0:
256,192,53608,1,0,0:0:0:0:
256,192,53795,1,0,0:0:0:0:
256,192,53889,1,0,0:0:0:0:
256,192,53983,1,0,0:0:0:0:
256,192,54076,1,8,0:0:0:0:
256,192,54170,1,0,0:0:0:0:
256,192,54264,1,8,0:0:0:0:
256,192,54358,1,8,0:0:0:0:
256,192,54545,1,8,0:0:0:0:
256,192,54733,1,0,0:0:0:0:
256,192,54920,1,8,0:0:0:0:
256,192,55108,1,0,0:0:0:0:
256,192,55389,1,8,0:0:0:0:
256,192,55483,1,0,0:0:0:0:
256,192,55670,1,8,0:0:0:0:
256,192,55858,1,0,0:0:0:0:
256,192,56233,1,8,0:0:0:0:
256,192,56420,1,0,0:0:0:0:
256,192,56514,1,0,0:0:0:0:
256,192,56608,1,8,0:0:0:0:
256,192,56701,1,8,0:0:0:0:
256,192,56795,1,8,0:0:0:0:
256,192,56889,1,0,0:0:0:0:
256,192,56983,1,8,0:0:0:0:
256,192,57076,1,8,0:0:0:0:
256,192,57170,1,8,0:0:0:0:
256,192,57264,1,0,0:0:0:0:
256,192,57358,1,0,0:0:0:0:
256,192,57451,1,8,0:0:0:0:
256,192,57545,1,0,0:0:0:0:
256,192,57639,1,8,0:0:0:0:
256,192,57733,1,8,0:0:0:0:
256,192,57826,1,8,0:0:0:0:
256,192,57920,1,0,0:0:0:0:
256,192,58014,1,0,0:0:0:0:
256,192,58108,1,8,0:0:0:0:
256,192,58201,1,8,0:0:0:0:
256,192,58295,1,8,0:0:0:0:
256,192,58389,1,0,0:0:0:0:
256,192,58483,1,8,0:0:0:0:
256,192,58576,1,8,0:0:0:0:
256,192,58670,1,0,0:0:0:0:
256,192,58764,1,0,0:0:0:0:
256,192,58858,1,8,0:0:0:0:
256,192,58920,1,0,0:0:0:0:
256,192,58983,1,0,0:0:0:0:
256,192,59045,1,8,0:0:0:0:
256,192,59108,1,0,0:0:0:0:
256,192,59170,1,0,0:0:0:0:
256,192,59233,1,8,0:0:0:0:
256,192,59608,1,8,0:0:0:0:
256,192,59701,1,8,0:0:0:0:
256,192,59795,1,8,0:0:0:0:
256,192,59889,1,0,0:0:0:0:
256,192,59983,1,8,0:0:0:0:
256,192,60076,1,8,0:0:0:0:
256,192,60170,1,8,0:0:0:0:
256,192,60264,1,0,0:0:0:0:
256,192,60358,1,8,0:0:0:0:
256,192,60451,1,0,0:0:0:0:
256,192,60545,1,0,0:0:0:0:
256,192,60639,1,8,0:0:0:0:
256,192,60733,1,8,0:0:0:0:
256,192,60826,1,8,0:0:0:0:
256,192,60920,1,0,0:0:0:0:
256,192,61014,1,8,0:0:0:0:
256,192,61108,1,8,0:0:0:0:
256,192,61483,1,8,0:0:0:0:
256,192,61670,1,8,0:0:0:0:
256,192,61764,1,0,0:0:0:0:
256,192,61858,1,8,0:0:0:0:
256,192,62045,1,0,0:0:0:0:
256,192,62139,1,0,0:0:0:0:
256,192,62233,1,0,0:0:0:0:
256,192,62420,1,0,0:0:0:0:
256,192,62514,1,0,0:0:0:0:
256,192,62608,1,8,0:0:0:0:
256,192,62795,1,8,0:0:0:0:
256,192,62983,1,0,0:0:0:0:
256,192,63170,1,8,0:0:0:0:
256,192,63264,1,8,0:0:0:0:
256,192,63358,1,0,0:0:0:0:
256,192,63545,1,8,0:0:0:0:
256,192,63733,1,0,0:0:0:0:
256,192,63920,1,0,0:0:0:0:
256,192,64014,1,8,0:0:0:0:
256,192,64108,1,0,0:0:0:0:
256,192,64201,1,8,0:0:0:0:
256,192,64295,1,8,0:0:0:0:
256,192,64389,1,0,0:0:0:0:
256,192,64483,1,0,0:0:0:0:
256,192,64670,1,8,0:0:0:0:
256,192,64764,1,8,0:0:0:0:
256,192,64858,1,0,0:0:0:0:
256,192,65045,1,8,0:0:0:0:
256,192,65233,1,0,0:0:0:0:
256,192,65420,1,8,0:0:0:0:
256,192,65608,1,8,0:0:0:0:
256,192,65795,1,8,0:0:0:0:
256,192,65983,1,0,0:0:0:0:
256,192,66170,1,8,0:0:0:0:
256,192,66264,1,8,0:0:0:0:
256,192,66358,1,0,0:0:0:0:
256,192,66451,1,8,0:0:0:0:
256,192,66545,1,0,0:0:0:0:
256,192,66733,1,0,0:0:0:0:
256,192,66920,1,8,0:0:0:0:
256,192,67014,1,8,0:0:0:0:
256,192,67108,1,0,0:0:0:0:
256,192,67201,1,0,0:0:0:0:
256,192,67295,1,8,0:0:0:0:
256,192,67389,1,8,0:0:0:0:
256,192,67483,1,0,0:0:0:0:
256,192,67576,1,8,0:0:0:0:
256,192,67670,1,8,0:0:0:0:
256,192,67764,1,0,0:0:0:0:
256,192,67858,1,0,0:0:0:0:
256,192,68045,1,8,0:0:0:0:
256,192,68233,1,0,0:0:0:0:
256,192,68420,1,8,0:0:0:0:
256,192,68608,1,8,0:0:0:0:
256,192,68795,1,8,0:0:0:0:
256,192,68983,1,0,0:0:0:0:
256,192,69170,1,8,0:0:0:0:
256,192,69264,1,8,0:0:0:0:
256,192,69358,1,0,0:0:0:0:
256,192,69545,1,8,0:0:0:0:
256,192,69733,1,0,0:0:0:0:
256,192,69920,1,0,0:0:0:0:
256,192,70014,1,8,0:0:0:0:
256,192,70108,1,0,0:0:0:0:
256,192,70201,1,8,0:0:0:0:
256,192,70295,1,8,0:0:0:0:
256,192,70389,1,8,0:0:0:0:
256,192,70483,1,0,0:0:0:0:
256,192,70670,1,8,0:0:0:0:
256,192,70764,1,8,0:0:0:0:
256,192,70858,1,0,0:0:0:0:
256,192,71045,1,8,0:0:0:0:
256,192,71139,1,0,0:0:0:0:
256,192,71233,1,0,0:0:0:0:
256,192,71420,1,8,0:0:0:0:
256,192,71608,1,8,0:0:0:0:
256,192,71795,1,8,0:0:0:0:
256,192,71983,1,0,0:0:0:0:
256,192,72170,1,8,0:0:0:0:
256,192,72358,1,0,0:0:0:0:
256,192,72545,1,8,0:0:0:0:
256,192,72733,1,0,0:0:0:0:
256,192,72826,1,0,0:0:0:0:
256,192,72920,1,8,0:0:0:0:
256,192,73108,1,0,0:0:0:0:
256,192,73201,1,8,0:0:0:0:
256,192,73295,1,8,0:0:0:0:
256,192,73389,1,8,0:0:0:0:
256,192,73483,1,0,0:0:0:0:
256,192,73670,1,8,0:0:0:0:
256,192,73858,1,8,0:0:0:0:
256,192,73951,1,8,0:0:0:0:
256,192,74045,1,8,0:0:0:0:
256,192,74139,1,8,0:0:0:0:
256,192,74233,1,0,0:0:0:0:
256,192,74358,1,0,0:0:0:0:
256,192,74483,1,0,0:0:0:0:
256,192,74608,1,8,0:0:0:0:
256,192,74733,1,8,0:0:0:0:
256,192,74858,1,0,0:0:0:0:
256,192,74983,1,8,0:0:0:0:
256,192,75108,1,8,0:0:0:0:
256,192,75233,1,0,0:0:0:0:
256,192,75358,1,8,0:0:0:0:
256,192,75483,1,0,0:0:0:0:
256,192,75608,1,8,0:0:0:0:
256,192,75733,1,8,0:0:0:0:
256,192,75858,1,0,0:0:0:0:
256,192,75983,1,8,0:0:0:0:
256,192,76108,1,8,0:0:0:0:
256,192,76233,1,8,0:0:0:0:
256,192,76358,1,0,0:0:0:0:
256,192,76483,1,8,0:0:0:0:
256,192,76608,1,8,0:0:0:0:
256,192,76733,1,0,0:0:0:0:
256,192,76858,1,8,0:0:0:0:
256,192,76983,1,0,0:0:0:0:
256,192,77108,1,0,0:0:0:0:
256,192,77233,1,8,0:0:0:0:
256,192,77358,1,0,0:0:0:0:
256,192,77483,1,0,0:0:0:0:
256,192,77608,1,8,0:0:0:0:
256,192,77733,1,0,0:0:0:0:
256,192,77858,1,8,0:0:0:0:
256,192,77983,1,8,0:0:0:0:
256,192,78076,1,0,0:0:0:0:
256,192,78170,1,8,0:0:0:0:
256,192,78233,1,0,0:0:0:0:
256,192,78295,1,0,0:0:0:0:
256,192,78358,1,8,0:0:0:0:
256,192,78451,1,8,0:0:0:0:
256,192,78545,1,0,0:0:0:0:
256,192,78639,1,0,0:0:0:0:
256,192,78733,1,8,0:0:0:0:
256,192,78826,1,0,0:0:0:0:
256,192,78920,1,8,0:0:0:0:
256,192,79014,1,0,0:0:0:0:
256,192,79108,1,8,0:0:0:0:
256,192,79233,1,0,0:0:0:0:
256,192,79358,1,8,0:0:0:0:
256,192,79483,1,8,0:0:0:0:
256,192,79608,1,0,0:0:0:0:
256,192,79733,1,8,0:0:0:0:
256,192,79858,1,8,0:0:0:0:
256,192,79983,1,0,0:0:0:0:
256,192,80108,1,0,0:0:0:0:
256,192,80233,1,8,0:0:0:0:
256,192,80326,1,8,0:0:0:0:
256,192,80420,1,8,0:0:0:0:
256,192,80514,1,0,0:0:0:0:
256,192,80608,1,8,0:0:0:0:
256,192,80795,1,0,0:0:0:0:
256,192,80889,1,8,0:0:0:0:
256,192,80983,1,8,0:0:0:0:
256,192,81076,1,0,0:0:0:0:
256,192,81170,1,8,0:0:0:0:
256,192,81545,1,8,0:0:0:0:
256,192,81639,1,8,0:0:0:0:
256,192,81733,1,0,0:0:0:0:
256,192,81826,1,0,0:0:0:0:
256,192,81920,1,8,0:0:0:0:
256,192,82295,1,0,0:0:0:0:
256,192,82389,1,0,0:0:0:0:
256,192,82483,1,8,0:0:0:0:
256,192,82670,1,8,0:0:0:0:
256,192,83045,1,8,0:0:0:0:
256,192,83233,1,0,0:0:0:0:
256,192,83420,1,8,0:0:0:0:
256,192,83795,1,0,0:0:0:0:
256,192,83889,1,0,0:0:0:0:
256,192,83983,1,8,0:0:0:0:
256,192,84076,1,0,0:0:0:0:
256,192,84170,1,8,0:0:0:0:
256,192,84545,1,0,0:0:0:0:
256,192,84639,1,8,0:0:0:0:
256,192,84733,1,8,0:0:0:0:
256,192,84826,1,0,0:0:0:0:
256,192,84920,1,8,0:0:0:0:
256,192,85295,1,8,0:0:0:0:
256,192,85389,1,0,0:0:0:0:
256,192,85483,1,8,0:0:0:0:
256,192,85670,1,8,0:0:0:0:
256,192,86045,1,0,0:0:0:0:
256,192,86233,1,8,0:0:0:0:
256,192,86608,1,0,0:0:0:0:
256,192,86983,1,8,0:0:0:0:
256,192,87076,1,8,0:0:0:0:
256,192,87170,1,8,0:0:0:0:
256,192,87264,1,0,0:0:0:0:
256,192,87358,1,8,0:0:0:0:
256,192,87451,1,0,0:0:0:0:
256,192,87545,1,8,0:0:0:0:
256,192,87639,1,8,0:0:0:0:
256,192,87733,1,0,0:0:0:0:
256,192,87826,1,0,0:0:0:0:
256,192,87920,1,0,0:0:0:0:
256,192,88014,1,8,0:0:0:0:
256,192,88108,1,0,0:0:0:0:
256,192,88858,1,8,0:0:0:0:
256,192,88951,1,8,0:0:0:0:
256,192,89045,1,8,0:0:0:0:
256,192,89139,1,8,0:0:0:0:
256,192,89233,1,0,0:0:0:0:
256,192,89326,1,0,0:0:0:0:
256,192,89420,1,0,0:0:0:0:
256,192,89608,1,0,0:0:0:0:
256,192,89889,1,0,0:0:0:0:
256,192,90170,1,8,0:0:0:0:
256,192,90545,1,8,0:0:0:0:
256,192,90733,1,0,0:0:0:0:
256,192,90920,1,0,0:0:0:0:
256,192,91108,1,8,0:0:0:0:
256,192,91295,1,8,0:0:0:0:
256,192,91483,1,8,0:0:0:0:
256,192,91670,1,0,0:0:0:0:
256,192,91858,1,0,0:0:0:0:
256,192,91951,1,8,0:0:0:0:
256,192,92139,1,8,0:0:0:0:
256,192,92233,1,0,0:0:0:0:
256,192,92420,1,8,0:0:0:0:
256,192,92608,1,0,0:0:0:0:
256,192,92795,1,8,0:0:0:0:
256,192,92889,1,0,0:0:0:0:
256,192,93076,1,0,0:0:0:0:
256,192,93170,1,8,0:0:0:0:
256,192,93545,1,8,0:0:0:0:
256,192,93733,1,0,0:0:0:0:
256,192,93920,1,0,0:0:0:0:
256,192,94108,1,8,0:0:0:0:
256,192,94295,1,8,0:0:0:0:
256,192,94483,1,0,0:0:0:0:
256,192,94670,1,8,0:0:0:0:
256,192,94858,1,0,0:0:0:0:
256,192,94951,1,8,0:0:0:0:
256,192,95139,1,8,0:0:0:0:
256,192,95233,1,0,0:0:0:0:
256,192,95420,1,8,0:0:0:0:
256,192,95514,1,8,0:0:0:0:
256,192,95608,1,0,0:0:0:0:
256,192,95889,1,0,0:0:0:0:
256,192,96170,1,8,0:0:0:0:
256,192,96545,1,8,0:0:0:0:
256,192,96733,1,0,0:0:0:0:
256,192,96920,1,0,0:0:0:0:
256,192,97108,1,8,0:0:0:0:
256,192,97295,1,8,0:0:0:0:
256,192,97483,1,8,0:0:0:0:
256,192,97670,1,0,0:0:0:0:
256,192,97858,1,0,0:0:0:0:
256,192,97951,1,8,0:0:0:0:
256,192,98139,1,8,0:0:0:0:
256,192,98233,1,0,0:0:0:0:
256,192,98420,1,8,0:0:0:0:
256,192,98608,1,0,0:0:0:0:
256,192,98733,1,0,0:0:0:0:
256,192,98858,1,8,0:0:0:0:
256,192,98983,1,0,0:0:0:0:
256,192,99108,1,8,0:0:0:0:
256,192,99233,1,0,0:0:0:0:
256,192,99358,1,8,0:0:0:0:
256,192,99483,1,0,0:0:0:0:
256,192,99608,1,8,0:0:0:0:
256,192,99733,1,8,0:0:0:0:
256,192,99858,1,0,0:0:0:0:
256,192,99983,1,0,0:0:0:0:
256,192,100108,1,8,0:0:0:0:
256,192,100233,1,8,0:0:0:0:
256,192,100358,1,0,0:0:0:0:
256,192,100483,1,0,0:0:0:0:
256,192,100608,1,0,0:0:0:0:
256,192,100733,1,8,0:0:0:0:
256,192,100858,1,0,0:0:0:0:
256,192,100983,1,8,0:0:0:0:
256,192,101108,1,0,0:0:0:0:
256,192,101233,1,8,0:0:0:0:
256,192,101326,1,0,0:0:0:0:
256,192,101420,1,8,0:0:0:0:
256,192,101514,1,8,0:0:0:0:
256,192,101608,1,0,0:0:0:0:
256,192,101889,1,0,0:0:0:0:
256,192,102170,1,8,0:0:0:0:
256,192,102545,1,8,0:0:0:0:
256,192,102733,1,0,0:0:0:0:
256,192,102920,1,0,0:0:0:0:
256,192,103108,1,8,0:0:0:0:
256,192,103295,1,8,0:0:0:0:
256,192,103483,1,8,0:0:0:0:
256,192,103670,1,0,0:0:0:0:
256,192,103858,1,0,0:0:0:0:
256,192,103951,1,8,0:0:0:0:
256,192,104139,1,8,0:0:0:0:
256,192,104233,1,0,0:0:0:0:
256,192,104420,1,8,0:0:0:0:
256,192,104608,1,0,0:0:0:0:
256,192,104889,1,0,0:0:0:0:
256,192,104983,1,0,0:0:0:0:
256,192,105170,1,8,0:0:0:0:
256,192,105545,1,8,0:0:0:0:
256,192,105733,1,0,0:0:0:0:
256,192,105920,1,0,0:0:0:0:
256,192,106108,1,8,0:0:0:0:
256,192,106295,1,8,0:0:0:0:
256,192,106483,1,0,0:0:0:0:
256,192,106670,1,8,0:0:0:0:
256,192,106858,1,0,0:0:0:0:
256,192,106951,1,8,0:0:0:0:
256,192,107139,1,8,0:0:0:0:
256,192,107233,1,0,0:0:0:0:
256,192,107326,1,0,0:0:0:0:
256,192,107420,1,8,0:0:0:0:
256,192,107514,1,8,0:0:0:0:
256,192,107608,1,0,0:0:0:0:
256,192,107983,1,0,0:0:0:0:
256,192,108358,1,0,0:0:0:0:
256,192,108733,1,0,0:0:0:0:
256,192,109108,1,8,0:0:0:0:
256,192,109483,1,8,0:0:0:0:
256,192,109858,1,8,0:0:0:0:
256,192,110233,1,8,0:0:0:0:
256,192,110420,1,0,0:0:0:0:
256,192,110795,1,0,0:0:0:0:
256,192,110889,1,0,0:0:0:0:
256,192,110983,1,8,0:0:0:0:
256,192,111170,1,0,0:0:0:0:
256,192,111264,1,0,0:0:0:0:
256,192,111358,1,8,0:0:0:0:
256,192,111545,1,0,0:0:0:0:
256,192,111639,1,0,0:0:0:0:
256,192,111733,1,8,0:0:0:0:
256,192,111920,1,0,0:0:0:0:
256,192,112014,1,0,0:0:0:0:
256,192,112108,1,8,0:0:0:0:
256,192,112295,1,0,0:0:0:0:
256,192,112389,1,8,0:0:0:0:
256,192,112483,1,8,0:0:0:0:
256,192,112670,1,0,0:0:0:0:
256,192,112764,1,8,0:0:0:0:
256,192,112858,1,8,0:0:0:0:
256,192,113045,1,0,0:0:0:0:
256,192,113139,1,8,0:0:0:0:
256,192,113233,1,8,0:0:0:0:
256,192,113420,1,0,0:0:0:0:
256,192,113514,1,8,0:0:0:0:
256,192,113608,1,8,0:0:0:0:
256,192,115108,1,8,0:0:0:0:
256,192,115483,1,12,0:0:0:0:
256,192,115858,1,12,0:0:0:0:
256,192,116233,1,4,0:0:0:0:
256,192,116608,1,8,0:0:0:0:
256,192,116701,1,8,0:0:0:0:
256,192,116795,1,8,0:0:0:0:
256,192,116889,1,0,0:0:0:0:
256,192,116983,1,8,0:0:0:0:
256,192,117076,1,8,0:0:0:0:
256,192,117170,1,0,0:0:0:0:
256,192,117264,1,0,0:0:0:0:
256,192,117358,1,8,0:0:0:0:
256,192,117451,1,8,0:0:0:0:
256,192,117545,1,8,0:0:0:0:
256,192,117639,1,0,0:0:0:0:
256,192,117733,1,0,0:0:0:0:
256,192,117826,1,0,0:0:0:0:
256,192,117920,1,8,0:0:0:0:
256,192,118014,1,8,0:0:0:0:
256,192,118108,1,0,0:0:0:0:
256,192,118295,1,8,0:0:0:0:
256,192,118358,1,0,0:0:0:0:
256,192,118420,1,0,0:0:0:0:
256,192,118483,1,8,0:0:0:0:
256,192,118670,1,8,0:0:0:0:
256,192,118764,1,0,0:0:0:0:
256,192,118858,1,8,0:0:0:0:
256,192,119045,1,0,0:0:0:0:
256,192,119233,1,8,0:0:0:0:
256,192,119420,1,8,0:0:0:0:
256,192,119608,1,8,0:0:0:0:
256,192,119701,1,0,0:0:0:0:
256,192,119889,1,0,0:0:0:0:
256,192,120076,1,0,0:0:0:0:
256,192,120170,1,0,0:0:0:0:
256,192,120264,1,8,0:0:0:0:
256,192,120358,1,8,0:0:0:0:
256,192,120451,1,0,0:0:0:0:
256,192,120545,1,8,0:0:0:0:
256,192,120733,1,0,0:0:0:0:
256,192,120920,1,8,0:0:0:0:
256,192,121108,1,8,0:0:0:0:
256,192,121295,1,8,0:0:0:0:
256,192,121389,1,0,0:0:0:0:
256,192,121576,1,0,0:0:0:0:
256,192,121670,1,8,0:0:0:0:
256,192,121858,1,8,0:0:0:0:
256,192,121951,1,0,0:0:0:0:
256,192,122045,1,8,0:0:0:0:
256,192,122139,1,8,0:0:0:0:
256,192,122233,1,0,0:0:0:0:
256,192,122326,1,8,0:0:0:0:
256,192,122420,1,0,0:0:0:0:
256,192,122608,1,8,0:0:0:0:
256,192,122701,1,8,0:0:0:0:
256,192,122795,1,8,0:0:0:0:
256,192,122889,1,0,0:0:0:0:
256,192,122983,1,0,0:0:0:0:
256,192,123170,1,0,0:0:0:0:
256,192,123233,1,0,0:0:0:0:
256,192,123295,1,0,0:0:0:0:
256,192,123358,1,8,0:0:0:0:
256,192,123545,1,0,0:0:0:0:
256,192,123733,1,8,0:0:0:0:
256,192,123920,1,8,0:0:0:0:
256,192,124014,1,0,0:0:0:0:
256,192,124108,1,0,0:0:0:0:
256,192,124483,1,8,0:0:0:0:
256,192,124576,1,0,0:0:0:0:
256,192,124670,1,8,0:0:0:0:
256,192,124764,1,8,0:0:0:0:
256,192,124858,1,8,0:0:0:0:
256,192,125045,1,8,0:0:0:0:
256,192,125233,1,8,0:0:0:0:
256,192,125420,1,0,0:0:0:0:
256,192,125608,1,0,0:0:0:0:
256,192,125795,1,0,0:0:0:0:
256,192,125889,1,0,0:0:0:0:
256,192,125983,1,8,0:0:0:0:
256,192,126045,1,8,0:0:0:0:
256,192,126108,1,8,0:0:0:0:
256,192,126170,1,0,0:0:0:0:
256,192,126358,1,0,0:0:0:0:
256,192,126545,1,0,0:0:0:0:
256,192,126639,1,0,0:0:0:0:
256,192,126733,1,8,0:0:0:0:
256,192,126795,1,8,0:0:0:0:
256,192,126858,1,0,0:0:0:0:
256,192,126920,1,8,0:0:0:0:
256,192,127108,1,0,0:0:0:0:
256,192,127295,1,0,0:0:0:0:
256,192,127389,1,0,0:0:0:0:
256,192,127483,1,8,0:0:0:0:
256,192,127545,1,0,0:0:0:0:
256,192,127608,1,8,0:0:0:0:
256,192,127670,1,8,0:0:0:0:
256,192,127858,1,0,0:0:0:0:
256,192,127951,1,0,0:0:0:0:
256,192,128045,1,8,0:0:0:0:
256,192,128139,1,0,0:0:0:0:
256,192,128233,1,8,0:0:0:0:
256,192,128326,1,8,0:0:0:0:
256,192,128420,1,8,0:0:0:0:
256,192,128608,1,8,0:0:0:0:
256,192,128795,1,0,0:0:0:0:
256,192,128889,1,8,0:0:0:0:
256,192,129076,1,0,0:0:0:0:
256,192,129170,1,8,0:0:0:0:
256,192,129264,1,0,0:0:0:0:
256,192,129358,1,8,0:0:0:0:
256,192,129451,1,8,0:0:0:0:
256,192,129545,1,0,0:0:0:0:
256,192,129639,1,0,0:0:0:0:
256,192,129733,1,8,0:0:0:0:
256,192,129920,1,8,0:0:0:0:
256,192,129983,1,8,0:0:0:0:
256,192,130045,1,8,0:0:0:0:
256,192,130108,1,8,0:0:0:0:
256,192,130295,1,8,0:0:0:0:
256,192,130358,1,8,0:0:0:0:
256,192,130420,1,8,0:0:0:0:
256,192,130483,1,0,0:0:0:0:
256,192,130670,1,8,0:0:0:0:
256,192,130733,1,8,0:0:0:0:
256,192,130795,1,0,0:0:0:0:
256,192,130858,1,0,0:0:0:0:
256,192,131045,1,8,0:0:0:0:
256,192,131108,1,0,0:0:0:0:
256,192,131170,1,0,0:0:0:0:
256,192,131233,1,0,0:0:0:0:
256,192,131420,1,8,0:0:0:0:
256,192,131514,1,8,0:0:0:0:
256,192,131608,1,8,0:0:0:0:
256,192,131701,1,8,0:0:0:0:
256,192,131795,1,0,0:0:0:0:
256,192,131889,1,8,0:0:0:0:
256,192,131983,1,0,0:0:0:0:
256,192,132076,1,0,0:0:0:0:
256,192,132170,1,8,0:0:0:0:
256,192,132264,1,0,0:0:0:0:
256,192,132358,1,8,0:0:0:0:
256,192,132451,1,8,0:0:0:0:
256,192,132545,1,8,0:0:0:0:
256,192,132639,1,0,0:0:0:0:
256,192,132733,1,0,0:0:0:0:
256,192,132920,1,0,0:0:0:0:
256,192,132983,1,0,0:0:0:0:
256,192,133045,1,0,0:0:0:0:
256,192,133108,1,8,0:0:0:0:
256,192,133295,1,0,0:0:0:0:
256,192,133389,1,0,0:0:0:0:
256,192,133483,1,8,0:0:0:0:
256,192,133545,1,8,0:0:0:0:
256,192,133608,1,8,0:0:0:0:
256,192,133670,1,0,0:0:0:0:
256,192,133764,1,8,0:0:0:0:
256,192,133858,1,0,0:0:0:0:
256,192,134045,1,0,0:0:0:0:
256,192,134108,1,8,0:0:0:0:
256,192,134170,1,8,0:0:0:0:
256,192,134233,1,0,0:0:0:0:
256,192,134326,1,0,0:0:0:0:
256,192,134420,1,8,0:0:0:0:
256,192,134608,1,8,0:0:0:0:
256,192,134701,1,8,0:0:0:0:
256,192,134795,1,0,0:0:0:0:
256,192,134889,1,8,0:0:0:0:
256,192,134983,1,8,0:0:0:0:
256,192,135076,1,8,0:0:0:0:
256,192,135170,1,0,0:0:0:0:
256,192,135264,1,0,0:0:0:0:
256,192,135358,1,8,0:0:0:0:
256,192,135545,1,8,0:0:0:0:
256,192,135639,1,0,0:0:0:0:
256,192,135733,1,8,0:0:0:0:
256,192,135826,1,0,0:0:0:0:
256,192,135920,1,8,0:0:0:0:
256,192,136014,1,8,0:0:0:0:
256,192,136108,1,0,0:0:0:0:
256,192,136295,1,0,0:0:0:0:
256,192,136389,1,8,0:0:0:0:
256,192,136576,1,8,0:0:0:0:
256,192,136670,1,0,0:0:0:0:
256,192,136858,1,0,0:0:0:0:
256,192,136951,1,8,0:0:0:0:
256,192,137139,1,8,0:0:0:0:
256,192,137233,1,0,0:0:0:0:
256,192,137326,1,8,0:0:0:0:
256,192,137420,1,8,0:0:0:0:
256,192,137514,1,0,0:0:0:0:
256,192,137608,1,8,0:0:0:0:
256,192,137795,1,8,0:0:0:0:
256,192,137983,1,0,0:0:0:0:
256,192,138170,1,8,0:0:0:0:
256,192,138358,1,8,0:0:0:0:
256,192,138451,1,8,0:0:0:0:
256,192,138545,1,8,0:0:0:0:
256,192,138639,1,8,0:0:0:0:
256,192,138733,1,0,0:0:0:0:
256,192,138920,1,8,0:0:0:0:
256,192,139014,1,0,0:0:0:0:
256,192,139108,1,8,0:0:0:0:
256,192,139296,1,8,0:0:0:0:
256,192,139483,1,0,0:0:0:0:
256,192,139671,1,8,0:0:0:0:
256,192,139858,1,0,0:0:0:0:
256,192,140046,1,0,0:0:0:0:
256,192,140139,1,8,0:0:0:0:
256,192,140326,1,8,0:0:0:0:
256,192,140421,1,0,0:0:0:0:
256,192,140608,1,8,0:0:0:0:
256,192,140701,1,0,0:0:0:0:
256,192,140796,1,0,0:0:0:0:
256,192,140889,1,0,0:0:0:0:
256,192,140983,1,8,0:0:0:0:
256,192,141171,1,8,0:0:0:0:
256,192,141358,1,0,0:0:0:0:
256,192,141546,1,0,0:0:0:0:
256,192,141639,1,0,0:0:0:0:
256,192,141733,1,8,0:0:0:0:
256,192,141921,1,8,0:0:0:0:
256,192,142108,1,0,0:0:0:0:
256,192,142295,1,8,0:0:0:0:
256,192,142389,1,0,0:0:0:0:
256,192,142576,1,0,0:0:0:0:
256,192,142670,1,0,0:0:0:0:
256,192,142858,1,0,0:0:0:0:
256,192,143045,1,8,0:0:0:0:
256,192,143233,1,0,0:0:0:0:
256,192,143420,1,8,0:0:0:0:
256,192,143514,1,8,0:0:0:0:
256,192,143608,1,0,0:0:0:0:
256,192,143701,1,0,0:0:0:0:
256,192,143795,1,8,0:0:0:0:
256,192,143936,1,0,0:0:0:0:
256,192,144076,1,0,0:0:0:0:
256,192,144217,1,8,0:0:0:0:
256,192,144358,1,8,0:0:0:0:
256,192,144451,1,0,0:0:0:0:
256,192,144545,1,8,0:0:0:0:
256,192,144670,1,8,0:0:0:0:
256,192,144808,1,0,0:0:0:0:
256,192,144883,1,0,0:0:0:0:
256,192,144958,1,8,0:0:0:0:
256,192,145108,1,0,0:0:0:0:
256,192,145233,1,8,0:0:0:0:
256,192,145295,1,8,0:0:0:0:
256,192,145358,1,0,0:0:0:0:
256,192,145483,1,0,0:0:0:0:
256,192,145558,1,0,0:0:0:0:
256,192,145633,1,8,0:0:0:0:
256,192,145708,1,8,0:0:0:0:
256,192,145783,1,8,0:0:0:0:
256,192,145858,1,0,0:0:0:0:
256,192,145983,1,8,0:0:0:0:
256,192,146045,1,8,0:0:0:0:
256,192,146108,1,0,0:0:0:0:
256,192,146233,1,0,0:0:0:0:
256,192,146308,1,0,0:0:0:0:
256,192,146383,1,8,0:0:0:0:
256,192,146458,1,0,0:0:0:0:
256,192,146608,1,8,0:0:0:0:
256,192,146795,1,8,0:0:0:0:
256,192,146889,1,0,0:0:0:0:
256,192,146983,1,0,0:0:0:0:
256,192,147170,1,0,0:0:0:0:
256,192,147264,1,8,0:0:0:0:
256,192,147358,1,0,0:0:0:0:
256,192,147545,1,8,0:0:0:0:
256,192,147639,1,8,0:0:0:0:
256,192,147733,1,0,0:0:0:0:
256,192,147826,1,8,0:0:0:0:
256,192,148108,1,8,0:0:0:0:
256,192,148295,1,8,0:0:0:0:
256,192,148389,1,8,0:0:0:0:
256,192,148483,1,0,0:0:0:0:
256,192,148576,1,0,0:0:0:0:
256,192,148670,1,0,0:0:0:0:
256,192,148764,1,0,0:0:0:0:
256,192,148858,1,8,0:0:0:0:
256,192,148951,1,8,0:0:0:0:
256,192,149045,1,8,0:0:0:0:
256,192,149139,1,0,0:0:0:0:
256,192,149233,1,0,0:0:0:0:
256,192,149420,1,0,0:0:0:0:
256,192,149514,1,8,0:0:0:0:
256,192,149608,1,0,0:0:0:0:
256,192,149701,1,0,0:0:0:0:
256,192,149795,1,8,0:0:0:0:
256,192,149889,1,0,0:0:0:0:
256,192,149983,1,8,0:0:0:0:
256,192,150170,1,0,0:0:0:0:
256,192,150264,1,8,0:0:0:0:
256,192,150358,1,0,0:0:0:0:
256,192,150451,1,8,0:0:0:0:
256,192,150545,1,8,0:0:0:0:
256,192,150733,1,8,0:0:0:0:
256,192,150826,1,8,0:0:0:0:
256,192,150920,1,8,0:0:0:0:
256,192,151014,1,0,0:0:0:0:
256,192,151108,1,8,0:0:0:0:
256,192,151201,1,8,0:0:0:0:
256,192,151295,1,8,0:0:0:0:
256,192,151389,1,0,0:0:0:0:
256,192,151483,1,8,0:0:0:0:
256,192,151576,1,8,0:0:0:0:
256,192,151670,1,0,0:0:0:0:
256,192,151764,1,0,0:0:0:0:
256,192,151858,1,8,0:0:0:0:
256,192,151951,1,8,0:0:0:0:
256,192,152045,1,0,0:0:0:0:
256,192,152139,1,0,0:0:0:0:
256,192,152233,1,8,0:0:0:0:
256,192,152326,1,0,0:0:0:0:
256,192,152420,1,0,0:0:0:0:
256,192,152514,1,0,0:0:0:0:
256,192,152608,1,8,0:0:0:0:
256,192,152701,1,8,0:0:0:0:
256,192,152795,1,8,0:0:0:0:
256,192,152889,1,0,0:0:0:0:
256,192,152983,1,0,0:0:0:0:
256,192,153076,1,8,0:0:0:0:
256,192,153170,1,8,0:0:0:0:
256,192,153264,1,8,0:0:0:0:
256,192,153358,1,0,0:0:0:0:
256,192,153451,1,8,0:0:0:0:
256,192,153545,1,8,0:0:0:0:
256,192,153639,1,0,0:0:0:0:
256,192,153733,1,8,0:0:0:0:
256,192,153826,1,0,0:0:0:0:
256,192,153920,1,0,0:0:0:0:
256,192,154014,1,0,0:0:0:0:
256,192,154108,1,8,0:0:0:0:
256,192,154201,1,0,0:0:0:0:
256,192,154295,1,0,0:0:0:0:
256,192,154389,1,8,0:0:0:0:
256,192,154483,1,8,0:0:0:0:
256,192,154576,1,0,0:0:0:0:
256,192,154670,1,0,0:0:0:0:
256,192,154764,1,8,0:0:0:0:
256,192,154858,1,8,0:0:0:0:
256,192,155045,1,0,0:0:0:0:
256,192,155139,1,0,0:0:0:0:
256,192,155233,1,8,0:0:0:0:
256,192,155420,1,0,0:0:0:0:
256,192,155514,1,0,0:0:0:0:
256,192,155608,1,8,0:0:0:0:
256,192,155701,1,0,0:0:0:0:
256,192,155795,1,8,0:0:0:0:
256,192,155889,1,0,0:0:0:0:
256,192,155983,1,8,0:0:0:0:
256,192,156076,1,0,0:0:0:0:
256,192,156170,1,0,0:0:0:0:
256,192,156264,1,8,0:0:0:0:
256,192,156358,1,8,0:0:0:0:
256,192,156451,1,0,0:0:0:0:
256,192,156545,1,8,0:0:0:0:
256,192,156639,1,0,0:0:0:0:
256,192,156733,1,8,0:0:0:0:
256,192,156826,1,8,0:0:0:0:
256,192,156920,1,0,0:0:0:0:
256,192,157014,1,0,0:0:0:0:
256,192,157108,1,8,0:0:0:0:
256,192,157202,1,0,0:0:0:0:
256,192,157296,1,8,0:0:0:0:
256,192,157389,1,0,0:0:0:0:
256,192,157483,1,8,0:0:0:0:
256,192,157577,1,8,0:0:0:0:
256,192,157671,1,0,0:0:0:0:
256,192,157764,1,0,0:0:0:0:
256,192,157858,1,8,0:0:0:0:
256,192,157951,1,8,0:0:0:0:
256,192,158045,1,8,0:0:0:0:
256,192,158139,1,8,0:0:0:0:
256,192,158233,1,8,0:0:0:0:
256,192,158326,1,8,0:0:0:0:
256,192,158420,1,8,0:0:0:0:
256,192,158514,1,8,0:0:0:0:
256,192,158608,1,0,0:0:0:0:
256,192,158701,1,8,0:0:0:0:
256,192,158795,1,8,0:0:0:0:
256,192,158889,1,8,0:0:0:0:
256,192,158983,1,8,0:0:0:0:
256,192,159170,1,0,0:0:0:0:
256,192,159263,1,8,0:0:0:0:
256,192,159357,1,8,0:0:0:0:
256,192,159451,1,8,0:0:0:0:
256,192,159545,1,8,0:0:0:0:
256,192,159733,1,0,0:0:0:0:
256,192,159826,1,8,0:0:0:0:
256,192,159920,1,8,0:0:0:0:
256,192,160108,1,8,0:0:0:0:
256,192,160295,1,0,0:0:0:0:
256,192,160388,1,8,0:0:0:0:
256,192,160482,1,8,0:0:0:0:
256,192,160576,1,8,0:0:0:0:
256,192,160670,1,8,0:0:0:0:
256,192,160858,1,0,0:0:0:0:
256,192,160951,1,8,0:0:0:0:
256,192,161045,1,8,0:0:0:0:
256,192,161139,1,8,0:0:0:0:
256,192,161233,1,8,0:0:0:0:
256,192,161420,1,0,0:0:0:0:
256,192,161514,1,8,0:0:0:0:
256,192,161608,1,0,0:0:0:0:
256,192,161701,1,0,0:0:0:0:
256,192,161795,1,8,0:0:0:0:
256,192,161983,1,0,0:0:0:0:
256,192,162076,1,8,0:0:0:0:
256,192,162170,1,8,0:0:0:0:
256,192,162264,1,8,0:0:0:0:
256,192,162358,1,8,0:0:0:0:
256,192,162545,1,0,0:0:0:0:
256,192,162638,1,8,0:0:0:0:
256,192,162732,1,8,0:0:0:0:
256,192,162826,1,8,0:0:0:0:
256,192,162920,1,8,0:0:0:0:
256,192,163108,1,0,0:0:0:0:
256,192,163201,1,8,0:0:0:0:
256,192,163295,1,8,0:0:0:0:
256,192,163389,1,8,0:0:0:0:
256,192,163483,1,8,0:0:0:0:
256,192,163670,1,0,0:0:0:0:
256,192,163763,1,8,0:0:0:0:
256,192,163857,1,8,0:0:0:0:
256,192,163951,1,8,0:0:0:0:
256,192,164045,1,8,0:0:0:0:
256,192,164233,1,0,0:0:0:0:
256,192,164326,1,8,0:0:0:0:
256,192,164420,1,8,0:0:0:0:
256,192,164514,1,0,0:0:0:0:
256,192,164608,1,0,0:0:0:0:
256,192,164795,1,8,0:0:0:0:
256,192,164983,1,0,0:0:0:0:
256,192,165076,1,0,0:0:0:0:
256,192,165170,1,8,0:0:0:0:
256,192,165358,1,0,0:0:0:0:
256,192,165451,1,0,0:0:0:0:
256,192,165545,1,8,0:0:0:0:
256,192,165639,1,0,0:0:0:0:
256,192,165733,1,0,0:0:0:0:
256,192,165826,1,0,0:0:0:0:
256,192,165920,1,8,0:0:0:0:
256,192,166108,1,0,0:0:0:0:
256,192,166295,1,8,0:0:0:0:
256,192,166483,1,0,0:0:0:0:
256,192,166576,1,0,0:0:0:0:
256,192,166670,1,8,0:0:0:0:
256,192,166858,1,0,0:0:0:0:
256,192,166951,1,0,0:0:0:0:
256,192,167045,1,8,0:0:0:0:
256,192,167139,1,0,0:0:0:0:
256,192,167233,1,0,0:0:0:0:
256,192,167326,1,0,0:0:0:0:
256,192,167420,1,8,0:0:0:0:
256,192,167608,1,0,0:0:0:0:
256,192,167701,1,0,0:0:0:0:
256,192,167795,1,0,0:0:0:0:
256,192,167889,1,8,0:0:0:0:
256,192,167983,1,8,0:0:0:0:
256,192,168076,1,0,0:0:0:0:
256,192,168170,1,0,0:0:0:0:
256,192,168264,1,8,0:0:0:0:
256,192,168358,1,0,0:0:0:0:
256,192,168545,1,0,0:0:0:0:
256,192,168639,1,0,0:0:0:0:
256,192,168733,1,8,0:0:0:0:
256,192,168826,1,0,0:0:0:0:
256,192,168920,1,8,0:0:0:0:
256,192,169014,1,8,0:0:0:0:
256,192,169108,1,0,0:0:0:0:
256,192,169295,1,0,0:0:0:0:
256,192,169389,1,0,0:0:0:0:
256,192,169483,1,8,0:0:0:0:
256,192,169576,1,8,0:0:0:0:
256,192,169670,1,0,0:0:0:0:
256,192,169764,1,8,0:0:0:0:
256,192,169858,1,0,0:0:0:0:
256,192,170045,1,8,0:0:0:0:
256,192,170139,1,0,0:0:0:0:
256,192,170233,1,8,0:0:0:0:
256,192,170326,1,0,0:0:0:0:
256,192,170420,1,8,0:0:0:0:
256,192,170514,1,8,0:0:0:0:
256,192,170608,1,0,0:0:0:0:
256,192,170701,1,8,0:0:0:0:
256,192,170795,1,0,0:0:0:0:
256,192,170889,1,8,0:0:0:0:
256,192,170983,1,8,0:0:0:0:
256,192,171076,1,0,0:0:0:0:
256,192,171170,1,8,0:0:0:0:
256,192,171264,1,8,0:0:0:0:
256,192,171358,1,0,0:0:0:0:
256,192,171451,1,0,0:0:0:0:
256,192,171545,1,0,0:0:0:0:
256,192,171639,1,8,0:0:0:0:
256,192,171733,1,8,0:0:0:0:
256,192,171826,1,0,0:0:0:0:
256,192,171920,1,8,0:0:0:0:
256,192,172014,1,0,0:0:0:0:
256,192,172108,1,8,0:0:0:0:
256,192,172201,1,0,0:0:0:0:
256,192,172295,1,0,0:0:0:0:
256,192,172389,1,8,0:0:0:0:
256,192,172483,1,8,0:0:0:0:
256,192,172576,1,0,0:0:0:0:
256,192,172670,1,0,0:0:0:0:
256,192,172764,1,0,0:0:0:0:
256,192,172858,1,8,0:0:0:0:
256,192,172920,1,0,0:0:0:0:
256,192,172983,1,0,0:0:0:0:
256,192,173045,1,8,0:0:0:0:
256,192,173139,1,0,0:0:0:0:
256,192,173233,1,8,0:0:0:0:
256,192,173295,1,0,0:0:0:0:
256,192,173358,1,0,0:0:0:0:
256,192,173420,1,8,0:0:0:0:
256,192,173514,1,8,0:0:0:0:
256,192,173983,1,12,0:0:0:0:
256,192,174076,12,12,177170,0:0:0:0:
256,192,177358,5,8,0:0:0:0:
256,192,177420,1,8,0:0:0:0:
256,192,177483,1,8,0:0:0:0:
256,192,177545,1,0,0:0:0:0:
