osu file format v14

[General]
AudioFilename: audio.mp3
AudioLeadIn: 0
PreviewTime: 115504
Countdown: 0
SampleSet: None
StackLeniency: 0.2
Mode: 1
LetterboxInBreaks: 0
WidescreenStoryboard: 1

[Editor]
Bookmarks: 1129,14629,26629,38629,50629,62629,75379,89629,101629,116629,137629,158629
DistanceSpacing: 2.4
BeatDivisor: 2
GridSize: 32
TimelineZoom: 3.799999

[Metadata]
Title:HAELEQUIN ~Knights of the Round~
TitleUnicode:HAELEQUIN ~Knights of the Round~
Artist:ke-ji
ArtistUnicode:ke-ji
Creator:Jaye
Version:Futsuu
Source:
Tags:HAELEQUIN/HAELEQ∩INZ Comiket 87 C87 KLAMNOP NEXT NEXT-101
BeatmapID:1682998
BeatmapSetID:801816

[Difficulty]
HPDrainRate:7
CircleSize:2
OverallDifficulty:4
ApproachRate:10
SliderMultiplier:1.6
SliderTickRate:1

[Events]
//Background and Video events
0,0,"jv.png",0,-100
//Break Periods
//Storyboard Layer 0 (Background)
//Storyboard Layer 1 (Fail)
//Storyboard Layer 2 (Pass)
//Storyboard Layer 3 (Foreground)
//Storyboard Sound Samples

[TimingPoints]
1129,375,4,1,0,100,1,0
116629,-100,4,1,0,100,0,1
158629,-100,4,1,0,100,0,0

[HitObjects]
256,192,754,5,0,0:0:0:0:
256,192,941,1,0,0:0:0:0:
256,192,1129,1,12,0:0:0:0:
256,192,1691,1,8,0:0:0:0:
256,192,1879,1,0,0:0:0:0:
256,192,2629,1,0,0:0:0:0:
256,192,3191,1,8,0:0:0:0:
256,192,3379,1,0,0:0:0:0:
256,192,4129,1,0,0:0:0:0:
256,192,4691,1,8,0:0:0:0:
256,192,4879,1,0,0:0:0:0:
256,192,5629,1,0,0:0:0:0:
256,192,6191,1,8,0:0:0:0:
256,192,6379,1,0,0:0:0:0:
256,192,6754,1,0,0:0:0:0:
256,192,6941,1,0,0:0:0:0:
256,192,7129,1,12,0:0:0:0:
256,192,7691,1,8,0:0:0:0:
256,192,7879,1,0,0:0:0:0:
256,192,8629,1,0,0:0:0:0:
256,192,9191,1,8,0:0:0:0:
256,192,9379,1,0,0:0:0:0:
256,192,10129,1,0,0:0:0:0:
256,192,10691,1,0,0:0:0:0:
256,192,10879,1,12,0:0:0:0:
256,192,11160,1,12,0:0:0:0:
256,192,11441,1,12,0:0:0:0:
256,192,12004,1,8,0:0:0:0:
256,192,13879,1,8,0:0:0:0:
256,192,14629,1,12,0:0:0:0:
256,192,15191,1,12,0:0:0:0:
256,192,15754,1,12,0:0:0:0:
256,192,16316,1,12,0:0:0:0:
256,192,16879,1,4,0:0:0:0:
256,192,17629,1,12,0:0:0:0:
256,192,18191,1,12,0:0:0:0:
256,192,18754,1,12,0:0:0:0:
256,192,19316,1,12,0:0:0:0:
256,192,19879,1,12,0:0:0:0:
256,192,20629,1,12,0:0:0:0:
256,192,21004,1,0,0:0:0:0:
256,192,21191,1,12,0:0:0:0:
256,192,21754,1,12,0:0:0:0:
256,192,22129,1,0,0:0:0:0:
256,192,22316,1,12,0:0:0:0:
256,192,22879,1,4,0:0:0:0:
256,192,23629,1,12,0:0:0:0:
256,192,24004,1,0,0:0:0:0:
256,192,24191,1,12,0:0:0:0:
256,192,24754,1,12,0:0:0:0:
256,192,25129,1,0,0:0:0:0:
256,192,25316,1,12,0:0:0:0:
256,192,25879,1,12,0:0:0:0:
256,192,26629,1,0,0:0:0:0:
256,192,27191,1,0,0:0:0:0:
256,192,27379,1,8,0:0:0:0:
256,192,27566,1,8,0:0:0:0:
256,192,27754,1,0,0:0:0:0:
256,192,28129,1,8,0:0:0:0:
256,192,28691,1,0,0:0:0:0:
256,192,29629,1,0,0:0:0:0:
256,192,30191,1,0,0:0:0:0:
256,192,30379,1,8,0:0:0:0:
256,192,30566,1,8,0:0:0:0:
256,192,30754,1,0,0:0:0:0:
256,192,31129,1,0,0:0:0:0:
256,192,32629,1,0,0:0:0:0:
256,192,33191,1,0,0:0:0:0:
256,192,34129,1,0,0:0:0:0:
256,192,34316,1,8,0:0:0:0:
256,192,34504,1,8,0:0:0:0:
256,192,34691,1,8,0:0:0:0:
256,192,35629,1,8,0:0:0:0:
256,192,36191,1,0,0:0:0:0:
256,192,36379,1,8,0:0:0:0:
256,192,36754,1,0,0:0:0:0:
256,192,37129,1,8,0:0:0:0:
256,192,37504,1,0,0:0:0:0:
256,192,38254,1,0,0:0:0:0:
256,192,38629,1,8,0:0:0:0:
256,192,39191,1,8,0:0:0:0:
256,192,39754,1,0,0:0:0:0:
256,192,39941,1,8,0:0:0:0:
256,192,40129,1,0,0:0:0:0:
256,192,40691,1,0,0:0:0:0:
256,192,41254,1,0,0:0:0:0:
256,192,41629,1,8,0:0:0:0:
256,192,42379,1,0,0:0:0:0:
256,192,43129,1,8,0:0:0:0:
256,192,43879,1,0,0:0:0:0:
256,192,44254,1,8,0:0:0:0:
256,192,44629,1,0,0:0:0:0:
256,192,45191,1,8,0:0:0:0:
256,192,45379,1,0,0:0:0:0:
256,192,45566,1,0,0:0:0:0:
256,192,45754,1,0,0:0:0:0:
256,192,46129,1,8,0:0:0:0:
256,192,46691,1,0,0:0:0:0:
256,192,47629,1,0,0:0:0:0:
256,192,48191,1,0,0:0:0:0:
256,192,48379,1,8,0:0:0:0:
256,192,48754,1,0,0:0:0:0:
256,192,49129,1,8,0:0:0:0:
256,192,49504,1,0,0:0:0:0:
256,192,50816,1,8,0:0:0:0:
256,192,51004,1,8,0:0:0:0:
256,192,51191,1,0,0:0:0:0:
256,192,51379,1,0,0:0:0:0:
256,192,52316,1,8,0:0:0:0:
256,192,52504,1,8,0:0:0:0:
256,192,52691,1,0,0:0:0:0:
256,192,52879,1,0,0:0:0:0:
256,192,53816,1,0,0:0:0:0:
256,192,54004,1,0,0:0:0:0:
256,192,54191,1,8,0:0:0:0:
256,192,54379,1,8,0:0:0:0:
256,192,54566,1,8,0:0:0:0:
256,192,54754,1,0,0:0:0:0:
256,192,55129,1,0,0:0:0:0:
256,192,55691,1,8,0:0:0:0:
256,192,56628,1,8,0:0:0:0:
256,192,56816,1,0,0:0:0:0:
256,192,57004,1,8,0:0:0:0:
256,192,57379,1,0,0:0:0:0:
256,192,57754,1,8,0:0:0:0:
256,192,58129,1,8,0:0:0:0:
256,192,58316,1,8,0:0:0:0:
256,192,58504,1,0,0:0:0:0:
256,192,58879,1,8,0:0:0:0:
256,192,59066,1,8,0:0:0:0:
256,192,59254,1,8,0:0:0:0:
256,192,59629,1,8,0:0:0:0:
256,192,59816,1,0,0:0:0:0:
256,192,60004,1,8,0:0:0:0:
256,192,60379,1,8,0:0:0:0:
256,192,60754,1,0,0:0:0:0:
256,192,60941,1,8,0:0:0:0:
256,192,61129,1,8,0:0:0:0:
256,192,61879,1,8,0:0:0:0:
256,192,62629,1,0,0:0:0:0:
256,192,63379,1,0,0:0:0:0:
256,192,63941,1,8,0:0:0:0:
256,192,64129,1,8,0:0:0:0:
256,192,64316,1,8,0:0:0:0:
256,192,64504,1,0,0:0:0:0:
256,192,64879,1,0,0:0:0:0:
256,192,65629,1,8,0:0:0:0:
256,192,66379,1,0,0:0:0:0:
256,192,66754,1,0,0:0:0:0:
256,192,66941,1,8,0:0:0:0:
256,192,67129,1,8,0:0:0:0:
256,192,67316,1,8,0:0:0:0:
256,192,67504,1,0,0:0:0:0:
256,192,67879,1,0,0:0:0:0:
256,192,68629,1,8,0:0:0:0:
256,192,69379,1,0,0:0:0:0:
256,192,69941,1,8,0:0:0:0:
256,192,70129,1,8,0:0:0:0:
256,192,70316,1,8,0:0:0:0:
256,192,70504,1,0,0:0:0:0:
256,192,70879,1,0,0:0:0:0:
256,192,71629,1,8,0:0:0:0:
256,192,72379,1,0,0:0:0:0:
256,192,72754,1,0,0:0:0:0:
256,192,72941,1,0,0:0:0:0:
256,192,73129,1,8,0:0:0:0:
256,192,73879,1,8,0:0:0:0:
256,192,74066,1,8,0:0:0:0:
256,192,74254,1,0,0:0:0:0:
256,192,74629,1,8,0:0:0:0:
256,192,75379,1,8,0:0:0:0:
256,192,76129,1,8,0:0:0:0:
256,192,76879,1,0,0:0:0:0:
256,192,77629,1,8,0:0:0:0:
256,192,78004,1,0,0:0:0:0:
256,192,78191,1,8,0:0:0:0:
256,192,78379,1,8,0:0:0:0:
256,192,78754,1,0,0:0:0:0:
256,192,79129,1,8,0:0:0:0:
256,192,79504,1,8,0:0:0:0:
256,192,79691,1,0,0:0:0:0:
256,192,79879,1,8,0:0:0:0:
256,192,80254,1,8,0:0:0:0:
256,192,80441,1,8,0:0:0:0:
256,192,80629,1,0,0:0:0:0:
256,192,81191,1,0,0:0:0:0:
256,192,81941,1,8,0:0:0:0:
256,192,82691,1,8,0:0:0:0:
256,192,83066,1,8,0:0:0:0:
256,192,83254,1,0,0:0:0:0:
256,192,83441,1,8,0:0:0:0:
256,192,84191,1,0,0:0:0:0:
256,192,84941,1,8,0:0:0:0:
256,192,85691,1,8,0:0:0:0:
256,192,86254,1,8,0:0:0:0:
256,192,86629,1,0,0:0:0:0:
256,192,87004,1,8,0:0:0:0:
256,192,88129,1,0,0:0:0:0:
256,192,88879,1,8,0:0:0:0:
256,192,89066,1,8,0:0:0:0:
256,192,89254,1,0,0:0:0:0:
256,192,89629,1,0,0:0:0:0:
256,192,90191,1,8,0:0:0:0:
256,192,90566,1,8,0:0:0:0:
256,192,90754,1,0,0:0:0:0:
256,192,90941,1,0,0:0:0:0:
256,192,91504,1,8,0:0:0:0:
256,192,91879,1,0,0:0:0:0:
256,192,92629,1,0,0:0:0:0:
256,192,93191,1,8,0:0:0:0:
256,192,93566,1,8,0:0:0:0:
256,192,93754,1,0,0:0:0:0:
256,192,93941,1,0,0:0:0:0:
256,192,94504,1,0,0:0:0:0:
256,192,94879,1,8,0:0:0:0:
256,192,95629,1,0,0:0:0:0:
256,192,96191,1,8,0:0:0:0:
256,192,96566,1,8,0:0:0:0:
256,192,96754,1,0,0:0:0:0:
256,192,96941,1,0,0:0:0:0:
256,192,97504,1,8,0:0:0:0:
256,192,97879,1,0,0:0:0:0:
256,192,98629,1,0,0:0:0:0:
256,192,100129,1,8,0:0:0:0:
256,192,101254,1,8,0:0:0:0:
256,192,101629,1,0,0:0:0:0:
256,192,102191,1,8,0:0:0:0:
256,192,102566,1,8,0:0:0:0:
256,192,102754,1,0,0:0:0:0:
256,192,102941,1,0,0:0:0:0:
256,192,103129,1,8,0:0:0:0:
256,192,103504,1,0,0:0:0:0:
256,192,103879,1,8,0:0:0:0:
256,192,104629,1,0,0:0:0:0:
256,192,105191,1,8,0:0:0:0:
256,192,105566,1,8,0:0:0:0:
256,192,105754,1,0,0:0:0:0:
256,192,105941,1,0,0:0:0:0:
256,192,106129,1,8,0:0:0:0:
256,192,106504,1,0,0:0:0:0:
256,192,106879,1,8,0:0:0:0:
256,192,107629,1,0,0:0:0:0:
256,192,108379,1,0,0:0:0:0:
256,192,109129,1,8,0:0:0:0:
256,192,109879,1,8,0:0:0:0:
256,192,110441,1,0,0:0:0:0:
256,192,110816,1,0,0:0:0:0:
256,192,111004,1,8,0:0:0:0:
256,192,111379,1,0,0:0:0:0:
256,192,111566,1,0,0:0:0:0:
256,192,111754,1,8,0:0:0:0:
256,192,112129,1,8,0:0:0:0:
256,192,112316,1,0,0:0:0:0:
256,192,112504,1,8,0:0:0:0:
256,192,112879,1,8,0:0:0:0:
256,192,113066,1,0,0:0:0:0:
256,192,113254,1,8,0:0:0:0:
256,192,113441,1,0,0:0:0:0:
256,192,113629,1,8,0:0:0:0:
256,192,115504,1,12,0:0:0:0:
256,192,115879,1,12,0:0:0:0:
256,192,116254,1,4,0:0:0:0:
256,192,116629,1,8,0:0:0:0:
256,192,116816,1,8,0:0:0:0:
256,192,117004,1,0,0:0:0:0:
256,192,117379,1,8,0:0:0:0:
256,192,117566,1,0,0:0:0:0:
256,192,117754,1,0,0:0:0:0:
256,192,117941,1,8,0:0:0:0:
256,192,118129,1,0,0:0:0:0:
256,192,118691,1,0,0:0:0:0:
256,192,118879,1,8,0:0:0:0:
256,192,119066,1,0,0:0:0:0:
256,192,119254,1,0,0:0:0:0:
256,192,119629,1,8,0:0:0:0:
256,192,120191,1,8,0:0:0:0:
256,192,120379,1,0,0:0:0:0:
256,192,120566,1,8,0:0:0:0:
256,192,120754,1,0,0:0:0:0:
256,192,120941,1,8,0:0:0:0:
256,192,121129,1,8,0:0:0:0:
256,192,121691,1,8,0:0:0:0:
256,192,121879,1,8,0:0:0:0:
256,192,122066,1,8,0:0:0:0:
256,192,122254,1,0,0:0:0:0:
256,192,122629,1,8,0:0:0:0:
256,192,122816,1,8,0:0:0:0:
256,192,123004,1,0,0:0:0:0:
256,192,123379,1,0,0:0:0:0:
256,192,123566,1,0,0:0:0:0:
256,192,123754,1,8,0:0:0:0:
256,192,123941,1,8,0:0:0:0:
256,192,124129,1,0,0:0:0:0:
256,192,124879,1,8,0:0:0:0:
256,192,125066,1,8,0:0:0:0:
256,192,125254,1,8,0:0:0:0:
256,192,125629,1,0,0:0:0:0:
256,192,126004,1,8,0:0:0:0:
256,192,126379,1,0,0:0:0:0:
256,192,126754,1,2,0:0:0:0:
256,192,127129,1,0,0:0:0:0:
256,192,127504,1,8,0:0:0:0:
256,192,127691,1,8,0:0:0:0:
256,192,127879,1,0,0:0:0:0:
256,192,128629,1,8,0:0:0:0:
256,192,129004,1,0,0:0:0:0:
256,192,129191,1,0,0:0:0:0:
256,192,129379,1,8,0:0:0:0:
256,192,129754,1,0,0:0:0:0:
256,192,130129,1,8,0:0:0:0:
256,192,130879,1,8,0:0:0:0:
256,192,131629,1,8,0:0:0:0:
256,192,131816,1,0,0:0:0:0:
256,192,132004,1,0,0:0:0:0:
256,192,132379,1,8,0:0:0:0:
256,192,132566,1,8,0:0:0:0:
256,192,132754,1,0,0:0:0:0:
256,192,133129,1,8,0:0:0:0:
256,192,133316,1,0,0:0:0:0:
256,192,133504,1,8,0:0:0:0:
256,192,133691,1,8,0:0:0:0:
256,192,133879,1,0,0:0:0:0:
256,192,134629,1,8,0:0:0:0:
256,192,135004,1,8,0:0:0:0:
256,192,135191,1,0,0:0:0:0:
256,192,135379,1,0,0:0:0:0:
256,192,135754,1,0,0:0:0:0:
256,192,136129,1,8,0:0:0:0:
256,192,136504,1,8,0:0:0:0:
256,192,136879,1,0,0:0:0:0:
256,192,137066,1,8,0:0:0:0:
256,192,137254,1,0,0:0:0:0:
256,192,137629,1,8,0:0:0:0:
256,192,138379,1,8,0:0:0:0:
256,192,138941,1,0,0:0:0:0:
256,192,139129,1,8,0:0:0:0:
256,192,139879,1,0,0:0:0:0:
256,192,140441,1,8,0:0:0:0:
256,192,140629,1,8,0:0:0:0:
256,192,141004,1,8,0:0:0:0:
256,192,141379,1,0,0:0:0:0:
256,192,142129,1,8,0:0:0:0:
256,192,142691,1,0,0:0:0:0:
256,192,142879,1,8,0:0:0:0:
256,192,143629,1,0,0:0:0:0:
256,192,143816,1,0,0:0:0:0:
256,192,144004,1,8,0:0:0:0:
256,192,144191,1,0,0:0:0:0:
256,192,144566,1,0,0:0:0:0:
256,192,144754,1,8,0:0:0:0:
256,192,145129,1,8,0:0:0:0:
256,192,145316,1,8,0:0:0:0:
256,192,145504,1,0,0:0:0:0:
256,192,145879,1,0,0:0:0:0:
256,192,146066,1,8,0:0:0:0:
256,192,146254,1,0,0:0:0:0:
256,192,146441,1,8,0:0:0:0:
256,192,146629,1,8,0:0:0:0:
256,192,147191,1,8,0:0:0:0:
256,192,147379,1,0,0:0:0:0:
256,192,148129,1,8,0:0:0:0:
256,192,148879,1,8,0:0:0:0:
256,192,149629,1,0,0:0:0:0:
256,192,149816,1,8,0:0:0:0:
256,192,150004,1,8,0:0:0:0:
256,192,150191,1,0,0:0:0:0:
256,192,150379,1,0,0:0:0:0:
256,192,150754,1,8,0:0:0:0:
256,192,150941,1,0,0:0:0:0:
256,192,151129,1,8,0:0:0:0:
256,192,151504,1,8,0:0:0:0:
256,192,151879,1,0,0:0:0:0:
256,192,152254,1,0,0:0:0:0:
256,192,152629,1,8,0:0:0:0:
256,192,152816,1,8,0:0:0:0:
256,192,153004,1,0,0:0:0:0:
256,192,153379,1,0,0:0:0:0:
256,192,153566,1,8,0:0:0:0:
256,192,153754,1,0,0:0:0:0:
256,192,154129,1,8,0:0:0:0:
256,192,154316,1,0,0:0:0:0:
256,192,154504,1,8,0:0:0:0:
256,192,154691,1,0,0:0:0:0:
256,192,154879,1,8,0:0:0:0:
256,192,155629,1,0,0:0:0:0:
256,192,155816,1,0,0:0:0:0:
256,192,156004,1,0,0:0:0:0:
256,192,156191,1,0,0:0:0:0:
256,192,156379,1,8,0:0:0:0:
256,192,156566,1,8,0:0:0:0:
256,192,156754,1,8,0:0:0:0:
256,192,157129,1,8,0:0:0:0:
256,192,157317,1,8,0:0:0:0:
256,192,157504,1,8,0:0:0:0:
256,192,157692,1,0,0:0:0:0:
256,192,157879,1,8,0:0:0:0:
256,192,158629,1,0,0:0:0:0:
256,192,159191,1,8,0:0:0:0:
256,192,160129,1,8,0:0:0:0:
256,192,160691,1,0,0:0:0:0:
256,192,161629,1,0,0:0:0:0:
256,192,162191,1,8,0:0:0:0:
256,192,163129,1,0,0:0:0:0:
256,192,163691,1,8,0:0:0:0:
256,192,164629,1,0,0:0:0:0:
256,192,165004,1,0,0:0:0:0:
256,192,165191,1,8,0:0:0:0:
256,192,165566,1,8,0:0:0:0:
256,192,165754,1,0,0:0:0:0:
256,192,166129,1,8,0:0:0:0:
256,192,166504,1,8,0:0:0:0:
256,192,166691,1,0,0:0:0:0:
256,192,167066,1,8,0:0:0:0:
256,192,167254,1,0,0:0:0:0:
256,192,167629,1,0,0:0:0:0:
256,192,167816,1,0,0:0:0:0:
256,192,168004,1,8,0:0:0:0:
256,192,168379,1,0,0:0:0:0:
256,192,168754,1,8,0:0:0:0:
256,192,169129,1,0,0:0:0:0:
256,192,169316,1,0,0:0:0:0:
256,192,169504,1,8,0:0:0:0:
256,192,169879,1,0,0:0:0:0:
256,192,170254,1,8,0:0:0:0:
256,192,170629,1,0,0:0:0:0:
256,192,170816,1,0,0:0:0:0:
256,192,171004,1,8,0:0:0:0:
256,192,171191,1,8,0:0:0:0:
256,192,171379,1,0,0:0:0:0:
256,192,171754,1,8,0:0:0:0:
256,192,172129,1,8,0:0:0:0:
256,192,172316,1,0,0:0:0:0:
256,192,172504,1,8,0:0:0:0:
256,192,172879,1,8,0:0:0:0:
256,192,173066,1,8,0:0:0:0:
256,192,173254,1,0,0:0:0:0:
256,192,173441,1,8,0:0:0:0:
256,192,174004,1,12,0:0:0:0:
256,192,174097,12,12,177191,0:0:0:0:
