osu file format v14

[General]
AudioFilename: chant.mp3
AudioLeadIn: 0
PreviewTime: 95330
Countdown: 0
SampleSet: Soft
StackLeniency: 0.7
Mode: 3
LetterboxInBreaks: 0
SpecialStyle: 0
WidescreenStoryboard: 0

[Editor]
DistanceSpacing: 0.8
BeatDivisor: 4
GridSize: 4
TimelineZoom: 1.4

[Metadata]
Title:Chant du Cygne
TitleUnicode:Chant du Cygne
Artist:ke-ji
ArtistUnicode:ke-ji
Creator:_FrEsH_ChICkEn_
Version:ADVANCED
Source:SOUND VOLTEX III GRAVITY WARS
Tags:The 4th KAC Original Song Contest sdvx Konami Arcade Championship しらこいし
BeatmapID:719963
BeatmapSetID:323988

[Difficulty]
HPDrainRate:7
CircleSize:4
OverallDifficulty:8
ApproachRate:5
SliderMultiplier:1.4
SliderTickRate:1

[Events]
//Background and Video events
0,0,"chant.jpg",0,0
//Break Periods
//Storyboard Layer 0 (Background)
//Storyboard Layer 1 (Fail)
//Storyboard Layer 2 (Pass)
//Storyboard Layer 3 (Foreground)
//Storyboard Sound Samples

[TimingPoints]
684,428.571428571429,3,2,1,30,1,0
684,-73.6842105286427,4,2,1,30,0,8
26330,315.789473684211,4,2,1,30,1,8
51593,-100,4,2,1,30,0,9
71803,-100,4,2,1,30,0,8
95803,-100,4,2,1,30,0,9
112066,-100,4,2,1,30,0,8

[HitObjects]
64,192,684,128,0,2398:0:0:0:0:
320,192,2398,128,0,2684:0:0:0:0:
192,192,2684,128,0,2969:0:0:0:0:
320,192,2969,128,0,3255:0:0:0:0:
448,192,3255,128,0,4826:0:0:0:0:
192,192,5112,128,0,5398:0:0:0:0:
320,192,5398,128,0,5826:0:0:0:0:
192,192,5826,128,0,7112:0:0:0:0:
64,192,7112,128,0,7541:0:0:0:0:
320,192,7541,128,0,7969:0:0:0:0:
192,192,7969,128,0,8398:0:0:0:0:
448,192,8398,128,0,10969:0:0:0:0:
192,192,10112,128,0,10969:0:0:0:0:
64,192,10969,128,0,12684:0:0:0:0:
320,192,12684,128,0,12969:0:0:0:0:
192,192,12969,128,0,13255:0:0:0:0:
320,192,13255,128,0,13541:0:0:0:0:
448,192,13541,128,0,15112:0:0:0:0:
320,192,15398,128,0,15684:0:0:0:0:
192,192,15684,128,0,16112:0:0:0:0:
64,192,16112,128,0,17398:0:0:0:0:
448,192,17398,128,0,17826:0:0:0:0:
192,192,17826,128,0,18255:0:0:0:0:
320,192,18255,128,0,18684:0:0:0:0:
448,192,18684,128,0,22112:0:0:0:0:
320,192,21255,128,0,22112:0:0:0:0:
192,192,22112,128,0,22398:0:0:0:0:
320,192,22398,128,0,22684:0:0:0:0:
64,192,22684,128,0,26330:0:0:0:0:
192,192,22684,128,0,26330:0:0:0:0:
64,192,28856,1,0,0:0:0:0:
448,192,28856,1,4,0:0:0:0:
320,192,28856,1,0,0:0:0:0:
64,192,29014,1,0,0:0:0:0:
64,192,29172,1,0,0:0:0:0:
64,192,29330,1,0,0:0:0:0:
192,192,29487,1,0,0:0:0:0:
192,192,29645,1,0,0:0:0:0:
192,192,29803,1,0,0:0:0:0:
192,192,29961,1,0,0:0:0:0:
320,192,30119,1,0,0:0:0:0:
320,192,30277,1,0,0:0:0:0:
320,192,30435,1,0,0:0:0:0:
320,192,30593,1,0,0:0:0:0:
448,192,30751,1,0,0:0:0:0:
448,192,30908,1,0,0:0:0:0:
448,192,31066,1,0,0:0:0:0:
448,192,31224,1,0,0:0:0:0:
448,192,31382,1,0,0:0:0:0:
64,192,31382,1,4,0:0:0:0:
64,192,31540,1,0,0:0:0:0:
64,192,31698,1,0,0:0:0:0:
64,192,31856,1,0,0:0:0:0:
320,192,32014,1,0,0:0:0:0:
320,192,32172,1,0,0:0:0:0:
320,192,32330,1,0,0:0:0:0:
320,192,32487,1,0,0:0:0:0:
192,192,32645,1,0,0:0:0:0:
448,192,32645,1,4,0:0:0:0:
192,192,32803,1,0,0:0:0:0:
192,192,32961,1,0,0:0:0:0:
192,192,33119,1,0,0:0:0:0:
192,192,33277,1,4,0:0:0:0:
448,192,33277,1,0,0:0:0:0:
448,192,33435,1,0,0:0:0:0:
448,192,33593,1,0,0:0:0:0:
448,192,33751,1,0,0:0:0:0:
192,192,33830,1,0,0:0:0:0:
64,192,33908,1,0,0:0:0:0:
448,192,33908,1,4,0:0:0:0:
64,192,34066,1,0,0:0:0:0:
64,192,34224,1,0,0:0:0:0:
64,192,34382,1,0,0:0:0:0:
448,192,34382,1,4,0:0:0:0:
320,192,34382,1,0,0:0:0:0:
192,192,34540,1,0,0:0:0:0:
192,192,34698,1,0,0:0:0:0:
192,192,34856,1,0,0:0:0:0:
192,192,35014,1,0,0:0:0:0:
320,192,35172,1,0,0:0:0:0:
320,192,35330,1,0,0:0:0:0:
320,192,35487,1,0,0:0:0:0:
320,192,35645,1,0,0:0:0:0:
448,192,35803,1,0,0:0:0:0:
448,192,35961,1,0,0:0:0:0:
448,192,36119,1,0,0:0:0:0:
448,192,36277,1,0,0:0:0:0:
64,192,36435,1,0,0:0:0:0:
320,192,36435,1,4,0:0:0:0:
64,192,36593,1,0,0:0:0:0:
64,192,36751,1,0,0:0:0:0:
64,192,36908,1,0,0:0:0:0:
192,192,37066,1,4,0:0:0:0:
448,192,37066,1,0,0:0:0:0:
192,192,37224,1,0,0:0:0:0:
192,192,37382,1,0,0:0:0:0:
192,192,37540,1,0,0:0:0:0:
320,192,37698,1,4,0:0:0:0:
64,192,37698,1,0,0:0:0:0:
320,192,37856,1,0,0:0:0:0:
320,192,38014,1,0,0:0:0:0:
320,192,38172,1,0,0:0:0:0:
448,192,38330,1,4,0:0:0:0:
64,192,38330,1,0,0:0:0:0:
192,192,38487,1,0,0:0:0:0:
448,192,38645,1,4,0:0:0:0:
64,192,38645,1,0,0:0:0:0:
320,192,38803,1,0,0:0:0:0:
192,192,38961,1,4,0:0:0:0:
64,192,38961,1,0,0:0:0:0:
320,192,39040,1,0,0:0:0:0:
448,192,39119,1,0,0:0:0:0:
64,192,39198,1,0,0:0:0:0:
320,192,39277,1,0,0:0:0:0:
192,192,39356,1,0,0:0:0:0:
448,192,39435,1,0,0:0:0:0:
64,192,39514,1,0,0:0:0:0:
320,192,39593,1,0,0:0:0:0:
192,192,39672,1,0,0:0:0:0:
64,192,39751,1,0,0:0:0:0:
320,192,39830,1,0,0:0:0:0:
448,192,39908,1,0,0:0:0:0:
192,192,39987,1,0,0:0:0:0:
320,192,40066,1,0,0:0:0:0:
64,192,40145,1,0,0:0:0:0:
192,192,40224,1,0,0:0:0:0:
320,192,40303,1,0,0:0:0:0:
64,192,40382,1,0,0:0:0:0:
320,192,40461,1,0,0:0:0:0:
192,192,40540,1,0,0:0:0:0:
448,192,40619,1,0,0:0:0:0:
320,192,40698,1,0,0:0:0:0:
64,192,40777,1,0,0:0:0:0:
448,192,40856,1,0,0:0:0:0:
320,192,40935,1,0,0:0:0:0:
192,192,41014,1,0,0:0:0:0:
64,192,41093,1,0,0:0:0:0:
448,192,41172,1,0,0:0:0:0:
320,192,41251,1,0,0:0:0:0:
192,192,41330,1,0,0:0:0:0:
448,192,41408,1,0,0:0:0:0:
320,192,41487,1,0,0:0:0:0:
64,192,41566,1,0,0:0:0:0:
192,192,41645,1,0,0:0:0:0:
320,192,41724,1,0,0:0:0:0:
448,192,41803,1,0,0:0:0:0:
320,192,41882,1,0,0:0:0:0:
192,192,41961,1,0,0:0:0:0:
64,192,42040,1,0,0:0:0:0:
192,192,42119,1,0,0:0:0:0:
320,192,42198,1,0,0:0:0:0:
64,192,42277,1,0,0:0:0:0:
448,192,42356,1,0,0:0:0:0:
192,192,42435,1,0,0:0:0:0:
320,192,42514,1,0,0:0:0:0:
64,192,42593,1,0,0:0:0:0:
448,192,42672,1,0,0:0:0:0:
320,192,42751,1,0,0:0:0:0:
192,192,42830,1,0,0:0:0:0:
448,192,42908,1,0,0:0:0:0:
64,192,42987,1,0,0:0:0:0:
320,192,43066,1,0,0:0:0:0:
192,192,43145,1,0,0:0:0:0:
448,192,43224,1,0,0:0:0:0:
64,192,43303,1,0,0:0:0:0:
448,192,43382,1,0,0:0:0:0:
320,192,43461,1,0,0:0:0:0:
192,192,43540,1,0,0:0:0:0:
64,192,43619,1,0,0:0:0:0:
448,192,43698,1,0,0:0:0:0:
320,192,43777,1,0,0:0:0:0:
192,192,43856,1,0,0:0:0:0:
64,192,43935,1,0,0:0:0:0:
192,192,44014,1,0,0:0:0:0:
448,192,44014,1,4,0:0:0:0:
320,192,44093,1,0,0:0:0:0:
64,192,44172,1,0,0:0:0:0:
448,192,44251,1,0,0:0:0:0:
192,192,44330,1,0,0:0:0:0:
64,192,44487,1,4,0:0:0:0:
448,192,44487,1,0,0:0:0:0:
320,192,44566,1,0,0:0:0:0:
192,192,44645,1,0,0:0:0:0:
448,192,44724,1,0,0:0:0:0:
64,192,44803,1,0,0:0:0:0:
448,192,44882,1,0,0:0:0:0:
64,192,44961,1,0,0:0:0:0:
192,192,45040,1,0,0:0:0:0:
320,192,45119,1,0,0:0:0:0:
448,192,45198,1,0,0:0:0:0:
192,192,45277,1,0,0:0:0:0:
320,192,45356,1,0,0:0:0:0:
64,192,45435,1,0,0:0:0:0:
448,192,45514,1,0,0:0:0:0:
320,192,45593,1,0,0:0:0:0:
192,192,45672,1,0,0:0:0:0:
448,192,45751,1,0,0:0:0:0:
64,192,45830,1,0,0:0:0:0:
192,192,45908,1,0,0:0:0:0:
320,192,45987,1,0,0:0:0:0:
64,192,46066,1,0,0:0:0:0:
448,192,46145,1,0,0:0:0:0:
192,192,46224,1,0,0:0:0:0:
320,192,46303,1,0,0:0:0:0:
64,192,46382,1,0,0:0:0:0:
192,192,46461,1,0,0:0:0:0:
448,192,46540,1,2,0:0:0:0:
320,192,46540,1,0,0:0:0:0:
448,192,46698,1,2,0:0:0:0:
320,192,46698,1,0,0:0:0:0:
448,192,46856,1,2,0:0:0:0:
320,192,46856,1,0,0:0:0:0:
448,192,47014,1,2,0:0:0:0:
320,192,47014,1,0,0:0:0:0:
192,192,47172,1,0,0:0:0:0:
64,192,47172,1,2,0:0:0:0:
192,192,47330,1,0,0:0:0:0:
64,192,47330,1,2,0:0:0:0:
192,192,47487,1,0,0:0:0:0:
64,192,47487,1,2,0:0:0:0:
192,192,47645,1,0,0:0:0:0:
64,192,47645,1,2,0:0:0:0:
320,192,47803,1,0,0:0:0:0:
448,192,47803,1,2,0:0:0:0:
320,192,47961,1,0,0:0:0:0:
448,192,47961,1,2,0:0:0:0:
320,192,48119,1,0,0:0:0:0:
448,192,48119,1,2,0:0:0:0:
320,192,48277,1,0,0:0:0:0:
448,192,48277,1,2,0:0:0:0:
64,192,48435,1,2,0:0:0:0:
192,192,48435,1,0,0:0:0:0:
64,192,48593,128,0,48751:0:0:0:0:
448,192,48751,1,2,0:0:0:0:
320,192,48751,1,0,0:0:0:0:
448,192,48908,128,0,49066:0:0:0:0:
320,192,49066,1,0,0:0:0:0:
64,192,49066,1,4,0:0:0:0:
64,192,49382,128,0,49698:0:0:0:0:
192,192,49698,128,0,50014:0:0:0:0:
448,192,50014,128,0,50330:0:0:0:0:
320,192,50330,128,0,50803:0:0:0:0:
448,192,50803,1,0,0:0:0:0:
320,192,50882,1,0,0:0:0:0:
64,192,50961,128,0,51277:0:0:0:0:
192,192,50961,1,0,0:0:0:0:
320,192,51119,1,0,0:0:0:0:
192,192,51277,128,0,51593:0:0:0:0:
448,192,51277,1,0,0:0:0:0:
320,192,51593,1,2,0:0:0:0:
64,192,51593,1,0,0:0:0:0:
448,192,51672,1,0,0:0:0:0:
320,192,51751,1,0,0:0:0:0:
64,192,51830,1,0,0:0:0:0:
192,192,51908,1,0,0:0:0:0:
320,192,51987,1,0,0:0:0:0:
192,192,52066,1,0,0:0:0:0:
448,192,52145,1,0,0:0:0:0:
320,192,52224,1,0,0:0:0:0:
64,192,52303,1,0,0:0:0:0:
192,192,52382,1,0,0:0:0:0:
320,192,52461,1,0,0:0:0:0:
192,192,52540,1,0,0:0:0:0:
64,192,52619,1,0,0:0:0:0:
320,192,52698,1,0,0:0:0:0:
192,192,52777,1,0,0:0:0:0:
448,192,52856,1,2,0:0:0:0:
320,192,52935,1,0,0:0:0:0:
64,192,53014,1,0,0:0:0:0:
192,192,53093,1,0,0:0:0:0:
320,192,53172,1,0,0:0:0:0:
448,192,53251,1,0,0:0:0:0:
192,192,53330,1,2,0:0:0:0:
320,192,53408,1,0,0:0:0:0:
64,192,53487,1,0,0:0:0:0:
448,192,53566,1,2,0:0:0:0:
192,192,53645,1,2,0:0:0:0:
448,192,53724,1,0,0:0:0:0:
64,192,53803,1,0,0:0:0:0:
320,192,53882,1,0,0:0:0:0:
192,192,53961,1,2,0:0:0:0:
448,192,54040,1,0,0:0:0:0:
320,192,54119,1,2,0:0:0:0:
64,192,54198,1,0,0:0:0:0:
320,192,54277,1,0,0:0:0:0:
192,192,54356,1,0,0:0:0:0:
448,192,54435,1,0,0:0:0:0:
192,192,54514,1,0,0:0:0:0:
448,192,54593,1,2,0:0:0:0:
320,192,54672,1,0,0:0:0:0:
64,192,54751,1,0,0:0:0:0:
320,192,54830,1,2,0:0:0:0:
64,192,54908,1,2,0:0:0:0:
192,192,54987,1,0,0:0:0:0:
448,192,55066,1,0,0:0:0:0:
192,192,55145,1,0,0:0:0:0:
320,192,55224,1,0,0:0:0:0:
448,192,55303,1,0,0:0:0:0:
192,192,55382,1,2,0:0:0:0:
64,192,55461,1,0,0:0:0:0:
320,192,55540,1,0,0:0:0:0:
448,192,55619,1,0,0:0:0:0:
64,192,55698,1,2,0:0:0:0:
320,192,55803,1,2,0:0:0:0:
64,192,55908,1,2,0:0:0:0:
448,192,56014,1,2,0:0:0:0:
448,192,56119,1,2,0:0:0:0:
448,192,56224,1,2,0:0:0:0:
192,192,56330,1,0,0:0:0:0:
320,192,56408,1,0,0:0:0:0:
64,192,56487,1,0,0:0:0:0:
448,192,56566,1,0,0:0:0:0:
192,192,56645,1,2,0:0:0:0:
320,192,56724,1,0,0:0:0:0:
64,192,56803,1,0,0:0:0:0:
448,192,56882,1,0,0:0:0:0:
64,192,56961,1,0,0:0:0:0:
448,192,57040,1,0,0:0:0:0:
320,192,57119,1,0,0:0:0:0:
192,192,57198,1,0,0:0:0:0:
448,192,57277,1,0,0:0:0:0:
64,192,57356,1,0,0:0:0:0:
448,192,57435,1,0,0:0:0:0:
64,192,57514,1,0,0:0:0:0:
320,192,57593,1,0,0:0:0:0:
448,192,57672,1,0,0:0:0:0:
192,192,57751,1,0,0:0:0:0:
320,192,57830,1,0,0:0:0:0:
64,192,57908,1,2,0:0:0:0:
192,192,57987,1,0,0:0:0:0:
320,192,58066,1,0,0:0:0:0:
448,192,58145,1,0,0:0:0:0:
192,192,58224,1,0,0:0:0:0:
320,192,58303,1,0,0:0:0:0:
64,192,58382,1,2,0:0:0:0:
192,192,58461,1,0,0:0:0:0:
448,192,58540,1,0,0:0:0:0:
320,192,58619,1,2,0:0:0:0:
448,192,58698,1,2,0:0:0:0:
320,192,58777,1,0,0:0:0:0:
192,192,58856,1,0,0:0:0:0:
64,192,58935,1,0,0:0:0:0:
192,192,59014,1,2,0:0:0:0:
64,192,59093,1,0,0:0:0:0:
320,192,59172,1,2,0:0:0:0:
448,192,59251,1,0,0:0:0:0:
192,192,59330,1,0,0:0:0:0:
64,192,59408,1,0,0:0:0:0:
320,192,59487,1,0,0:0:0:0:
192,192,59566,1,0,0:0:0:0:
448,192,59645,1,2,0:0:0:0:
320,192,59724,1,0,0:0:0:0:
64,192,59803,1,0,0:0:0:0:
192,192,59882,1,0,0:0:0:0:
320,192,59961,1,2,0:0:0:0:
64,192,60040,1,0,0:0:0:0:
192,192,60119,1,0,0:0:0:0:
448,192,60198,1,0,0:0:0:0:
320,192,60277,1,2,0:0:0:0:
64,192,60356,1,2,0:0:0:0:
448,192,60435,1,2,0:0:0:0:
192,192,60514,1,0,0:0:0:0:
320,192,60593,1,0,0:0:0:0:
64,192,60672,1,0,0:0:0:0:
320,192,60751,1,2,0:0:0:0:
192,192,60856,1,2,0:0:0:0:
320,192,60961,1,2,0:0:0:0:
448,192,61066,1,2,0:0:0:0:
64,192,61145,1,2,0:0:0:0:
448,192,61224,1,2,0:0:0:0:
64,192,61303,1,2,0:0:0:0:
192,192,61382,128,0,61698:0:0:0:0:
320,192,61698,1,4,0:0:0:0:
448,192,61698,1,0,0:0:0:0:
64,192,61777,1,0,0:0:0:0:
448,192,61856,1,0,0:0:0:0:
192,192,61935,1,0,0:0:0:0:
320,192,62014,1,0,0:0:0:0:
64,192,62093,1,0,0:0:0:0:
320,192,62172,1,0,0:0:0:0:
64,192,62251,1,0,0:0:0:0:
192,192,62330,1,0,0:0:0:0:
320,192,62408,1,0,0:0:0:0:
448,192,62487,1,2,0:0:0:0:
192,192,62566,1,0,0:0:0:0:
320,192,62645,1,0,0:0:0:0:
64,192,62724,1,0,0:0:0:0:
192,192,62803,1,0,0:0:0:0:
448,192,62882,1,0,0:0:0:0:
320,192,62961,1,2,0:0:0:0:
192,192,63040,1,0,0:0:0:0:
64,192,63119,1,0,0:0:0:0:
192,192,63198,1,0,0:0:0:0:
64,192,63277,1,0,0:0:0:0:
320,192,63356,1,0,0:0:0:0:
192,192,63435,1,2,0:0:0:0:
448,192,63514,1,0,0:0:0:0:
320,192,63593,1,0,0:0:0:0:
64,192,63672,1,2,0:0:0:0:
448,192,63751,1,2,0:0:0:0:
192,192,63830,1,0,0:0:0:0:
320,192,63908,1,0,0:0:0:0:
64,192,63987,1,0,0:0:0:0:
192,192,64066,1,2,0:0:0:0:
448,192,64145,1,0,0:0:0:0:
320,192,64224,1,2,0:0:0:0:
192,192,64303,1,0,0:0:0:0:
320,192,64382,1,0,0:0:0:0:
64,192,64461,1,0,0:0:0:0:
448,192,64540,1,0,0:0:0:0:
192,192,64619,1,0,0:0:0:0:
320,192,64698,1,2,0:0:0:0:
64,192,64777,1,0,0:0:0:0:
448,192,64856,1,0,0:0:0:0:
192,192,64935,1,0,0:0:0:0:
320,192,65014,1,2,0:0:0:0:
192,192,65093,1,0,0:0:0:0:
448,192,65172,1,0,0:0:0:0:
320,192,65251,1,0,0:0:0:0:
448,192,65330,1,2,0:0:0:0:
64,192,65408,1,2,0:0:0:0:
192,192,65487,1,2,0:0:0:0:
64,192,65566,1,0,0:0:0:0:
448,192,65645,1,0,0:0:0:0:
320,192,65724,1,0,0:0:0:0:
192,192,65803,1,2,0:0:0:0:
448,192,65908,1,2,0:0:0:0:
192,192,66014,1,2,0:0:0:0:
320,192,66119,1,2,0:0:0:0:
320,192,66224,1,2,0:0:0:0:
320,192,66330,1,2,0:0:0:0:
64,192,66435,1,0,0:0:0:0:
192,192,66514,1,0,0:0:0:0:
320,192,66593,1,0,0:0:0:0:
448,192,66672,1,0,0:0:0:0:
64,192,66751,1,2,0:0:0:0:
192,192,66830,1,0,0:0:0:0:
320,192,66908,1,0,0:0:0:0:
192,192,66987,1,0,0:0:0:0:
64,192,67066,1,0,0:0:0:0:
192,192,67145,1,0,0:0:0:0:
320,192,67224,1,0,0:0:0:0:
448,192,67303,1,0,0:0:0:0:
320,192,67382,1,0,0:0:0:0:
192,192,67461,1,0,0:0:0:0:
64,192,67540,1,2,0:0:0:0:
192,192,67619,1,0,0:0:0:0:
320,192,67698,1,0,0:0:0:0:
192,192,67777,1,0,0:0:0:0:
64,192,67856,1,2,0:0:0:0:
192,192,67935,1,0,0:0:0:0:
448,192,68014,1,2,0:0:0:0:
320,192,68093,1,0,0:0:0:0:
192,192,68172,1,0,0:0:0:0:
320,192,68251,1,0,0:0:0:0:
448,192,68330,1,0,0:0:0:0:
320,192,68408,1,0,0:0:0:0:
192,192,68487,1,2,0:0:0:0:
64,192,68566,1,0,0:0:0:0:
192,192,68645,1,0,0:0:0:0:
320,192,68724,1,2,0:0:0:0:
448,192,68803,1,2,0:0:0:0:
320,192,68882,1,0,0:0:0:0:
192,192,68961,1,0,0:0:0:0:
320,192,69040,1,0,0:0:0:0:
448,192,69119,1,2,0:0:0:0:
320,192,69198,1,0,0:0:0:0:
192,192,69277,1,2,0:0:0:0:
320,192,69356,1,0,0:0:0:0:
64,192,69435,1,0,0:0:0:0:
448,192,69514,1,0,0:0:0:0:
192,192,69593,1,0,0:0:0:0:
320,192,69672,1,0,0:0:0:0:
64,192,69751,1,2,0:0:0:0:
448,192,69830,1,0,0:0:0:0:
192,192,69908,1,0,0:0:0:0:
448,192,69987,1,0,0:0:0:0:
64,192,70066,1,2,0:0:0:0:
320,192,70145,1,0,0:0:0:0:
192,192,70224,1,0,0:0:0:0:
448,192,70303,1,0,0:0:0:0:
64,192,70382,1,2,0:0:0:0:
320,192,70461,1,2,0:0:0:0:
448,192,70540,1,2,0:0:0:0:
320,192,70619,1,0,0:0:0:0:
64,192,70698,1,0,0:0:0:0:
448,192,70777,1,0,0:0:0:0:
192,192,70856,1,2,0:0:0:0:
448,192,70961,1,2,0:0:0:0:
192,192,71066,1,2,0:0:0:0:
64,192,71172,1,2,0:0:0:0:
192,192,71251,1,2,0:0:0:0:
320,192,71330,1,2,0:0:0:0:
448,192,71408,1,2,0:0:0:0:
64,192,71487,128,0,71803:0:0:0:0:
320,192,71487,128,0,71803:0:0:0:0:
448,192,71803,1,0,0:0:0:0:
192,192,71803,1,4,0:0:0:0:
320,192,71961,1,0,0:0:0:0:
192,192,72119,1,0,0:0:0:0:
448,192,72277,1,0,0:0:0:0:
320,192,72435,1,0,0:0:0:0:
192,192,72593,1,0,0:0:0:0:
448,192,72751,1,0,0:0:0:0:
320,192,72908,1,0,0:0:0:0:
192,192,73066,1,0,0:0:0:0:
448,192,73224,1,0,0:0:0:0:
320,192,73382,1,0,0:0:0:0:
192,192,73540,1,0,0:0:0:0:
64,192,73698,1,0,0:0:0:0:
192,192,73856,1,0,0:0:0:0:
320,192,74014,1,0,0:0:0:0:
64,192,74172,1,0,0:0:0:0:
192,192,74330,1,0,0:0:0:0:
320,192,74487,1,0,0:0:0:0:
64,192,74645,1,0,0:0:0:0:
192,192,74803,1,0,0:0:0:0:
320,192,74961,1,0,0:0:0:0:
64,192,75119,1,0,0:0:0:0:
192,192,75277,1,0,0:0:0:0:
320,192,75435,1,0,0:0:0:0:
448,192,75593,1,0,0:0:0:0:
192,192,75751,1,0,0:0:0:0:
64,192,75908,1,0,0:0:0:0:
448,192,76066,1,0,0:0:0:0:
192,192,76224,1,0,0:0:0:0:
64,192,76382,1,0,0:0:0:0:
448,192,76540,1,0,0:0:0:0:
192,192,76698,1,0,0:0:0:0:
64,192,76856,1,0,0:0:0:0:
448,192,77014,1,0,0:0:0:0:
192,192,77172,1,0,0:0:0:0:
64,192,77330,1,0,0:0:0:0:
64,192,77487,1,0,0:0:0:0:
320,192,77645,1,0,0:0:0:0:
448,192,77803,1,0,0:0:0:0:
64,192,77961,1,0,0:0:0:0:
320,192,78119,1,0,0:0:0:0:
448,192,78277,1,0,0:0:0:0:
64,192,78435,1,0,0:0:0:0:
320,192,78593,1,0,0:0:0:0:
448,192,78751,1,0,0:0:0:0:
64,192,78908,1,0,0:0:0:0:
320,192,79066,1,0,0:0:0:0:
448,192,79224,1,0,0:0:0:0:
192,192,79382,1,4,0:0:0:0:
320,192,82540,128,0,83172:0:0:0:0:
192,192,83172,128,0,84435:0:0:0:0:
64,192,83172,128,0,83803:0:0:0:0:
320,192,83803,128,0,85066:0:0:0:0:
448,192,84435,128,0,85698:0:0:0:0:
64,192,85066,128,0,86330:0:0:0:0:
192,192,85698,128,0,86961:0:0:0:0:
320,192,86330,128,0,87593:0:0:0:0:
448,192,86961,128,0,88224:0:0:0:0:
64,192,87593,128,0,88856:0:0:0:0:
192,192,88224,128,4,89487:0:0:0:0:
320,192,88856,128,0,90119:0:0:0:0:
448,192,89487,128,0,90751:0:0:0:0:
192,192,90119,128,0,90751:0:0:0:0:
320,192,90751,128,0,92014:0:0:0:0:
64,192,92014,128,0,93277:0:0:0:0:
192,192,93277,128,0,93908:0:0:0:0:
320,192,93908,128,0,94224:0:0:0:0:
448,192,94224,128,0,94698:0:0:0:0:
320,192,94698,128,0,95330:0:0:0:0:
64,192,95330,1,0,0:0:0:0:
192,192,95408,1,0,0:0:0:0:
320,192,95487,1,0,0:0:0:0:
448,192,95566,1,0,0:0:0:0:
320,192,95645,1,0,0:0:0:0:
192,192,95724,1,0,0:0:0:0:
448,192,95803,1,0,0:0:0:0:
320,192,95803,1,2,0:0:0:0:
64,192,95803,128,0,96277:0:0:0:0:
448,192,96119,1,0,0:0:0:0:
320,192,96277,1,0,0:0:0:0:
192,192,96356,1,0,0:0:0:0:
448,192,96435,1,0,0:0:0:0:
320,192,96514,1,0,0:0:0:0:
64,192,96593,1,2,0:0:0:0:
192,192,96672,1,0,0:0:0:0:
448,192,96751,1,2,0:0:0:0:
192,192,96830,1,0,0:0:0:0:
320,192,96908,1,0,0:0:0:0:
448,192,96987,1,0,0:0:0:0:
64,192,97066,1,2,0:0:0:0:
192,192,97145,1,0,0:0:0:0:
320,192,97224,1,0,0:0:0:0:
448,192,97303,1,0,0:0:0:0:
64,192,97382,1,2,0:0:0:0:
320,192,97461,1,0,0:0:0:0:
448,192,97540,1,2,0:0:0:0:
320,192,97619,1,0,0:0:0:0:
192,192,97698,1,0,0:0:0:0:
448,192,97777,1,2,0:0:0:0:
64,192,97856,1,2,0:0:0:0:
320,192,97935,1,0,0:0:0:0:
448,192,98014,1,2,0:0:0:0:
192,192,98093,1,0,0:0:0:0:
64,192,98172,1,2,0:0:0:0:
448,192,98251,1,0,0:0:0:0:
320,192,98330,1,2,0:0:0:0:
64,192,98408,1,0,0:0:0:0:
320,192,98487,1,0,0:0:0:0:
192,192,98566,1,0,0:0:0:0:
448,192,98645,1,2,0:0:0:0:
192,192,98724,1,0,0:0:0:0:
64,192,98803,1,2,0:0:0:0:
192,192,98882,1,0,0:0:0:0:
320,192,98961,1,0,0:0:0:0:
448,192,99040,1,0,0:0:0:0:
64,192,99119,1,2,0:0:0:0:
192,192,99198,1,0,0:0:0:0:
64,192,99277,1,2,0:0:0:0:
320,192,99356,1,0,0:0:0:0:
448,192,99435,1,2,0:0:0:0:
64,192,99514,1,2,0:0:0:0:
448,192,99593,1,2,0:0:0:0:
320,192,99672,1,0,0:0:0:0:
192,192,99751,1,0,0:0:0:0:
64,192,99830,1,0,0:0:0:0:
448,192,99908,1,2,0:0:0:0:
448,192,100014,1,2,0:0:0:0:
448,192,100119,1,2,0:0:0:0:
64,192,100224,1,2,0:0:0:0:
64,192,100330,1,2,0:0:0:0:
64,192,100435,1,2,0:0:0:0:
320,192,100540,1,0,0:0:0:0:
192,192,100619,1,0,0:0:0:0:
448,192,100698,1,0,0:0:0:0:
64,192,100777,1,0,0:0:0:0:
320,192,100856,128,2,101014:0:0:0:0:
192,192,101014,1,0,0:0:0:0:
448,192,101093,1,0,0:0:0:0:
64,192,101172,1,2,0:0:0:0:
192,192,101251,1,0,0:0:0:0:
320,192,101330,1,2,0:0:0:0:
192,192,101408,1,0,0:0:0:0:
320,192,101487,1,0,0:0:0:0:
448,192,101566,1,0,0:0:0:0:
320,192,101645,1,2,0:0:0:0:
192,192,101724,1,0,0:0:0:0:
64,192,101803,1,2,0:0:0:0:
320,192,101882,1,0,0:0:0:0:
192,192,101961,1,0,0:0:0:0:
64,192,102040,1,0,0:0:0:0:
448,192,102119,128,2,102277:0:0:0:0:
320,192,102277,1,0,0:0:0:0:
192,192,102356,1,0,0:0:0:0:
448,192,102435,1,2,0:0:0:0:
320,192,102514,1,0,0:0:0:0:
192,192,102593,1,2,0:0:0:0:
64,192,102672,1,0,0:0:0:0:
192,192,102751,1,0,0:0:0:0:
320,192,102830,1,2,0:0:0:0:
192,192,102908,1,2,0:0:0:0:
320,192,102987,1,0,0:0:0:0:
64,192,103066,128,2,103382:0:0:0:0:
448,192,103066,1,0,0:0:0:0:
448,192,103382,1,2,0:0:0:0:
320,192,103461,1,0,0:0:0:0:
192,192,103540,1,0,0:0:0:0:
64,192,103619,1,0,0:0:0:0:
320,192,103698,1,2,0:0:0:0:
192,192,103777,1,0,0:0:0:0:
64,192,103856,1,2,0:0:0:0:
448,192,103935,1,0,0:0:0:0:
64,192,104014,1,0,0:0:0:0:
192,192,104093,1,0,0:0:0:0:
320,192,104172,1,2,0:0:0:0:
448,192,104251,1,0,0:0:0:0:
192,192,104330,1,2,0:0:0:0:
320,192,104408,1,0,0:0:0:0:
448,192,104487,1,2,0:0:0:0:
64,192,104566,1,2,0:0:0:0:
448,192,104645,1,2,0:0:0:0:
320,192,104724,1,0,0:0:0:0:
64,192,104803,1,0,0:0:0:0:
192,192,104843,1,0,0:0:0:0:
320,192,104882,1,0,0:0:0:0:
64,192,104961,1,2,0:0:0:0:
192,192,105040,1,0,0:0:0:0:
448,192,105119,1,0,0:0:0:0:
320,192,105158,1,0,0:0:0:0:
192,192,105198,1,0,0:0:0:0:
448,192,105277,1,2,0:0:0:0:
320,192,105356,1,2,0:0:0:0:
64,192,105435,1,2,0:0:0:0:
192,192,105474,1,0,0:0:0:0:
320,192,105514,1,2,0:0:0:0:
64,192,105593,1,2,0:0:0:0:
192,192,105672,1,0,0:0:0:0:
448,192,105751,1,0,0:0:0:0:
320,192,105790,1,0,0:0:0:0:
192,192,105830,1,2,0:0:0:0:
64,192,105908,1,2,0:0:0:0:
192,192,106066,128,2,106382:0:0:0:0:
448,192,106224,1,2,0:0:0:0:
320,192,106382,128,2,106540:0:0:0:0:
64,192,106540,1,2,0:0:0:0:
192,192,106619,1,0,0:0:0:0:
320,192,106698,1,2,0:0:0:0:
64,192,106777,1,0,0:0:0:0:
448,192,106856,1,2,0:0:0:0:
192,192,106935,1,0,0:0:0:0:
320,192,107014,1,2,0:0:0:0:
64,192,107093,1,0,0:0:0:0:
320,192,107172,1,2,0:0:0:0:
448,192,107330,1,2,0:0:0:0:
64,192,107408,1,0,0:0:0:0:
320,192,107487,1,2,0:0:0:0:
192,192,107593,1,0,0:0:0:0:
64,192,107698,1,0,0:0:0:0:
192,192,107803,1,2,0:0:0:0:
320,192,107908,1,0,0:0:0:0:
448,192,108014,1,0,0:0:0:0:
64,192,108119,1,2,0:0:0:0:
192,192,108224,1,0,0:0:0:0:
320,192,108330,1,0,0:0:0:0:
64,192,108435,128,0,109856:0:0:0:0:
192,192,108435,1,4,0:0:0:0:
320,192,108908,1,0,0:0:0:0:
448,192,108908,1,4,0:0:0:0:
448,192,109382,1,4,0:0:0:0:
320,192,109382,1,0,0:0:0:0:
448,192,109856,1,4,0:0:0:0:
320,192,109856,1,0,0:0:0:0:
192,192,110014,128,0,110172:0:0:0:0:
448,192,110330,1,4,0:0:0:0:
64,192,110330,1,0,0:0:0:0:
320,192,110487,128,0,110645:0:0:0:0:
448,192,110803,1,4,0:0:0:0:
64,192,110803,1,0,0:0:0:0:
192,192,110961,128,0,111119:0:0:0:0:
64,192,111277,1,0,0:0:0:0:
448,192,111277,1,4,0:0:0:0:
320,192,111435,128,0,111593:0:0:0:0:
64,192,111751,1,0,0:0:0:0:
448,192,111751,1,4,0:0:0:0:
192,192,111908,128,0,112066:0:0:0:0:
320,192,112066,1,0,0:0:0:0:
64,192,112066,1,0,0:0:0:0:
448,192,113330,1,0,0:0:0:0:
320,192,113408,1,0,0:0:0:0:
64,192,113487,128,0,116014:0:0:0:0:
192,192,113487,1,0,0:0:0:0:
448,192,113487,1,0,0:0:0:0:
