osu file format v14

[General]
AudioFilename: audio.mp3
AudioLeadIn: 0
PreviewTime: -1
Countdown: 1
SampleSet: Normal
StackLeniency: 0.7
Mode: 0
LetterboxInBreaks: 0
SkinPreference:- YUGEN -
WidescreenStoryboard: 0

[Editor]
Bookmarks: 1483,11620,12692,17802,23186,44175,62142,89175,127912
DistanceSpacing: 0.9
BeatDivisor: 6
GridSize: 32
TimelineZoom: 1

[Metadata]
Title:Take a shot
TitleUnicode:Take a shot
Artist:kaztora
ArtistUnicode:kaztora
Creator:KrheaKap
Version:Insane
Source:Touhou
Tags:Shoot the Bullet Take a shot kaztora
BeatmapID:2009798
BeatmapSetID:959950

[Difficulty]
HPDrainRate:5
CircleSize:4
OverallDifficulty:8
ApproachRate:9
SliderMultiplier:1.4
SliderTickRate:1

[Events]
//Background and Video events
0,0,"animegirls-1555868076807-2590.jpg",0,0
//Break Periods
2,48496,56268
//Storyboard Layer 0 (Background)
//Storyboard Layer 1 (Fail)
//Storyboard Layer 2 (Pass)
//Storyboard Layer 3 (Foreground)
//Storyboard Sound Samples

[TimingPoints]
0,329.67032967033,4,1,0,100,1,0

[HitObjects]
65,124,1483,5,0,0:0:0:0:
222,65,1648,1,0,0:0:0:0:
354,88,1978,2,0,P|452:150|266:251,1,420
148,103,3626,5,0,0:0:0:0:
241,197,3791,1,0,0:0:0:0:
172,290,3956,1,0,0:0:0:0:
312,280,4120,2,0,B|471:221|536:32|78:51,1,560
171,313,6263,5,0,0:0:0:0:
343,210,6428,1,0,0:0:0:0:
146,126,6593,1,0,0:0:0:0:
146,126,6758,1,0,0:0:0:0:
294,147,6923,1,0,0:0:0:0:
294,147,7087,1,0,0:0:0:0:
396,175,7417,2,0,P|339:276|301:283,1,140
66,276,8076,5,0,0:0:0:0:
145,77,8406,1,0,0:0:0:0:
242,272,8736,1,0,0:0:0:0:
320,89,9065,1,0,0:0:0:0:
402,283,9395,1,0,0:0:0:0:
462,90,9725,1,0,0:0:0:0:
277,73,10054,1,0,0:0:0:0:
159,234,10384,1,0,0:0:0:0:
326,321,10714,2,0,P|424:230|431:195,1,175
111,83,11620,5,0,0:0:0:0:
256,93,11922,1,0,0:0:0:0:
256,93,12004,1,0,0:0:0:0:
256,93,12087,1,0,0:0:0:0:
160,236,12362,1,0,0:0:0:0:
401,169,12692,5,8,0:0:0:0:
78,307,14010,1,0,0:0:0:0:
181,135,14340,1,0,0:0:0:0:
181,135,14505,1,0,0:0:0:0:
349,153,14835,1,0,0:0:0:0:
349,153,15000,1,0,0:0:0:0:
328,283,15329,2,0,P|239:283|231:278,1,70,0|8,0:0|0:0,0:0:0:0:
408,313,16621,5,0,0:0:0:0:
332,148,16978,1,0,0:0:0:0:
332,148,17143,1,0,0:0:0:0:
81,68,17802,5,0,0:0:0:0:
81,68,17884,1,0,0:0:0:0:
81,68,17967,1,0,0:0:0:0:
183,189,18241,1,0,0:0:0:0:
247,283,18626,5,0,0:0:0:0:
270,292,18708,1,0,0:0:0:0:
295,297,18791,1,0,0:0:0:0:
327,296,18873,1,0,0:0:0:0:
358,292,18956,1,0,0:0:0:0:
387,285,19038,1,0,0:0:0:0:
389,132,19285,1,0,0:0:0:0:
287,52,19450,1,0,0:0:0:0:
287,52,19615,1,0,0:0:0:0:
126,51,19780,5,0,0:0:0:0:
65,127,20109,1,0,0:0:0:0:
85,220,20274,1,0,0:0:0:0:
186,256,20439,1,0,0:0:0:0:
331,224,20659,1,0,0:0:0:0:
393,140,20934,1,0,0:0:0:0:
325,63,21263,1,0,0:0:0:0:
202,60,21428,1,0,0:0:0:0:
202,60,21593,1,0,0:0:0:0:
81,68,21868,5,0,0:0:0:0:
81,68,21950,1,0,0:0:0:0:
81,68,22033,1,0,0:0:0:0:
183,189,22307,1,0,0:0:0:0:
247,283,22555,5,0,0:0:0:0:
270,292,22637,1,0,0:0:0:0:
295,297,22720,1,0,0:0:0:0:
327,296,22802,1,0,0:0:0:0:
452,57,23131,5,0,0:0:0:0:
452,57,23296,2,0,P|380:111|370:110,1,105
177,66,23818,1,0,0:0:0:0:
123,242,24065,1,0,0:0:0:0:
368,287,24395,2,0,P|439:169|435:144,1,140
351,56,25082,1,0,0:0:0:0:
105,91,25384,1,0,0:0:0:0:
105,91,25549,1,0,0:0:0:0:
188,231,25714,1,0,0:0:0:0:
188,231,25879,2,0,P|297:292|299:291,1,140
423,143,26428,1,0,0:0:0:0:
423,143,26703,1,0,0:0:0:0:
243,39,27032,1,0,0:0:0:0:
243,39,27362,2,0,P|129:79|120:97,1,140
385,39,28296,5,0,0:0:0:0:
430,185,28516,1,0,0:0:0:0:
219,229,28846,1,0,0:0:0:0:
219,229,29065,1,0,0:0:0:0:
211,98,29340,2,0,P|89:72|74:80,2,140
307,147,30329,1,0,0:0:0:0:
134,225,30824,2,0,P|234:276|237:273,1,140,0|2,0:0|0:0,0:0:0:0:
229,279,31318,2,0,P|326:277|382:222,1,163.333333333333,0|2,0:0|0:0,0:0:0:0:
373,236,31868,2,0,P|355:146|300:105,1,163.333333333333,0|2,0:0|0:0,0:0:0:0:
150,127,32637,5,4,0:0:0:0:
143,138,32747,1,4,0:0:0:0:
136,152,32856,1,4,0:0:0:0:
129,167,32966,1,4,0:0:0:0:
123,183,33076,1,4,0:0:0:0:
120,198,33186,1,4,0:0:0:0:
117,216,33296,1,4,0:0:0:0:
125,232,33406,1,4,0:0:0:0:
263,316,33791,6,0,P|371:282|376:276,2,116.666666666667
265,192,34670,1,0,0:0:0:0:
242,67,35055,2,0,P|140:49|130:52,2,116.666666666667
421,170,35934,1,0,0:0:0:0:
424,174,36098,1,0,0:0:0:0:
424,174,36263,2,0,P|398:247|377:253,2,93.3333333333333
212,44,36978,5,0,0:0:0:0:
76,137,37362,1,0,0:0:0:0:
208,280,37582,2,8,L|256:336,4,70
429,269,38571,1,0,0:0:0:0:
429,269,38736,1,0,0:0:0:0:
429,269,38901,2,0,P|447:195|440:190,1,93.3333333333333
286,63,39450,1,0,0:0:0:0:
155,88,39670,1,0,0:0:0:0:
155,88,39890,2,0,P|147:110|154:189,1,93.3333333333333
150,282,40384,1,0,0:0:0:0:
150,282,40659,2,0,P|239:297|246:294,2,93.3333333333333
336,303,41538,5,0,0:0:0:0:
418,152,41703,1,0,0:0:0:0:
418,152,41868,1,0,0:0:0:0:
418,152,42087,2,0,P|367:90|292:82,1,140
180,73,42857,5,0,0:0:0:0:
98,224,43022,1,0,0:0:0:0:
98,224,43187,1,0,0:0:0:0:
98,224,43406,2,0,P|149:286|224:294,1,140
282,283,44175,6,0,P|387:257|391:161,1,210
342,89,45054,1,0,0:0:0:0:
130,140,45494,1,0,0:0:0:0:
169,242,46043,1,0,0:0:0:0:
169,242,46263,1,0,0:0:0:0:
376,263,46648,1,0,0:0:0:0:
376,263,46868,1,0,0:0:0:0:
369,142,47307,5,0,0:0:0:0:
369,142,47472,2,0,P|334:61|292:50,3,116.666666666667
60,102,56868,5,2,0:0:0:0:
71,142,56978,1,2,0:0:0:0:
101,170,57088,1,2,0:0:0:0:
140,183,57197,1,2,0:0:0:0:
181,178,57307,1,2,0:0:0:0:
216,155,57417,1,2,0:0:0:0:
247,127,57527,1,2,0:0:0:0:
276,97,57637,1,2,0:0:0:0:
311,74,57747,1,2,0:0:0:0:
352,76,57856,1,2,0:0:0:0:
390,92,57966,1,2,0:0:0:0:
408,129,58076,1,2,0:0:0:0:
406,171,58186,1,2,0:0:0:0:
387,208,58296,1,2,0:0:0:0:
354,235,58407,1,2,0:0:0:0:
315,250,58516,1,2,0:0:0:0:
273,258,58626,1,2,0:0:0:0:
230,258,58736,1,2,0:0:0:0:
192,239,58846,1,2,0:0:0:0:
167,204,58956,1,2,0:0:0:0:
165,162,59065,1,2,0:0:0:0:
192,129,59175,1,2,0:0:0:0:
227,106,59285,1,2,0:0:0:0:
336,115,59505,5,2,0:0:0:0:
371,138,59615,1,2,0:0:0:0:
398,169,59725,1,2,0:0:0:0:
401,210,59836,1,2,0:0:0:0:
393,250,59944,1,2,0:0:0:0:
377,289,60054,1,2,0:0:0:0:
338,304,60165,1,2,0:0:0:0:
295,304,60275,1,2,0:0:0:0:
254,292,60385,1,2,0:0:0:0:
219,268,60495,1,2,0:0:0:0:
187,240,60604,1,2,0:0:0:0:
161,206,60714,1,2,0:0:0:0:
143,167,60824,1,2,0:0:0:0:
365,301,61483,5,0,0:0:0:0:
261,195,61703,1,0,0:0:0:0:
176,99,61923,1,0,0:0:0:0:
84,68,62143,5,0,0:0:0:0:
88,73,62362,1,0,0:0:0:0:
88,73,62582,2,0,P|269:131|163:232,1,396.666666666667
53,211,64230,1,0,0:0:0:0:
147,85,64395,1,0,0:0:0:0:
176,221,64560,1,0,0:0:0:0:
236,66,64725,1,0,0:0:0:0:
276,229,64890,1,0,0:0:0:0:
334,76,65054,1,0,0:0:0:0:
412,218,65219,2,0,P|336:313|207:274,1,256.666666666667
