osu file format v14

[General]
AudioFilename: audio.mp3
AudioLeadIn: 0
PreviewTime: 88352
Countdown: 0
SampleSet: Normal
StackLeniency: 0.7
Mode: 1
LetterboxInBreaks: 0
WidescreenStoryboard: 1

[Editor]
Bookmarks: 13547,21895,30243,38591,55286,63634,71982,80330,88678,97026,105373,113721,122069,130417
DistanceSpacing: 1.2
BeatDivisor: 4
GridSize: 4
TimelineZoom: 1.176

[Metadata]
Title://N/YYY////F//////
TitleUnicode://N/¥¥¥////F//////
Artist:kawaii amen girl
ArtistUnicode:kawaii amen girl
Creator:_gt
Version:Oni
Source:
Tags:shirogane noel danchou 白銀ノエル shiranui flare 不知火フレア noefure ノエフレ hololive ホロライブ japanese instrumental electronic breakcore CANDYYYLAND feat. LIZ (Pa's Lam System Remix) (kawaii Amen Girl Bootleg) CAND¥¥¥LAND candyland candy land cand\\\land nyyyf yen fuwa fuwa spring storm
BeatmapID:3840844
BeatmapSetID:1863701

[Difficulty]
HPDrainRate:5
CircleSize:5
OverallDifficulty:6
ApproachRate:5
SliderMultiplier:1.4
SliderTickRate:1

[Events]
//Background and Video events
0,0,"101825339_p0 (3).jpg",0,0
//Break Periods
2,5400,12347
2,55486,60217
2,105573,112260
//Storyboard Layer 0 (Background)
//Storyboard Layer 1 (Fail)
//Storyboard Layer 2 (Pass)
//Storyboard Layer 3 (Foreground)
//Storyboard Layer 4 (Overlay)
//Storyboard Sound Samples

[TimingPoints]
5200,260.869565217391,4,1,0,100,1,0
5200,-66.6666666666667,4,1,0,100,0,0
5330,-66.6666666666667,4,1,0,10,0,0
6243,-70.6422681778032,4,1,0,10,0,8
7286,-74.85495079957,4,1,0,10,0,8
8330,-79.3188526322924,4,1,0,10,0,8
9373,-84.0489548880908,4,1,0,10,0,8
10417,-89.0611321690289,4,1,0,10,0,8
11460,-94.3722057435498,4,1,0,10,0,8
12504,-100,4,1,0,40,0,8
12765,-100,4,1,0,50,0,8
13026,-100,4,1,0,60,0,8
13286,-100,4,1,0,70,0,8
13547,-125,4,1,0,80,0,0
21113,-121.212121212121,4,1,0,80,0,0
21373,-117.647058823529,4,1,0,85,0,0
21634,-114.285714285714,4,1,0,85,0,0
21895,-111.111111111111,4,1,0,90,0,0
29460,-111.111111111111,4,1,0,90,0,0
29591,-107.442674356063,4,1,0,90,0,0
29656,-105.667667489851,4,1,0,90,0,0
29721,-103.921984627291,4,1,0,90,0,0
29786,-102.205141321134,4,1,0,90,0,0
29852,-100.490903574712,4,1,0,90,0,0
29982,-97.1980099998736,4,1,0,90,0,0
30113,-93.9889272282638,4,1,0,90,0,0
30243,-76.9230769230769,4,1,0,80,0,0
30765,-83.3235598044387,4,1,0,80,0,0
31286,-90.2427845641833,4,1,0,80,0,0
31547,-93.9221599720229,4,1,0,80,0,0
31808,-97.7515507351864,4,1,0,80,0,0
32330,-105.885093387579,4,1,0,80,0,0
32460,-108.013830508043,4,1,0,80,0,0
32591,-110.20223642066,4,1,0,80,0,0
32721,-112.417766330692,4,1,0,80,0,0
32852,-114.695397846621,4,1,0,80,0,0
32982,-117.001259258564,4,1,0,80,0,0
33113,-119.371754280737,4,1,0,80,0,0
33373,-124.219753724738,4,1,0,80,0,0
33504,-126.736498499333,4,1,0,80,0,0
33634,-129.28443683741,4,1,0,80,0,0
33765,-131.90379423501,4,1,0,80,0,0
33895,-134.555617018887,4,1,0,80,0,0
34026,-137.281770757486,4,1,0,80,0,0
34156,-140.041713559867,4,1,0,80,0,0
34286,-142.857142857143,4,1,0,80,0,0
34417,-117.647058823529,4,1,0,90,0,8
34547,-121.267812518166,4,1,0,90,0,8
34678,-125,4,1,0,90,0,8
34928,-106.951871657754,4,1,0,90,0,8
35058,-111.778251597131,4,1,0,90,0,8
35189,-116.822429906542,4,1,0,90,0,8
35439,-97.2289742343218,4,1,0,90,0,8
35569,-103.031276565987,4,1,0,90,0,8
35700,-109.179841034151,4,1,0,90,0,8
35950,-88.3899765766562,4,1,0,90,0,8
36080,-94.9687779075027,4,1,0,90,0,8
36211,-102.037234611356,4,1,0,90,0,8
36504,-117.647058823529,4,1,0,90,0,8
36569,-116.389955187266,4,1,0,90,0,8
36634,-115.146284182198,4,1,0,90,0,8
36699,-113.915902275543,4,1,0,90,0,8
36764,-112.698667468223,4,1,0,90,0,8
36830,-111.494439278475,4,1,0,90,0,8
36960,-109.124448314099,4,1,0,90,0,8
37025,-107.958412017462,4,1,0,90,0,8
37090,-106.804835262807,4,1,0,90,0,8
37156,-105.663584915183,4,1,0,90,0,8
37221,-104.534529262234,4,1,0,90,0,8
37286,-103.417537999004,4,1,0,90,0,8
37351,-102.312482212892,4,1,0,90,0,8
37416,-101.219234368781,4,1,0,90,0,8
37482,-100.13766829431,4,1,0,90,0,8
37547,-86.9565217391304,4,1,0,90,0,8
37612,-88.4924281401584,4,1,0,90,0,8
37677,-90.0554631386227,4,1,0,80,0,8
37742,-91.6461059048674,4,1,0,80,0,8
37807,-93.264844072786,4,1,0,70,0,8
37873,-94.9121738893121,4,1,0,70,0,8
37938,-96.5886003665509,4,1,0,60,0,8
38003,-98.2946374365981,4,1,0,60,0,8
38068,-100.030808109092,4,1,0,50,0,8
38133,-101.797644631552,4,1,0,50,0,8
38199,-103.595688652543,4,1,0,50,0,8
38264,-105.425491387727,4,1,0,50,0,8
38329,-107.287613788847,4,1,0,50,0,8
38394,-109.182626715694,4,1,0,50,0,8
38460,-111.111111111111,4,1,0,50,0,8
38591,-105.263157894737,4,1,0,80,0,8
38656,-104.275286757039,4,1,0,80,0,8
38721,-103.305785123967,4,1,0,80,0,8
38852,-85.1063829787234,4,1,0,100,0,9
39113,-100.502512562814,4,1,0,100,0,9
39178,-101.674302211737,4,1,0,100,0,9
39243,-102.858278185713,4,1,0,100,0,9
39308,-104.054532710521,4,1,0,100,0,9
39373,-105.263157894737,4,1,0,100,0,9
39504,-85.1063829787234,4,1,0,100,0,9
39634,-110.497237569061,4,1,0,100,0,9
39895,-100.502512562814,4,1,0,100,0,9
39960,-101.91756268706,4,1,0,100,0,9
40025,-103.350373727853,4,1,0,100,0,9
40090,-104.801107515278,4,1,0,100,0,9
40156,-106.269925611052,4,1,0,100,0,9
40417,-110.497237569061,4,1,0,100,0,9
40482,-108.854300016057,4,1,0,100,0,9
40547,-107.233010225388,4,1,0,100,0,9
40612,-105.633165377313,4,1,0,100,0,9
40677,-104.054562064438,4,1,0,100,0,9
40742,-102.496996383712,4,1,0,100,0,9
40808,-100.960264025976,4,1,0,100,0,9
40873,-99.4441603630435,4,1,0,100,0,9
40938,-97.9484805323656,4,1,0,100,0,9
41003,-96.473019519277,4,1,0,100,0,9
41068,-95.0175722368498,4,1,0,100,0,9
41133,-93.5819336033775,4,1,0,100,0,9
41199,-92.1658986175115,4,1,0,100,0,9
41329,-93.7207122774133,4,1,0,100,0,9
41460,-95.3288846520495,4,1,0,100,0,9
41590,-97.370768348794,4,1,0,100,0,9
41721,-92.1658986175115,4,1,0,100,0,9
42243,-92.1658986175115,4,1,0,100,0,9
42373,-100.502512562814,4,1,0,100,0,9
42503,-97.6512812366794,4,1,0,100,0,9
42634,-94.8728786501095,4,1,0,100,0,9
42765,-85.1063829787234,4,1,0,100,0,9
43026,-79.0513833992095,4,1,0,100,0,9
43286,-105.263157894737,4,1,0,100,0,9
43395,-100.723220677564,4,1,0,100,0,9
43526,-96.3591724585175,4,1,0,100,0,9
43678,-79.0513833992095,4,1,0,100,0,9
43808,-100.502512562814,4,1,0,100,0,9
43939,-92.1658986175115,4,1,0,100,0,1
44069,-94.5179584120982,4,1,0,100,0,1
44134,-96.1538461538461,4,1,0,100,0,1
44199,-97.6368853475067,4,1,0,100,0,1
44330,-85.1063829787234,4,1,0,100,0,1
44852,-92.1658986175115,4,1,0,100,0,8
44917,-93.2260950199978,4,1,0,100,0,8
44982,-94.2972896543264,4,1,0,100,0,8
45047,-95.3795689864166,4,1,0,100,0,8
45112,-96.473019519277,4,1,0,100,0,8
45177,-97.5777277755219,4,1,0,100,0,8
45243,-98.6937802794715,4,1,0,100,0,8
45308,-99.8212635388357,4,1,0,100,0,8
45373,-100.960264025976,4,1,0,100,0,8
45438,-102.110868158744,4,1,0,100,0,8
45503,-103.273162280893,4,1,0,100,0,8
45569,-104.447232642059,4,1,0,100,0,8
45634,-105.633165377313,4,1,0,100,0,8
45699,-106.831046486275,4,1,0,100,0,8
45764,-108.040961811796,4,1,0,100,0,8
45829,-109.262997018193,4,1,0,100,0,8
45895,-96.1538461538461,4,1,0,100,0,0
45960,-97.476346610572,4,1,0,100,0,0
46026,-98.8358828119418,4,1,0,100,0,0
46091,-100.191407903479,4,1,0,100,0,0
46156,-101.563544272481,4,1,0,100,0,0
46286,-104.358247018752,4,1,0,100,0,0
46417,-107.243471446665,4,1,0,100,0,0
46547,-110.176361771714,4,1,0,100,0,0
46613,-111.692316361164,4,1,0,100,0,0
46678,-113.203238783574,4,1,0,100,0,0
46743,-114.732108062699,4,1,0,100,0,0
46808,-116.279069767441,4,1,0,100,0,0
46939,-85.1063829787234,4,1,0,100,0,9
47460,-116.279069767441,4,1,0,100,0,9
47525,-113.433934243468,4,1,0,100,0,9
47590,-110.650187427721,4,1,0,100,0,9
47655,-107.926905321433,4,1,0,100,0,9
47721,-105.263157894737,4,1,0,100,0,9
47852,-85.1063829787234,4,1,0,100,0,9
47974,-110.497237569061,4,1,0,100,0,9
48243,-105.263157894737,4,1,0,100,0,9
48308,-107.926905321433,4,1,0,100,0,9
48373,-110.650187427721,4,1,0,100,0,9
48504,-85.1063829787234,4,1,0,100,0,9
49026,-116.279069767441,4,1,0,100,0,9
49286,-105.263157894737,4,1,0,100,0,9
49351,-107.852074232956,4,1,0,100,0,9
49417,-110.497237569061,4,1,0,100,0,9
49547,-85.1063829787234,4,1,0,100,0,9
49808,-96.1538461538461,4,1,0,100,0,9
49873,-98.2800982800983,4,1,0,100,0,9
49939,-100.502512562814,4,1,0,100,0,9
50069,-73.80073800738,4,1,0,100,0,9
50330,-88.4955752212389,4,1,0,100,0,9
50395,-90.293453724605,4,1,0,100,0,9
50460,-92.1658986175115,4,1,0,100,0,9
50591,-85.1063829787234,4,1,0,100,0,9
50852,-79.0513833992095,4,1,0,100,0,9
51113,-73.80073800738,4,1,0,100,0,9
51634,-105.263157894737,4,1,0,100,0,9
51764,-100.723220677564,4,1,0,100,0,9
51895,-96.3591724585175,4,1,0,100,0,9
52026,-79.0513833992095,4,1,0,100,0,9
52155,-100.502512562814,4,1,0,100,0,9
52286,-92.1658986175115,4,1,0,100,0,9
52351,-93.5105486783019,4,1,0,100,0,9
52416,-94.8728786501095,4,1,0,100,0,9
52482,-96.2530642425393,4,1,0,100,0,9
52547,-97.6512812366794,4,1,0,100,0,9
52612,-99.067705427214,4,1,0,100,0,9
52678,-85.1063829787234,4,1,0,100,0,9
53199,-92.1658986175115,4,1,0,100,0,9
53257,-93.2260950199978,4,1,0,100,0,9
53322,-94.2972896543264,4,1,0,100,0,9
53387,-95.3795689864166,4,1,0,100,0,9
53452,-96.473019519277,4,1,0,100,0,9
53517,-97.5777277755219,4,1,0,100,0,9
53583,-98.6937802794715,4,1,0,100,0,9
53648,-99.8212635388357,4,1,0,100,0,9
53713,-100.960264025976,4,1,0,100,0,9
53778,-102.110868158744,4,1,0,100,0,9
53843,-103.273162280893,4,1,0,100,0,9
53909,-104.447232642059,4,1,0,100,0,9
53974,-105.633165377313,4,1,0,100,0,9
54039,-106.831046486275,4,1,0,100,0,9
54104,-108.040961811796,4,1,0,100,0,9
54169,-109.262997018193,4,1,0,100,0,9
54235,-96.1538461538461,4,1,0,100,0,9
54300,-97.8506839786627,4,1,0,100,0,9
54365,-99.5743487353645,4,1,0,100,0,9
54430,-101.325154065652,4,1,0,100,0,9
54496,-103.103413330477,4,1,0,100,0,9
54561,-104.909439442185,4,1,0,100,0,9
54626,-106.743544690993,4,1,0,100,0,9
54691,-108.606040565769,4,1,0,100,0,9
54765,-88.4955752212389,4,1,0,100,0,1
54830,-89.9192084315995,4,1,0,100,0,1
54895,-91.3635734597263,4,1,0,100,0,1
54960,-92.8289020933762,4,1,0,100,0,1
55026,-94.3384628074843,4,1,0,100,0,1
55156,-97.3766945616366,4,1,0,100,0,1
55286,-85.1063829787234,4,1,0,100,0,0
55417,-95.2380952380952,4,1,0,40,0,8
56329,-103.164534329063,4,1,0,40,0,8
57373,-111.75067200499,4,1,0,40,0,8
58416,-121.051413402723,4,1,0,40,0,8
59460,-131.126233282451,4,1,0,40,0,8
60503,-142.039556346535,4,1,0,40,0,8
61417,-111.111111111111,4,1,0,60,0,8
61547,-153.861169211368,4,1,0,60,0,8
62591,-166.666666666667,4,1,0,60,0,8
63634,-111.111111111111,4,1,0,70,0,0
64156,-112.899040116849,4,1,0,70,0,0
64678,-114.715739333754,4,1,0,70,0,0
64939,-115.635022154246,4,1,0,70,0,0
65199,-116.558107198959,4,1,0,70,0,0
65721,-118.433685785393,4,1,0,70,0,0
65852,-118.909095478414,4,1,0,70,0,0
65982,-119.382762636943,4,1,0,70,0,0
66113,-119.861982059702,4,1,0,70,0,0
66243,-120.339444984043,4,1,0,70,0,0
66373,-120.81880985294,4,1,0,70,0,0
66504,-121.303793773877,4,1,0,70,0,0
66765,-122.275870442036,4,1,0,70,0,0
66895,-122.762948944113,4,1,0,70,0,0
67026,-123.255736916427,4,1,0,70,0,0
67156,-123.746718657082,4,1,0,70,0,0
67286,-124.239656193675,4,1,0,70,0,0
67547,-143.16450334971,4,1,0,70,0,0
67808,-126.23884135842,4,1,0,70,0,0
67939,-126.745582058242,4,1,0,70,0,0
68069,-127.250465385024,4,1,0,70,0,0
68330,-128.270196133459,4,1,0,70,0,0
68460,-128.781152667794,4,1,0,70,0,0
68591,-129.298098567524,4,1,0,70,0,0
68852,-130.334238171608,4,1,0,70,0,0
68982,-130.853416692019,4,1,0,70,0,0
69113,-131.378680954865,4,1,0,70,0,0
69373,-132.427443633543,4,1,0,70,0,0
69504,-132.959026264851,4,1,0,70,0,0
69634,-133.488660469185,4,1,0,70,0,0
69895,-134.558381442197,4,1,0,70,0,0
70026,-135.098517961554,4,1,0,70,0,0
70156,-135.636674701095,4,1,0,70,0,0
70286,-136.176975155316,4,1,0,70,0,0
70417,-136.723608940508,4,1,0,70,0,0
70547,-137.268239131245,4,1,0,70,0,0
70678,-137.819253405555,4,1,0,70,0,0
70939,-138.923677896254,4,1,0,70,0,0
71069,-139.477071928029,4,1,0,70,0,0
71199,-140.032670371314,4,1,0,70,0,0
71330,-140.594781466587,4,1,0,70,0,0
71460,-141.154832237921,4,1,0,70,0,0
71591,-141.721447850849,4,1,0,75,0,0
71721,-142.285986629284,4,1,0,80,0,0
71852,-142.857142857143,4,1,0,85,0,0
71982,-111.111111111111,4,1,0,90,0,8
75895,-125,4,1,0,90,0,8
76156,-111.111111111111,4,1,0,90,0,8
79808,-111.111111111111,4,1,0,90,0,8
79938,-106.910606466196,4,1,0,86,0,8
80069,-102.868899974728,4,1,0,84,0,8
80199,-98.9799883452773,4,1,0,82,0,8
80330,-95.2380952380952,4,1,0,80,0,0
80526,-96.2101424534748,4,1,0,80,0,0
80721,-97.1870754712199,4,1,0,80,0,0
80852,-97.8489384492521,4,1,0,80,0,0
81047,-98.8425120609802,4,1,0,80,0,0
81243,-99.8513477413851,4,1,0,76,0,0
81373,-100.526146539086,4,1,0,76,0,0
81439,-100.870480098886,4,1,0,76,0,0
81634,-101.894734922873,4,1,0,76,0,0
81765,-102.588657981827,4,1,0,76,0,0
81895,-103.281955615056,4,1,0,76,0,0
82091,-104.33610245728,4,1,0,76,0,0
82286,-105.395547759345,4,1,0,76,0,0
82417,-106.113312037909,4,1,0,72,0,0
82613,-107.196357107461,4,1,0,72,0,0
82808,-108.284845888058,4,1,0,72,0,0
82939,-109.022286851558,4,1,0,72,0,0
83134,-110.129316411844,4,1,0,72,0,0
83330,-111.253350813017,4,1,0,68,0,0
83460,-112.00520473454,4,1,0,68,0,0
83526,-112.388857666541,4,1,0,68,0,0
83721,-113.530071919853,4,1,0,68,0,0
83852,-114.303233897747,4,1,0,68,0,0
83982,-115.075699032692,4,1,0,68,0,0
84243,-132.044332410223,4,1,0,68,0,0
84504,-118.230367412372,4,1,0,64,0,0
84699,-119.430897280428,4,1,0,64,0,0
84895,-120.649868227311,4,1,0,64,0,0
85026,-121.47151740954,4,1,0,64,0,0
85221,-122.704958427781,4,1,0,64,0,0
85417,-123.957346065888,4,1,0,60,0,0
85547,-124.795054018594,4,1,0,60,0,0
85613,-125.222516193114,4,1,0,60,0,0
85808,-126.494045446834,4,1,0,60,0,0
85939,-127.355494618104,4,1,0,60,0,0
86069,-128.216167374083,4,1,0,60,0,0
86265,-129.52480514294,4,1,0,60,0,0
86460,-130.840020519763,4,1,0,60,0,0
86591,-131.731066630649,4,1,0,56,0,0
86786,-133.068684735897,4,1,0,56,0,0
86982,-134.426849702641,4,1,0,56,0,0
87113,-135.342322821266,4,1,0,56,0,0
87308,-136.71661019358,4,1,0,56,0,0
87504,-138.112007696046,4,1,0,52,0,0
87634,-139.045373332558,4,1,0,52,0,0
87699,-139.514418887054,4,1,0,52,0,0
87895,-140.938372212092,4,1,0,52,0,0
88026,-141.898190071606,4,1,0,52,0,0
88156,-142.857142857143,4,1,0,52,0,0
88417,-111.111111111111,4,1,0,80,0,0
88678,-83.3333333333333,4,1,0,100,0,1
88939,-89.5475654284462,4,1,0,100,0,1
89199,-96.1986854713774,4,1,0,100,0,1
89395,-101.537233867422,4,1,0,100,0,1
89591,-107.172045136885,4,1,0,100,0,1
89721,-125,4,1,0,100,0,0
89852,-115.163948687947,4,1,0,100,0,0
89982,-119.364236546776,4,1,0,100,0,0
90243,-128.265321383867,4,1,0,100,0,0
90439,-135.383408521822,4,1,0,100,0,0
90634,-142.857142857143,4,1,0,100,0,0
90765,-83.3333333333333,4,1,0,100,0,1
91024,-89.5475654284462,4,1,0,100,0,1
91284,-96.1986854713774,4,1,0,100,0,1
91480,-101.537233867422,4,1,0,100,0,1
91676,-107.172045136885,4,1,0,100,0,1
91808,-125,4,1,0,100,0,0
91937,-115.163948687947,4,1,0,100,0,0
92067,-119.364236546776,4,1,0,100,0,0
92328,-128.265321383867,4,1,0,100,0,0
92524,-135.383408521822,4,1,0,100,0,0
92719,-142.857142857143,4,1,0,100,0,0
92852,-83.3333333333333,4,1,0,100,0,1
93108,-89.5475654284462,4,1,0,100,0,1
93368,-96.1986854713774,4,1,0,100,0,1
93564,-101.537233867422,4,1,0,100,0,1
93760,-107.172045136885,4,1,0,100,0,1
93895,-125,4,1,0,100,0,0
94021,-115.163948687947,4,1,0,100,0,0
94151,-119.364236546776,4,1,0,100,0,0
94412,-128.265321383867,4,1,0,100,0,0
94608,-135.383408521822,4,1,0,100,0,0
94803,-142.857142857143,4,1,0,100,0,0
94939,-83.3333333333333,4,1,0,100,0,1
95193,-89.5475654284462,4,1,0,100,0,1
95453,-96.1986854713774,4,1,0,100,0,1
95649,-101.537233867422,4,1,0,100,0,1
95845,-107.172045136885,4,1,0,100,0,1
95982,-117.647058823529,4,1,0,100,0,8
96047,-116.103530472148,4,1,0,100,0,8
96112,-114.580253198824,4,1,0,100,0,8
96177,-113.076961309596,4,1,0,100,0,8
96243,-111.593392596406,4,1,0,100,0,8
96308,-110.129288291361,4,1,0,100,0,8
96373,-108.684393021602,4,1,0,100,0,8
96438,-107.258454764758,4,1,0,100,0,8
96504,-105.851224804993,4,1,0,100,0,8
96569,-104.462457689615,4,1,0,100,0,8
96634,-103.091911186274,4,1,0,100,0,8
96699,-101.739346240704,4,1,0,100,0,8
96765,-100.404526935029,4,1,0,100,0,8
96830,-99.0872204466128,4,1,0,100,0,8
96895,-97.7871970074517,4,1,0,100,0,8
96960,-96.5042298640949,4,1,0,100,0,8
97026,-95.2380952380952,4,1,0,100,0,8
104330,-95.2380952380952,4,1,0,85,0,0
104460,-97.0856359134675,4,1,0,85,0,0
104591,-98.9836456114269,4,1,0,85,0,0
104721,-100.903846881796,4,1,0,85,0,0
104852,-102.87650203455,4,1,0,85,0,0
104982,-104.872221516063,4,1,0,85,0,0
105113,-106.922457800877,4,1,0,85,0,0
105178,-107.954580110362,4,1,0,85,0,0
105243,-108.996665494804,4,1,0,85,0,0
105308,-110.048810127751,4,1,0,85,0,0
105373,-100,4,1,0,85,0,0
105504,-95.2380952380952,4,1,0,40,0,8
106416,-103.164534329063,4,1,0,40,0,8
107460,-111.75067200499,4,1,0,40,0,8
108503,-121.051413402723,4,1,0,40,0,8
109547,-131.126233282451,4,1,0,40,0,8
110590,-142.039556346535,4,1,0,40,0,8
111634,-153.861169211368,4,1,0,40,0,8
112678,-166.666666666667,4,1,0,40,0,8
113450,-188.679245283019,4,1,0,70,0,8
113721,-125,4,1,0,80,0,8
117634,-142.857142857143,4,1,0,80,0,8
117895,-125,4,1,0,85,0,0
118026,-122.897320230021,4,1,0,85,0,0
118156,-120.84565908082,4,1,0,85,0,0
118286,-118.828248584629,4,1,0,85,0,0
118417,-116.829386549421,4,1,0,85,0,0
118678,-112.946593740581,4,1,0,85,0,0
118808,-111.061051095074,4,1,0,85,0,0
118939,-109.192844492113,4,1,0,85,0,0
119199,-105.577521500765,4,1,0,85,0,0
119460,-102.068681359035,4,1,0,85,0,0
119591,-100.351739347499,4,1,0,85,0,0
119721,-98.6764565627419,4,1,0,85,0,0
119982,-95.3969714326753,4,1,0,90,0,0
120047,-94.5973364117263,4,1,0,90,0,0
120113,-93.7922571770856,4,1,0,90,0,0
120178,-93.0060731671916,4,1,0,90,0,0
120243,-92.2264790967663,4,1,0,90,0,0
120373,-90.6868402849814,4,1,0,90,0,0
120502,-89.1613572092172,4,1,0,90,0,0
120567,-88.4139902575296,4,1,0,90,0,0
120632,-87.6728878735648,4,1,0,90,0,0
120763,-86.1981038119057,4,1,0,90,0,0
120828,-85.4755753970908,4,1,0,90,0,0
120893,-84.7591033487977,4,1,0,90,0,0
120959,-84.0377532913726,4,1,0,90,0,0
121024,-83.3333333333334,4,1,0,90,0,0
121808,-125,4,1,0,70,0,0
121873,-121.212121212121,4,1,0,70,0,0
121939,-117.647058823529,4,1,0,70,0,0
122069,-90.9090909090909,4,1,0,100,0,1
122134,-91.8757537223177,4,1,0,100,0,1
122199,-92.8526953424841,4,1,0,100,0,1
122265,-93.8552964711522,4,1,0,100,0,1
122330,-94.8532871453057,4,1,0,100,0,1
122460,-96.881217108899,4,1,0,100,0,1
122526,-97.927317249146,4,1,0,100,0,1
122591,-98.9686069049684,4,1,0,100,0,1
122721,-101.084520959588,4,1,0,100,0,1
122852,-103.262474580406,4,1,0,100,0,1
122982,-105.47019001778,4,1,0,100,0,1
123113,-107.742636679811,4,1,0,100,0,1
123178,-108.888295482863,4,1,0,100,0,1
123243,-110.046136409291,4,1,0,100,0,1
123373,-112.398884153923,4,1,0,100,0,1
123439,-113.612540340188,4,1,0,100,0,1
123504,-114.820615536682,4,1,0,100,0,1
123569,-116.041536548225,4,1,0,100,0,1
123634,-117.275439968105,4,1,0,100,0,1
123895,-122.363570806254,4,1,0,100,0,1
124026,-125,4,1,0,100,0,1
124156,-100,4,1,0,100,0,1
124286,-101.870874194817,4,1,0,100,0,1
124352,-102.834057706955,4,1,0,100,0,1
124482,-104.757953556079,4,1,0,100,0,1
124547,-105.73335731253,4,1,0,100,0,1
124678,-107.726854412483,4,1,0,100,0,1
124808,-109.742288332575,4,1,0,100,0,1
124939,-111.811369832433,4,1,0,100,0,1
125004,-112.852448112853,4,1,0,100,0,1
125069,-113.9032198975,4,1,0,100,0,1
125199,-116.034205845627,4,1,0,100,0,1
125330,-118.22191518096,4,1,0,100,0,1
125460,-120.4336984847,4,1,0,100,0,1
125591,-122.70435587011,4,1,0,100,0,1
125721,-125,4,1,0,100,0,1
125852,-100,4,1,0,100,0,1
126243,-83.3333333333333,4,1,0,100,0,0
126765,-106.135944280597,4,1,0,100,0,0
126895,-107.721734501594,4,1,0,100,0,0
127026,-109.343691598199,4,1,0,100,0,0
127156,-83.3333333333333,4,1,0,100,0,0
127286,-112.635536311516,4,1,0,100,0,0
127417,-114.331480108705,4,1,0,100,0,0
127547,-116.039720840319,4,1,0,100,0,0
127678,-117.786921157654,4,1,0,100,0,0
127804,-83.3333333333333,4,1,0,100,0,0
128069,-123.159853454442,4,1,0,100,0,0
128199,-125,4,1,0,100,0,0
128330,-117.647058823529,4,1,0,100,0,8
128395,-116.458115224665,4,1,0,100,0,8
128460,-115.281187114291,4,1,0,100,0,8
128525,-114.116153063634,4,1,0,100,0,8
128590,-112.962892871081,4,1,0,100,0,8
128655,-111.82128754978,4,1,0,100,0,8
128721,-110.691219315363,4,1,0,100,0,8
128786,-109.57257157379,4,1,0,100,0,8
128851,-108.465228909328,4,1,0,100,0,8
128916,-107.369077072633,4,1,0,100,0,8
128981,-106.28400296897,4,1,0,100,0,8
129047,-105.209894646541,4,1,0,100,0,8
129112,-104.146641284934,4,1,0,100,0,8
129177,-103.094133183693,4,1,0,100,0,8
129242,-102.052261750994,4,1,0,100,0,8
129307,-101.020919492447,4,1,0,100,0,8
129373,-95.2380952380952,4,1,0,100,0,8
129438,-96.1600931330211,4,1,0,100,0,8
129503,-97.0910168691887,4,1,0,100,0,8
129568,-98.0309528574695,4,1,0,100,0,8
129634,-98.9799883452773,4,1,0,100,0,8
129699,-99.9382114246658,4,1,0,100,0,8
129764,-100.905711040506,4,1,0,100,0,8
129829,-101.882576998742,4,1,0,100,0,8
129895,-102.868899974728,4,1,0,100,0,8
129960,-103.864771521643,4,1,0,100,0,8
130025,-104.870284078993,4,1,0,100,0,8
130090,-105.885530981184,4,1,0,100,0,8
130156,-106.910606466196,4,1,0,100,0,8
130221,-107.94560568432,4,1,0,100,0,8
130286,-108.990624706998,4,1,0,100,0,8
130351,-110.045760535737,4,1,0,100,0,8
130417,-90.9090909090909,4,1,0,100,0,1
130477,-91.8757537223177,4,1,0,100,0,1
130542,-92.8526953424841,4,1,0,100,0,1
130608,-93.8552964711522,4,1,0,100,0,1
130673,-94.8532871453057,4,1,0,100,0,1
130803,-96.881217108899,4,1,0,100,0,1
130869,-97.927317249146,4,1,0,100,0,1
130934,-98.9686069049684,4,1,0,100,0,1
131064,-101.084520959588,4,1,0,100,0,1
131195,-103.262474580406,4,1,0,100,0,1
131325,-105.47019001778,4,1,0,100,0,1
131456,-107.742636679811,4,1,0,100,0,1
131521,-108.888295482863,4,1,0,100,0,1
131586,-110.046136409291,4,1,0,100,0,1
131716,-112.398884153923,4,1,0,100,0,1
131782,-113.612540340188,4,1,0,100,0,1
131847,-114.820615536682,4,1,0,100,0,1
131912,-116.041536548225,4,1,0,100,0,1
131977,-117.275439968105,4,1,0,100,0,1
132238,-122.363570806254,4,1,0,100,0,1
132369,-125,4,1,0,100,0,1
132503,-97.9595430722281,4,1,0,100,0,9
132569,-98.6519702207668,4,1,0,100,0,9
132634,-99.3492917914414,4,1,0,100,0,9
132699,-100.051542380481,4,1,0,100,0,9
132764,-100.758756828657,4,1,0,100,0,9
132829,-101.470970223014,4,1,0,100,0,9
132895,-102.18821789861,4,1,0,100,0,9
132960,-102.910535440267,4,1,0,100,0,9
133025,-103.63795868434,4,1,0,100,0,9
133090,-104.370523720493,4,1,0,100,0,9
133155,-105.108266893488,4,1,0,100,0,9
133221,-105.851224804993,4,1,0,100,0,9
133286,-106.599434315392,4,1,0,100,0,9
133351,-107.35293254562,4,1,0,100,0,9
133416,-108.111756878999,4,1,0,100,0,9
133481,-108.875944963094,4,1,0,100,0,9
133547,-109.645534711585,4,1,0,100,0,9
133612,-110.420564306143,4,1,0,100,0,9
133677,-111.201072198326,4,1,0,100,0,9
133742,-111.987097111488,4,1,0,100,0,9
133807,-112.778678042699,4,1,0,100,0,9
133873,-113.575854264677,4,1,0,100,0,9
133938,-114.378665327744,4,1,0,100,0,9
134003,-115.18715106178,4,1,0,100,0,9
134068,-116.001351578203,4,1,0,100,0,9
134133,-116.82130727196,4,1,0,100,0,9
134199,-117.647058823529,4,1,0,100,0,9
134330,-111.111111111111,4,1,0,100,0,9
134460,-105.263157894737,4,1,0,100,0,9
134591,-100,4,1,0,100,0,9
134852,-111.111111111111,4,1,0,100,0,9
134982,-108.108108108108,4,1,0,100,0,9
135113,-100,4,1,0,100,0,9
135178,-102.052261750994,4,1,0,100,0,9
135243,-104.146641284934,4,1,0,100,0,9
135308,-106.28400296897,4,1,0,100,0,9
135373,-108.465228909328,4,1,0,100,0,9
135438,-110.691219315363,4,1,0,100,0,9
135503,-112.962892871081,4,1,0,100,0,9
135568,-115.281187114291,4,1,0,100,0,9
135634,-105.263157894737,4,1,0,100,0,9
135699,-106.399845137681,4,1,0,100,0,9
135764,-107.548806930563,4,1,0,100,0,9
135829,-108.710175820465,4,1,0,100,0,9
135895,-109.884085785781,4,1,0,100,0,9
135960,-111.070672251676,4,1,0,100,0,9
136025,-112.270072105706,4,1,0,100,0,9
136090,-113.482423713612,4,1,0,100,0,9
136156,-114.707866935281,4,1,0,100,0,9
136221,-115.946543140882,4,1,0,100,0,9
136286,-117.198595227173,4,1,0,100,0,9
136351,-118.464167633986,4,1,0,100,0,9
136417,-119.743406360894,4,1,0,100,0,9
136482,-121.036458984046,4,1,0,100,0,9
136547,-122.343474673199,4,1,0,100,0,9
136612,-123.664604208924,4,1,0,100,0,9
136678,-114.942528735632,4,1,0,100,0,9
136743,-116.710334374331,4,1,0,100,0,9
136808,-118.505328702983,4,1,0,100,0,9
136873,-120.327929881168,4,1,0,100,0,9
136938,-122.178562499719,4,1,0,100,0,9
137003,-124.057657679641,4,1,0,100,0,9
137068,-125.965653172538,4,1,0,100,0,9
137133,-127.902993462598,4,1,0,100,0,9
137199,-129.87012987013,4,1,0,100,0,9
137330,-117.647058823529,4,1,0,100,0,9
137395,-120.127014755928,4,1,0,100,0,9
137460,-122.659247230452,4,1,0,100,0,9
137525,-125.24485821703,4,1,0,100,0,9
137590,-127.8849729147,4,1,0,100,0,9
137655,-130.580740241278,4,1,0,100,0,9
137721,-133.333333333333,4,1,0,100,0,9
137982,-111.111111111111,4,1,0,100,0,9
138047,-108.864482635437,4,1,0,100,0,9
138112,-106.663280215332,4,1,0,100,0,9
138177,-104.506585351566,4,1,0,100,0,9
138243,-102.393498116649,4,1,0,100,0,9
138308,-100.323136779315,4,1,0,100,0,9
138373,-98.2946374365981,4,1,0,100,0,9
138438,-96.3071536533578,4,1,0,100,0,9
138504,-94.3598561090787,4,1,0,100,0,9
138569,-92.451932251822,4,1,0,100,0,9
138634,-90.5825859591695,4,1,0,100,0,9
138699,-88.7510372060246,4,1,0,100,0,9
138765,-86.9565217391304,4,1,0,100,0,9
147113,-76.9230769230769,4,1,0,100,0,0

[HitObjects]
168,212,5200,5,12,0:0:0:0:
292,187,13547,5,0,0:0:0:0:
305,190,13743,1,8,0:0:0:0:
292,187,13808,1,0,0:0:0:0:
305,190,13939,1,0,0:0:0:0:
292,187,14069,1,8,0:0:0:0:
292,187,14330,1,0,0:0:0:0:
292,187,14591,5,0,0:0:0:0:
305,190,14786,1,8,0:0:0:0:
292,187,14852,1,0,0:0:0:0:
305,190,14982,1,0,0:0:0:0:
292,187,15113,1,8,0:0:0:0:
292,187,15373,1,0,0:0:0:0:
292,187,15634,5,0,0:0:0:0:
305,190,15830,1,8,0:0:0:0:
292,187,15895,1,0,0:0:0:0:
305,190,16026,1,0,0:0:0:0:
292,187,16156,1,8,0:0:0:0:
292,187,16417,1,0,0:0:0:0:
193,187,16678,1,0,0:0:0:0:
193,187,16873,1,0,0:0:0:0:
193,187,16939,1,0,0:0:0:0:
193,187,17069,1,0,0:0:0:0:
193,187,17199,1,8,0:0:0:0:
237,110,17460,1,0,0:0:0:0:
292,187,17721,5,0,0:0:0:0:
305,190,17917,1,8,0:0:0:0:
292,187,17982,1,0,0:0:0:0:
305,190,18113,1,0,0:0:0:0:
292,187,18243,1,8,0:0:0:0:
292,187,18504,1,0,0:0:0:0:
292,187,18765,5,0,0:0:0:0:
305,190,18960,1,8,0:0:0:0:
292,187,19026,1,0,0:0:0:0:
305,190,19156,1,0,0:0:0:0:
292,187,19286,1,8,0:0:0:0:
292,187,19547,1,0,0:0:0:0:
292,187,19808,5,0,0:0:0:0:
305,190,20004,1,8,0:0:0:0:
292,187,20069,1,0,0:0:0:0:
305,190,20199,1,0,0:0:0:0:
292,187,20330,1,8,0:0:0:0:
292,187,20591,1,0,0:0:0:0:
193,187,20852,1,0,0:0:0:0:
138,114,21113,1,0,0:0:0:0:
138,114,21373,1,8,0:0:0:0:
138,114,21634,1,0,0:0:0:0:
298,119,21895,1,8,0:0:0:0:
298,119,22156,1,8,0:0:0:0:
298,119,22286,1,8,0:0:0:0:
298,119,22417,1,0,0:0:0:0:
320,167,22547,1,0,0:0:0:0:
320,167,22678,1,8,0:0:0:0:
308,167,22808,1,0,0:0:0:0:
308,167,22939,1,0,0:0:0:0:
307,165,23069,1,0,0:0:0:0:
307,161,23199,1,8,0:0:0:0:
307,161,23330,1,0,0:0:0:0:
307,161,23460,1,0,0:0:0:0:
304,161,23591,1,8,0:0:0:0:
304,161,23721,1,8,0:0:0:0:
283,153,23786,1,8,0:0:0:0:
283,153,23852,1,8,0:0:0:0:
304,161,23917,1,8,0:0:0:0:
283,153,23982,1,0,0:0:0:0:
237,159,24113,1,0,0:0:0:0:
237,159,24243,1,0,0:0:0:0:
237,159,24373,1,0,0:0:0:0:
237,159,24504,1,8,0:0:0:0:
237,159,24634,1,8,0:0:0:0:
237,159,24699,1,8,0:0:0:0:
237,159,24765,1,8,0:0:0:0:
237,159,24895,1,8,0:0:0:0:
237,159,25026,1,0,0:0:0:0:
237,159,25156,1,0,0:0:0:0:
237,159,25286,1,8,0:0:0:0:
241,153,25417,1,0,0:0:0:0:
241,152,25547,1,0,0:0:0:0:
241,152,25678,1,0,0:0:0:0:
241,152,25808,1,8,0:0:0:0:
241,152,25873,1,8,0:0:0:0:
241,152,25939,1,8,0:0:0:0:
241,152,26004,1,8,0:0:0:0:
241,152,26069,1,0,0:0:0:0:
232,148,26330,1,8,0:0:0:0:
231,147,26460,1,8,0:0:0:0:
231,147,26526,1,8,0:0:0:0:
231,147,26591,1,8,0:0:0:0:
227,147,26721,1,8,0:0:0:0:
231,147,26786,1,8,0:0:0:0:
231,147,26852,1,8,0:0:0:0:
269,189,26982,1,8,0:0:0:0:
269,189,27047,1,8,0:0:0:0:
269,189,27113,1,0,0:0:0:0:
269,189,27243,1,0,0:0:0:0:
262,189,27373,1,8,0:0:0:0:
262,189,27439,1,8,0:0:0:0:
262,189,27504,1,8,0:0:0:0:
262,189,27569,1,8,0:0:0:0:
262,189,27634,1,0,0:0:0:0:
261,186,27765,1,0,0:0:0:0:
261,186,27895,1,0,0:0:0:0:
261,186,28026,1,0,0:0:0:0:
260,184,28156,1,8,0:0:0:0:
262,189,28286,1,8,0:0:0:0:
262,189,28352,1,8,0:0:0:0:
262,189,28417,1,8,0:0:0:0:
262,189,28547,1,8,0:0:0:0:
261,186,28678,1,0,0:0:0:0:
261,186,28808,1,0,0:0:0:0:
261,186,28939,1,8,0:0:0:0:
251,184,29199,1,0,0:0:0:0:
251,184,29330,1,0,0:0:0:0:
251,184,29460,1,8,0:0:0:0:
251,184,29591,1,0,0:0:0:0:
252,182,29656,1,0,0:0:0:0:
252,182,29721,1,8,0:0:0:0:
52,147,29786,1,0,0:0:0:0:
252,182,29852,1,0,0:0:0:0:
252,182,29982,1,8,0:0:0:0:
251,184,30113,1,8,0:0:0:0:
149,153,30243,1,4,0:0:0:0:
217,149,30765,1,8,0:0:0:0:
217,149,31286,1,0,0:0:0:0:
217,149,31547,1,0,0:0:0:0:
217,149,31808,1,8,0:0:0:0:
217,149,32330,1,0,0:0:0:0:
217,149,32460,1,8,0:0:0:0:
217,149,32591,1,0,0:0:0:0:
217,149,32721,1,8,0:0:0:0:
217,149,32852,1,0,0:0:0:0:
217,149,32982,1,8,0:0:0:0:
217,149,33113,1,0,0:0:0:0:
217,149,33373,1,0,0:0:0:0:
217,149,33504,1,8,0:0:0:0:
217,149,33634,1,0,0:0:0:0:
217,149,33765,1,8,0:0:0:0:
217,149,33895,1,0,0:0:0:0:
217,149,34026,1,0,0:0:0:0:
217,149,34156,1,8,0:0:0:0:
217,149,34286,1,8,0:0:0:0:
114,267,34417,1,0,0:0:0:0:
275,200,34547,1,0,0:0:0:0:
114,267,34678,1,8,0:0:0:0:
114,267,34939,1,0,0:0:0:0:
275,200,35069,1,0,0:0:0:0:
114,267,35199,1,8,0:0:0:0:
114,267,35460,1,0,0:0:0:0:
114,267,35591,1,0,0:0:0:0:
114,267,35721,1,8,0:0:0:0:
114,267,35982,1,0,0:0:0:0:
114,267,36113,1,0,0:0:0:0:
114,267,36243,1,8,0:0:0:0:
114,267,36504,1,0,0:0:0:0:
114,267,36634,1,0,0:0:0:0:
114,267,36765,1,8,0:0:0:0:
114,267,36895,1,0,0:0:0:0:
114,267,37026,1,8,0:0:0:0:
114,267,37156,1,8,0:0:0:0:
114,267,37286,1,0,0:0:0:0:
114,267,37417,1,8,0:0:0:0:
161,212,37547,1,0,0:0:0:0:
164,205,37613,1,0,0:0:0:0:
164,205,37678,1,8,0:0:0:0:
164,205,37743,1,8,0:0:0:0:
164,205,37808,1,0,0:0:0:0:
161,212,37939,1,8,0:0:0:0:
156,224,38069,1,0,0:0:0:0:
156,224,38199,1,0,0:0:0:0:
156,224,38330,1,8,0:0:0:0:
154,224,38460,1,8,0:0:0:0:
56,226,38591,5,0,0:0:0:0:
56,226,38656,1,0,0:0:0:0:
56,226,38721,1,0,0:0:0:0:
56,226,38852,1,12,0:0:0:0:
62,230,39113,1,8,0:0:0:0:
62,230,39178,1,8,0:0:0:0:
62,230,39243,1,0,0:0:0:0:
62,230,39308,1,8,0:0:0:0:
62,230,39373,1,8,0:0:0:0:
121,178,39504,1,4,0:0:0:0:
110,284,39895,1,8,0:0:0:0:
110,284,39960,1,0,0:0:0:0:
110,284,40026,1,8,0:0:0:0:
110,284,40091,1,8,0:0:0:0:
178,170,40156,1,0,0:0:0:0:
254,208,40417,1,0,0:0:0:0:
254,208,40547,1,8,0:0:0:0:
254,208,40613,1,8,0:0:0:0:
153,296,40678,1,0,0:0:0:0:
161,121,40808,1,8,0:0:0:0:
153,296,40873,1,0,0:0:0:0:
161,121,41004,1,8,0:0:0:0:
153,296,41069,1,0,0:0:0:0:
211,227,41199,1,8,0:0:0:0:
219,152,41330,5,0,0:0:0:0:
226,151,41460,5,8,0:0:0:0:
226,151,41591,1,0,0:0:0:0:
103,145,41721,1,12,0:0:0:0:
103,145,41982,1,12,0:0:0:0:
103,145,42113,1,12,0:0:0:0:
106,165,42243,1,4,0:0:0:0:
143,248,42373,1,8,0:0:0:0:
143,248,42504,1,8,0:0:0:0:
143,248,42634,1,8,0:0:0:0:
184,184,42765,1,4,0:0:0:0:
173,214,43026,1,12,0:0:0:0:
148,201,43286,1,0,0:0:0:0:
148,201,43417,1,8,0:0:0:0:
148,201,43547,1,0,0:0:0:0:
146,177,43678,1,12,0:0:0:0:
150,215,43939,1,0,0:0:0:0:
69,148,44069,1,8,0:0:0:0:
255,137,44134,1,8,0:0:0:0:
69,148,44199,1,8,0:0:0:0:
167,181,44330,1,4,0:0:0:0:
164,179,44591,1,4,0:0:0:0:
181,244,44852,1,0,0:0:0:0:
181,244,44917,1,0,0:0:0:0:
181,244,44982,1,8,0:0:0:0:
181,232,45113,1,0,0:0:0:0:
181,244,45243,1,0,0:0:0:0:
181,221,45373,1,8,0:0:0:0:
146,157,45439,1,0,0:0:0:0:
181,221,45504,1,8,0:0:0:0:
146,157,45569,1,8,0:0:0:0:
181,221,45634,1,0,0:0:0:0:
146,157,45765,1,0,0:0:0:0:
152,151,45895,1,8,0:0:0:0:
152,151,45960,1,8,0:0:0:0:
152,151,46026,1,8,0:0:0:0:
152,151,46091,1,8,0:0:0:0:
152,151,46156,1,0,0:0:0:0:
152,151,46286,1,8,0:0:0:0:
153,146,46417,1,8,0:0:0:0:
145,144,46547,1,0,0:0:0:0:
145,144,46613,1,8,0:0:0:0:
145,144,46678,1,0,0:0:0:0:
135,138,46743,1,0,0:0:0:0:
135,138,46808,1,8,0:0:0:0:
127,185,46939,1,4,0:0:0:0:
95,180,47460,1,0,0:0:0:0:
95,180,47526,1,0,0:0:0:0:
95,180,47591,1,8,0:0:0:0:
95,180,47656,1,8,0:0:0:0:
95,180,47721,1,8,0:0:0:0:
95,180,47852,1,4,0:0:0:0:
203,168,48243,1,8,0:0:0:0:
203,168,48308,1,0,0:0:0:0:
203,168,48373,1,8,0:0:0:0:
171,174,48504,1,4,0:0:0:0:
171,174,48765,1,4,0:0:0:0:
277,143,49026,1,0,0:0:0:0:
277,143,49156,1,0,0:0:0:0:
277,143,49286,1,8,0:0:0:0:
281,145,49352,1,8,0:0:0:0:
277,143,49417,1,8,0:0:0:0:
277,143,49547,1,4,0:0:0:0:
34,212,49808,1,8,0:0:0:0:
34,212,49873,1,8,0:0:0:0:
34,212,49939,1,8,0:0:0:0:
31,217,50069,1,4,0:0:0:0:
171,212,50330,1,8,0:0:0:0:
177,211,50395,1,8,0:0:0:0:
177,211,50460,1,8,0:0:0:0:
177,211,50591,1,0,0:0:0:0:
177,211,50852,1,8,0:0:0:0:
171,212,51113,1,4,0:0:0:0:
177,211,51634,1,0,0:0:0:0:
177,211,51765,1,8,0:0:0:0:
177,213,51895,1,0,0:0:0:0:
121,153,52026,1,12,0:0:0:0:
131,225,52286,1,8,0:0:0:0:
131,225,52417,1,0,0:0:0:0:
131,225,52482,1,0,0:0:0:0:
131,225,52547,1,0,0:0:0:0:
131,225,52678,1,12,0:0:0:0:
131,225,52939,1,12,0:0:0:0:
245,103,53199,1,0,0:0:0:0:
236,100,53330,1,8,0:0:0:0:
236,100,53395,1,0,0:0:0:0:
245,103,53526,1,8,0:0:0:0:
236,100,53591,1,0,0:0:0:0:
46,142,53721,1,8,0:0:0:0:
46,142,53786,1,8,0:0:0:0:
46,142,53852,1,0,0:0:0:0:
98,191,53982,1,8,0:0:0:0:
93,157,54113,1,8,0:0:0:0:
253,240,54243,1,0,0:0:0:0:
134,139,54308,1,8,0:0:0:0:
134,139,54373,1,0,0:0:0:0:
253,240,54439,1,0,0:0:0:0:
253,240,54504,1,8,0:0:0:0:
253,240,54634,1,0,0:0:0:0:
253,240,54765,1,8,0:0:0:0:
253,240,54830,1,0,0:0:0:0:
253,240,54895,1,8,0:0:0:0:
253,240,54960,1,8,0:0:0:0:
253,240,55026,1,0,0:0:0:0:
253,240,55156,1,0,0:0:0:0:
226,228,55286,1,8,0:0:0:0:
256,192,61417,12,0,63113,0:0:0:0:
101,224,63634,5,8,0:0:0:0:
81,249,64156,1,0,0:0:0:0:
81,249,64678,1,8,0:0:0:0:
81,249,64939,1,8,0:0:0:0:
81,249,65199,1,0,0:0:0:0:
81,249,65721,1,0,0:0:0:0:
81,249,65852,1,8,0:0:0:0:
81,249,65982,1,0,0:0:0:0:
81,249,66113,1,8,0:0:0:0:
81,249,66243,1,0,0:0:0:0:
81,249,66373,1,8,0:0:0:0:
81,249,66504,1,0,0:0:0:0:
81,249,66765,1,0,0:0:0:0:
81,249,66895,1,8,0:0:0:0:
81,249,67026,1,0,0:0:0:0:
81,249,67156,1,8,0:0:0:0:
81,249,67286,1,0,0:0:0:0:
270,143,67547,1,8,0:0:0:0:
270,143,67808,1,0,0:0:0:0:
270,143,67939,1,8,0:0:0:0:
270,143,68069,1,0,0:0:0:0:
139,256,68330,1,0,0:0:0:0:
139,256,68460,1,8,0:0:0:0:
139,256,68591,1,0,0:0:0:0:
139,256,68852,1,0,0:0:0:0:
139,256,68982,1,8,0:0:0:0:
139,256,69113,1,0,0:0:0:0:
139,256,69373,1,0,0:0:0:0:
139,256,69504,1,8,0:0:0:0:
139,256,69634,1,0,0:0:0:0:
139,256,69895,1,0,0:0:0:0:
139,256,70026,1,8,0:0:0:0:
139,256,70156,1,0,0:0:0:0:
139,256,70286,1,8,0:0:0:0:
139,256,70417,1,0,0:0:0:0:
139,256,70547,1,8,0:0:0:0:
139,256,70678,1,0,0:0:0:0:
139,256,70939,1,0,0:0:0:0:
139,256,71069,1,8,0:0:0:0:
139,256,71199,1,0,0:0:0:0:
139,256,71330,1,8,0:0:0:0:
139,256,71460,1,0,0:0:0:0:
139,256,71591,1,0,0:0:0:0:
139,256,71721,1,8,0:0:0:0:
139,256,71852,1,8,0:0:0:0:
139,256,71982,1,8,0:0:0:0:
106,207,72243,1,8,0:0:0:0:
106,207,72373,1,0,0:0:0:0:
106,207,72439,1,0,0:0:0:0:
106,207,72504,1,8,0:0:0:0:
106,207,72634,1,0,0:0:0:0:
106,207,72765,1,8,0:0:0:0:
106,207,73026,1,8,0:0:0:0:
116,234,73156,1,0,0:0:0:0:
106,207,73286,1,0,0:0:0:0:
106,207,73417,1,8,0:0:0:0:
106,207,73482,1,8,0:0:0:0:
161,89,73547,1,0,0:0:0:0:
161,89,73678,1,8,0:0:0:0:
161,89,73808,1,0,0:0:0:0:
161,89,74069,1,0,0:0:0:0:
161,89,74199,1,8,0:0:0:0:
161,89,74330,1,0,0:0:0:0:
161,89,74460,1,8,0:0:0:0:
161,89,74526,1,8,0:0:0:0:
161,89,74591,1,0,0:0:0:0:
161,89,74721,1,8,0:0:0:0:
161,89,74852,1,0,0:0:0:0:
198,88,75113,1,0,0:0:0:0:
198,88,75243,1,8,0:0:0:0:
198,88,75373,1,0,0:0:0:0:
196,88,75504,1,8,0:0:0:0:
189,79,75569,1,8,0:0:0:0:
189,79,75634,1,0,0:0:0:0:
111,227,75895,1,8,0:0:0:0:
189,79,76156,1,0,0:0:0:0:
189,79,76286,1,8,0:0:0:0:
189,79,76417,1,0,0:0:0:0:
189,79,76547,1,8,0:0:0:0:
189,79,76613,1,8,0:0:0:0:
189,79,76678,1,0,0:0:0:0:
189,79,76808,1,8,0:0:0:0:
189,79,76939,1,0,0:0:0:0:
189,79,77199,1,0,0:0:0:0:
189,79,77330,1,8,0:0:0:0:
189,79,77460,1,0,0:0:0:0:
189,79,77591,1,8,0:0:0:0:
189,79,77656,1,8,0:0:0:0:
189,79,77721,1,0,0:0:0:0:
189,79,77852,1,8,0:0:0:0:
189,79,77982,1,0,0:0:0:0:
179,185,78243,1,8,0:0:0:0:
179,185,78373,1,8,0:0:0:0:
179,185,78504,1,0,0:0:0:0:
179,185,78634,1,8,0:0:0:0:
179,185,78699,1,0,0:0:0:0:
179,185,78765,1,0,0:0:0:0:
179,185,78895,1,8,0:0:0:0:
179,185,79026,1,0,0:0:0:0:
269,93,79286,1,8,0:0:0:0:
266,83,79417,1,8,0:0:0:0:
266,83,79547,1,0,0:0:0:0:
266,83,79678,1,8,0:0:0:0:
266,83,79808,1,0,0:0:0:0:
266,83,79939,1,0,0:0:0:0:
266,83,80069,1,8,0:0:0:0:
266,83,80199,1,8,0:0:0:0:
218,132,80330,5,8,0:0:0:0:
218,132,80526,1,8,0:0:0:0:
218,132,80721,1,8,0:0:0:0:
218,132,80852,1,8,0:0:0:0:
218,132,81047,1,8,0:0:0:0:
218,132,81243,1,0,0:0:0:0:
218,132,81439,5,0,0:0:0:0:
218,132,81634,1,0,0:0:0:0:
218,132,81765,1,0,0:0:0:0:
218,132,81895,1,0,0:0:0:0:
218,132,82091,1,0,0:0:0:0:
218,132,82286,1,0,0:0:0:0:
183,113,82417,1,8,0:0:0:0:
183,113,82613,1,8,0:0:0:0:
183,113,82808,1,8,0:0:0:0:
201,101,82939,1,0,0:0:0:0:
211,102,83134,1,0,0:0:0:0:
201,101,83330,1,8,0:0:0:0:
201,101,83526,5,8,0:0:0:0:
201,101,83721,1,8,0:0:0:0:
201,101,83852,1,8,0:0:0:0:
201,101,83982,1,8,0:0:0:0:
201,101,84243,1,8,0:0:0:0:
164,135,84504,1,0,0:0:0:0:
164,135,84699,1,0,0:0:0:0:
164,135,84895,1,0,0:0:0:0:
164,135,85026,1,8,0:0:0:0:
164,135,85221,1,8,0:0:0:0:
164,135,85417,1,0,0:0:0:0:
164,135,85613,5,0,0:0:0:0:
230,113,85808,1,0,0:0:0:0:
230,113,85939,1,0,0:0:0:0:
230,113,86069,1,0,0:0:0:0:
230,113,86265,1,0,0:0:0:0:
230,113,86460,1,0,0:0:0:0:
227,113,86591,1,8,0:0:0:0:
227,113,86786,1,8,0:0:0:0:
227,113,86982,1,8,0:0:0:0:
227,113,87113,1,8,0:0:0:0:
227,113,87308,1,8,0:0:0:0:
212,133,87504,1,0,0:0:0:0:
212,133,87699,5,0,0:0:0:0:
212,133,87895,1,0,0:0:0:0:
212,133,88026,1,0,0:0:0:0:
212,133,88156,1,0,0:0:0:0:
104,260,88417,1,8,0:0:0:0:
104,260,88547,1,8,0:0:0:0:
99,264,88678,1,4,0:0:0:0:
99,264,88939,1,4,0:0:0:0:
99,264,89199,1,4,0:0:0:0:
99,264,89395,1,4,0:0:0:0:
99,265,89591,1,4,0:0:0:0:
88,261,89852,1,4,0:0:0:0:
88,261,89982,1,4,0:0:0:0:
88,261,90243,1,4,0:0:0:0:
88,260,90439,1,4,0:0:0:0:
88,260,90634,1,4,0:0:0:0:
88,261,90765,1,12,0:0:0:0:
88,261,91026,1,12,0:0:0:0:
114,185,91286,1,12,0:0:0:0:
114,185,91482,1,12,0:0:0:0:
114,185,91678,1,12,0:0:0:0:
114,185,91939,1,12,0:0:0:0:
114,185,92069,1,12,0:0:0:0:
109,189,92330,5,12,0:0:0:0:
107,189,92526,1,12,0:0:0:0:
106,189,92721,1,12,0:0:0:0:
99,199,92852,1,4,0:0:0:0:
99,199,93113,1,4,0:0:0:0:
99,199,93373,1,4,0:0:0:0:
99,199,93569,1,4,0:0:0:0:
99,199,93765,1,4,0:0:0:0:
99,199,94026,1,4,0:0:0:0:
99,199,94156,1,4,0:0:0:0:
99,199,94417,1,4,0:0:0:0:
99,199,94613,1,4,0:0:0:0:
99,199,94808,1,4,0:0:0:0:
58,177,94939,1,12,0:0:0:0:
58,177,95199,1,12,0:0:0:0:
58,177,95460,1,12,0:0:0:0:
58,177,95656,1,12,0:0:0:0:
58,177,95852,1,12,0:0:0:0:
328,197,95982,1,0,0:0:0:0:
328,197,96113,1,0,0:0:0:0:
328,197,96243,1,8,0:0:0:0:
328,197,96308,1,8,0:0:0:0:
328,197,96373,1,8,0:0:0:0:
328,197,96439,1,8,0:0:0:0:
328,197,96504,1,0,0:0:0:0:
157,130,96634,1,0,0:0:0:0:
157,130,96765,1,8,0:0:0:0:
157,130,96830,1,8,0:0:0:0:
157,130,96895,1,0,0:0:0:0:
236,176,97026,1,8,0:0:0:0:
192,172,97286,1,8,0:0:0:0:
192,172,97417,1,8,0:0:0:0:
276,104,97547,1,0,0:0:0:0:
276,104,97613,1,0,0:0:0:0:
275,103,97678,1,8,0:0:0:0:
276,104,97743,1,8,0:0:0:0:
276,104,97808,1,0,0:0:0:0:
275,103,97939,1,8,0:0:0:0:
201,139,98069,1,0,0:0:0:0:
201,139,98134,1,0,0:0:0:0:
276,104,98199,1,8,0:0:0:0:
113,37,98330,1,8,0:0:0:0:
246,96,98460,1,0,0:0:0:0:
246,96,98591,1,8,0:0:0:0:
246,96,98656,1,8,0:0:0:0:
246,96,98721,1,0,0:0:0:0:
246,96,98852,1,8,0:0:0:0:
246,96,98982,1,0,0:0:0:0:
169,91,99113,1,8,0:0:0:0:
173,96,99178,1,8,0:0:0:0:
169,91,99243,1,8,0:0:0:0:
76,119,99308,1,8,0:0:0:0:
165,90,99373,1,0,0:0:0:0:
167,109,99504,1,8,0:0:0:0:
166,108,99634,1,0,0:0:0:0:
165,101,99765,1,8,0:0:0:0:
165,101,99830,1,0,0:0:0:0:
159,103,99895,1,8,0:0:0:0:
159,103,99960,1,8,0:0:0:0:
159,103,100026,1,0,0:0:0:0:
127,106,100156,1,8,0:0:0:0:
127,106,100286,1,0,0:0:0:0:
136,105,100417,1,0,0:0:0:0:
173,106,100678,1,0,0:0:0:0:
99,97,100873,1,8,0:0:0:0:
99,97,100939,1,0,0:0:0:0:
99,97,101069,1,8,0:0:0:0:
206,83,101199,1,0,0:0:0:0:
113,85,101330,1,8,0:0:0:0:
121,81,101460,1,0,0:0:0:0:
156,204,101526,1,0,0:0:0:0:
121,81,101591,1,0,0:0:0:0:
123,74,101721,1,8,0:0:0:0:
123,74,101786,1,8,0:0:0:0:
123,74,101852,1,8,0:0:0:0:
123,74,101917,1,8,0:0:0:0:
123,74,101982,1,0,0:0:0:0:
119,71,102113,1,8,0:0:0:0:
116,65,102243,1,0,0:0:0:0:
129,63,102373,1,8,0:0:0:0:
126,61,102504,1,0,0:0:0:0:
117,53,102634,1,8,0:0:0:0:
117,53,102699,1,8,0:0:0:0:
117,53,102765,1,8,0:0:0:0:
116,49,102895,1,0,0:0:0:0:
116,49,102960,1,8,0:0:0:0:
116,49,103091,1,0,0:0:0:0:
116,49,103156,1,0,0:0:0:0:
110,46,103286,1,8,0:0:0:0:
110,46,103352,1,8,0:0:0:0:
110,46,103417,1,8,0:0:0:0:
110,46,103482,1,8,0:0:0:0:
110,46,103547,1,0,0:0:0:0:
105,46,103678,1,0,0:0:0:0:
105,46,103808,1,8,0:0:0:0:
99,41,103939,1,0,0:0:0:0:
99,41,104004,1,0,0:0:0:0:
97,41,104069,1,8,0:0:0:0:
99,41,104134,1,8,0:0:0:0:
99,41,104199,1,0,0:0:0:0:
99,41,104330,1,8,0:0:0:0:
97,41,104460,1,0,0:0:0:0:
97,41,104591,1,0,0:0:0:0:
97,41,104721,1,8,0:0:0:0:
97,41,104852,1,0,0:0:0:0:
97,41,104982,1,0,0:0:0:0:
137,134,105113,1,8,0:0:0:0:
131,125,105178,1,8,0:0:0:0:
122,111,105243,1,0,0:0:0:0:
122,111,105308,1,0,0:0:0:0:
126,115,105373,1,8,0:0:0:0:
236,231,113460,5,8,0:0:0:0:
272,198,113721,5,0,0:0:0:0:
272,198,113982,1,0,0:0:0:0:
118,171,114113,1,8,0:0:0:0:
272,198,114243,1,0,0:0:0:0:
118,171,114373,1,8,0:0:0:0:
118,171,114439,1,8,0:0:0:0:
253,190,114504,1,0,0:0:0:0:
113,168,114634,1,8,0:0:0:0:
253,190,114765,1,0,0:0:0:0:
111,168,115026,1,8,0:0:0:0:
253,190,115286,1,0,0:0:0:0:
237,187,115417,1,0,0:0:0:0:
237,187,115547,1,0,0:0:0:0:
237,187,115808,1,0,0:0:0:0:
111,167,116069,1,8,0:0:0:0:
111,167,116199,1,0,0:0:0:0:
111,167,116330,1,8,0:0:0:0:
111,167,116460,1,0,0:0:0:0:
111,167,116591,1,8,0:0:0:0:
109,173,116721,1,0,0:0:0:0:
108,174,116852,1,8,0:0:0:0:
97,182,116982,1,0,0:0:0:0:
97,182,117113,1,8,0:0:0:0:
237,187,117373,1,0,0:0:0:0:
237,187,117634,1,8,0:0:0:0:
125,242,117895,1,0,0:0:0:0:
125,242,118026,1,0,0:0:0:0:
125,242,118156,1,8,0:0:0:0:
125,242,118286,1,0,0:0:0:0:
125,242,118417,1,8,0:0:0:0:
125,242,118678,1,8,0:0:0:0:
125,242,118808,1,0,0:0:0:0:
125,242,118939,1,8,0:0:0:0:
125,242,119199,1,8,0:0:0:0:
125,242,119460,1,8,0:0:0:0:
125,242,119591,1,0,0:0:0:0:
125,242,119721,1,0,0:0:0:0:
125,242,119982,1,0,0:0:0:0:
125,242,120047,1,0,0:0:0:0:
125,242,120113,1,8,0:0:0:0:
125,242,120178,1,0,0:0:0:0:
125,242,120243,1,0,0:0:0:0:
125,242,120373,1,8,0:0:0:0:
125,242,120504,1,0,0:0:0:0:
125,242,120569,1,0,0:0:0:0:
125,242,120634,5,8,0:0:0:0:
125,242,120765,1,0,0:0:0:0:
125,242,120830,1,0,0:0:0:0:
125,242,120895,1,8,0:0:0:0:
125,242,120960,1,8,0:0:0:0:
125,242,121026,1,0,0:0:0:0:
174,247,121808,5,0,0:0:0:0:
189,264,121873,5,0,0:0:0:0:
189,264,121939,1,0,0:0:0:0:
174,247,122069,1,8,0:0:0:0:
174,247,122134,1,8,0:0:0:0:
174,247,122199,1,0,0:0:0:0:
174,247,122265,1,0,0:0:0:0:
174,247,122330,1,8,0:0:0:0:
169,241,122460,1,0,0:0:0:0:
174,247,122526,1,0,0:0:0:0:
169,241,122591,1,8,0:0:0:0:
174,247,122721,1,8,0:0:0:0:
174,247,122852,1,0,0:0:0:0:
276,227,122982,1,8,0:0:0:0:
133,218,123113,1,0,0:0:0:0:
133,218,123178,1,0,0:0:0:0:
133,218,123243,1,8,0:0:0:0:
116,201,123373,1,0,0:0:0:0:
116,201,123439,1,8,0:0:0:0:
116,201,123504,1,0,0:0:0:0:
125,184,123569,1,0,0:0:0:0:
112,194,123634,1,8,0:0:0:0:
76,201,123895,1,8,0:0:0:0:
76,201,124026,1,0,0:0:0:0:
195,338,124156,1,8,0:0:0:0:
185,329,124286,1,0,0:0:0:0:
195,338,124352,1,0,0:0:0:0:
185,329,124482,1,8,0:0:0:0:
187,322,124547,1,8,0:0:0:0:
218,211,124678,1,0,0:0:0:0:
337,249,124808,1,8,0:0:0:0:
197,229,124939,1,8,0:0:0:0:
197,229,125004,1,8,0:0:0:0:
209,251,125069,1,0,0:0:0:0:
209,251,125199,1,8,0:0:0:0:
192,251,125330,1,0,0:0:0:0:
192,251,125460,1,0,0:0:0:0:
192,251,125591,1,0,0:0:0:0:
192,251,125721,1,0,0:0:0:0:
191,251,125852,1,8,0:0:0:0:
191,251,125917,1,8,0:0:0:0:
191,251,125982,1,8,0:0:0:0:
195,211,126113,1,8,0:0:0:0:
84,178,126243,1,4,0:0:0:0:
81,177,126504,1,4,0:0:0:0:
74,178,126765,1,8,0:0:0:0:
75,179,126895,1,8,0:0:0:0:
162,203,127026,1,0,0:0:0:0:
162,203,127156,1,4,0:0:0:0:
187,155,127417,5,0,0:0:0:0:
187,155,127547,1,8,0:0:0:0:
187,155,127678,1,8,0:0:0:0:
187,155,127808,1,4,0:0:0:0:
187,155,128069,1,8,0:0:0:0:
187,155,128199,1,8,0:0:0:0:
249,83,128330,1,8,0:0:0:0:
154,69,128395,1,8,0:0:0:0:
249,83,128460,1,0,0:0:0:0:
154,69,128526,1,8,0:0:0:0:
154,69,128591,1,0,0:0:0:0:
149,71,128721,1,8,0:0:0:0:
149,72,128852,1,0,0:0:0:0:
149,72,128917,1,0,0:0:0:0:
249,83,128982,1,0,0:0:0:0:
249,83,129047,1,0,0:0:0:0:
249,83,129113,1,8,0:0:0:0:
116,75,129373,1,8,0:0:0:0:
116,75,129439,1,8,0:0:0:0:
116,75,129504,1,0,0:0:0:0:
116,75,129634,1,8,0:0:0:0:
116,75,129699,1,0,0:0:0:0:
116,75,129765,1,0,0:0:0:0:
280,256,129895,1,8,0:0:0:0:
280,256,129960,1,8,0:0:0:0:
280,256,130026,1,0,0:0:0:0:
224,133,130091,1,0,0:0:0:0:
280,256,130156,1,8,0:0:0:0:
252,235,130417,1,8,0:0:0:0:
318,219,130482,1,0,0:0:0:0:
242,233,130547,1,0,0:0:0:0:
242,233,130613,1,0,0:0:0:0:
242,233,130678,1,8,0:0:0:0:
242,233,130808,1,0,0:0:0:0:
246,204,130873,1,0,0:0:0:0:
240,241,130939,1,0,0:0:0:0:
224,228,131069,1,8,0:0:0:0:
160,203,131199,1,0,0:0:0:0:
157,157,131330,1,8,0:0:0:0:
152,154,131460,1,0,0:0:0:0:
152,154,131526,1,0,0:0:0:0:
152,154,131591,1,0,0:0:0:0:
139,152,131721,1,8,0:0:0:0:
236,261,131786,1,8,0:0:0:0:
119,142,131852,1,0,0:0:0:0:
236,261,131917,1,0,0:0:0:0:
236,261,131982,1,8,0:0:0:0:
119,142,132243,1,8,0:0:0:0:
119,142,132373,1,0,0:0:0:0:
218,104,132504,1,8,0:0:0:0:
218,104,132569,1,8,0:0:0:0:
218,104,132634,1,8,0:0:0:0:
218,104,132699,1,8,0:0:0:0:
218,104,132765,1,0,0:0:0:0:
218,104,132895,1,0,0:0:0:0:
199,98,133026,1,8,0:0:0:0:
199,98,133091,1,0,0:0:0:0:
199,98,133156,1,8,0:0:0:0:
199,98,133221,1,8,0:0:0:0:
199,98,133286,1,0,0:0:0:0:
180,89,133547,1,8,0:0:0:0:
180,89,133613,1,0,0:0:0:0:
180,89,133678,1,0,0:0:0:0:
180,89,133743,1,0,0:0:0:0:
180,89,133808,1,8,0:0:0:0:
170,83,133939,1,8,0:0:0:0:
172,85,134069,1,0,0:0:0:0:
172,85,134134,1,0,0:0:0:0:
172,85,134199,1,8,0:0:0:0:
172,85,134330,1,8,0:0:0:0:
172,85,134460,1,8,0:0:0:0:
132,161,134591,1,0,0:0:0:0:
132,161,134852,1,0,0:0:0:0:
173,175,134982,1,0,0:0:0:0:
188,83,135113,1,8,0:0:0:0:
120,71,135178,1,8,0:0:0:0:
120,71,135243,1,8,0:0:0:0:
120,71,135308,1,8,0:0:0:0:
188,83,135373,1,0,0:0:0:0:
160,183,135634,1,8,0:0:0:0:
160,183,135699,1,8,0:0:0:0:
160,183,135765,1,8,0:0:0:0:
160,183,135895,1,0,0:0:0:0:
151,155,136026,1,0,0:0:0:0:
151,155,136156,1,8,0:0:0:0:
151,155,136221,1,8,0:0:0:0:
151,155,136286,1,0,0:0:0:0:
151,155,136417,1,8,0:0:0:0:
151,155,136547,1,0,0:0:0:0:
139,108,136678,1,8,0:0:0:0:
139,108,136743,1,8,0:0:0:0:
139,108,136808,1,8,0:0:0:0:
139,108,136873,1,8,0:0:0:0:
139,108,136939,1,0,0:0:0:0:
139,108,137069,1,8,0:0:0:0:
133,106,137199,1,0,0:0:0:0:
133,105,137330,1,8,0:0:0:0:
133,105,137395,1,0,0:0:0:0:
133,105,137460,1,8,0:0:0:0:
133,105,137526,1,8,0:0:0:0:
133,105,137591,1,0,0:0:0:0:
284,179,137721,1,8,0:0:0:0:
288,179,137982,1,0,0:0:0:0:
288,179,138113,1,0,0:0:0:0:
283,171,138178,1,0,0:0:0:0:
283,171,138243,1,8,0:0:0:0:
289,170,138373,1,0,0:0:0:0:
290,170,138439,1,0,0:0:0:0:
289,170,138504,1,8,0:0:0:0:
290,170,138569,1,8,0:0:0:0:
290,170,138634,1,0,0:0:0:0:
253,306,138765,1,8,0:0:0:0:
253,306,139026,1,8,0:0:0:0:
253,306,139156,1,0,0:0:0:0:
253,306,139286,1,8,0:0:0:0:
253,306,139352,1,8,0:0:0:0:
253,306,139417,1,0,0:0:0:0:
253,306,139482,1,0,0:0:0:0:
253,306,139547,1,8,0:0:0:0:
253,306,139678,1,0,0:0:0:0:
253,306,139808,1,8,0:0:0:0:
253,306,139873,1,0,0:0:0:0:
253,306,139939,1,0,0:0:0:0:
253,306,140004,1,0,0:0:0:0:
253,306,140069,1,8,0:0:0:0:
253,306,140199,1,0,0:0:0:0:
253,306,140330,1,8,0:0:0:0:
253,306,140395,1,8,0:0:0:0:
253,306,140460,1,0,0:0:0:0:
253,306,140591,1,8,0:0:0:0:
265,268,140852,1,8,0:0:0:0:
265,268,140917,1,8,0:0:0:0:
265,268,140982,1,8,0:0:0:0:
265,268,141047,1,8,0:0:0:0:
265,268,141113,1,0,0:0:0:0:
254,257,141243,1,0,0:0:0:0:
239,226,141308,1,0,0:0:0:0:
254,257,141373,1,8,0:0:0:0:
214,215,141504,1,0,0:0:0:0:
214,215,141569,1,0,0:0:0:0:
214,215,141634,1,8,0:0:0:0:
214,215,141699,1,0,0:0:0:0:
214,215,141765,1,8,0:0:0:0:
214,215,141895,1,0,0:0:0:0:
280,125,142026,1,8,0:0:0:0:
280,125,142091,1,8,0:0:0:0:
280,125,142156,1,0,0:0:0:0:
119,101,142286,1,8,0:0:0:0:
119,101,142352,1,0,0:0:0:0:
119,101,142417,1,0,0:0:0:0:
119,101,142678,1,0,0:0:0:0:
119,101,142808,1,8,0:0:0:0:
241,220,142939,1,8,0:0:0:0:
241,220,143199,1,8,0:0:0:0:
241,220,143330,1,0,0:0:0:0:
226,215,143460,1,8,0:0:0:0:
226,215,143526,1,8,0:0:0:0:
226,215,143591,1,8,0:0:0:0:
226,215,143656,1,8,0:0:0:0:
226,215,143721,1,0,0:0:0:0:
226,215,143852,1,0,0:0:0:0:
226,215,143982,1,8,0:0:0:0:
226,215,144047,1,0,0:0:0:0:
226,215,144113,1,8,0:0:0:0:
226,215,144178,1,8,0:0:0:0:
226,215,144243,1,0,0:0:0:0:
223,215,144373,1,0,0:0:0:0:
226,215,144504,1,8,0:0:0:0:
226,215,144569,1,0,0:0:0:0:
226,215,144634,1,0,0:0:0:0:
226,215,144765,1,8,0:0:0:0:
226,215,144895,1,0,0:0:0:0:
226,215,145026,1,8,0:0:0:0:
223,215,145286,1,8,0:0:0:0:
226,215,145417,1,0,0:0:0:0:
226,215,145547,1,8,0:0:0:0:
226,215,145613,1,8,0:0:0:0:
226,215,145678,1,8,0:0:0:0:
226,215,145743,1,8,0:0:0:0:
219,210,145808,1,0,0:0:0:0:
206,203,145939,1,8,0:0:0:0:
205,203,146069,1,0,0:0:0:0:
205,203,146134,1,8,0:0:0:0:
171,131,146199,1,0,0:0:0:0:
205,203,146265,1,0,0:0:0:0:
205,203,146330,1,8,0:0:0:0:
205,203,146460,1,0,0:0:0:0:
205,203,146591,1,8,0:0:0:0:
205,203,146656,1,8,0:0:0:0:
205,203,146721,1,0,0:0:0:0:
205,203,146786,1,0,0:0:0:0:
206,203,146852,1,8,0:0:0:0:
205,203,146982,1,0,0:0:0:0:
205,203,147113,1,12,0:0:0:0:
