osu file format v14

[General]
AudioFilename: audio.mp3
AudioLeadIn: 0
PreviewTime: 88352
Countdown: 0
SampleSet: Normal
StackLeniency: 0.7
Mode: 1
LetterboxInBreaks: 0
WidescreenStoryboard: 1

[Editor]
Bookmarks: 13547,21895,30243,38591,55286,63634,71982,80330,88678,97026,105373,113721,122069,130417
DistanceSpacing: 1.5
BeatDivisor: 4
GridSize: 4
TimelineZoom: 2.1

[Metadata]
Title://N/YYY////F//////
TitleUnicode://N/¥¥¥////F//////
Artist:kawaii amen girl
ArtistUnicode:kawaii amen girl
Creator:_gt
Version:Muzukashii
Source:
Tags:shirogane noel danchou 白銀ノエル shiranui flare 不知火フレア noefure ノエフレ hololive ホロライブ japanese instrumental electronic breakcore CANDYYYLAND feat. LIZ (Pa's Lam System Remix) (kawaii Amen Girl Bootleg) CAND¥¥¥LAND candyland candy land cand\\\land nyyyf yen fuwa fuwa spring storm
BeatmapID:3840843
BeatmapSetID:1863701

[Difficulty]
HPDrainRate:6
CircleSize:5
OverallDifficulty:5.5
ApproachRate:5
SliderMultiplier:1.4
SliderTickRate:1

[Events]
//Background and Video events
0,0,"101825339_p0 (3).jpg",0,0
//Break Periods
2,5400,12347
2,55486,60217
2,105573,112521
//Storyboard Layer 0 (Background)
//Storyboard Layer 1 (Fail)
//Storyboard Layer 2 (Pass)
//Storyboard Layer 3 (Foreground)
//Storyboard Layer 4 (Overlay)
//Storyboard Sound Samples

[TimingPoints]
5200,260.869565217391,4,1,0,100,1,0
5200,-90.9090909090909,4,1,0,100,0,8
5330,-90.9090909090909,4,1,0,10,0,8
6243,-92.1553505723153,4,1,0,10,0,8
7286,-93.4186950301696,4,1,0,10,0,8
8330,-94.6993584956484,4,1,0,10,0,8
9373,-95.9975783925382,4,1,0,10,0,8
10417,-97.3135953994345,4,1,0,10,0,8
11460,-98.6476534943607,4,1,0,10,0,8
12504,-100,4,1,0,40,0,8
12765,-100,4,1,0,50,0,8
13026,-100,4,1,0,60,0,8
13286,-100,4,1,0,70,0,8
13547,-111.111111111111,4,1,0,80,0,8
20852,-111.111111111111,4,1,0,80,0,8
21112,-109.619348498528,4,1,0,80,0,8
21373,-108.147614087175,4,1,0,85,0,8
21634,-106.695638981157,4,1,0,85,0,8
21895,-105.263157894737,4,1,0,90,0,8
29591,-105.263157894737,4,1,0,90,0,8
29656,-104.724610853492,4,1,0,90,0,8
29721,-104.188819124946,4,1,0,90,0,8
29786,-103.655768612376,4,1,0,90,0,8
29851,-103.125445291182,4,1,0,90,0,8
29917,-102.597835208515,4,1,0,90,0,8
29982,-102.072924482914,4,1,0,90,0,8
30047,-101.550699303935,4,1,0,90,0,8
30112,-101.031145931794,4,1,0,90,0,8
30177,-100.514250697,4,1,0,90,0,8
30243,-100,4,1,0,90,0,8
31286,-101.514442705104,4,1,0,90,0,0
31547,-102.281718641304,4,1,0,90,0,0
31808,-103.054793874103,4,1,0,90,0,0
32330,-104.618517891935,4,1,0,90,0,0
32460,-105.011627539103,4,1,0,90,0,0
32591,-105.409255338946,4,1,0,90,0,0
32721,-105.805336224142,4,1,0,90,0,0
32852,-106.205969411536,4,1,0,90,0,0
32982,-106.605043992249,4,1,0,90,0,0
33113,-107.008705282795,4,1,0,90,0,0
33373,-107.814397967675,4,1,0,90,0,0
33504,-108.2226384917,4,1,0,90,0,0
33634,-108.629290813777,4,1,0,90,0,0
33765,-109.040616939436,4,1,0,90,0,0
33895,-109.450342859051,4,1,0,90,0,0
34417,-111.111111111111,4,1,0,90,0,0
36504,-111.111111111111,4,1,0,90,0,0
36634,-110.384282632965,4,1,0,90,0,0
36765,-109.656672602929,4,1,0,90,0,0
36895,-108.93935827073,4,1,0,90,0,0
37026,-108.221272617114,4,1,0,90,0,0
37156,-107.5133478912,4,1,0,90,0,0
37286,-106.810054023947,4,1,0,90,0,0
37417,-106.106003911351,4,1,0,90,0,0
37547,-105.411916123246,4,1,0,90,0,0
37613,-105.061272651697,4,1,0,90,0,0
37678,-104.717081989009,4,1,0,80,0,0
37808,-104.032079772968,4,1,0,70,0,0
37873,-103.69126084346,4,1,0,70,0,0
37939,-103.346340980426,4,1,0,60,0,0
38069,-102.670305406795,4,1,0,50,0,0
38199,-101.998692090329,4,1,0,50,0,0
38330,-101.326356594321,4,1,0,50,0,0
38460,-100.663534660285,4,1,0,50,0,0
38591,-100,4,1,0,80,0,0
38852,-95.2380952380952,4,1,0,100,0,1
39113,-95.2380952380952,4,1,0,100,0,1
39504,-95.2380952380952,4,1,0,100,0,1
39895,-95.2380952380952,4,1,0,100,0,1
41721,-95.2380952380952,4,1,0,100,0,1
42243,-95.2380952380952,4,1,0,100,0,1
42765,-100,4,1,0,100,0,1
43026,-95.2380952380952,4,1,0,100,0,1
43286,-95.2380952380952,4,1,0,100,0,1
43678,-95.2380952380952,4,1,0,100,0,1
43939,-95.2380952380952,4,1,0,100,0,1
44330,-95.2380952380952,4,1,0,100,0,1
44852,-95.2380952380952,4,1,0,100,0,0
46939,-95.2380952380952,4,1,0,100,0,1
47460,-95.2380952380952,4,1,0,100,0,1
47852,-95.2380952380952,4,1,0,100,0,1
48243,-95.2380952380952,4,1,0,100,0,1
48504,-95.2380952380952,4,1,0,100,0,1
49286,-95.2380952380952,4,1,0,100,0,1
49547,-95.2380952380952,4,1,0,100,0,1
49808,-95.2380952380952,4,1,0,100,0,1
50069,-95.2380952380952,4,1,0,100,0,1
50330,-95.2380952380952,4,1,0,100,0,1
51113,-95.2380952380952,4,1,0,100,0,1
51634,-95.2380952380952,4,1,0,100,0,1
52026,-95.2380952380952,4,1,0,100,0,1
52286,-95.2380952380952,4,1,0,100,0,1
52678,-95.2380952380952,4,1,0,100,0,1
53199,-95.2380952380952,4,1,0,100,0,1
55286,-95.2380952380952,4,1,0,100,0,8
55417,-95.2380952380952,4,1,0,40,0,8
56329,-97.0910168691887,4,1,0,40,0,8
57373,-98.9799883452773,4,1,0,40,0,8
58416,-100.905711040506,4,1,0,40,0,8
59460,-102.868899974728,4,1,0,40,0,8
60503,-104.870284078993,4,1,0,40,0,8
61417,-90.9090909090909,4,1,0,60,0,8
61547,-106.910606466196,4,1,0,60,0,8
62590,-108.990624706998,4,1,0,60,0,8
63634,-111.111111111111,4,1,0,70,0,8
71449,-111.111111111111,4,1,0,70,0,8
71591,-109.619348498528,4,1,0,75,0,8
71721,-108.147614087175,4,1,0,80,0,8
71852,-106.695638981157,4,1,0,85,0,8
71982,-105.263157894737,4,1,0,90,0,8
79808,-105.263157894737,4,1,0,90,0,8
79938,-103.921952094888,4,1,0,86,0,8
80069,-102.597835208515,4,1,0,84,0,8
80199,-101.290589497996,4,1,0,82,0,8
80330,-100,4,1,0,80,0,0
80526,-100.421954621551,4,1,0,80,0,0
80721,-100.843523254988,4,1,0,80,0,0
80852,-101.127724242043,4,1,0,80,0,0
81243,-101.980760113264,4,1,0,76,0,0
81373,-102.265969099867,4,1,0,76,0,0
81439,-102.411072643655,4,1,0,76,0,0
81634,-102.840991540433,4,1,0,76,0,0
81765,-103.130821867281,4,1,0,76,0,0
81895,-103.419247224766,4,1,0,76,0,0
82091,-103.855629518004,4,1,0,76,0,0
82286,-104.29161262524,4,1,0,76,0,0
82417,-104.585531146657,4,1,0,72,0,0
82613,-105.026834628804,4,1,0,72,0,0
82808,-105.467734423232,4,1,0,72,0,0
82939,-105.764967535067,4,1,0,72,0,0
83330,-106.657119631856,4,1,0,68,0,0
83460,-106.955406965372,4,1,0,68,0,0
83526,-107.107164277355,4,1,0,68,0,0
83721,-107.55679723905,4,1,0,68,0,0
83852,-107.859917825809,4,1,0,68,0,0
83982,-108.161569017896,4,1,0,68,0,0
84243,-108.76974131548,4,1,0,68,0,0
84504,-109.381333252284,4,1,0,64,0,0
84699,-109.840513113465,4,1,0,64,0,0
84895,-110.303990234883,4,1,0,64,0,0
85026,-110.61485306364,4,1,0,64,0,0
85417,-111.547915072702,4,1,0,60,0,0
85547,-111.859880464803,4,1,0,60,0,0
85613,-112.018596655595,4,1,0,60,0,0
85808,-112.488847676794,4,1,0,60,0,0
85939,-112.80586795247,4,1,0,60,0,0
86069,-113.121351453925,4,1,0,60,0,0
86265,-113.598672224345,4,1,0,60,0,0
86460,-114.075556359795,4,1,0,60,0,0
86591,-114.397048357197,4,1,0,56,0,0
86786,-114.877284053931,4,1,0,56,0,0
86982,-115.362014063109,4,1,0,56,0,0
87113,-115.687131603702,4,1,0,56,0,0
87308,-116.172783034808,4,1,0,56,0,0
87504,-116.662979461808,4,1,0,52,0,0
87634,-116.98925012413,4,1,0,52,0,0
87699,-117.152727475673,4,1,0,52,0,0
87895,-117.647058823529,4,1,0,52,0,0
88417,-100,4,1,0,80,0,8
88678,-90.9090909090909,4,1,0,100,0,9
89721,-100,4,1,0,100,0,8
89754,-90.9090909090909,4,1,0,100,0,8
90765,-90.9090909090909,4,1,0,100,0,9
91808,-100,4,1,0,100,0,8
91841,-90.9090909090909,4,1,0,100,0,8
92852,-90.9090909090909,4,1,0,100,0,9
93895,-100,4,1,0,100,0,8
93928,-90.9090909090909,4,1,0,100,0,8
94939,-90.9090909090909,4,1,0,100,0,9
95982,-100,4,1,0,100,0,8
105373,-100,4,1,0,100,0,8
105504,-100,4,1,0,40,0,8
106416,-102.052261750994,4,1,0,40,0,8
107460,-104.146641284934,4,1,0,40,0,8
108503,-106.28400296897,4,1,0,40,0,8
109547,-108.465228909328,4,1,0,40,0,8
110590,-110.691219315363,4,1,0,40,0,8
111634,-112.962892871081,4,1,0,40,0,8
112677,-115.281187114291,4,1,0,40,0,8
113460,-115.281187114291,4,1,0,70,0,8
113721,-117.647058823529,4,1,0,80,0,8
117895,-117.647058823529,4,1,0,85,0,0
118026,-116.84980328009,4,1,0,85,0,0
118156,-116.063974782483,4,1,0,85,0,0
118286,-115.283431072786,4,1,0,85,0,0
118417,-114.502193059625,4,1,0,85,0,0
118678,-112.961427006397,4,1,0,85,0,0
118808,-112.201748290813,4,1,0,85,0,0
118939,-111.441393831442,4,1,0,85,0,0
119199,-109.947521380306,4,1,0,85,0,0
119460,-108.468043965483,4,1,0,85,0,0
119591,-107.732991596114,4,1,0,85,0,0
119721,-107.008474715878,4,1,0,85,0,0
119982,-105.568545742953,4,1,0,90,0,0
120047,-105.212966541336,4,1,0,90,0,0
120113,-104.853142322348,4,1,0,90,0,0
120243,-104.147992762935,4,1,0,90,0,0
120373,-103.447585416202,4,1,0,90,0,0
120504,-102.746555048309,4,1,0,90,0,0
120569,-102.400480961981,4,1,0,90,0,0
120634,-102.055572532966,4,1,0,90,0,0
120765,-101.363975379969,4,1,0,90,0,0
120895,-100.682290873463,4,1,0,90,0,0
121026,-100,4,1,0,90,0,0
121808,-105.263157894737,4,1,0,70,0,0
122069,-100,4,1,0,100,0,1
126243,-100,4,1,0,100,0,0
130417,-100,4,1,0,100,0,1
137721,-100,4,1,0,100,0,1
137852,-99.3896564640417,4,1,0,100,0,1
137982,-98.7876547423074,4,1,0,100,0,1
138113,-98.184710677263,4,1,0,100,0,1
138243,-97.5900072948533,4,1,0,100,0,1
138373,-96.9989060222896,4,1,0,100,0,1
138504,-96.4068794694323,4,1,0,100,0,1
138569,-96.1144684724515,4,1,0,100,0,1
138634,-95.8229443851147,4,1,0,100,0,1
138765,-95.2380952380953,4,1,0,100,0,1
147113,-86.9565217391304,4,1,0,100,0,0

[HitObjects]
162,137,5200,5,12,0:0:0:0:
245,199,13547,5,0,0:0:0:0:
130,218,13808,1,8,0:0:0:0:
130,218,13939,1,0,0:0:0:0:
228,177,14069,1,8,0:0:0:0:
228,177,14591,1,0,0:0:0:0:
130,218,14852,1,8,0:0:0:0:
130,218,14982,1,0,0:0:0:0:
217,177,15113,1,8,0:0:0:0:
217,177,15373,1,0,0:0:0:0:
217,177,15634,1,0,0:0:0:0:
130,218,15895,1,8,0:0:0:0:
130,218,16026,1,0,0:0:0:0:
76,156,16156,1,8,0:0:0:0:
76,156,16678,1,0,0:0:0:0:
76,156,16873,1,0,0:0:0:0:
76,156,17069,1,0,0:0:0:0:
76,156,17199,1,8,0:0:0:0:
207,129,17460,1,0,0:0:0:0:
76,156,17721,1,0,0:0:0:0:
137,217,17982,1,8,0:0:0:0:
137,217,18113,1,0,0:0:0:0:
76,156,18243,1,8,0:0:0:0:
76,156,18765,1,0,0:0:0:0:
137,217,19026,1,8,0:0:0:0:
137,217,19156,1,0,0:0:0:0:
76,156,19286,1,8,0:0:0:0:
76,156,19547,1,0,0:0:0:0:
76,156,19808,1,0,0:0:0:0:
132,217,20069,1,8,0:0:0:0:
132,217,20199,1,0,0:0:0:0:
76,156,20330,1,8,0:0:0:0:
76,156,20852,1,0,0:0:0:0:
76,156,21113,1,0,0:0:0:0:
76,156,21373,1,8,0:0:0:0:
76,156,21634,1,0,0:0:0:0:
66,249,21895,1,8,0:0:0:0:
121,196,22156,1,0,0:0:0:0:
116,202,22417,1,0,0:0:0:0:
106,222,22678,1,8,0:0:0:0:
106,221,22808,1,0,0:0:0:0:
117,177,22939,1,0,0:0:0:0:
202,209,23199,1,8,0:0:0:0:
144,215,23330,1,0,0:0:0:0:
157,130,23460,1,0,0:0:0:0:
129,140,23591,1,8,0:0:0:0:
129,140,23721,1,8,0:0:0:0:
129,140,23786,1,8,0:0:0:0:
129,140,23852,1,8,0:0:0:0:
229,247,23982,1,0,0:0:0:0:
229,247,24243,1,0,0:0:0:0:
224,245,24504,1,8,0:0:0:0:
224,245,24634,1,8,0:0:0:0:
246,239,24699,1,8,0:0:0:0:
224,245,24765,1,8,0:0:0:0:
224,245,24895,1,8,0:0:0:0:
245,238,25026,1,0,0:0:0:0:
180,146,25286,1,8,0:0:0:0:
245,228,25547,1,0,0:0:0:0:
238,219,25808,1,8,0:0:0:0:
237,219,25873,1,8,0:0:0:0:
238,219,25939,1,8,0:0:0:0:
233,219,26069,1,0,0:0:0:0:
233,219,26199,1,0,0:0:0:0:
233,219,26330,1,8,0:0:0:0:
220,194,26591,1,8,0:0:0:0:
211,194,26852,1,8,0:0:0:0:
132,212,26982,1,0,0:0:0:0:
134,221,27113,1,0,0:0:0:0:
135,217,27373,1,8,0:0:0:0:
135,217,27439,1,8,0:0:0:0:
135,217,27504,1,8,0:0:0:0:
127,217,27634,1,0,0:0:0:0:
127,217,27895,1,0,0:0:0:0:
96,164,28156,1,8,0:0:0:0:
113,180,28286,1,8,0:0:0:0:
113,180,28352,1,8,0:0:0:0:
113,180,28417,1,8,0:0:0:0:
106,174,28547,1,8,0:0:0:0:
103,178,28678,1,0,0:0:0:0:
87,179,28939,1,0,0:0:0:0:
124,217,29069,1,0,0:0:0:0:
124,217,29330,1,0,0:0:0:0:
145,269,29591,1,8,0:0:0:0:
145,269,29656,1,8,0:0:0:0:
145,269,29721,1,8,0:0:0:0:
145,269,29852,1,0,0:0:0:0:
145,269,29982,1,0,0:0:0:0:
145,269,30113,1,0,0:0:0:0:
148,176,30243,1,12,0:0:0:0:
141,191,30765,1,8,0:0:0:0:
141,191,31286,1,0,0:0:0:0:
141,191,31547,1,0,0:0:0:0:
141,191,31808,1,8,0:0:0:0:
282,117,32330,1,0,0:0:0:0:
141,199,32460,1,8,0:0:0:0:
282,117,32591,1,0,0:0:0:0:
141,199,32721,1,8,0:0:0:0:
141,199,32852,1,0,0:0:0:0:
141,199,32982,1,8,0:0:0:0:
282,117,33113,1,0,0:0:0:0:
219,114,33373,1,0,0:0:0:0:
219,114,33504,1,8,0:0:0:0:
219,114,33634,1,0,0:0:0:0:
219,114,33765,1,8,0:0:0:0:
219,114,33895,1,0,0:0:0:0:
183,120,34417,1,0,0:0:0:0:
159,178,34547,1,0,0:0:0:0:
183,120,34678,1,8,0:0:0:0:
183,120,34939,1,0,0:0:0:0:
183,120,35069,1,0,0:0:0:0:
183,120,35199,1,8,0:0:0:0:
183,120,35460,1,0,0:0:0:0:
159,178,35591,1,0,0:0:0:0:
183,120,35721,1,8,0:0:0:0:
183,120,35982,1,0,0:0:0:0:
183,120,36113,1,0,0:0:0:0:
183,120,36243,1,8,0:0:0:0:
25,191,36504,1,0,0:0:0:0:
128,185,36634,1,0,0:0:0:0:
128,185,36765,1,8,0:0:0:0:
128,185,36895,1,0,0:0:0:0:
25,191,37026,1,8,0:0:0:0:
122,184,37286,1,0,0:0:0:0:
114,182,37417,1,8,0:0:0:0:
25,191,37547,5,0,0:0:0:0:
107,182,37613,1,0,0:0:0:0:
25,191,37678,1,0,0:0:0:0:
25,191,37808,1,8,0:0:0:0:
25,191,38069,1,0,0:0:0:0:
83,176,38199,1,0,0:0:0:0:
25,191,38330,1,8,0:0:0:0:
83,176,38460,1,8,0:0:0:0:
131,183,38591,5,0,0:0:0:0:
131,183,38656,1,0,0:0:0:0:
131,183,38721,1,0,0:0:0:0:
56,226,38852,5,12,0:0:0:0:
177,113,39113,1,8,0:0:0:0:
177,113,39178,1,8,0:0:0:0:
98,185,39243,1,8,0:0:0:0:
177,113,39373,1,8,0:0:0:0:
121,178,39504,1,4,0:0:0:0:
89,182,39895,1,8,0:0:0:0:
80,180,39960,1,8,0:0:0:0:
177,113,40026,1,8,0:0:0:0:
188,187,40156,1,4,0:0:0:0:
154,169,40417,1,8,0:0:0:0:
188,187,40678,1,8,0:0:0:0:
188,187,40873,1,8,0:0:0:0:
188,187,41069,1,8,0:0:0:0:
188,187,41199,1,0,0:0:0:0:
103,145,41721,1,12,0:0:0:0:
103,145,41982,1,8,0:0:0:0:
103,145,42113,1,8,0:0:0:0:
106,165,42243,1,4,0:0:0:0:
217,114,42504,1,0,0:0:0:0:
115,167,42634,1,8,0:0:0:0:
173,214,43026,1,12,0:0:0:0:
52,177,43286,1,0,0:0:0:0:
56,179,43417,1,8,0:0:0:0:
148,201,43547,1,0,0:0:0:0:
146,177,43678,1,12,0:0:0:0:
150,215,43939,1,8,0:0:0:0:
167,117,44069,1,0,0:0:0:0:
167,181,44330,1,4,0:0:0:0:
164,179,44591,1,4,0:0:0:0:
199,260,44852,1,0,0:0:0:0:
42,177,44917,1,0,0:0:0:0:
199,260,44982,1,0,0:0:0:0:
199,260,45113,1,8,0:0:0:0:
199,260,45243,1,0,0:0:0:0:
199,260,45373,1,8,0:0:0:0:
42,177,45504,1,8,0:0:0:0:
199,260,45634,1,0,0:0:0:0:
199,260,45895,1,8,0:0:0:0:
199,260,46026,1,8,0:0:0:0:
42,177,46156,1,0,0:0:0:0:
199,260,46286,1,0,0:0:0:0:
199,260,46417,1,8,0:0:0:0:
116,149,46547,1,0,0:0:0:0:
116,149,46678,1,8,0:0:0:0:
116,149,46743,1,8,0:0:0:0:
116,149,46808,1,8,0:0:0:0:
127,185,46939,1,4,0:0:0:0:
111,195,47460,1,8,0:0:0:0:
106,135,47526,1,8,0:0:0:0:
106,135,47591,1,8,0:0:0:0:
104,200,47721,1,8,0:0:0:0:
95,180,47852,1,4,0:0:0:0:
103,200,48243,1,8,0:0:0:0:
151,152,48373,1,8,0:0:0:0:
171,174,48504,1,4,0:0:0:0:
171,174,48765,1,4,0:0:0:0:
89,191,49026,1,0,0:0:0:0:
89,191,49156,1,0,0:0:0:0:
117,169,49286,1,8,0:0:0:0:
115,161,49417,1,8,0:0:0:0:
277,143,49547,1,4,0:0:0:0:
117,169,49808,1,8,0:0:0:0:
115,161,49939,1,8,0:0:0:0:
31,217,50069,1,4,0:0:0:0:
105,152,50330,1,8,0:0:0:0:
105,152,50460,1,8,0:0:0:0:
177,211,50591,1,0,0:0:0:0:
177,211,50852,1,8,0:0:0:0:
171,212,51113,1,4,0:0:0:0:
177,211,51634,1,0,0:0:0:0:
177,211,51765,1,8,0:0:0:0:
177,213,51895,1,0,0:0:0:0:
121,153,52026,1,12,0:0:0:0:
72,170,52286,1,0,0:0:0:0:
112,151,52417,1,0,0:0:0:0:
72,170,52482,1,0,0:0:0:0:
72,170,52547,1,0,0:0:0:0:
131,225,52678,1,12,0:0:0:0:
131,225,52939,1,12,0:0:0:0:
144,106,53199,1,8,0:0:0:0:
49,100,53395,1,0,0:0:0:0:
176,159,53591,1,0,0:0:0:0:
49,100,53721,1,8,0:0:0:0:
121,152,53982,1,0,0:0:0:0:
122,144,54243,1,8,0:0:0:0:
109,160,54308,1,8,0:0:0:0:
122,144,54373,1,8,0:0:0:0:
131,147,54504,1,0,0:0:0:0:
71,164,54634,1,0,0:0:0:0:
122,144,54765,1,8,0:0:0:0:
122,144,54895,1,8,0:0:0:0:
122,144,55026,1,0,0:0:0:0:
98,162,55091,1,0,0:0:0:0:
122,144,55156,1,0,0:0:0:0:
122,144,55286,1,8,0:0:0:0:
256,192,61417,12,0,63113,0:0:0:0:
128,221,63634,5,8,0:0:0:0:
128,221,64156,1,0,0:0:0:0:
128,221,64678,1,8,0:0:0:0:
128,221,64939,1,8,0:0:0:0:
128,221,65199,1,0,0:0:0:0:
129,172,65721,1,0,0:0:0:0:
129,172,65852,1,8,0:0:0:0:
129,172,65982,1,0,0:0:0:0:
129,172,66113,1,8,0:0:0:0:
129,172,66243,1,0,0:0:0:0:
129,172,66373,1,8,0:0:0:0:
129,172,66504,1,0,0:0:0:0:
128,221,66765,1,0,0:0:0:0:
129,172,66895,1,8,0:0:0:0:
129,172,67026,1,0,0:0:0:0:
129,172,67156,1,8,0:0:0:0:
129,172,67286,1,0,0:0:0:0:
189,233,67808,1,0,0:0:0:0:
189,233,68069,1,8,0:0:0:0:
189,233,68330,1,0,0:0:0:0:
189,233,68460,1,8,0:0:0:0:
189,233,68591,1,0,0:0:0:0:
189,233,68852,1,0,0:0:0:0:
189,233,69113,1,8,0:0:0:0:
189,233,69373,1,0,0:0:0:0:
189,233,69504,1,8,0:0:0:0:
189,233,69634,1,0,0:0:0:0:
183,163,69895,1,0,0:0:0:0:
125,177,70026,1,8,0:0:0:0:
125,177,70156,1,0,0:0:0:0:
126,177,70286,1,8,0:0:0:0:
126,177,70417,1,0,0:0:0:0:
126,177,70547,1,8,0:0:0:0:
126,177,70678,1,0,0:0:0:0:
173,167,70939,1,0,0:0:0:0:
173,167,71069,1,8,0:0:0:0:
173,167,71199,1,0,0:0:0:0:
183,120,71330,1,8,0:0:0:0:
173,167,71460,1,0,0:0:0:0:
173,167,71591,1,0,0:0:0:0:
173,167,71721,1,8,0:0:0:0:
173,167,71852,1,8,0:0:0:0:
173,167,71982,1,8,0:0:0:0:
124,184,72243,1,8,0:0:0:0:
102,221,72373,1,0,0:0:0:0:
102,221,72439,1,0,0:0:0:0:
102,221,72504,1,0,0:0:0:0:
194,130,72634,1,0,0:0:0:0:
102,221,72765,1,8,0:0:0:0:
286,205,73026,1,0,0:0:0:0:
88,230,73286,1,8,0:0:0:0:
286,205,73547,1,8,0:0:0:0:
86,232,73678,1,8,0:0:0:0:
286,205,73808,1,0,0:0:0:0:
286,205,74069,1,0,0:0:0:0:
196,146,74199,1,8,0:0:0:0:
114,196,74330,1,0,0:0:0:0:
196,146,74460,1,8,0:0:0:0:
286,205,74591,1,0,0:0:0:0:
286,205,74721,1,8,0:0:0:0:
286,205,74852,1,0,0:0:0:0:
286,205,75113,1,0,0:0:0:0:
286,205,75243,1,8,0:0:0:0:
286,205,75373,1,0,0:0:0:0:
286,205,75504,1,8,0:0:0:0:
286,205,75634,1,0,0:0:0:0:
85,237,76156,1,0,0:0:0:0:
141,112,76286,1,0,0:0:0:0:
85,237,76417,1,8,0:0:0:0:
141,112,76547,1,0,0:0:0:0:
129,104,76613,1,0,0:0:0:0:
141,112,76678,1,0,0:0:0:0:
85,237,76808,1,8,0:0:0:0:
85,237,76939,1,0,0:0:0:0:
85,237,77199,1,0,0:0:0:0:
85,237,77330,1,8,0:0:0:0:
85,237,77460,1,0,0:0:0:0:
101,207,77591,1,8,0:0:0:0:
101,207,77656,1,8,0:0:0:0:
101,207,77721,1,8,0:0:0:0:
85,237,77852,1,0,0:0:0:0:
85,237,77982,1,8,0:0:0:0:
85,237,78243,1,8,0:0:0:0:
101,207,78373,1,0,0:0:0:0:
85,237,78504,1,8,0:0:0:0:
156,167,78634,1,0,0:0:0:0:
156,167,78699,1,0,0:0:0:0:
156,167,78765,1,0,0:0:0:0:
156,167,78895,1,0,0:0:0:0:
85,237,79026,1,8,0:0:0:0:
156,167,79286,1,8,0:0:0:0:
165,157,79547,1,0,0:0:0:0:
165,172,79808,1,0,0:0:0:0:
165,172,79939,1,0,0:0:0:0:
165,172,80069,1,8,0:0:0:0:
165,172,80199,1,8,0:0:0:0:
165,172,80330,1,8,0:0:0:0:
103,216,80526,1,8,0:0:0:0:
103,216,80721,1,8,0:0:0:0:
103,216,80852,1,8,0:0:0:0:
102,209,81243,1,0,0:0:0:0:
102,209,81439,5,0,0:0:0:0:
102,209,81634,1,0,0:0:0:0:
102,209,81765,1,0,0:0:0:0:
108,182,81895,1,0,0:0:0:0:
114,157,82091,1,0,0:0:0:0:
113,157,82286,1,0,0:0:0:0:
148,125,82417,1,8,0:0:0:0:
148,125,82613,1,8,0:0:0:0:
148,125,82808,1,8,0:0:0:0:
196,203,82939,1,8,0:0:0:0:
196,203,83330,1,8,0:0:0:0:
196,203,83526,1,8,0:0:0:0:
196,203,83721,1,8,0:0:0:0:
196,203,83852,1,8,0:0:0:0:
103,156,83982,1,8,0:0:0:0:
103,156,84243,1,8,0:0:0:0:
164,135,84504,1,0,0:0:0:0:
164,135,84699,1,0,0:0:0:0:
164,135,84895,1,0,0:0:0:0:
164,135,85026,1,0,0:0:0:0:
164,135,85417,1,0,0:0:0:0:
164,135,85613,5,0,0:0:0:0:
230,113,85808,1,0,0:0:0:0:
230,113,85939,1,0,0:0:0:0:
142,119,86069,1,0,0:0:0:0:
142,119,86265,1,0,0:0:0:0:
142,119,86460,1,0,0:0:0:0:
227,113,86591,1,8,0:0:0:0:
227,113,86786,1,8,0:0:0:0:
227,113,86982,1,8,0:0:0:0:
227,113,87113,1,8,0:0:0:0:
130,122,87308,1,8,0:0:0:0:
212,133,87504,5,0,0:0:0:0:
212,133,87699,5,0,0:0:0:0:
212,133,87895,1,0,0:0:0:0:
104,260,88417,1,8,0:0:0:0:
104,260,88547,1,8,0:0:0:0:
162,240,88678,5,4,0:0:0:0:
162,240,88939,1,4,0:0:0:0:
162,240,89199,1,4,0:0:0:0:
162,240,89395,1,4,0:0:0:0:
162,240,89591,1,4,0:0:0:0:
106,143,89852,1,4,0:0:0:0:
162,240,89982,1,4,0:0:0:0:
162,240,90243,1,4,0:0:0:0:
183,198,90765,1,12,0:0:0:0:
183,198,91026,1,12,0:0:0:0:
183,198,91286,1,12,0:0:0:0:
183,198,91482,1,12,0:0:0:0:
183,198,91678,1,12,0:0:0:0:
86,133,91939,1,12,0:0:0:0:
88,161,92069,1,12,0:0:0:0:
88,161,92330,1,12,0:0:0:0:
162,240,92852,5,4,0:0:0:0:
162,240,93113,1,4,0:0:0:0:
162,240,93373,1,4,0:0:0:0:
162,240,93569,1,4,0:0:0:0:
162,240,93765,1,4,0:0:0:0:
85,132,94026,1,4,0:0:0:0:
162,240,94156,1,4,0:0:0:0:
162,240,94417,1,4,0:0:0:0:
183,198,94939,1,12,0:0:0:0:
183,198,95199,1,12,0:0:0:0:
183,198,95460,1,12,0:0:0:0:
183,198,95656,1,12,0:0:0:0:
183,198,95852,1,12,0:0:0:0:
140,143,96243,1,8,0:0:0:0:
140,143,96373,1,8,0:0:0:0:
193,83,96504,1,0,0:0:0:0:
72,131,96634,1,8,0:0:0:0:
72,131,96699,1,8,0:0:0:0:
72,131,96765,1,8,0:0:0:0:
72,131,96895,1,8,0:0:0:0:
196,144,97026,1,0,0:0:0:0:
112,165,97286,1,8,0:0:0:0:
112,165,97417,1,0,0:0:0:0:
196,144,97547,1,8,0:0:0:0:
143,145,97678,1,0,0:0:0:0:
196,144,97743,1,0,0:0:0:0:
196,144,97939,1,0,0:0:0:0:
199,138,98199,1,0,0:0:0:0:
275,216,98330,1,0,0:0:0:0:
161,135,98591,1,0,0:0:0:0:
192,172,98656,1,0,0:0:0:0:
272,216,98721,1,0,0:0:0:0:
272,216,98852,1,8,0:0:0:0:
272,216,98982,1,0,0:0:0:0:
272,216,99113,1,8,0:0:0:0:
133,145,99178,1,8,0:0:0:0:
133,145,99243,1,8,0:0:0:0:
131,145,99373,1,0,0:0:0:0:
131,145,99504,1,8,0:0:0:0:
203,184,99634,1,0,0:0:0:0:
123,145,99765,1,8,0:0:0:0:
203,184,99830,1,8,0:0:0:0:
203,184,100026,1,8,0:0:0:0:
188,186,100417,1,8,0:0:0:0:
188,186,100678,1,0,0:0:0:0:
117,141,100873,1,8,0:0:0:0:
158,127,101069,1,0,0:0:0:0:
134,137,101199,1,8,0:0:0:0:
178,98,101265,1,8,0:0:0:0:
178,98,101330,1,8,0:0:0:0:
134,137,101460,1,0,0:0:0:0:
294,172,101591,1,0,0:0:0:0:
134,137,101721,1,8,0:0:0:0:
92,245,101852,1,0,0:0:0:0:
103,177,101917,1,0,0:0:0:0:
134,137,102113,1,0,0:0:0:0:
225,144,102373,1,0,0:0:0:0:
292,171,102504,1,0,0:0:0:0:
292,171,102765,1,8,0:0:0:0:
101,137,102895,1,0,0:0:0:0:
292,171,102960,1,0,0:0:0:0:
101,137,103026,1,0,0:0:0:0:
35,162,103156,1,0,0:0:0:0:
292,171,103286,1,8,0:0:0:0:
178,129,103352,1,8,0:0:0:0:
178,129,103417,1,8,0:0:0:0:
151,225,103547,1,8,0:0:0:0:
201,61,103678,1,0,0:0:0:0:
151,225,103808,1,0,0:0:0:0:
189,65,103939,1,8,0:0:0:0:
189,65,104004,1,8,0:0:0:0:
131,88,104330,1,8,0:0:0:0:
131,88,104460,1,0,0:0:0:0:
131,88,104591,1,0,0:0:0:0:
131,88,104721,1,8,0:0:0:0:
131,88,104852,1,0,0:0:0:0:
107,130,104982,1,8,0:0:0:0:
71,143,105113,1,0,0:0:0:0:
71,143,105178,1,0,0:0:0:0:
71,143,105243,1,0,0:0:0:0:
179,119,105373,1,8,0:0:0:0:
242,247,113721,5,0,0:0:0:0:
242,247,113982,1,0,0:0:0:0:
242,247,114243,1,0,0:0:0:0:
242,247,114504,1,0,0:0:0:0:
242,247,114765,1,0,0:0:0:0:
242,247,115026,1,0,0:0:0:0:
242,247,115286,1,0,0:0:0:0:
235,243,115547,1,0,0:0:0:0:
235,243,115808,1,0,0:0:0:0:
235,243,116069,1,0,0:0:0:0:
235,243,116330,1,0,0:0:0:0:
235,243,116591,1,0,0:0:0:0:
235,243,116852,1,0,0:0:0:0:
235,243,117113,1,0,0:0:0:0:
235,243,117373,1,0,0:0:0:0:
151,173,117634,1,8,0:0:0:0:
235,243,117895,1,0,0:0:0:0:
235,243,118026,1,0,0:0:0:0:
235,243,118156,1,8,0:0:0:0:
86,170,118286,1,0,0:0:0:0:
74,171,118417,1,8,0:0:0:0:
235,243,118678,1,8,0:0:0:0:
235,243,118808,1,0,0:0:0:0:
235,243,118939,1,8,0:0:0:0:
235,243,119199,1,8,0:0:0:0:
235,243,119460,1,0,0:0:0:0:
235,243,119591,1,0,0:0:0:0:
235,243,119721,1,0,0:0:0:0:
235,243,119982,1,8,0:0:0:0:
81,150,120047,1,8,0:0:0:0:
81,150,120113,1,8,0:0:0:0:
235,243,120243,1,0,0:0:0:0:
81,150,120373,1,0,0:0:0:0:
235,243,120504,1,8,0:0:0:0:
73,155,120569,1,8,0:0:0:0:
235,243,120634,1,8,0:0:0:0:
235,243,120765,1,0,0:0:0:0:
235,243,120895,1,8,0:0:0:0:
235,243,121026,1,0,0:0:0:0:
168,142,121808,1,0,0:0:0:0:
168,142,121939,1,0,0:0:0:0:
140,152,122069,1,8,0:0:0:0:
140,152,122134,1,8,0:0:0:0:
140,152,122199,1,8,0:0:0:0:
136,152,122330,1,0,0:0:0:0:
150,143,122460,1,0,0:0:0:0:
150,143,122591,1,8,0:0:0:0:
150,143,122721,1,8,0:0:0:0:
150,143,122852,1,0,0:0:0:0:
146,139,122982,1,0,0:0:0:0:
142,139,123113,1,8,0:0:0:0:
142,139,123243,1,0,0:0:0:0:
118,117,123308,1,0,0:0:0:0:
118,117,123373,1,0,0:0:0:0:
118,117,123504,1,0,0:0:0:0:
142,139,123634,1,8,0:0:0:0:
156,147,124156,1,8,0:0:0:0:
156,147,124286,1,0,0:0:0:0:
156,147,124352,1,0,0:0:0:0:
156,147,124547,1,8,0:0:0:0:
159,199,124808,1,0,0:0:0:0:
159,199,124939,1,0,0:0:0:0:
155,179,125004,1,0,0:0:0:0:
155,179,125069,1,0,0:0:0:0:
157,176,125199,1,8,0:0:0:0:
160,175,125330,1,0,0:0:0:0:
160,175,125460,1,0,0:0:0:0:
160,175,125591,1,0,0:0:0:0:
160,175,125721,1,8,0:0:0:0:
160,175,125852,1,8,0:0:0:0:
161,174,125917,1,8,0:0:0:0:
160,175,125982,1,8,0:0:0:0:
160,175,126113,1,8,0:0:0:0:
175,152,126243,1,4,0:0:0:0:
175,152,126504,1,4,0:0:0:0:
161,83,126765,1,8,0:0:0:0:
177,169,126895,1,8,0:0:0:0:
177,169,127026,1,8,0:0:0:0:
175,152,127156,1,4,0:0:0:0:
77,80,127417,1,8,0:0:0:0:
175,169,127547,1,8,0:0:0:0:
177,170,127678,1,8,0:0:0:0:
179,157,127808,1,4,0:0:0:0:
250,368,128330,1,0,0:0:0:0:
250,368,128395,1,0,0:0:0:0:
250,368,128460,1,0,0:0:0:0:
271,367,128591,1,8,0:0:0:0:
271,367,128721,1,0,0:0:0:0:
271,367,128852,1,8,0:0:0:0:
271,367,128917,1,8,0:0:0:0:
271,367,128982,1,8,0:0:0:0:
271,367,129113,1,0,0:0:0:0:
266,357,129373,1,8,0:0:0:0:
266,357,129439,1,8,0:0:0:0:
266,357,129504,1,8,0:0:0:0:
266,357,129634,1,0,0:0:0:0:
266,357,129765,1,8,0:0:0:0:
266,357,129895,1,0,0:0:0:0:
266,357,129960,1,0,0:0:0:0:
160,148,130026,1,0,0:0:0:0:
152,176,130156,1,8,0:0:0:0:
152,176,130286,1,0,0:0:0:0:
131,179,130417,1,8,0:0:0:0:
133,176,130808,1,0,0:0:0:0:
133,176,130939,1,8,0:0:0:0:
133,176,131069,1,8,0:0:0:0:
133,176,131199,1,0,0:0:0:0:
136,170,131460,1,8,0:0:0:0:
136,170,131526,1,8,0:0:0:0:
136,170,131591,1,8,0:0:0:0:
136,170,131721,1,0,0:0:0:0:
136,170,131852,1,0,0:0:0:0:
136,170,131982,1,8,0:0:0:0:
136,170,132243,1,8,0:0:0:0:
178,139,132373,1,0,0:0:0:0:
178,139,132504,1,8,0:0:0:0:
178,139,132569,1,8,0:0:0:0:
178,139,132634,1,8,0:0:0:0:
178,139,132765,1,0,0:0:0:0:
122,174,132895,1,8,0:0:0:0:
122,174,133026,1,0,0:0:0:0:
122,174,133091,1,0,0:0:0:0:
122,174,133156,1,0,0:0:0:0:
122,174,133286,1,8,0:0:0:0:
122,174,133417,1,0,0:0:0:0:
122,174,133547,1,8,0:0:0:0:
122,174,133939,1,0,0:0:0:0:
161,130,134069,1,8,0:0:0:0:
191,109,134134,1,8,0:0:0:0:
191,109,134199,1,8,0:0:0:0:
122,174,134330,1,0,0:0:0:0:
122,174,134460,1,8,0:0:0:0:
122,174,134591,1,0,0:0:0:0:
216,148,134852,1,8,0:0:0:0:
216,148,134982,1,0,0:0:0:0:
216,148,135113,1,8,0:0:0:0:
216,148,135178,1,8,0:0:0:0:
216,148,135243,1,8,0:0:0:0:
216,148,135373,1,0,0:0:0:0:
216,148,135504,1,0,0:0:0:0:
161,219,135765,1,0,0:0:0:0:
161,219,135895,1,8,0:0:0:0:
161,219,135960,1,8,0:0:0:0:
161,219,136026,1,8,0:0:0:0:
161,219,136156,1,0,0:0:0:0:
161,219,136286,1,8,0:0:0:0:
161,219,136417,1,0,0:0:0:0:
161,219,136547,1,8,0:0:0:0:
116,201,136678,1,0,0:0:0:0:
141,152,136743,1,0,0:0:0:0:
152,152,136808,1,0,0:0:0:0:
116,201,136939,1,8,0:0:0:0:
116,201,137199,1,8,0:0:0:0:
116,201,137460,1,0,0:0:0:0:
238,167,137721,1,8,0:0:0:0:
143,173,137852,1,0,0:0:0:0:
238,167,137982,1,8,0:0:0:0:
100,152,138113,1,0,0:0:0:0:
238,167,138243,1,8,0:0:0:0:
160,159,138373,1,8,0:0:0:0:
160,159,138504,1,0,0:0:0:0:
160,159,138569,1,0,0:0:0:0:
160,159,138634,1,0,0:0:0:0:
287,125,138765,1,8,0:0:0:0:
287,125,139026,1,0,0:0:0:0:
287,125,139156,1,0,0:0:0:0:
287,125,139286,1,8,0:0:0:0:
287,125,139352,1,8,0:0:0:0:
287,125,139417,1,8,0:0:0:0:
287,125,139547,1,0,0:0:0:0:
82,151,139678,1,0,0:0:0:0:
238,119,139808,1,8,0:0:0:0:
238,119,139939,1,0,0:0:0:0:
238,119,140004,1,0,0:0:0:0:
287,125,140069,1,0,0:0:0:0:
238,119,140199,1,0,0:0:0:0:
214,168,140330,1,8,0:0:0:0:
214,168,140591,1,8,0:0:0:0:
214,168,140721,1,0,0:0:0:0:
189,87,140852,1,8,0:0:0:0:
189,87,140917,1,8,0:0:0:0:
189,87,140982,1,8,0:0:0:0:
189,87,141113,1,0,0:0:0:0:
171,84,141243,1,0,0:0:0:0:
171,84,141373,1,8,0:0:0:0:
171,84,141504,1,0,0:0:0:0:
171,84,141634,1,8,0:0:0:0:
171,84,141765,1,8,0:0:0:0:
171,84,141895,1,0,0:0:0:0:
171,84,142026,1,0,0:0:0:0:
171,84,142156,1,8,0:0:0:0:
171,84,142221,1,8,0:0:0:0:
171,84,142352,1,8,0:0:0:0:
171,84,142417,1,8,0:0:0:0:
171,84,142678,1,0,0:0:0:0:
171,84,142939,1,0,0:0:0:0:
171,84,143199,1,8,0:0:0:0:
50,159,143330,1,0,0:0:0:0:
171,84,143460,1,8,0:0:0:0:
171,84,143526,1,8,0:0:0:0:
171,84,143591,1,8,0:0:0:0:
224,175,143721,1,0,0:0:0:0:
224,175,143852,1,8,0:0:0:0:
224,175,143982,1,0,0:0:0:0:
210,174,144113,1,0,0:0:0:0:
207,111,144243,1,8,0:0:0:0:
207,111,144373,1,0,0:0:0:0:
207,104,144504,1,8,0:0:0:0:
207,104,144765,1,8,0:0:0:0:
207,104,144895,1,0,0:0:0:0:
207,102,145026,1,8,0:0:0:0:
207,102,145091,1,8,0:0:0:0:
207,102,145156,1,8,0:0:0:0:
207,102,145286,1,0,0:0:0:0:
207,102,145417,1,8,0:0:0:0:
206,99,145547,1,0,0:0:0:0:
207,102,145613,1,0,0:0:0:0:
207,102,145678,1,0,0:0:0:0:
207,102,145808,1,8,0:0:0:0:
207,102,145939,1,0,0:0:0:0:
176,127,146069,1,8,0:0:0:0:
207,102,146199,1,8,0:0:0:0:
207,102,146330,1,0,0:0:0:0:
194,128,146460,1,8,0:0:0:0:
192,129,146591,1,0,0:0:0:0:
192,129,146656,1,0,0:0:0:0:
207,102,146721,1,0,0:0:0:0:
207,102,146852,1,8,0:0:0:0:
207,102,146982,1,0,0:0:0:0:
207,102,147113,1,12,0:0:0:0:
