osu file format v14

[General]
AudioFilename: audio.mp3
AudioLeadIn: 0
PreviewTime: 88352
Countdown: 0
SampleSet: Normal
StackLeniency: 0.7
Mode: 1
LetterboxInBreaks: 0
WidescreenStoryboard: 1

[Editor]
Bookmarks: 13547,21895,30243,38591,55286,63634,71982,80330,88678,97026,105373,113721,122069,130417
DistanceSpacing: 1.5
BeatDivisor: 4
GridSize: 4
TimelineZoom: 1.82

[Metadata]
Title://N/YYY////F//////
TitleUnicode://N/¥¥¥////F//////
Artist:kawaii amen girl
ArtistUnicode:kawaii amen girl
Creator:_gt
Version:Kantan
Source:
Tags:shirogane noel danchou 白銀ノエル shiranui flare 不知火フレア noefure ノエフレ hololive ホロライブ japanese instrumental electronic breakcore CANDYYYLAND feat. LIZ (Pa's Lam System Remix) (kawaii Amen Girl Bootleg) CAND¥¥¥LAND candyland candy land cand\\\land nyyyf yen fuwa fuwa spring storm
BeatmapID:3840842
BeatmapSetID:1863701

[Difficulty]
HPDrainRate:8
CircleSize:5
OverallDifficulty:3
ApproachRate:5
SliderMultiplier:1.2
SliderTickRate:1

[Events]
//Background and Video events
0,0,"101825339_p0 (3).jpg",0,0
//Break Periods
2,5400,12347
2,55486,60217
2,105573,112521
//Storyboard Layer 0 (Background)
//Storyboard Layer 1 (Fail)
//Storyboard Layer 2 (Pass)
//Storyboard Layer 3 (Foreground)
//Storyboard Layer 4 (Overlay)
//Storyboard Sound Samples

[TimingPoints]
5200,260.869565217391,4,1,0,100,1,0
5200,-100,4,1,0,100,0,8
5330,-100,4,1,0,10,0,8
6243,-100,4,1,0,10,0,8
7286,-100,4,1,0,10,0,8
8330,-100,4,1,0,10,0,8
9373,-100,4,1,0,10,0,8
10417,-100,4,1,0,10,0,8
11460,-100,4,1,0,10,0,8
12504,-100,4,1,0,40,0,8
12765,-100,4,1,0,50,0,8
13026,-100,4,1,0,60,0,8
13286,-100,4,1,0,70,0,8
13547,-100,4,1,0,80,0,8
20852,-100,4,1,0,80,0,8
21112,-100,4,1,0,80,0,8
21373,-100,4,1,0,85,0,8
21634,-100,4,1,0,85,0,8
21895,-100,4,1,0,90,0,8
29460,-100,4,1,0,90,0,8
29590,-100,4,1,0,90,0,8
29721,-100,4,1,0,90,0,8
29851,-100,4,1,0,90,0,8
29982,-100,4,1,0,90,0,8
30112,-100,4,1,0,90,0,8
30243,-100,4,1,0,90,0,8
30504,-100,4,1,0,85,0,8
30765,-100,4,1,0,80,0,8
33895,-100,4,1,0,85,0,8
34417,-100,4,1,0,90,0,8
37547,-100,4,1,0,90,0,8
37677,-100,4,1,0,80,0,8
37808,-100,4,1,0,70,0,8
37938,-100,4,1,0,60,0,8
38069,-100,4,1,0,50,0,8
38199,-100,4,1,0,50,0,8
38330,-100,4,1,0,50,0,8
38591,-100,4,1,0,80,0,8
38852,-100,4,1,0,100,0,1
39113,-100,4,1,0,100,0,1
39504,-100,4,1,0,100,0,1
39895,-100,4,1,0,100,0,1
41721,-100,4,1,0,100,0,1
42243,-100,4,1,0,100,0,1
43026,-100,4,1,0,100,0,1
43286,-100,4,1,0,100,0,1
43678,-100,4,1,0,100,0,1
43939,-100,4,1,0,100,0,1
44330,-100,4,1,0,100,0,1
44852,-100,4,1,0,100,0,0
46939,-100,4,1,0,100,0,1
47460,-100,4,1,0,100,0,1
47852,-100,4,1,0,100,0,1
48243,-100,4,1,0,100,0,1
48504,-100,4,1,0,100,0,1
49286,-100,4,1,0,100,0,1
49547,-100,4,1,0,100,0,1
49808,-100,4,1,0,100,0,1
50069,-100,4,1,0,100,0,1
50330,-100,4,1,0,100,0,1
51113,-100,4,1,0,100,0,1
51634,-100,4,1,0,100,0,1
52026,-100,4,1,0,100,0,1
52286,-100,4,1,0,100,0,1
52678,-100,4,1,0,100,0,1
53199,-100,4,1,0,100,0,1
55286,-100,4,1,0,100,0,8
55417,-100,4,1,0,40,0,8
56329,-100,4,1,0,40,0,8
57373,-100,4,1,0,40,0,8
58416,-100,4,1,0,40,0,8
59460,-100,4,1,0,40,0,8
60503,-100,4,1,0,40,0,8
61547,-100,4,1,0,40,0,8
62590,-100,4,1,0,40,0,8
63634,-100,4,1,0,70,0,8
71460,-100,4,1,0,70,0,8
71591,-100,4,1,0,75,0,8
71721,-100,4,1,0,80,0,8
71852,-100,4,1,0,85,0,8
71982,-100,4,1,0,90,0,8
79808,-100,4,1,0,90,0,8
79939,-100,4,1,0,86,0,8
80070,-100,4,1,0,84,0,8
80200,-100,4,1,0,82,0,8
80330,-100,4,1,0,80,0,8
80852,-100,4,1,0,80,0,8
81243,-100,4,1,0,76,0,8
82417,-100,4,1,0,72,0,8
83330,-100,4,1,0,68,0,8
84504,-100,4,1,0,64,0,8
85417,-100,4,1,0,60,0,8
86591,-100,4,1,0,56,0,8
87504,-100,4,1,0,52,0,8
88417,-100,4,1,0,80,0,0
88678,-100,4,1,0,100,0,9
89721,-100,4,1,0,100,0,8
90765,-100,4,1,0,100,0,9
91808,-100,4,1,0,100,0,8
92852,-100,4,1,0,100,0,9
93895,-100,4,1,0,100,0,8
94939,-100,4,1,0,100,0,9
95982,-100,4,1,0,100,0,8
105368,-100,4,1,0,100,0,8
105504,-100,4,1,0,40,0,8
106411,-100,4,1,0,40,0,8
107455,-100,4,1,0,40,0,8
108498,-100,4,1,0,40,0,8
109542,-100,4,1,0,40,0,8
110585,-100,4,1,0,40,0,8
111629,-100,4,1,0,40,0,8
112672,-100,4,1,0,40,0,8
113460,-100,4,1,0,70,0,8
113716,-100,4,1,0,80,0,8
117895,-100,4,1,0,85,0,8
119982,-100,4,1,0,90,0,8
120112,-100,4,1,0,90,0,8
120243,-100,4,1,0,90,0,8
120373,-100,4,1,0,90,0,8
120504,-100,4,1,0,90,0,8
120634,-100,4,1,0,90,0,8
120765,-100,4,1,0,90,0,8
120895,-100,4,1,0,90,0,8
121026,-100,4,1,0,90,0,8
121808,-100,4,1,0,70,0,8
122069,-100,4,1,0,100,0,9
126243,-100,4,1,0,100,0,8
130417,-100,4,1,0,100,0,9
137721,-100,4,1,0,100,0,9
137851,-100,4,1,0,100,0,9
137982,-100,4,1,0,100,0,9
138112,-100,4,1,0,100,0,9
138243,-100,4,1,0,100,0,9
138373,-100,4,1,0,100,0,9
138504,-100,4,1,0,100,0,9
138634,-100,4,1,0,100,0,9
138765,-100,4,1,0,100,0,9
147113,-100,4,1,0,100,0,8

[HitObjects]
162,137,5200,5,12,0:0:0:0:
245,199,13547,5,0,0:0:0:0:
228,177,14591,1,0,0:0:0:0:
217,177,15113,1,8,0:0:0:0:
127,143,15373,1,0,0:0:0:0:
217,177,15634,1,0,0:0:0:0:
76,156,16678,1,0,0:0:0:0:
132,115,17199,1,8,0:0:0:0:
76,156,17721,1,0,0:0:0:0:
76,156,18765,1,0,0:0:0:0:
76,156,19286,1,8,0:0:0:0:
76,156,19547,1,0,0:0:0:0:
76,156,19808,1,0,0:0:0:0:
76,156,20852,1,0,0:0:0:0:
76,156,21373,1,0,0:0:0:0:
66,249,21895,1,8,0:0:0:0:
91,267,22678,1,8,0:0:0:0:
66,249,22939,1,0,0:0:0:0:
145,150,23199,1,8,0:0:0:0:
91,267,23721,1,8,0:0:0:0:
91,267,23982,1,0,0:0:0:0:
91,267,24243,1,0,0:0:0:0:
91,267,24765,1,8,0:0:0:0:
91,267,25286,1,8,0:0:0:0:
91,267,26069,1,0,0:0:0:0:
92,145,26591,1,8,0:0:0:0:
156,103,26852,1,8,0:0:0:0:
86,155,27113,1,8,0:0:0:0:
91,267,27634,1,8,0:0:0:0:
91,267,28156,1,8,0:0:0:0:
91,267,28417,1,8,0:0:0:0:
91,267,28939,1,0,0:0:0:0:
130,237,29721,1,0,0:0:0:0:
130,237,30243,1,12,0:0:0:0:
76,157,31286,1,0,0:0:0:0:
130,148,32330,1,8,0:0:0:0:
130,237,33373,1,0,0:0:0:0:
186,151,34417,1,0,0:0:0:0:
186,151,34939,1,0,0:0:0:0:
186,151,35460,1,0,0:0:0:0:
186,151,35982,1,0,0:0:0:0:
186,151,36504,1,0,0:0:0:0:
186,151,36765,1,0,0:0:0:0:
186,151,37026,1,0,0:0:0:0:
157,159,37547,1,0,0:0:0:0:
157,159,37808,1,0,0:0:0:0:
157,159,38069,1,8,0:0:0:0:
56,226,38852,5,12,0:0:0:0:
121,178,39504,1,4,0:0:0:0:
188,187,40156,1,4,0:0:0:0:
146,157,40678,1,8,0:0:0:0:
103,145,41721,1,12,0:0:0:0:
106,165,42243,1,4,0:0:0:0:
173,214,43026,1,12,0:0:0:0:
146,177,43678,1,12,0:0:0:0:
167,181,44330,1,4,0:0:0:0:
103,142,44852,1,0,0:0:0:0:
103,142,45113,1,0,0:0:0:0:
199,260,45373,1,8,0:0:0:0:
199,260,45895,1,8,0:0:0:0:
199,260,46156,1,0,0:0:0:0:
199,260,46417,1,0,0:0:0:0:
127,185,46939,1,4,0:0:0:0:
95,180,47852,1,4,0:0:0:0:
171,174,48504,1,4,0:0:0:0:
129,153,49026,1,8,0:0:0:0:
277,143,49547,1,4,0:0:0:0:
31,217,50069,1,4,0:0:0:0:
177,211,50591,1,0,0:0:0:0:
177,211,50852,1,8,0:0:0:0:
171,212,51113,1,4,0:0:0:0:
121,153,52026,1,12,0:0:0:0:
131,225,52678,1,12,0:0:0:0:
159,161,53199,1,0,0:0:0:0:
159,161,53460,1,0,0:0:0:0:
159,161,53721,1,8,0:0:0:0:
159,161,54243,1,8,0:0:0:0:
159,161,54765,1,8,0:0:0:0:
159,161,55026,1,0,0:0:0:0:
159,161,55286,1,8,0:0:0:0:
256,192,61417,12,0,63113,0:0:0:0:
174,171,63634,5,8,0:0:0:0:
174,171,64156,1,0,0:0:0:0:
174,171,64678,1,8,0:0:0:0:
174,171,65721,1,0,0:0:0:0:
174,171,66243,1,8,0:0:0:0:
174,171,66765,1,0,0:0:0:0:
174,171,67808,1,0,0:0:0:0:
230,189,68330,1,0,0:0:0:0:
230,189,68852,1,8,0:0:0:0:
230,189,69895,1,8,0:0:0:0:
230,189,70417,1,8,0:0:0:0:
230,189,70939,1,0,0:0:0:0:
230,189,71982,1,8,0:0:0:0:
230,189,72504,1,8,0:0:0:0:
230,189,73026,1,8,0:0:0:0:
87,171,73286,1,0,0:0:0:0:
87,171,73547,1,8,0:0:0:0:
230,189,74069,1,0,0:0:0:0:
230,189,74591,1,8,0:0:0:0:
230,189,75113,1,0,0:0:0:0:
230,189,76156,1,0,0:0:0:0:
116,166,76678,1,8,0:0:0:0:
116,166,77199,1,8,0:0:0:0:
131,213,77460,1,0,0:0:0:0:
230,189,77721,1,8,0:0:0:0:
230,189,78243,1,0,0:0:0:0:
230,189,78765,1,8,0:0:0:0:
230,189,79286,1,0,0:0:0:0:
101,167,79808,1,0,0:0:0:0:
230,189,80330,1,8,0:0:0:0:
71,195,81243,1,0,0:0:0:0:
71,195,82417,1,0,0:0:0:0:
69,190,83330,1,8,0:0:0:0:
69,190,84504,1,0,0:0:0:0:
69,190,85417,1,8,0:0:0:0:
69,190,86591,1,8,0:0:0:0:
69,190,87504,1,0,0:0:0:0:
138,130,88678,5,4,0:0:0:0:
150,91,89199,1,4,0:0:0:0:
150,91,89591,1,4,0:0:0:0:
150,91,90243,1,4,0:0:0:0:
138,130,90765,5,12,0:0:0:0:
150,91,91286,1,12,0:0:0:0:
150,91,91678,1,12,0:0:0:0:
138,130,92852,5,4,0:0:0:0:
150,91,93373,1,4,0:0:0:0:
150,91,93765,1,4,0:0:0:0:
150,91,94417,1,4,0:0:0:0:
138,130,94939,5,12,0:0:0:0:
150,91,95460,1,12,0:0:0:0:
150,91,95852,1,12,0:0:0:0:
241,200,97026,1,8,0:0:0:0:
241,200,97547,1,0,0:0:0:0:
241,200,97939,1,8,0:0:0:0:
241,200,98591,1,8,0:0:0:0:
241,200,99113,1,0,0:0:0:0:
241,200,99634,1,8,0:0:0:0:
241,200,100026,1,8,0:0:0:0:
241,200,101199,1,0,0:0:0:0:
241,200,101721,1,8,0:0:0:0:
241,200,102113,1,0,0:0:0:0:
241,200,102765,1,0,0:0:0:0:
241,200,103286,1,8,0:0:0:0:
241,200,103808,1,8,0:0:0:0:
241,200,104199,1,0,0:0:0:0:
201,241,105113,1,0,0:0:0:0:
241,200,105373,1,8,0:0:0:0:
198,250,113721,5,0,0:0:0:0:
172,112,114243,1,0,0:0:0:0:
198,250,114765,1,0,0:0:0:0:
198,250,115808,1,0,0:0:0:0:
237,117,116330,1,0,0:0:0:0:
198,250,116852,1,0,0:0:0:0:
112,182,117895,1,0,0:0:0:0:
112,182,118417,1,8,0:0:0:0:
232,117,118939,1,8,0:0:0:0:
232,117,119199,1,8,0:0:0:0:
232,117,119460,1,0,0:0:0:0:
134,183,119982,1,8,0:0:0:0:
166,197,120504,1,8,0:0:0:0:
166,197,120765,1,8,0:0:0:0:
166,197,121026,1,0,0:0:0:0:
163,226,122069,1,8,0:0:0:0:
163,226,122591,1,0,0:0:0:0:
276,187,122982,1,8,0:0:0:0:
172,170,123634,1,0,0:0:0:0:
276,187,123895,1,8,0:0:0:0:
276,187,124156,1,0,0:0:0:0:
276,187,124547,1,8,0:0:0:0:
271,188,124939,1,8,0:0:0:0:
100,176,125721,1,8,0:0:0:0:
115,250,125982,1,8,0:0:0:0:
176,190,126243,1,4,0:0:0:0:
133,160,126765,1,8,0:0:0:0:
125,79,127156,1,4,0:0:0:0:
125,79,127808,1,4,0:0:0:0:
102,93,128330,1,8,0:0:0:0:
96,93,128591,1,0,0:0:0:0:
96,93,128852,1,8,0:0:0:0:
96,93,129373,1,8,0:0:0:0:
96,93,129634,1,8,0:0:0:0:
96,93,129895,1,0,0:0:0:0:
96,93,130417,1,0,0:0:0:0:
105,52,130939,1,8,0:0:0:0:
96,93,131330,1,0,0:0:0:0:
135,74,132243,1,8,0:0:0:0:
169,157,132504,1,8,0:0:0:0:
158,154,133026,1,0,0:0:0:0:
158,154,133547,1,0,0:0:0:0:
132,73,134069,1,0,0:0:0:0:
132,73,134330,1,8,0:0:0:0:
158,154,134591,1,8,0:0:0:0:
155,149,135113,1,8,0:0:0:0:
155,149,135504,1,0,0:0:0:0:
155,149,136156,1,0,0:0:0:0:
131,73,136678,1,8,0:0:0:0:
131,73,137460,1,0,0:0:0:0:
131,73,137721,1,8,0:0:0:0:
131,73,138243,1,0,0:0:0:0:
155,149,138765,1,8,0:0:0:0:
155,149,139286,1,8,0:0:0:0:
120,140,139547,1,8,0:0:0:0:
155,149,139808,1,0,0:0:0:0:
155,149,140330,1,8,0:0:0:0:
155,149,140591,1,0,0:0:0:0:
155,149,140852,1,8,0:0:0:0:
155,149,141373,1,0,0:0:0:0:
155,149,141634,1,0,0:0:0:0:
155,149,141895,1,8,0:0:0:0:
155,149,142939,1,8,0:0:0:0:
155,149,143460,1,8,0:0:0:0:
155,149,143721,1,8,0:0:0:0:
155,149,143982,1,0,0:0:0:0:
155,149,144504,1,8,0:0:0:0:
155,149,144765,1,0,0:0:0:0:
155,149,145026,1,8,0:0:0:0:
167,140,145547,1,0,0:0:0:0:
167,140,145808,1,0,0:0:0:0:
155,149,146069,1,8,0:0:0:0:
160,133,146330,1,0,0:0:0:0:
155,149,146591,1,0,0:0:0:0:
155,149,147113,1,12,0:0:0:0:
