osu file format v14

[General]
AudioFilename: audio.mp3
AudioLeadIn: 0
PreviewTime: 88352
Countdown: 0
SampleSet: Normal
StackLeniency: 0.7
Mode: 1
LetterboxInBreaks: 0
WidescreenStoryboard: 1

[Editor]
Bookmarks: 13547,21895,30243,38591,55286,63634,71982,80330,88678,97026,105373,113721,122069,130417
DistanceSpacing: 1.5
BeatDivisor: 4
GridSize: 4
TimelineZoom: 1.44

[Metadata]
Title://N/YYY////F//////
TitleUnicode://N/¥¥¥////F//////
Artist:kawaii amen girl
ArtistUnicode:kawaii amen girl
Creator:_gt
Version:Futsuu
Source:
Tags:shirogane noel danchou 白銀ノエル shiranui flare 不知火フレア noefure ノエフレ hololive ホロライブ japanese instrumental electronic breakcore CANDYYYLAND feat. LIZ (Pa's Lam System Remix) (kawaii Amen Girl Bootleg) CAND¥¥¥LAND candyland candy land cand\\\land nyyyf yen fuwa fuwa spring storm
BeatmapID:3838223
BeatmapSetID:1863701

[Difficulty]
HPDrainRate:7
CircleSize:5
OverallDifficulty:4.5
ApproachRate:5
SliderMultiplier:1.3
SliderTickRate:1

[Events]
//Background and Video events
0,0,"101825339_p0 (3).jpg",0,0
//Break Periods
2,5400,12347
2,55486,60217
2,105573,112521
//Storyboard Layer 0 (Background)
//Storyboard Layer 1 (Fail)
//Storyboard Layer 2 (Pass)
//Storyboard Layer 3 (Foreground)
//Storyboard Layer 4 (Overlay)
//Storyboard Sound Samples

[TimingPoints]
5200,260.869565217391,4,1,0,100,1,0
5200,-100,4,1,0,100,0,8
5330,-100,4,1,0,10,0,8
6243,-100,4,1,0,10,0,8
7286,-100,4,1,0,10,0,8
8330,-100,4,1,0,10,0,8
9373,-100,4,1,0,10,0,8
10417,-100,4,1,0,10,0,8
11460,-100,4,1,0,10,0,8
12504,-100,4,1,0,40,0,8
12765,-100,4,1,0,50,0,8
13026,-100,4,1,0,60,0,8
13286,-100,4,1,0,70,0,8
13547,-100,4,1,0,80,0,8
20852,-100,4,1,0,80,0,8
21112,-100,4,1,0,80,0,8
21373,-100,4,1,0,85,0,8
21634,-100,4,1,0,85,0,8
21895,-100,4,1,0,90,0,8
29460,-100,4,1,0,90,0,8
29590,-100,4,1,0,90,0,8
29721,-100,4,1,0,90,0,8
29851,-100,4,1,0,90,0,8
29982,-100,4,1,0,90,0,8
30112,-100,4,1,0,90,0,8
30243,-100,4,1,0,90,0,8
30504,-100,4,1,0,85,0,8
30765,-100,4,1,0,80,0,8
33895,-100,4,1,0,85,0,8
34417,-100,4,1,0,90,0,8
37547,-100,4,1,0,90,0,8
37677,-100,4,1,0,80,0,8
37808,-100,4,1,0,70,0,8
37938,-100,4,1,0,60,0,8
38069,-100,4,1,0,50,0,8
38199,-100,4,1,0,50,0,8
38330,-100,4,1,0,50,0,8
38591,-100,4,1,0,80,0,8
38852,-100,4,1,0,100,0,1
39113,-100,4,1,0,100,0,1
39504,-100,4,1,0,100,0,1
39895,-100,4,1,0,100,0,1
41721,-100,4,1,0,100,0,1
42243,-100,4,1,0,100,0,1
43026,-100,4,1,0,100,0,1
43286,-100,4,1,0,100,0,1
43678,-100,4,1,0,100,0,1
43939,-100,4,1,0,100,0,1
44330,-100,4,1,0,100,0,1
44852,-100,4,1,0,100,0,0
46939,-100,4,1,0,100,0,1
47460,-100,4,1,0,100,0,1
47852,-100,4,1,0,100,0,1
48243,-100,4,1,0,100,0,1
48504,-100,4,1,0,100,0,1
49286,-100,4,1,0,100,0,1
49547,-100,4,1,0,100,0,1
49808,-100,4,1,0,100,0,1
50069,-100,4,1,0,100,0,1
50330,-100,4,1,0,100,0,1
51113,-100,4,1,0,100,0,1
51634,-100,4,1,0,100,0,1
52026,-100,4,1,0,100,0,1
52286,-100,4,1,0,100,0,1
52678,-100,4,1,0,100,0,1
53199,-100,4,1,0,100,0,1
55286,-100,4,1,0,100,0,8
55417,-100,4,1,0,40,0,8
56329,-100,4,1,0,40,0,8
57373,-100,4,1,0,40,0,8
58416,-100,4,1,0,40,0,8
59460,-100,4,1,0,40,0,8
60503,-100,4,1,0,40,0,8
61547,-100,4,1,0,40,0,8
62590,-100,4,1,0,40,0,8
63634,-100,4,1,0,70,0,8
71460,-100,4,1,0,70,0,8
71590,-100,4,1,0,75,0,8
71721,-100,4,1,0,80,0,8
71851,-100,4,1,0,85,0,8
71982,-100,4,1,0,90,0,8
79808,-100,4,1,0,90,0,8
79938,-100,4,1,0,86,0,8
80069,-100,4,1,0,84,0,8
80199,-100,4,1,0,82,0,8
80330,-100,4,1,0,80,0,8
80721,-100,4,1,0,80,0,0
81243,-100,4,1,0,76,0,0
82417,-100,4,1,0,72,0,0
83330,-100,4,1,0,68,0,0
84504,-100,4,1,0,64,0,0
85417,-100,4,1,0,60,0,0
86591,-100,4,1,0,56,0,0
87504,-100,4,1,0,52,0,0
88417,-100,4,1,0,80,0,0
88678,-100,4,1,0,100,0,9
89721,-100,4,1,0,100,0,8
90765,-100,4,1,0,100,0,9
91808,-100,4,1,0,100,0,8
92852,-100,4,1,0,100,0,9
93895,-100,4,1,0,100,0,8
94939,-100,4,1,0,100,0,9
95982,-100,4,1,0,100,0,8
105368,-100,4,1,0,100,0,8
105504,-100,4,1,0,40,0,8
106411,-100,4,1,0,40,0,8
107455,-100,4,1,0,40,0,8
108498,-100,4,1,0,40,0,8
109542,-100,4,1,0,40,0,8
110585,-100,4,1,0,40,0,8
111629,-100,4,1,0,40,0,8
112672,-100,4,1,0,40,0,8
113460,-100,4,1,0,70,0,8
113716,-100,4,1,0,70,0,8
113721,-100,4,1,0,80,0,8
117895,-100,4,1,0,85,0,8
119982,-100,4,1,0,90,0,8
120112,-100,4,1,0,90,0,8
120243,-100,4,1,0,90,0,8
120373,-100,4,1,0,90,0,8
120504,-100,4,1,0,90,0,8
120634,-100,4,1,0,90,0,8
120765,-100,4,1,0,90,0,8
120895,-100,4,1,0,90,0,8
121026,-100,4,1,0,90,0,8
121808,-100,4,1,0,70,0,8
122069,-100,4,1,0,100,0,9
126243,-100,4,1,0,100,0,8
130417,-100,4,1,0,100,0,9
137721,-100,4,1,0,100,0,9
137851,-100,4,1,0,100,0,9
137982,-100,4,1,0,100,0,9
138112,-100,4,1,0,100,0,9
138243,-100,4,1,0,100,0,9
138373,-100,4,1,0,100,0,9
138504,-100,4,1,0,100,0,9
138634,-100,4,1,0,100,0,9
138765,-100,4,1,0,100,0,9
146852,-100,4,1,0,100,0,9
146982,-100,4,1,0,100,0,9
147113,-100,4,1,0,100,0,8

[HitObjects]
162,137,5200,5,12,0:0:0:0:
245,199,13547,5,0,0:0:0:0:
228,177,14069,1,8,0:0:0:0:
228,177,14591,1,0,0:0:0:0:
217,177,15113,1,8,0:0:0:0:
217,177,15373,1,0,0:0:0:0:
217,177,15634,1,0,0:0:0:0:
76,156,16156,1,8,0:0:0:0:
76,156,16678,1,0,0:0:0:0:
76,156,16873,1,0,0:0:0:0:
76,156,17069,1,0,0:0:0:0:
76,156,17199,1,8,0:0:0:0:
76,156,17460,1,0,0:0:0:0:
76,156,17721,1,0,0:0:0:0:
76,156,18243,1,8,0:0:0:0:
76,156,18765,1,0,0:0:0:0:
76,156,19286,1,8,0:0:0:0:
76,156,19547,1,0,0:0:0:0:
76,156,19808,1,0,0:0:0:0:
76,156,20330,1,8,0:0:0:0:
76,156,20852,1,0,0:0:0:0:
76,156,21113,1,0,0:0:0:0:
76,156,21373,1,8,0:0:0:0:
76,156,21634,1,0,0:0:0:0:
66,249,21895,1,8,0:0:0:0:
47,196,22417,1,8,0:0:0:0:
123,180,22678,1,0,0:0:0:0:
66,249,22808,1,8,0:0:0:0:
66,249,22939,1,0,0:0:0:0:
123,180,23199,1,0,0:0:0:0:
80,207,23460,1,8,0:0:0:0:
81,207,23721,1,8,0:0:0:0:
81,207,23852,1,8,0:0:0:0:
77,206,23982,1,0,0:0:0:0:
69,202,24243,1,0,0:0:0:0:
146,187,24504,1,8,0:0:0:0:
125,198,24634,1,8,0:0:0:0:
100,208,24765,1,8,0:0:0:0:
100,208,25026,1,0,0:0:0:0:
152,189,25547,1,0,0:0:0:0:
152,189,25808,1,8,0:0:0:0:
152,189,26069,1,0,0:0:0:0:
98,151,26330,1,8,0:0:0:0:
112,157,26591,1,8,0:0:0:0:
112,157,26721,1,8,0:0:0:0:
112,157,26852,1,8,0:0:0:0:
168,146,27113,1,8,0:0:0:0:
168,146,27373,1,8,0:0:0:0:
265,142,27504,1,8,0:0:0:0:
168,146,27634,1,0,0:0:0:0:
168,146,27895,1,8,0:0:0:0:
168,146,28156,1,8,0:0:0:0:
168,146,28286,1,0,0:0:0:0:
168,146,28417,1,8,0:0:0:0:
168,146,28678,1,0,0:0:0:0:
121,249,29069,1,0,0:0:0:0:
121,249,29330,1,0,0:0:0:0:
152,126,29591,1,8,0:0:0:0:
152,126,29721,1,0,0:0:0:0:
152,126,29852,1,0,0:0:0:0:
152,126,29982,1,8,0:0:0:0:
152,126,30113,1,0,0:0:0:0:
141,191,30243,5,12,0:0:0:0:
141,191,30765,1,8,0:0:0:0:
141,191,31286,1,0,0:0:0:0:
141,191,31547,1,0,0:0:0:0:
141,191,31808,1,8,0:0:0:0:
282,117,32330,1,0,0:0:0:0:
282,117,32591,1,8,0:0:0:0:
282,117,32852,1,0,0:0:0:0:
282,117,32982,1,8,0:0:0:0:
282,117,33113,1,0,0:0:0:0:
219,114,33373,1,0,0:0:0:0:
219,114,33504,1,8,0:0:0:0:
219,114,33634,1,0,0:0:0:0:
219,114,33765,1,8,0:0:0:0:
219,114,33895,1,0,0:0:0:0:
183,120,34417,1,0,0:0:0:0:
183,120,34547,1,0,0:0:0:0:
183,120,34678,1,8,0:0:0:0:
183,120,34939,1,0,0:0:0:0:
183,120,35069,1,0,0:0:0:0:
183,120,35199,1,8,0:0:0:0:
183,120,35460,1,0,0:0:0:0:
183,120,35591,1,0,0:0:0:0:
183,120,35721,1,8,0:0:0:0:
183,120,35982,1,0,0:0:0:0:
183,120,36113,1,0,0:0:0:0:
183,120,36243,1,8,0:0:0:0:
25,191,36504,1,0,0:0:0:0:
25,191,36765,1,0,0:0:0:0:
25,191,37026,1,8,0:0:0:0:
25,191,37286,1,8,0:0:0:0:
25,191,37547,1,0,0:0:0:0:
25,191,37678,1,0,0:0:0:0:
25,191,37808,1,8,0:0:0:0:
25,191,37939,1,8,0:0:0:0:
25,191,38069,1,0,0:0:0:0:
25,191,38330,1,8,0:0:0:0:
56,226,38852,5,12,0:0:0:0:
177,113,39113,1,8,0:0:0:0:
177,113,39243,1,8,0:0:0:0:
121,178,39504,1,4,0:0:0:0:
177,113,39895,1,8,0:0:0:0:
188,187,40156,1,4,0:0:0:0:
154,169,40417,1,8,0:0:0:0:
188,187,40678,1,8,0:0:0:0:
188,187,40873,1,8,0:0:0:0:
188,187,41069,1,8,0:0:0:0:
188,187,41199,1,0,0:0:0:0:
103,145,41721,1,12,0:0:0:0:
103,145,41982,1,8,0:0:0:0:
103,145,42113,1,8,0:0:0:0:
106,165,42243,1,0,0:0:0:0:
217,114,42504,1,8,0:0:0:0:
184,184,42765,1,4,0:0:0:0:
173,214,43026,1,12,0:0:0:0:
146,177,43678,1,12,0:0:0:0:
150,215,43939,1,8,0:0:0:0:
167,117,44069,1,0,0:0:0:0:
167,181,44330,1,4,0:0:0:0:
164,179,44591,1,4,0:0:0:0:
199,260,44852,1,0,0:0:0:0:
199,260,44982,1,0,0:0:0:0:
199,260,45113,1,8,0:0:0:0:
199,260,45243,1,0,0:0:0:0:
199,260,45373,1,8,0:0:0:0:
199,260,45634,1,0,0:0:0:0:
199,260,45895,1,8,0:0:0:0:
199,260,46026,1,0,0:0:0:0:
199,260,46156,1,8,0:0:0:0:
199,260,46286,1,0,0:0:0:0:
199,260,46417,1,8,0:0:0:0:
199,260,46678,1,0,0:0:0:0:
127,185,46939,1,4,0:0:0:0:
111,195,47460,1,8,0:0:0:0:
95,180,47852,1,4,0:0:0:0:
103,200,48243,1,8,0:0:0:0:
171,174,48504,1,4,0:0:0:0:
171,174,48765,1,4,0:0:0:0:
89,191,49026,1,0,0:0:0:0:
89,191,49156,1,0,0:0:0:0:
117,169,49286,1,8,0:0:0:0:
277,143,49547,1,4,0:0:0:0:
117,169,49808,1,8,0:0:0:0:
31,217,50069,1,4,0:0:0:0:
105,152,50330,1,8,0:0:0:0:
177,211,50591,1,0,0:0:0:0:
177,211,50852,1,8,0:0:0:0:
171,212,51113,1,4,0:0:0:0:
177,211,51634,1,0,0:0:0:0:
177,211,51765,1,0,0:0:0:0:
121,153,52026,1,12,0:0:0:0:
112,151,52417,1,0,0:0:0:0:
131,225,52678,1,12,0:0:0:0:
131,225,52939,1,12,0:0:0:0:
144,106,53199,1,0,0:0:0:0:
176,159,53460,1,8,0:0:0:0:
176,159,53591,1,0,0:0:0:0:
49,100,53721,1,8,0:0:0:0:
176,159,53982,1,0,0:0:0:0:
176,159,54113,1,8,0:0:0:0:
122,144,54243,1,8,0:0:0:0:
122,144,54373,1,8,0:0:0:0:
131,147,54504,1,0,0:0:0:0:
122,144,54765,1,8,0:0:0:0:
122,144,54895,1,8,0:0:0:0:
122,144,55026,1,0,0:0:0:0:
122,144,55156,1,0,0:0:0:0:
122,144,55286,1,8,0:0:0:0:
256,192,61417,12,0,63113,0:0:0:0:
128,221,63634,5,8,0:0:0:0:
128,221,64156,1,0,0:0:0:0:
128,221,64678,1,8,0:0:0:0:
128,221,64939,1,8,0:0:0:0:
128,221,65199,1,0,0:0:0:0:
128,221,65721,1,0,0:0:0:0:
128,221,65982,1,8,0:0:0:0:
128,221,66243,1,0,0:0:0:0:
128,221,66373,1,8,0:0:0:0:
128,221,66504,1,0,0:0:0:0:
128,221,66765,1,0,0:0:0:0:
128,221,66895,1,8,0:0:0:0:
128,221,67026,1,0,0:0:0:0:
128,221,67156,1,8,0:0:0:0:
128,221,67286,1,0,0:0:0:0:
189,233,67808,1,0,0:0:0:0:
189,233,68069,1,8,0:0:0:0:
189,233,68330,1,0,0:0:0:0:
189,233,68460,1,8,0:0:0:0:
189,233,68591,1,0,0:0:0:0:
189,233,68852,1,0,0:0:0:0:
189,233,69113,1,8,0:0:0:0:
189,233,69373,1,0,0:0:0:0:
189,233,69504,1,8,0:0:0:0:
189,233,69634,1,0,0:0:0:0:
183,163,69895,1,8,0:0:0:0:
183,163,70156,1,8,0:0:0:0:
183,163,70417,1,0,0:0:0:0:
183,163,70547,1,8,0:0:0:0:
183,163,70678,1,0,0:0:0:0:
173,167,70939,1,0,0:0:0:0:
173,167,71199,1,0,0:0:0:0:
173,167,71460,1,0,0:0:0:0:
173,167,71591,1,0,0:0:0:0:
173,167,71721,1,8,0:0:0:0:
173,167,71852,1,8,0:0:0:0:
173,167,71982,1,8,0:0:0:0:
286,205,72504,1,0,0:0:0:0:
75,166,72765,1,8,0:0:0:0:
75,166,72895,1,0,0:0:0:0:
286,205,73026,1,8,0:0:0:0:
286,205,73286,1,8,0:0:0:0:
286,205,73547,1,0,0:0:0:0:
88,173,73808,1,0,0:0:0:0:
55,182,73939,1,8,0:0:0:0:
286,205,74069,1,0,0:0:0:0:
286,205,74330,1,8,0:0:0:0:
286,205,74591,1,0,0:0:0:0:
286,205,74721,1,8,0:0:0:0:
286,205,74852,1,0,0:0:0:0:
286,205,75113,1,0,0:0:0:0:
286,205,75243,1,8,0:0:0:0:
286,205,75373,1,0,0:0:0:0:
286,205,75504,1,8,0:0:0:0:
286,205,75634,1,0,0:0:0:0:
85,237,76156,1,0,0:0:0:0:
170,151,76286,1,0,0:0:0:0:
85,237,76417,1,8,0:0:0:0:
85,237,76678,1,0,0:0:0:0:
85,237,76808,1,8,0:0:0:0:
85,237,76939,1,0,0:0:0:0:
85,237,77199,1,0,0:0:0:0:
169,150,77330,1,0,0:0:0:0:
85,237,77460,1,8,0:0:0:0:
85,237,77721,1,0,0:0:0:0:
85,237,77852,1,8,0:0:0:0:
85,237,77982,1,0,0:0:0:0:
85,237,78243,1,0,0:0:0:0:
107,136,78373,1,0,0:0:0:0:
85,237,78504,1,8,0:0:0:0:
85,237,78765,1,0,0:0:0:0:
85,237,79026,1,8,0:0:0:0:
85,141,79156,1,8,0:0:0:0:
156,167,79286,1,0,0:0:0:0:
165,172,79808,1,0,0:0:0:0:
165,172,79939,1,0,0:0:0:0:
165,172,80069,1,8,0:0:0:0:
165,172,80199,1,8,0:0:0:0:
165,172,80330,1,8,0:0:0:0:
103,216,80721,1,8,0:0:0:0:
103,216,80852,1,8,0:0:0:0:
102,209,81243,1,0,0:0:0:0:
102,209,81439,1,0,0:0:0:0:
102,209,81634,1,0,0:0:0:0:
102,209,81765,1,0,0:0:0:0:
148,125,82417,1,8,0:0:0:0:
148,125,82613,1,8,0:0:0:0:
148,125,82808,1,8,0:0:0:0:
196,203,82939,1,8,0:0:0:0:
196,203,83330,1,8,0:0:0:0:
196,203,83526,1,8,0:0:0:0:
196,203,83721,1,8,0:0:0:0:
196,203,83852,1,8,0:0:0:0:
164,135,84504,1,0,0:0:0:0:
164,135,84699,1,0,0:0:0:0:
164,135,84895,1,0,0:0:0:0:
164,135,85026,1,0,0:0:0:0:
164,135,85417,1,0,0:0:0:0:
164,135,85613,5,0,0:0:0:0:
230,113,85808,1,0,0:0:0:0:
230,113,85939,1,0,0:0:0:0:
227,113,86591,1,8,0:0:0:0:
227,113,86786,1,8,0:0:0:0:
227,113,86982,1,8,0:0:0:0:
227,113,87113,1,8,0:0:0:0:
212,133,87504,5,0,0:0:0:0:
212,133,87699,5,0,0:0:0:0:
212,133,87895,1,0,0:0:0:0:
212,133,88026,1,0,0:0:0:0:
104,260,88417,1,8,0:0:0:0:
162,240,88678,5,4,0:0:0:0:
162,240,88939,1,4,0:0:0:0:
162,240,89199,1,4,0:0:0:0:
162,240,89395,1,4,0:0:0:0:
162,240,89591,1,4,0:0:0:0:
162,240,89982,1,4,0:0:0:0:
162,240,90243,1,4,0:0:0:0:
183,198,90765,1,12,0:0:0:0:
183,198,91026,1,12,0:0:0:0:
183,198,91286,1,12,0:0:0:0:
183,198,91482,1,12,0:0:0:0:
183,198,91678,1,12,0:0:0:0:
88,161,92069,1,12,0:0:0:0:
88,161,92330,1,12,0:0:0:0:
162,240,92852,5,4,0:0:0:0:
162,240,93113,1,4,0:0:0:0:
162,240,93373,1,4,0:0:0:0:
162,240,93569,1,4,0:0:0:0:
162,240,93765,1,4,0:0:0:0:
162,240,94156,1,4,0:0:0:0:
162,240,94417,1,4,0:0:0:0:
183,198,94939,1,12,0:0:0:0:
183,198,95199,1,12,0:0:0:0:
183,198,95460,1,12,0:0:0:0:
183,198,95656,1,12,0:0:0:0:
183,198,95852,1,12,0:0:0:0:
140,143,96243,1,8,0:0:0:0:
140,143,96373,1,8,0:0:0:0:
193,83,96504,1,0,0:0:0:0:
196,144,97026,1,0,0:0:0:0:
112,165,97286,1,8,0:0:0:0:
112,165,97417,1,0,0:0:0:0:
196,144,97547,1,8,0:0:0:0:
196,144,97743,1,8,0:0:0:0:
196,144,97939,1,0,0:0:0:0:
275,216,98330,1,0,0:0:0:0:
272,216,98591,1,0,0:0:0:0:
272,216,98721,1,0,0:0:0:0:
272,216,98852,1,8,0:0:0:0:
272,216,98982,1,0,0:0:0:0:
272,216,99113,1,8,0:0:0:0:
203,184,99373,1,8,0:0:0:0:
203,184,99634,1,0,0:0:0:0:
203,184,99830,1,0,0:0:0:0:
203,184,100026,1,8,0:0:0:0:
188,186,100286,1,8,0:0:0:0:
188,186,100417,1,8,0:0:0:0:
188,186,100678,1,0,0:0:0:0:
134,137,101199,1,8,0:0:0:0:
134,137,101460,1,0,0:0:0:0:
294,172,101591,1,0,0:0:0:0:
134,137,101721,1,8,0:0:0:0:
134,137,101917,1,8,0:0:0:0:
134,137,102113,1,0,0:0:0:0:
292,171,102373,1,0,0:0:0:0:
292,171,102504,1,0,0:0:0:0:
292,171,102765,1,8,0:0:0:0:
292,171,102895,1,0,0:0:0:0:
125,102,103026,1,8,0:0:0:0:
292,171,103156,1,0,0:0:0:0:
292,171,103286,1,8,0:0:0:0:
151,225,103547,1,8,0:0:0:0:
151,225,103808,1,0,0:0:0:0:
151,225,104004,1,8,0:0:0:0:
151,225,104199,1,0,0:0:0:0:
151,225,104330,1,8,0:0:0:0:
151,221,104591,1,0,0:0:0:0:
150,225,104721,1,8,0:0:0:0:
155,218,104982,1,0,0:0:0:0:
155,218,105113,1,8,0:0:0:0:
179,119,105373,1,8,0:0:0:0:
242,247,113721,5,0,0:0:0:0:
242,247,114243,1,0,0:0:0:0:
242,247,114765,1,0,0:0:0:0:
242,247,115026,1,0,0:0:0:0:
242,247,115286,1,0,0:0:0:0:
235,243,115808,1,0,0:0:0:0:
235,243,116330,1,0,0:0:0:0:
235,243,116852,1,0,0:0:0:0:
120,160,117113,1,0,0:0:0:0:
235,243,117373,1,0,0:0:0:0:
235,243,117895,1,0,0:0:0:0:
235,243,118156,1,8,0:0:0:0:
235,243,118286,1,0,0:0:0:0:
235,243,118417,1,8,0:0:0:0:
235,243,118678,1,0,0:0:0:0:
235,243,118939,1,0,0:0:0:0:
235,243,119199,1,8,0:0:0:0:
235,243,119460,1,0,0:0:0:0:
235,243,119591,1,0,0:0:0:0:
235,243,119721,1,8,0:0:0:0:
235,243,119982,1,8,0:0:0:0:
235,243,120243,1,0,0:0:0:0:
235,243,120504,1,8,0:0:0:0:
235,243,120634,1,8,0:0:0:0:
235,243,120765,1,0,0:0:0:0:
235,243,120895,1,8,0:0:0:0:
235,243,121026,1,0,0:0:0:0:
160,238,122069,1,8,0:0:0:0:
160,238,122330,1,0,0:0:0:0:
160,238,122591,1,8,0:0:0:0:
160,238,122721,1,8,0:0:0:0:
160,238,122852,1,0,0:0:0:0:
160,238,123113,1,8,0:0:0:0:
140,158,123243,1,0,0:0:0:0:
140,158,123373,1,8,0:0:0:0:
140,158,123504,1,8,0:0:0:0:
257,231,123634,1,0,0:0:0:0:
257,231,124156,1,8,0:0:0:0:
257,231,124352,1,0,0:0:0:0:
257,231,124547,1,8,0:0:0:0:
265,237,124808,1,0,0:0:0:0:
265,237,124939,1,8,0:0:0:0:
184,189,125199,1,0,0:0:0:0:
119,161,125330,1,0,0:0:0:0:
119,161,125460,1,8,0:0:0:0:
223,216,125721,1,0,0:0:0:0:
111,169,125852,1,8,0:0:0:0:
111,169,125982,1,8,0:0:0:0:
111,169,126113,1,8,0:0:0:0:
223,216,126243,1,4,0:0:0:0:
164,226,126504,1,4,0:0:0:0:
162,237,126765,1,8,0:0:0:0:
162,237,127156,1,4,0:0:0:0:
152,244,127417,1,0,0:0:0:0:
164,137,127547,1,8,0:0:0:0:
162,237,127808,1,4,0:0:0:0:
151,109,128330,1,0,0:0:0:0:
151,109,128460,1,0,0:0:0:0:
151,109,128591,1,8,0:0:0:0:
151,109,128852,1,0,0:0:0:0:
151,109,129113,1,8,0:0:0:0:
151,109,129373,1,8,0:0:0:0:
151,109,129504,1,8,0:0:0:0:
151,109,129634,1,0,0:0:0:0:
151,109,129895,1,0,0:0:0:0:
166,182,130026,1,0,0:0:0:0:
166,182,130156,1,8,0:0:0:0:
166,182,130417,1,8,0:0:0:0:
208,249,130678,1,0,0:0:0:0:
208,249,130939,1,8,0:0:0:0:
208,249,131069,1,8,0:0:0:0:
208,249,131199,1,0,0:0:0:0:
222,240,131460,1,0,0:0:0:0:
222,239,131591,1,0,0:0:0:0:
222,239,131721,1,8,0:0:0:0:
222,239,131982,1,8,0:0:0:0:
222,240,132243,1,8,0:0:0:0:
222,240,132373,1,0,0:0:0:0:
222,239,132504,1,8,0:0:0:0:
222,239,132634,1,8,0:0:0:0:
222,239,132765,1,8,0:0:0:0:
269,229,133026,1,0,0:0:0:0:
269,229,133156,1,0,0:0:0:0:
269,229,133286,1,8,0:0:0:0:
269,229,133547,1,0,0:0:0:0:
269,229,134069,1,8,0:0:0:0:
269,229,134199,1,0,0:0:0:0:
269,229,134330,1,8,0:0:0:0:
262,226,134460,1,8,0:0:0:0:
262,226,134591,1,0,0:0:0:0:
258,224,134852,1,0,0:0:0:0:
257,224,135113,1,8,0:0:0:0:
257,224,135243,1,8,0:0:0:0:
262,226,135373,1,8,0:0:0:0:
262,226,135504,1,0,0:0:0:0:
258,224,135765,1,0,0:0:0:0:
257,224,135895,1,8,0:0:0:0:
257,224,136156,1,8,0:0:0:0:
255,223,136417,1,0,0:0:0:0:
255,223,136678,1,8,0:0:0:0:
255,223,136808,1,8,0:0:0:0:
255,223,136939,1,8,0:0:0:0:
255,223,137199,1,0,0:0:0:0:
255,223,137330,1,0,0:0:0:0:
255,223,137460,1,8,0:0:0:0:
255,223,137721,1,0,0:0:0:0:
264,100,138243,1,8,0:0:0:0:
264,100,138504,1,0,0:0:0:0:
48,242,138765,1,8,0:0:0:0:
146,207,139026,1,8,0:0:0:0:
146,207,139156,1,8,0:0:0:0:
146,207,139286,1,0,0:0:0:0:
146,207,139417,1,0,0:0:0:0:
146,207,139547,1,8,0:0:0:0:
92,250,139808,1,8,0:0:0:0:
92,250,139939,1,0,0:0:0:0:
92,250,140069,1,8,0:0:0:0:
92,250,140330,1,8,0:0:0:0:
92,250,140591,1,0,0:0:0:0:
92,250,140852,1,8,0:0:0:0:
92,250,141113,1,8,0:0:0:0:
92,250,141243,1,0,0:0:0:0:
92,250,141373,1,8,0:0:0:0:
92,250,141504,1,8,0:0:0:0:
200,176,141634,1,8,0:0:0:0:
200,176,141895,1,8,0:0:0:0:
200,176,142026,1,0,0:0:0:0:
200,176,142156,1,8,0:0:0:0:
200,176,142417,1,0,0:0:0:0:
144,216,142939,1,8,0:0:0:0:
146,207,143199,1,8,0:0:0:0:
146,207,143330,1,8,0:0:0:0:
146,207,143460,1,0,0:0:0:0:
146,207,143591,1,0,0:0:0:0:
146,207,143721,1,8,0:0:0:0:
92,250,143982,1,8,0:0:0:0:
92,250,144113,1,8,0:0:0:0:
92,250,144243,1,8,0:0:0:0:
92,250,144504,1,8,0:0:0:0:
92,250,144765,1,0,0:0:0:0:
92,250,145026,1,8,0:0:0:0:
92,250,145286,1,8,0:0:0:0:
92,250,145417,1,0,0:0:0:0:
92,250,145547,1,8,0:0:0:0:
92,250,145678,1,8,0:0:0:0:
200,176,145808,1,8,0:0:0:0:
200,176,146069,1,8,0:0:0:0:
200,176,146199,1,0,0:0:0:0:
200,176,146330,1,8,0:0:0:0:
200,176,146591,1,0,0:0:0:0:
167,152,146852,1,8,0:0:0:0:
167,152,146982,1,0,0:0:0:0:
119,183,147113,1,12,0:0:0:0:
