osu file format v14

[General]
AudioFilename: audio.mp3
AudioLeadIn: 0
PreviewTime: 88352
Countdown: 0
SampleSet: Normal
StackLeniency: 0.7
Mode: 1
LetterboxInBreaks: 0
WidescreenStoryboard: 0

[Editor]
Bookmarks: 13547,21895,30243,38591,55286,63634,71982,80330,88678,97026,105373,113721,122069,130417
DistanceSpacing: 1.7
BeatDivisor: 4
GridSize: 4
TimelineZoom: 2.1

[Metadata]
Title://N/YYY////F//////
TitleUnicode://N/¥¥¥////F//////
Artist:kawaii amen girl
ArtistUnicode:kawaii amen girl
Creator:_gt
Version:Danchou
Source:
Tags:shirogane noel danchou 白銀ノエル shiranui flare 不知火フレア noefure ノエフレ hololive ホロライブ japanese instrumental electronic breakcore CANDYYYLAND feat. LIZ (Pa's Lam System Remix) (kawaii Amen Girl Bootleg) CAND¥¥¥LAND candyland candy land cand\\\land nyyyf yen fuwa fuwa spring storm
BeatmapID:3832638
BeatmapSetID:1863701

[Difficulty]
HPDrainRate:3.7
CircleSize:5
OverallDifficulty:7.3
ApproachRate:5
SliderMultiplier:1.4
SliderTickRate:1

[Events]
//Background and Video events
0,0,"101825339_p0 (3).jpg",0,0
//Break Periods
2,5401,12347
2,55486,60217
2,105573,112260
//Storyboard Layer 0 (Background)
//Storyboard Layer 1 (Fail)
//Storyboard Layer 2 (Pass)
//Storyboard Layer 3 (Foreground)
//Storyboard Layer 4 (Overlay)
//Storyboard Sound Samples

[TimingPoints]
5200,260.869565217391,4,1,0,100,1,0
5201,-33.3333333333333,4,1,0,100,0,0
5330,-33.3333333333333,4,1,0,10,0,0
6243,-53.7851869921392,4,1,0,10,0,8
7286,-57.8569267955875,4,1,0,10,0,8
8330,-62.2369125298237,4,1,0,10,0,8
9373,-66.9484795645995,4,1,0,10,0,8
10417,-72.0167298444279,4,1,0,10,0,8
11460,-77.4686656248984,4,1,0,10,0,8
12504,-83.3333333333333,4,1,0,40,0,8
12765,-83.3333333333333,4,1,0,50,0,8
13026,-83.3333333333333,4,1,0,60,0,8
13286,-83.3333333333333,4,1,0,70,0,8
13547,-142.857142857143,4,1,0,80,0,0
21113,-133.333333333333,4,1,0,80,0,0
21373,-125,4,1,0,85,0,0
21634,-117.647058823529,4,1,0,85,0,0
21895,-111.111111111111,4,1,0,90,0,0
29460,-111.111111111111,4,1,0,90,0,8
29525,-109.268498652325,4,1,0,90,0,8
29590,-107.456443179598,4,1,0,90,0,8
29655,-105.674437950781,4,1,0,90,0,8
29721,-103.921984627291,4,1,0,90,0,8
29786,-102.198593134746,4,1,0,90,0,8
29851,-100.503781525921,4,1,0,90,0,8
29916,-98.8370758459678,4,1,0,90,0,8
29982,-97.1980099998735,4,1,0,90,0,8
30047,-95.5861256221183,4,1,0,90,0,8
30112,-94.0009719484923,4,1,0,90,0,8
30177,-92.4421056900393,4,1,0,90,0,8
30243,-66.6666666666667,4,1,0,90,0,8
30373,-92.6474797054189,4,1,0,90,0,8
30503,-94.419110453426,4,1,0,85,0,8
30634,-96.2246188149124,4,1,0,85,0,8
30764,-98.0646526069789,4,1,0,80,0,8
30895,-99.9398720344643,4,1,0,80,0,8
31025,-101.850949926827,4,1,0,80,0,8
31156,-103.798571979557,4,1,0,80,0,8
31286,-105.783437000202,4,1,0,80,0,8
31416,-107.806257159102,4,1,0,80,0,8
31547,-109.867758244916,4,1,0,80,0,8
31677,-111.968679925033,4,1,0,80,0,8
31808,-114.109776010968,4,1,0,80,0,8
31938,-116.291814728826,4,1,0,80,0,8
32069,-118.515578994948,4,1,0,80,0,8
32199,-120.781866696814,4,1,0,80,0,8
32330,-123.091490979333,4,1,0,80,0,8
32460,-125.445280536592,4,1,0,80,0,8
32590,-127.8440799092,4,1,0,80,0,8
32721,-130.288749787301,4,1,0,80,0,8
32851,-132.780167319397,4,1,0,80,0,8
32982,-135.319226427065,4,1,0,80,0,8
33112,-137.9068381257,4,1,0,80,0,8
33243,-140.543930851382,4,1,0,80,0,8
33373,-143.231450794005,4,1,0,80,0,8
33503,-145.970362236768,4,1,0,80,0,8
33634,-148.76164790216,4,1,0,80,0,8
33764,-151.60630930456,4,1,0,80,0,8
33895,-154.505367109585,4,1,0,85,0,8
34025,-157.459861500299,4,1,0,85,0,8
34156,-160.470852550437,4,1,0,85,0,8
34286,-163.539420604757,4,1,0,85,0,8
34417,-142.857142857143,4,1,0,90,0,8
34547,-146.430042280824,4,1,0,90,0,8
34677,-150.092300976547,4,1,0,90,0,8
34808,-153.846153846154,4,1,0,90,0,8
34927,-129.87012987013,4,1,0,90,0,8
35057,-134.350866500608,4,1,0,90,0,8
35187,-138.986196036875,4,1,0,90,0,8
35318,-143.781452192667,4,1,0,90,0,8
35437,-118.063754427391,4,1,0,90,0,8
35567,-123.268115260444,4,1,0,90,0,8
35697,-128.701889191632,4,1,0,90,0,8
35828,-134.375188965109,4,1,0,90,0,8
35947,-107.330685843083,4,1,0,90,0,8
36077,-113.09959240042,4,1,0,90,0,8
36207,-119.178571353232,4,1,0,90,0,8
36338,-125.584288752439,4,1,0,90,0,8
36504,-100,4,1,0,90,0,8
36634,-97.7467540230552,4,1,0,90,0,8
36764,-95.5442792204367,4,1,0,90,0,8
36895,-93.3914315927013,4,1,0,90,0,8
37025,-91.2870929175277,4,1,0,90,0,8
37155,-89.2301701688937,4,1,0,90,0,8
37286,-87.2195949493421,4,1,0,90,0,8
37416,-85.2543229350386,4,1,0,90,0,8
37547,-80,4,1,0,90,0,8
37612,-81.9517401886022,4,1,0,90,0,8
37677,-83.9510964992519,4,1,0,80,0,8
37742,-85.9992306106871,4,1,0,80,0,8
37808,-88.0973325428339,4,1,0,70,0,8
37873,-90.2466213482401,4,1,0,70,0,8
37938,-92.4483458203767,4,1,0,60,0,8
38003,-94.7037852192194,4,1,0,60,0,8
38069,-97.0142500145332,4,1,0,50,0,8
38134,-99.381082647289,4,1,0,50,0,8
38199,-101.805658309658,4,1,0,50,0,8
38264,-104.289385744034,4,1,0,50,0,8
38330,-106.833708061549,4,1,0,50,0,8
38395,-109.440103580563,4,1,0,50,0,8
38460,-112.110086685601,4,1,0,50,0,8
38525,-114.84520870725,4,1,0,50,0,8
38591,-142.857142857143,4,1,0,80,0,8
38656,-138.888888888889,4,1,0,80,0,8
38721,-135.135135135135,4,1,0,80,0,8
38786,-131.578947368421,4,1,0,80,0,8
38852,-83.3333333333333,4,1,0,100,0,1
39113,-90.9090909090909,4,1,0,100,0,8
39178,-92.3708005627897,4,1,0,100,0,8
39243,-93.853586384639,4,1,0,100,0,8
39308,-95.35767393826,4,1,0,100,0,8
39373,-96.8832886518432,4,1,0,100,0,8
39438,-98.4306557195755,4,1,0,100,0,8
39504,-71.4285714285714,4,1,0,100,0,9
39634,-156.25,4,1,0,100,0,9
39765,-156.25,4,1,0,100,0,9
39895,-111.111111111111,4,1,0,100,0,8
39960,-108.695652173913,4,1,0,100,0,8
40025,-106.382978723404,4,1,0,100,0,8
40090,-104.166666666667,4,1,0,100,0,8
40156,-90.9090909090909,4,1,0,100,0,8
40199,-93.853586384639,4,1,0,100,0,8
40242,-96.8832886518432,4,1,0,100,0,8
40286,-99.9999999999999,4,1,0,100,0,8
40417,-108.695652173913,4,1,0,100,0,8
40547,-117.647058823529,4,1,0,100,0,8
40612,-115.281187114291,4,1,0,100,0,8
40677,-112.962892871081,4,1,0,100,0,8
40742,-110.691219315363,4,1,0,100,0,8
40808,-108.465228909328,4,1,0,100,0,8
40873,-106.28400296897,4,1,0,100,0,8
40938,-104.146641284934,4,1,0,100,0,8
41003,-102.052261750994,4,1,0,100,0,8
41069,-100,4,1,0,100,0,8
41199,-90.9090909090909,4,1,0,100,0,8
41330,-95.2380952380952,4,1,0,100,0,8
41460,-100,4,1,0,100,0,8
41493,-98.0392156862745,4,1,0,100,0,8
41591,-105.263157894737,4,1,0,100,0,8
41623,-103.092783505155,4,1,0,100,0,8
41721,-62.5,4,1,0,100,0,9
42243,-62.5,4,1,0,100,0,8
42373,-111.111111111111,4,1,0,100,0,8
42504,-105.263157894737,4,1,0,100,0,8
42634,-100,4,1,0,100,0,8
42765,-76.9230769230769,4,1,0,100,0,8
43026,-52.6315789473684,4,1,0,100,0,9
43286,-125,4,1,0,100,0,8
43318,-120.846963215883,4,1,0,100,0,8
43351,-116.831908148008,4,1,0,100,0,8
43384,-112.950250451231,4,1,0,100,0,8
43416,-109.197558092037,4,1,0,100,0,8
43449,-105.569546288102,4,1,0,100,0,8
43482,-102.062072615966,4,1,0,100,0,8
43514,-98.6711322812674,4,1,0,100,0,8
43547,-95.392853546111,4,1,0,100,0,8
43580,-92.2234933083601,4,1,0,100,0,8
43612,-89.1594328278052,4,1,0,100,0,8
43645,-86.1971735943264,4,1,0,100,0,8
43678,-66.6666666666667,4,1,0,100,0,9
43808,-100,4,1,0,100,0,9
43939,-83.3333333333333,4,1,0,100,0,8
43982,-87.1734932202679,4,1,0,100,0,8
44025,-91.1906150426891,4,1,0,100,0,8
44069,-95.392853546111,4,1,0,100,0,8
44112,-99.788739262367,4,1,0,100,0,8
44156,-104.387195826564,4,1,0,100,0,8
44199,-109.197558092037,4,1,0,100,0,8
44243,-114.229591080072,4,1,0,100,0,8
44286,-119.493509802872,4,1,0,100,0,8
44330,-66.6666666666667,4,1,0,100,0,9
44852,-83.3333333333333,4,1,0,100,0,8
44917,-85.2713048279771,4,1,0,100,0,8
44982,-87.2543451247895,4,1,0,100,0,8
45047,-89.2835023284172,4,1,0,100,0,8
45112,-91.3598489178704,4,1,0,100,0,8
45178,-93.4844823133639,4,1,0,100,0,8
45243,-95.6585254563419,4,1,0,100,0,8
45308,-97.8831274029904,4,1,0,100,0,8
45373,-100.159463931553,4,1,0,100,0,8
45438,-102.488738163771,4,1,0,100,0,8
45504,-104.872181200772,4,1,0,100,0,8
45569,-107.31105277375,4,1,0,100,0,8
45634,-109.806641909779,4,1,0,100,0,8
45699,-112.360267613104,4,1,0,100,0,8
45764,-114.973279562281,4,1,0,100,0,8
45830,-117.647058823529,4,1,0,100,0,8
45895,-100,4,1,0,100,0,0
45939,-101.89870391525,4,1,0,100,0,0
45982,-103.789081555621,4,1,0,100,0,0
46026,-105.75972891072,4,1,0,100,0,0
46091,-108.739584127934,4,1,0,100,0,0
46156,-111.803398874989,4,1,0,100,0,0
46221,-114.953538771066,4,1,0,100,0,0
46286,-118.192436088335,4,1,0,100,0,0
46352,-121.574550977559,4,1,0,100,0,0
46417,-125,4,1,0,100,0,0
46547,-95.2380952380952,4,1,0,100,0,0
46591,-93.7886440714845,4,1,0,100,0,0
46634,-92.3934506523867,4,1,0,100,0,0
46678,-90.9872928066164,4,1,0,100,0,0
46743,-88.9490781566798,4,1,0,100,0,0
46808,-86.9565217391304,4,1,0,100,0,0
46939,-66.6666666666667,4,1,0,100,0,1
47460,-125,4,1,0,100,0,8
47525,-118.217701125397,4,1,0,100,0,8
47590,-111.803398874989,4,1,0,100,0,8
47655,-105.737126344056,4,1,0,100,0,8
47721,-100,4,1,0,100,0,8
47852,-62.5,4,1,0,100,0,9
47982,-90.9090909090909,4,1,0,100,0,9
48113,-90.9090909090909,4,1,0,100,0,9
48243,-100,4,1,0,100,0,8
48308,-105.737126344056,4,1,0,100,0,8
48373,-111.803398874989,4,1,0,100,0,8
48504,-62.5,4,1,0,100,0,9
49026,-142.857142857143,4,1,0,100,0,9
49286,-90.9090909090909,4,1,0,100,0,8
49351,-93.8436468596697,4,1,0,100,0,8
49416,-96.8729306151464,4,1,0,100,0,8
49482,-100,4,1,0,100,0,8
49547,-62.5,4,1,0,100,0,9
49808,-83.3333333333333,4,1,0,100,0,8
49873,-85.7925601424726,4,1,0,100,0,8
49938,-88.3173683216141,4,1,0,100,0,8
50004,-90.9090909090909,4,1,0,100,0,8
50069,-45.4545454545455,4,1,0,100,0,9
50330,-76.9230769230769,4,1,0,100,0,8
50395,-79.0137668020265,4,1,0,100,0,8
50460,-81.1503802956079,4,1,0,100,0,8
50526,-83.3333333333333,4,1,0,100,0,8
50591,-71.4285714285714,4,1,0,100,0,8
50852,-62.5,4,1,0,100,0,8
51113,-40,4,1,0,100,0,9
51634,-125,4,1,0,100,0,8
51663,-120.846963215883,4,1,0,100,0,8
51696,-116.831908148008,4,1,0,100,0,8
51729,-112.950250451231,4,1,0,100,0,8
51761,-109.197558092037,4,1,0,100,0,8
51794,-105.569546288102,4,1,0,100,0,8
51827,-102.062072615966,4,1,0,100,0,8
51859,-98.6711322812674,4,1,0,100,0,8
51892,-95.392853546111,4,1,0,100,0,8
51925,-92.2234933083601,4,1,0,100,0,8
51957,-89.1594328278052,4,1,0,100,0,8
51990,-86.1971735943264,4,1,0,100,0,8
52026,-66.6666666666667,4,1,0,100,0,9
52153,-100,4,1,0,100,0,9
52286,-90.9090909090909,4,1,0,100,0,8
52351,-95.8644896416466,4,1,0,100,0,8
52416,-101.090004116787,4,1,0,100,0,8
52482,-106.600358177805,4,1,0,100,0,8
52547,-112.411078255652,4,1,0,100,0,8
52612,-118.538537117498,4,1,0,100,0,8
52678,-66.6666666666667,4,1,0,100,0,9
52939,-66.6666666666667,4,1,0,100,0,9
53199,-83.3333333333333,4,1,0,100,0,8
53264,-85.1488719810307,4,1,0,100,0,8
53329,-87.0039647957035,4,1,0,100,0,8
53394,-88.8994735227775,4,1,0,100,0,8
53460,-90.8362786820641,4,1,0,100,0,8
53525,-92.8152799767877,4,1,0,100,0,8
53590,-94.8373967115242,4,1,0,100,0,8
53655,-96.9035682192456,4,1,0,100,0,8
53721,-99.0147542976674,4,1,0,100,0,8
53786,-101.171935655104,4,1,0,100,0,8
53851,-103.376114366034,4,1,0,100,0,8
53916,-105.628314336598,4,1,0,100,0,8
53982,-107.929581780228,4,1,0,100,0,8
54047,-110.28098570365,4,1,0,100,0,8
54112,-112.683618403464,4,1,0,100,0,8
54177,-115.13859597355,4,1,0,100,0,8
54243,-83.3333333333333,4,1,0,100,0,8
54308,-87.1263264291184,4,1,0,100,0,8
54373,-91.0919610843995,4,1,0,100,0,8
54439,-95.2380952380952,4,1,0,100,0,8
54504,-90.9157029602153,4,1,0,100,0,8
54569,-95.0538145637338,4,1,0,100,0,8
54634,-99.3802761121531,4,1,0,100,0,8
54699,-103.90366052596,4,1,0,100,0,8
54764,-83.3333333333333,4,1,0,100,0,8
54829,-87.1263264291184,4,1,0,100,0,8
54894,-91.0919610843995,4,1,0,100,0,8
54960,-95.2380952380952,4,1,0,100,0,8
55026,-76.3833333333333,4,1,0,100,0,8
55091,-79.8599908049299,4,1,0,100,0,8
55156,-83.4948915299606,4,1,0,100,0,8
55221,-87.2952380952381,4,1,0,100,0,8
55286,-74.0740740740741,4,1,0,100,0,8
55417,-83.3333333333333,4,1,0,40,0,8
56329,-96.0216018165715,4,1,0,40,0,8
57373,-101.421628169622,4,1,0,40,0,8
58416,-107.12533915261,4,1,0,40,0,8
59460,-113.149813266349,4,1,0,40,0,8
60503,-119.513089465888,4,1,0,40,0,8
61417,-100,4,1,0,60,0,8
61547,-126.23422117418,4,1,0,60,0,8
62591,-133.333333333333,4,1,0,60,0,8
63373,-200,4,1,0,60,0,8
63634,-111.111111111111,4,1,0,70,0,0
63895,-111.987482259837,4,1,0,70,0,0
64026,-112.429948648006,4,1,0,70,0,0
64156,-112.870765646075,4,1,0,70,0,0
64417,-113.761015788996,4,1,0,70,0,0
64547,-114.20705165471,4,1,0,70,0,0
64678,-114.65828763778,4,1,0,70,0,0
64939,-115.562636575013,4,1,0,70,0,0
65199,-116.470612468974,4,1,0,70,0,0
65460,-117.389255828954,4,1,0,70,0,0
65591,-117.853064809997,4,1,0,70,0,0
65721,-118.315144841763,4,1,0,70,0,0
65852,-118.782612042092,4,1,0,70,0,0
65982,-119.248336656333,4,1,0,70,0,0
66113,-119.719490929568,4,1,0,70,0,0
66243,-120.188888872345,4,1,0,70,0,0
66373,-120.660127237487,4,1,0,70,0,0
66504,-121.13685954379,4,1,0,70,0,0
66765,-122.092307182553,4,1,0,70,0,0
66895,-122.571008498232,4,1,0,70,0,0
67026,-123.055290762018,4,1,0,70,0,0
67156,-123.537767757894,4,1,0,70,0,0
67286,-124.02213645668,4,1,0,70,0,0
67547,-166.667273345308,4,1,0,70,0,0
67808,-125.986261490347,4,1,0,70,0,0
67939,-126.484037535988,4,1,0,70,0,0
68069,-126.9799580127,4,1,0,70,0,0
68330,-127.981492157719,4,1,0,70,0,0
68460,-128.48328387656,4,1,0,70,0,0
68591,-128.990925743399,4,1,0,70,0,0
68852,-130.008321075319,4,1,0,70,0,0
68982,-130.518059614824,4,1,0,70,0,0
69113,-131.033740950481,4,1,0,70,0,0
69373,-132.063273346113,4,1,0,70,0,0
69504,-132.585059874287,4,1,0,70,0,0
69634,-133.104901329214,4,1,0,70,0,0
69895,-134.154744986724,4,1,0,70,0,0
70026,-134.684794991173,4,1,0,70,0,0
70156,-135.212869118463,4,1,0,70,0,0
70286,-135.743013726566,4,1,0,70,0,0
70417,-136.279339035349,4,1,0,70,0,0
70547,-136.813665074405,4,1,0,70,0,0
70678,-137.354220563431,4,1,0,70,0,0
70939,-138.437580047948,4,1,0,70,0,0
71070,-138.984551680801,4,1,0,70,0,0
71200,-139.529484357428,4,1,0,70,0,0
71331,-140.080770141705,4,1,0,70,0,0
71461,-140.630000887815,4,1,0,70,0,0
71591,-129.139316844125,4,1,0,75,0,8
71721,-118.587520797011,4,1,0,80,0,8
71851,-108.897897498993,4,1,0,85,0,8
71982,-100,4,1,0,90,0,8
75895,-125,4,1,0,90,0,8
76156,-100,4,1,0,90,0,8
79939,-95.2380952380952,4,1,0,86,0,8
80069,-90.9090909090909,4,1,0,84,0,8
80199,-86.9565217391304,4,1,0,82,0,8
80330,-83.3333333333333,4,1,0,80,0,0
80526,-86.2774259224437,4,1,0,80,0,0
80721,-89.3097089999174,4,1,0,80,0,0
80852,-91.4063993235815,4,1,0,80,0,0
81047,-94.6189439130647,4,1,0,80,0,0
81243,-97.9617470918318,4,1,0,76,0,0
81373,-100.243799330171,4,1,0,76,0,0
81439,-101.422648535384,4,1,0,76,0,0
81634,-104.98722151074,4,1,0,76,0,0
81765,-107.45196687734,4,1,0,76,0,0
81895,-109.955097015439,4,1,0,76,0,0
82091,-113.839712850536,4,1,0,76,0,0
82286,-117.840692610079,4,1,0,76,0,0
82417,-120.607194065477,4,1,0,72,0,0
82613,-124.868139020376,4,1,0,72,0,0
82808,-129.256720863411,4,1,0,72,0,0
82939,-132.291232104548,4,1,0,72,0,0
83134,-136.940703969522,4,1,0,72,0,0
83330,-141.778697309972,4,1,0,68,0,0
83460,-145.081480316096,4,1,0,68,0,0
83526,-146.787612654501,4,1,0,68,0,0
83721,-151.946570389692,4,1,0,68,0,0
83852,-155.51376266271,4,1,0,68,0,0
83982,-159.136508690753,4,1,0,68,0,0
84178,-164.758660081473,4,1,0,68,0,0
84373,-170.549223389207,4,1,0,68,0,0
84504,-174.55314312417,4,1,0,64,0,0
84699,-180.687940683976,4,1,0,64,0,0
84895,-187.071485009287,4,1,0,64,0,0
85026,-191.463291643131,4,1,0,64,0,0
85221,-198.192408709381,4,1,0,64,0,0
85417,-205.194370329772,4,1,0,60,0,0
85547,-209.97444302148,4,1,0,60,0,0
85613,-212.443705029953,4,1,0,60,0,0
85808,-219.910194030878,4,1,0,60,0,0
85939,-225.072942639768,4,1,0,60,0,0
86069,-230.316093438816,4,1,0,60,0,0
86265,-238.452956284969,4,1,0,60,0,0
86460,-246.833559396222,4,1,0,60,0,0
86591,-252.628377690189,4,1,0,56,0,0
86786,-261.507186328362,4,1,0,56,0,0
86982,-270.746002759585,4,1,0,56,0,0
87113,-277.102204459416,4,1,0,56,0,0
87308,-286.841163594199,4,1,0,56,0,0
87504,-296.975006922072,4,1,0,52,0,0
87634,-303.893140779384,4,1,0,52,0,0
87699,-307.412410197547,4,1,0,52,0,0
87895,-318.273017381506,4,1,0,52,0,0
88026,-325.744992862109,4,1,0,52,0,0
88156,-333.333333333333,4,1,0,52,0,0
88417,-100,4,1,0,80,0,0
88678,-55.5555555555556,4,1,0,100,0,1
88939,-65.9110216292046,4,1,0,100,0,1
89199,-78.1455376464217,4,1,0,100,0,1
89395,-88.8481106240011,4,1,0,100,0,1
89591,-101.016475146311,4,1,0,100,0,1
89721,-133.333333333333,4,1,0,100,0,0
89852,-119.84578340894,4,1,0,100,0,0
89982,-130.495588038962,4,1,0,100,0,0
90243,-154.819755463533,4,1,0,100,0,0
90439,-176.023393970911,4,1,0,100,0,0
90634,-200,4,1,0,100,0,0
90765,-55.5555555555556,4,1,0,100,0,1
91015,-65.9110216292046,4,1,0,100,0,1
91275,-78.1455376464217,4,1,0,100,0,1
91471,-88.8481106240011,4,1,0,100,0,1
91667,-101.016475146311,4,1,0,100,0,1
91808,-133.333333333333,4,1,0,100,0,0
91928,-119.84578340894,4,1,0,100,0,0
92058,-130.495588038962,4,1,0,100,0,0
92319,-154.819755463533,4,1,0,100,0,0
92515,-176.023393970911,4,1,0,100,0,0
92710,-200,4,1,0,100,0,0
92852,-55.5555555555556,4,1,0,100,0,1
93107,-65.9110216292046,4,1,0,100,0,1
93367,-78.1455376464217,4,1,0,100,0,1
93563,-88.8481106240011,4,1,0,100,0,1
93759,-101.016475146311,4,1,0,100,0,1
93895,-133.333333333333,4,1,0,100,0,0
94020,-119.84578340894,4,1,0,100,0,0
94150,-130.495588038962,4,1,0,100,0,0
94411,-154.819755463533,4,1,0,100,0,0
94607,-176.023393970911,4,1,0,100,0,0
94802,-200,4,1,0,100,0,0
94939,-55.5555555555556,4,1,0,100,0,1
95182,-65.9110216292046,4,1,0,100,0,1
95442,-78.1455376464217,4,1,0,100,0,1
95638,-88.8481106240011,4,1,0,100,0,1
95834,-101.016475146311,4,1,0,100,0,1
95982,-111.111111111111,4,1,0,100,0,8
96047,-109.7262670683,4,1,0,100,0,8
96112,-108.358683162696,4,1,0,100,0,8
96177,-107.008144270913,4,1,0,100,0,8
96243,-105.674437950781,4,1,0,100,0,8
96308,-104.357354407919,4,1,0,100,0,8
96373,-103.056686462742,4,1,0,100,0,8
96438,-101.772229517864,4,1,0,100,0,8
96504,-100.503781525921,4,1,0,100,0,8
96569,-99.251142957786,4,1,0,100,0,8
96634,-98.0141167711807,4,1,0,100,0,8
96699,-96.7925083796832,4,1,0,100,0,8
96765,-95.5861256221183,4,1,0,100,0,8
96830,-94.3947787323299,4,1,0,100,0,8
96895,-93.2182803093306,4,1,0,100,0,8
96960,-92.0564452878236,4,1,0,100,0,8
97026,-90.9090909090909,4,1,0,100,0,8
104330,-86.9565217391304,4,1,0,100,0,0
104363,-87.7605747018483,4,1,0,100,0,0
104460,-90.1673061369088,4,1,0,100,0,0
104493,-91.0010479677654,4,1,0,100,0,0
104591,-93.5227266478023,4,1,0,100,0,0
104623,-94.3611725352235,4,1,0,100,0,0
104721,-96.9759617307245,4,1,0,100,0,0
104754,-97.8726605381572,4,1,0,100,0,0
104852,-100.584754595854,4,1,0,100,0,0
104884,-101.486512669545,4,1,0,100,0,0
104982,-104.298748144028,4,1,0,100,0,0
105015,-105.263157894737,4,1,0,100,0,0
105113,-100,4,1,0,100,0,0
105156,-98.4360745899374,4,1,0,100,0,0
105199,-96.8966078067565,4,1,0,100,0,0
105243,-95.3462589245597,4,1,0,100,0,0
105308,-93.1012444622227,4,1,0,100,0,0
105373,-90.9090909090912,4,1,0,100,0,0
105504,-90.9090909090912,4,1,0,40,0,0
106416,-96.0216018165715,4,1,0,40,0,8
107460,-101.421628169622,4,1,0,40,0,8
108503,-107.12533915261,4,1,0,40,0,8
109547,-113.149813266349,4,1,0,40,0,8
110590,-119.513089465888,4,1,0,40,0,8
111634,-126.23422117418,4,1,0,40,0,8
112678,-133.333333333333,4,1,0,40,0,8
113450,-181.818181818181,4,1,0,70,0,8
113721,-125,4,1,0,80,0,8
117634,-153.846153846154,4,1,0,80,0,8
117895,-125,4,1,0,85,0,8
118025,-122.893469699197,4,1,0,85,0,8
118155,-120.822439157659,4,1,0,85,0,8
118286,-118.786310124839,4,1,0,85,0,8
118416,-116.78449443205,4,1,0,85,0,8
118547,-114.816413822569,4,1,0,85,0,8
118677,-112.881499784595,4,1,0,85,0,8
118808,-110.979193387024,4,1,0,85,0,8
118938,-109.108945117996,4,1,0,85,0,8
119068,-107.270214726158,4,1,0,85,0,8
119199,-105.462471064604,4,1,0,85,0,8
119329,-103.685191937442,4,1,0,85,0,8
119460,-101.937863948956,4,1,0,85,0,8
119590,-100.219982355295,4,1,0,85,0,8
119721,-98.5310509186756,4,1,0,85,0,8
119851,-96.8705817640342,4,1,0,85,0,8
119982,-95.2380952380952,4,1,0,90,0,8
120047,-93.9752679324846,4,1,0,90,0,8
120112,-92.7291853213139,4,1,0,90,0,8
120177,-91.4996253751806,4,1,0,90,0,8
120243,-90.286369008723,4,1,0,90,0,8
120308,-89.0892000415821,4,1,0,90,0,8
120373,-87.9079051598832,4,1,0,90,0,8
120438,-86.7422738782265,4,1,0,90,0,8
120504,-85.5920985021826,4,1,0,90,0,8
120569,-84.4571740912854,4,1,0,90,0,8
120634,-83.3372984225149,4,1,0,90,0,8
120699,-82.2322719542653,4,1,0,90,0,8
120765,-81.1418977907897,4,1,0,90,0,8
120830,-80.0659816471174,4,1,0,90,0,8
120895,-79.0043318144351,4,1,0,90,0,8
120960,-77.9567591259288,4,1,0,90,0,8
121026,-76.9230769230769,4,1,0,90,0,8
121808,-117.647058823529,4,1,0,70,0,8
121873,-115.426770919281,4,1,0,70,0,8
121938,-113.248385281244,4,1,0,70,0,8
122004,-111.111111111111,4,1,0,70,0,8
122069,-80,4,1,0,100,0,9
122134,-81.5674611269462,4,1,0,100,0,9
122199,-83.1656339336984,4,1,0,100,0,9
122264,-84.7951201623097,4,1,0,100,0,9
122329,-86.4565333449241,4,1,0,100,0,9
122395,-88.1504990347827,4,1,0,100,0,9
122460,-89.8776550417568,4,1,0,100,0,9
122525,-91.6386516724947,4,1,0,100,0,9
122590,-93.4341519752746,4,1,0,100,0,9
122655,-95.2648319896549,4,1,0,100,0,9
122721,-97.1313810010154,4,1,0,100,0,9
122786,-99.0345018000865,4,1,0,100,0,9
122851,-100.974910947563,4,1,0,100,0,9
122916,-102.953339043902,4,1,0,100,0,9
122982,-104.97053100441,4,1,0,100,0,9
123047,-107.027246339714,4,1,0,100,0,9
123112,-109.124259441734,4,1,0,100,0,9
123177,-111.262359875255,4,1,0,100,0,9
123242,-113.442352675215,4,1,0,100,0,9
123308,-115.665058649811,4,1,0,100,0,9
123373,-117.931314689555,4,1,0,100,0,9
123438,-120.241974082374,4,1,0,100,0,9
123503,-122.597906834892,4,1,0,100,0,9
123569,-125,4,1,0,100,0,9
123634,-111.111111111111,4,1,0,100,0,1
123678,-108.636390615462,4,1,0,100,0,1
123721,-106.271176184768,4,1,0,100,0,1
123765,-103.904253064557,4,1,0,100,0,1
123830,-100.503781525921,4,1,0,100,0,1
123895,-97.2145971227411,4,1,0,100,0,1
124026,-90.909090909091,4,1,0,100,0,1
124156,-80,4,1,0,100,0,1
124286,-82.7838148469506,4,1,0,100,0,1
124352,-84.2340016132195,4,1,0,100,0,1
124482,-87.1651499170812,4,1,0,100,0,1
124547,-88.4955752212389,4,1,0,100,0,1
124678,-91.7783672341493,4,1,0,100,0,1
124743,-93.3615496215128,4,1,0,100,0,1
124808,-94.9720420008406,4,1,0,100,0,1
124873,-96.6103154711463,4,1,0,100,0,1
124939,-98.3027115178898,4,1,0,100,0,1
125004,-99.9984392388695,4,1,0,100,0,1
125069,-101.723418365627,4,1,0,100,0,1
125199,-105.263157894737,4,1,0,100,0,1
125232,-104.599248299894,4,1,0,100,0,1
125330,-102.652217971189,4,1,0,100,0,1
125460,-100.125234864352,4,1,0,100,0,1
125591,-97.6417356202629,4,1,0,100,0,1
125721,-95.2380952380951,4,1,0,100,0,1
125852,-86.9565217391304,4,1,0,100,0,1
125917,-88.3414520732172,4,1,0,100,0,1
125982,-89.7484397756514,4,1,0,100,0,1
126113,-92.6525187467538,4,1,0,100,0,1
126178,-94.1281675097856,4,1,0,100,0,1
126243,-66.6666666666667,4,1,0,100,0,0
126765,-108.565570427258,4,1,0,100,0,0
126895,-112.0512914308,4,1,0,100,0,0
127026,-115.67704581653,4,1,0,100,0,0
127156,-66.6666666666667,4,1,0,100,0,0
127286,-123.224392123176,4,1,0,100,0,0
127417,-127.211685571244,4,1,0,100,0,0
127547,-131.296078464374,4,1,0,100,0,0
127678,-135.544555445252,4,1,0,100,0,0
127808,-66.6666666666667,4,1,0,100,0,0
128069,-149.060267285383,4,1,0,100,0,0
128199,-153.846153846154,4,1,0,100,0,0
128330,-111.111111111111,4,1,0,100,0,8
128395,-109.131172061695,4,1,0,100,0,8
128460,-107.186514440034,4,1,0,100,0,8
128525,-105.276509550439,4,1,0,100,0,8
128590,-103.400539900233,4,1,0,100,0,8
128655,-101.557999000121,4,1,0,100,0,8
128721,-99.7482911681134,4,1,0,100,0,8
128786,-97.9708313369473,4,1,0,100,0,8
128851,-96.2250448649376,4,1,0,100,0,8
128916,-94.5103673501988,4,1,0,100,0,8
128981,-92.8262444481773,4,1,0,100,0,8
129047,-91.1721316924354,4,1,0,100,0,8
129112,-89.5474943186285,4,1,0,100,0,8
129177,-87.9518070916195,4,1,0,100,0,8
129242,-86.3845541356731,4,1,0,100,0,8
129307,-84.8452287676769,4,1,0,100,0,8
129373,-76.9230769230769,4,1,0,100,0,0
129417,-77.7783736783625,4,1,0,100,0,0
129460,-78.6234192764324,4,1,0,100,0,0
129504,-79.4976218965881,4,1,0,100,0,0
129569,-80.8068749401131,4,1,0,100,0,0
129634,-82.1376901824955,4,1,0,100,0,0
129699,-83.4904227334079,4,1,0,100,0,0
129765,-84.8867634886326,4,1,0,100,0,0
129830,-86.2847707598067,4,1,0,100,0,0
129895,-87.705801930703,4,1,0,100,0,0
130026,-90.6412348403123,4,1,0,100,0,0
130069,-91.6260327074182,4,1,0,100,0,0
130113,-92.6448095375848,4,1,0,100,0,0
130156,-93.6513758204882,4,1,0,100,0,0
130221,-95.1937282317695,4,1,0,100,0,0
130286,-96.7614817750663,4,1,0,100,0,0
130352,-98.3797751806443,4,1,0,100,0,0
130417,-100,4,1,0,100,0,1
130547,-83.3333333333333,4,1,0,100,0,9
130612,-85.0634414976555,4,1,0,100,0,9
130677,-86.8294689531007,4,1,0,100,0,9
130742,-88.6321614307749,4,1,0,100,0,9
130807,-90.4722801441298,4,1,0,100,0,9
130873,-92.3506021103962,4,1,0,100,0,9
130938,-94.2679204786914,4,1,0,100,0,9
131003,-96.2250448649376,4,1,0,100,0,9
131068,-98.2228016937348,4,1,0,100,0,9
131133,-100.26203454733,4,1,0,100,0,9
131199,-102.343604521833,4,1,0,100,0,9
131264,-104.468390590825,4,1,0,100,0,9
131329,-106.637289976523,4,1,0,100,0,9
131394,-108.851218528637,4,1,0,100,0,9
131460,-111.111111111111,4,1,0,100,0,1
131526,-109.247497810924,4,1,0,100,0,1
131591,-107.442674356063,4,1,0,100,0,1
131656,-105.667667489851,4,1,0,100,0,1
131721,-103.921984627291,4,1,0,100,0,1
131786,-102.205141321134,4,1,0,100,0,1
131852,-100.490903574712,4,1,0,100,0,1
131917,-98.8307434483382,4,1,0,100,0,1
131982,-97.198009999874,4,1,0,100,0,1
132047,-95.5922501268445,4,1,0,100,0,1
132113,-93.9889272282643,4,1,0,100,0,1
132243,-84.7457627118644,4,1,0,100,0,1
132504,-80,4,1,0,100,0,1
132569,-81.2810650203079,4,1,0,100,0,1
132634,-82.5826441354428,4,1,0,100,0,1
132699,-83.9050658440222,4,1,0,100,0,1
132765,-85.2695018178694,4,1,0,100,0,1
132830,-86.6349490188425,4,1,0,100,0,1
132895,-88.0222615528937,4,1,0,100,0,1
132960,-89.43178955644,4,1,0,100,0,1
133026,-90.886099253344,4,1,0,100,0,1
133156,-93.8201798937167,4,1,0,100,0,1
133221,-95.3225517769764,4,1,0,100,0,1
133286,-96.8489816110747,4,1,0,100,0,1
133352,-98.4239071916851,4,1,0,100,0,1
133417,-100.000000000001,4,1,0,100,0,1
133482,-101.601331275385,4,1,0,100,0,1
133547,-103.228305169303,4,1,0,100,0,1
133678,-106.586877272337,4,1,0,100,0,1
133808,-110.027826941117,4,1,0,100,0,1
133873,-111.789736945551,4,1,0,100,0,1
133939,-113.60762406668,4,1,0,100,0,1
134004,-115.42685848208,4,1,0,100,0,1
134069,-117.275224867146,4,1,0,100,0,1
134134,-119.15318972122,4,1,0,100,0,1
134199,-121.061227013843,4,1,0,100,0,1
134330,-100,4,1,0,100,0,1
134363,-98.8021606655334,4,1,0,100,0,1
134460,-95.3636694585769,4,1,0,100,0,1
134493,-94.2213659150107,4,1,0,100,0,1
134591,-90.9090909090912,4,1,0,100,0,1
135113,-80,4,1,0,100,0,1
135178,-81.6851348154999,4,1,0,100,0,1
135243,-83.4057656228298,4,1,0,100,0,1
135308,-85.1626401161355,4,1,0,100,0,1
135373,-86.9565217391303,4,1,0,100,0,1
135504,-85.4700854700855,4,1,0,100,0,1
135569,-86.9955715634916,4,1,0,100,0,1
135634,-88.5482848184061,4,1,0,100,0,1
135699,-90.1287111903065,4,1,0,100,0,1
135765,-91.76231647634,4,1,0,100,0,1
135830,-93.4001074872363,4,1,0,100,0,1
135895,-95.067130098841,4,1,0,100,0,1
135960,-96.7639060422397,4,1,0,100,0,1
136026,-98.5177758837158,4,1,0,100,0,1
136091,-100.276139599364,4,1,0,100,0,1
136156,-102.065886919939,4,1,0,100,0,1
136221,-103.887577985897,4,1,0,100,0,1
136286,-105.741782935191,4,1,0,100,0,1
136417,-109.579885938733,4,1,0,100,0,1
136547,-113.526398120515,4,1,0,100,0,1
136678,-90.9090909090909,4,1,0,100,0,1
136743,-92.7460877775457,4,1,0,100,0,1
136808,-94.6202047784423,4,1,0,100,0,1
136873,-96.5321919970176,4,1,0,100,0,1
136939,-98.5131300994825,4,1,0,100,0,1
137069,-102.534657977162,4,1,0,100,0,1
137199,-106.720353681552,4,1,0,100,0,1
137330,-100,4,1,0,100,0,1
137373,-101.482534374191,4,1,0,100,0,1
137417,-103.022300634667,4,1,0,100,0,1
137460,-104.549641654658,4,1,0,100,0,1
137526,-106.938098596543,4,1,0,100,0,1
137591,-109.343691598199,4,1,0,100,0,1
137656,-111.803398874989,4,1,0,100,0,1
137721,-114.318437737892,4,1,0,100,0,1
137852,-119.560428923222,4,1,0,100,0,1
137982,-125,4,1,0,100,0,1
138047,-121.116897089678,4,1,0,100,0,1
138113,-117.297460221849,4,1,0,100,0,1
138178,-113.653635348564,4,1,0,100,0,1
138243,-110.123005251038,4,1,0,100,0,1
138308,-106.702053553568,4,1,0,100,0,1
138373,-103.387373116038,4,1,0,100,0,1
138439,-100.127039058316,4,1,0,100,0,1
138504,-97.0166102841614,4,1,0,100,0,1
138569,-94.0028064302104,4,1,0,100,0,1
138634,-91.0826258603881,4,1,0,100,0,1
138699,-88.2531601839231,4,1,0,100,0,1
145026,-88.495575221239,4,1,0,100,0,1
145156,-87.7263901361111,4,1,0,100,0,1
145221,-87.3443083359327,4,1,0,100,0,1
145286,-86.9638906473385,4,1,0,100,0,1
145352,-86.5793156361547,4,1,0,100,0,1
145417,-86.2022297817713,4,1,0,100,0,1
145547,-85.4529779769534,4,1,0,100,0,1
145613,-85.0750845810098,4,1,0,100,0,1
145678,-84.7045502250814,4,1,0,100,0,1
145743,-84.3356296872244,4,1,0,100,0,1
145808,-83.9683159386471,4,1,0,100,0,1
145939,-83.2328913880434,4,1,0,100,0,1
146004,-82.870380484241,4,1,0,100,0,1
146069,-82.5094484533238,4,1,0,100,0,1
146134,-82.1500884186999,4,1,0,100,0,1
146199,-81.7922935337273,4,1,0,100,0,1
146265,-81.4305885551857,4,1,0,100,0,1
146330,-81.0759273658167,4,1,0,100,0,1
146395,-80.7228108608406,4,1,0,100,0,1
146460,-80.3712323125691,4,1,0,100,0,1
146526,-80.0158116047858,4,1,0,100,0,1
146591,-79.6673123072172,4,1,0,100,0,1
146656,-79.3203308566586,4,1,0,100,0,1
146721,-78.9748606423091,4,1,0,100,0,1
146786,-78.6308950821599,4,1,0,100,0,1
146852,-78.2831705595964,4,1,0,100,0,1
146884,-78.1151307956412,4,1,0,100,0,1
146982,-77.6027495661124,4,1,0,100,0,1
147015,-77.4309705344933,4,1,0,100,0,1
147113,-58.8235294117647,4,1,0,100,0,0

[HitObjects]
56,157,5201,5,12,0:0:0:0:
292,187,13547,5,0,0:0:0:0:
305,190,13743,1,8,0:0:0:0:
292,187,13808,1,0,0:0:0:0:
305,190,13939,1,0,0:0:0:0:
292,187,14069,1,8,0:0:0:0:
292,187,14330,1,0,0:0:0:0:
292,187,14591,5,0,0:0:0:0:
305,190,14786,1,8,0:0:0:0:
292,187,14852,1,0,0:0:0:0:
305,190,14982,1,0,0:0:0:0:
292,187,15113,1,8,0:0:0:0:
292,187,15373,1,0,0:0:0:0:
292,187,15634,5,0,0:0:0:0:
305,190,15830,1,8,0:0:0:0:
292,187,15895,1,0,0:0:0:0:
305,190,16026,1,0,0:0:0:0:
292,187,16156,1,8,0:0:0:0:
292,187,16417,1,0,0:0:0:0:
193,187,16678,1,0,0:0:0:0:
193,187,16873,1,0,0:0:0:0:
193,187,16939,1,0,0:0:0:0:
193,187,17069,1,0,0:0:0:0:
193,187,17199,1,8,0:0:0:0:
237,110,17460,1,0,0:0:0:0:
292,187,17721,5,0,0:0:0:0:
305,190,17917,1,8,0:0:0:0:
292,187,17982,1,0,0:0:0:0:
305,190,18113,1,0,0:0:0:0:
292,187,18243,1,8,0:0:0:0:
292,187,18504,1,0,0:0:0:0:
292,187,18765,5,0,0:0:0:0:
305,190,18960,1,8,0:0:0:0:
292,187,19026,1,0,0:0:0:0:
305,190,19156,1,0,0:0:0:0:
292,187,19286,1,8,0:0:0:0:
292,187,19547,1,0,0:0:0:0:
292,187,19808,5,0,0:0:0:0:
305,190,20004,1,8,0:0:0:0:
292,187,20069,1,0,0:0:0:0:
305,190,20199,1,0,0:0:0:0:
292,187,20330,1,8,0:0:0:0:
292,187,20591,1,0,0:0:0:0:
193,187,20852,1,0,0:0:0:0:
138,114,21113,1,0,0:0:0:0:
138,114,21373,1,8,0:0:0:0:
138,114,21634,1,0,0:0:0:0:
127,135,21895,1,8,0:0:0:0:
127,135,22026,1,8,0:0:0:0:
127,135,22156,1,0,0:0:0:0:
127,135,22286,1,8,0:0:0:0:
127,135,22417,1,0,0:0:0:0:
127,135,22547,1,0,0:0:0:0:
127,135,22678,1,8,0:0:0:0:
206,165,22710,1,8,0:0:0:0:
127,135,22808,1,0,0:0:0:0:
229,149,22939,1,0,0:0:0:0:
229,149,23069,1,0,0:0:0:0:
224,153,23199,1,8,0:0:0:0:
224,153,23232,1,8,0:0:0:0:
219,150,23330,1,0,0:0:0:0:
217,152,23460,1,0,0:0:0:0:
237,153,23591,1,0,0:0:0:0:
276,152,23623,1,8,0:0:0:0:
186,155,23721,1,8,0:0:0:0:
142,130,23786,1,8,0:0:0:0:
142,130,23852,1,8,0:0:0:0:
142,130,23917,1,8,0:0:0:0:
142,130,23982,1,0,0:0:0:0:
237,159,24113,1,0,0:0:0:0:
237,159,24243,1,0,0:0:0:0:
237,159,24373,1,0,0:0:0:0:
237,159,24504,1,8,0:0:0:0:
237,159,24634,1,8,0:0:0:0:
237,159,24699,1,8,0:0:0:0:
237,159,24765,1,8,0:0:0:0:
237,159,24895,1,8,0:0:0:0:
237,159,25026,1,0,0:0:0:0:
237,159,25156,1,0,0:0:0:0:
237,159,25286,1,8,0:0:0:0:
143,138,25319,1,8,0:0:0:0:
241,153,25417,1,0,0:0:0:0:
241,152,25547,1,0,0:0:0:0:
241,152,25678,1,0,0:0:0:0:
317,175,25710,1,8,0:0:0:0:
241,152,25808,1,8,0:0:0:0:
241,152,25873,1,8,0:0:0:0:
241,152,25939,1,8,0:0:0:0:
241,152,26004,1,8,0:0:0:0:
241,152,26069,1,0,0:0:0:0:
232,148,26199,1,0,0:0:0:0:
232,148,26330,1,8,0:0:0:0:
231,147,26460,1,8,0:0:0:0:
231,147,26526,1,8,0:0:0:0:
231,147,26591,1,8,0:0:0:0:
227,147,26721,1,8,0:0:0:0:
231,147,26786,1,8,0:0:0:0:
231,147,26852,1,8,0:0:0:0:
269,189,26982,1,8,0:0:0:0:
269,189,27047,1,8,0:0:0:0:
269,189,27113,1,0,0:0:0:0:
269,189,27243,1,0,0:0:0:0:
279,214,27276,1,8,0:0:0:0:
262,189,27373,1,8,0:0:0:0:
262,189,27439,1,8,0:0:0:0:
262,189,27504,1,8,0:0:0:0:
262,189,27569,1,8,0:0:0:0:
262,189,27634,1,0,0:0:0:0:
261,186,27765,1,0,0:0:0:0:
261,186,27895,1,0,0:0:0:0:
261,186,28026,1,0,0:0:0:0:
260,184,28156,1,8,0:0:0:0:
262,189,28286,1,8,0:0:0:0:
262,189,28352,1,8,0:0:0:0:
262,189,28417,1,8,0:0:0:0:
262,189,28547,1,8,0:0:0:0:
261,186,28678,1,0,0:0:0:0:
90,194,28808,1,0,0:0:0:0:
261,186,28939,1,8,0:0:0:0:
90,194,29004,1,8,0:0:0:0:
261,186,29069,1,0,0:0:0:0:
251,184,29199,1,8,0:0:0:0:
90,194,29265,1,8,0:0:0:0:
251,184,29330,1,0,0:0:0:0:
251,184,29460,1,8,0:0:0:0:
251,184,29591,1,0,0:0:0:0:
252,182,29656,1,0,0:0:0:0:
252,182,29721,1,8,0:0:0:0:
52,147,29786,1,8,0:0:0:0:
252,182,29852,1,0,0:0:0:0:
252,182,29982,1,8,0:0:0:0:
251,184,30113,1,8,0:0:0:0:
149,153,30243,1,4,0:0:0:0:
141,149,30373,1,8,0:0:0:0:
141,149,30504,1,0,0:0:0:0:
141,149,30634,1,8,0:0:0:0:
141,149,30765,1,0,0:0:0:0:
141,149,30895,1,8,0:0:0:0:
136,150,31026,1,0,0:0:0:0:
136,150,31156,1,8,0:0:0:0:
161,139,31286,1,0,0:0:0:0:
141,149,31417,1,8,0:0:0:0:
141,149,31547,1,0,0:0:0:0:
141,149,31678,1,8,0:0:0:0:
141,149,31808,1,0,0:0:0:0:
141,149,31939,1,8,0:0:0:0:
136,150,32069,1,0,0:0:0:0:
136,150,32199,1,8,0:0:0:0:
161,139,32330,1,0,0:0:0:0:
141,149,32460,1,8,0:0:0:0:
141,149,32591,1,0,0:0:0:0:
141,149,32721,1,8,0:0:0:0:
141,149,32852,1,0,0:0:0:0:
141,149,32982,1,8,0:0:0:0:
136,150,33113,1,0,0:0:0:0:
136,150,33243,1,8,0:0:0:0:
161,139,33373,1,0,0:0:0:0:
141,149,33504,1,8,0:0:0:0:
141,149,33634,1,0,0:0:0:0:
141,149,33765,1,8,0:0:0:0:
141,149,33895,1,0,0:0:0:0:
141,149,34026,1,8,0:0:0:0:
136,150,34156,1,0,0:0:0:0:
136,150,34286,1,8,0:0:0:0:
161,139,34417,1,0,0:0:0:0:
141,149,34547,1,8,0:0:0:0:
141,149,34678,1,8,0:0:0:0:
141,149,34808,1,8,0:0:0:0:
141,149,34939,1,0,0:0:0:0:
141,149,35069,1,8,0:0:0:0:
136,150,35199,1,8,0:0:0:0:
136,150,35330,1,8,0:0:0:0:
161,139,35460,1,0,0:0:0:0:
141,149,35591,1,8,0:0:0:0:
141,149,35721,1,8,0:0:0:0:
141,149,35852,1,8,0:0:0:0:
141,149,35982,1,0,0:0:0:0:
141,149,36113,1,8,0:0:0:0:
136,150,36243,1,8,0:0:0:0:
136,150,36373,1,8,0:0:0:0:
304,95,36504,1,0,0:0:0:0:
304,95,36634,1,8,0:0:0:0:
304,95,36765,1,0,0:0:0:0:
304,95,36895,1,0,0:0:0:0:
304,95,37026,1,8,0:0:0:0:
304,95,37156,1,0,0:0:0:0:
304,95,37286,1,8,0:0:0:0:
304,95,37417,1,8,0:0:0:0:
243,113,37547,1,0,0:0:0:0:
243,113,37613,1,8,0:0:0:0:
238,113,37678,1,0,0:0:0:0:
243,113,37743,1,0,0:0:0:0:
243,113,37808,1,8,0:0:0:0:
243,113,37873,1,0,0:0:0:0:
228,101,37939,1,8,0:0:0:0:
228,101,38004,1,8,0:0:0:0:
222,97,38069,1,0,0:0:0:0:
222,97,38199,1,0,0:0:0:0:
222,97,38330,1,8,0:0:0:0:
222,97,38460,1,8,0:0:0:0:
56,226,38591,1,0,0:0:0:0:
56,226,38656,1,0,0:0:0:0:
56,226,38721,1,0,0:0:0:0:
56,226,38786,1,0,0:0:0:0:
56,226,38852,1,12,0:0:0:0:
62,230,39113,1,8,0:0:0:0:
62,230,39178,1,8,0:0:0:0:
62,230,39243,1,0,0:0:0:0:
62,230,39308,1,8,0:0:0:0:
62,230,39373,1,8,0:0:0:0:
221,144,39439,1,8,0:0:0:0:
121,178,39504,1,4,0:0:0:0:
110,284,39895,1,8,0:0:0:0:
110,284,39960,1,0,0:0:0:0:
110,284,40026,1,8,0:0:0:0:
110,284,40091,1,8,0:0:0:0:
178,170,40156,1,0,0:0:0:0:
178,170,40199,1,8,0:0:0:0:
82,138,40243,1,8,0:0:0:0:
82,138,40286,1,0,0:0:0:0:
254,208,40417,1,0,0:0:0:0:
254,208,40547,1,8,0:0:0:0:
254,208,40613,1,8,0:0:0:0:
153,296,40678,1,0,0:0:0:0:
153,296,40743,1,8,0:0:0:0:
153,296,40808,1,8,0:0:0:0:
153,296,40873,1,0,0:0:0:0:
153,296,40939,1,8,0:0:0:0:
153,296,41004,1,8,0:0:0:0:
153,296,41069,1,0,0:0:0:0:
211,227,41199,1,8,0:0:0:0:
219,152,41330,5,0,0:0:0:0:
226,151,41460,5,8,0:0:0:0:
226,151,41493,1,8,0:0:0:0:
226,151,41591,1,0,0:0:0:0:
226,151,41623,1,0,0:0:0:0:
103,145,41721,1,12,0:0:0:0:
103,145,41982,1,12,0:0:0:0:
103,145,42113,1,12,0:0:0:0:
106,165,42243,1,4,0:0:0:0:
143,248,42373,1,0,0:0:0:0:
143,248,42504,1,8,0:0:0:0:
143,248,42634,1,8,0:0:0:0:
184,184,42765,1,4,0:0:0:0:
173,214,43026,1,12,0:0:0:0:
148,201,43286,1,0,0:0:0:0:
148,201,43319,1,0,0:0:0:0:
148,201,43417,1,8,0:0:0:0:
148,201,43449,1,8,0:0:0:0:
148,201,43547,1,0,0:0:0:0:
146,177,43678,1,12,0:0:0:0:
150,215,43939,1,8,0:0:0:0:
69,148,44069,1,8,0:0:0:0:
69,148,44113,1,8,0:0:0:0:
69,148,44156,1,8,0:0:0:0:
69,148,44199,1,0,0:0:0:0:
167,181,44330,1,4,0:0:0:0:
164,179,44591,1,4,0:0:0:0:
181,244,44852,1,0,0:0:0:0:
181,244,44917,1,8,0:0:0:0:
181,244,44982,1,0,0:0:0:0:
181,244,45047,1,0,0:0:0:0:
181,244,45113,1,8,0:0:0:0:
166,243,45178,1,8,0:0:0:0:
181,232,45243,1,0,0:0:0:0:
181,244,45308,1,8,0:0:0:0:
181,221,45373,1,0,0:0:0:0:
181,221,45439,1,0,0:0:0:0:
181,221,45504,1,8,0:0:0:0:
181,221,45634,1,0,0:0:0:0:
178,212,45699,1,0,0:0:0:0:
178,212,45765,1,8,0:0:0:0:
163,180,45830,1,8,0:0:0:0:
178,212,45895,1,0,0:0:0:0:
53,151,45939,1,0,0:0:0:0:
53,151,45982,1,0,0:0:0:0:
53,151,46026,1,8,0:0:0:0:
163,180,46091,1,8,0:0:0:0:
219,127,46156,1,0,0:0:0:0:
172,141,46221,1,0,0:0:0:0:
312,241,46286,1,8,0:0:0:0:
312,241,46352,1,8,0:0:0:0:
304,247,46417,1,0,0:0:0:0:
256,157,46547,1,8,0:0:0:0:
256,157,46591,1,8,0:0:0:0:
256,157,46634,1,8,0:0:0:0:
256,157,46678,1,0,0:0:0:0:
257,185,46743,1,0,0:0:0:0:
257,185,46808,1,8,0:0:0:0:
127,185,46939,1,4,0:0:0:0:
95,180,47460,1,0,0:0:0:0:
95,180,47526,1,0,0:0:0:0:
95,180,47591,1,8,0:0:0:0:
95,180,47656,1,8,0:0:0:0:
95,180,47721,1,8,0:0:0:0:
95,180,47852,1,4,0:0:0:0:
203,168,48243,1,8,0:0:0:0:
203,168,48308,1,0,0:0:0:0:
203,168,48373,1,8,0:0:0:0:
171,174,48504,1,4,0:0:0:0:
171,174,48765,1,4,0:0:0:0:
277,143,49026,1,0,0:0:0:0:
277,143,49156,1,0,0:0:0:0:
277,143,49286,1,8,0:0:0:0:
281,145,49352,1,8,0:0:0:0:
277,143,49417,1,8,0:0:0:0:
281,145,49482,1,8,0:0:0:0:
277,143,49547,1,4,0:0:0:0:
34,212,49808,1,8,0:0:0:0:
34,212,49873,1,8,0:0:0:0:
34,212,49939,1,8,0:0:0:0:
34,212,50004,1,8,0:0:0:0:
31,217,50069,1,4,0:0:0:0:
171,212,50330,1,8,0:0:0:0:
177,211,50395,1,8,0:0:0:0:
177,211,50460,1,8,0:0:0:0:
177,211,50526,1,8,0:0:0:0:
177,211,50591,1,0,0:0:0:0:
177,211,50852,1,8,0:0:0:0:
171,212,51113,1,4,0:0:0:0:
177,211,51634,1,0,0:0:0:0:
177,211,51667,1,0,0:0:0:0:
177,211,51765,1,8,0:0:0:0:
177,211,51797,1,8,0:0:0:0:
177,213,51895,1,0,0:0:0:0:
121,153,52026,1,12,0:0:0:0:
131,225,52286,1,8,0:0:0:0:
131,225,52417,1,0,0:0:0:0:
131,225,52482,1,0,0:0:0:0:
131,225,52547,1,0,0:0:0:0:
131,225,52613,1,0,0:0:0:0:
131,225,52678,1,12,0:0:0:0:
131,225,52939,1,12,0:0:0:0:
125,222,53199,1,8,0:0:0:0:
125,222,53265,1,0,0:0:0:0:
113,222,53330,1,0,0:0:0:0:
125,222,53395,1,8,0:0:0:0:
102,221,53460,1,0,0:0:0:0:
103,221,53526,1,0,0:0:0:0:
102,221,53591,1,8,0:0:0:0:
98,191,53656,1,0,0:0:0:0:
98,191,53721,1,8,0:0:0:0:
98,191,53786,1,8,0:0:0:0:
98,191,53852,1,0,0:0:0:0:
98,191,53982,1,8,0:0:0:0:
93,157,54113,1,8,0:0:0:0:
253,240,54243,1,8,0:0:0:0:
134,139,54308,1,8,0:0:0:0:
134,139,54373,1,0,0:0:0:0:
253,240,54439,1,0,0:0:0:0:
253,240,54504,1,8,0:0:0:0:
134,139,54569,1,0,0:0:0:0:
253,240,54634,1,0,0:0:0:0:
134,139,54699,1,0,0:0:0:0:
253,240,54765,1,8,0:0:0:0:
253,240,54830,1,0,0:0:0:0:
253,240,54895,1,8,0:0:0:0:
253,240,54960,1,8,0:0:0:0:
253,240,55026,1,0,0:0:0:0:
235,229,55091,1,8,0:0:0:0:
253,240,55156,1,0,0:0:0:0:
226,228,55221,1,0,0:0:0:0:
226,228,55286,1,8,0:0:0:0:
256,192,61417,12,0,63113,0:0:0:0:
121,177,63373,5,8,0:0:0:0:
309,147,63634,5,0,0:0:0:0:
309,147,63895,1,8,0:0:0:0:
309,147,64026,1,0,0:0:0:0:
309,147,64156,1,8,0:0:0:0:
309,147,64417,1,0,0:0:0:0:
309,147,64547,1,0,0:0:0:0:
309,147,64678,1,8,0:0:0:0:
309,147,64939,1,8,0:0:0:0:
309,147,65199,1,0,0:0:0:0:
309,147,65460,1,8,0:0:0:0:
309,147,65721,1,0,0:0:0:0:
309,147,65852,1,8,0:0:0:0:
309,147,65982,1,0,0:0:0:0:
309,147,66113,1,8,0:0:0:0:
309,147,66243,1,0,0:0:0:0:
309,147,66373,1,8,0:0:0:0:
309,147,66504,1,0,0:0:0:0:
309,147,66765,1,0,0:0:0:0:
309,147,66895,1,8,0:0:0:0:
309,147,67026,1,0,0:0:0:0:
309,147,67156,1,8,0:0:0:0:
309,147,67286,1,0,0:0:0:0:
309,147,67547,1,8,0:0:0:0:
309,147,67808,1,0,0:0:0:0:
309,147,67939,1,8,0:0:0:0:
309,147,68069,1,0,0:0:0:0:
309,147,68330,1,0,0:0:0:0:
309,147,68460,1,8,0:0:0:0:
309,147,68591,1,0,0:0:0:0:
309,147,68852,1,0,0:0:0:0:
309,147,68982,1,8,0:0:0:0:
309,147,69113,1,0,0:0:0:0:
309,147,69373,1,0,0:0:0:0:
309,147,69504,1,8,0:0:0:0:
309,147,69634,1,0,0:0:0:0:
309,147,69895,1,0,0:0:0:0:
309,147,70026,1,8,0:0:0:0:
309,147,70156,1,0,0:0:0:0:
309,147,70286,1,8,0:0:0:0:
309,147,70417,1,0,0:0:0:0:
309,147,70547,1,8,0:0:0:0:
309,147,70678,1,0,0:0:0:0:
309,147,70939,1,0,0:0:0:0:
309,147,71069,1,8,0:0:0:0:
309,147,71199,1,0,0:0:0:0:
309,147,71330,1,8,0:0:0:0:
309,147,71460,1,0,0:0:0:0:
309,147,71591,1,0,0:0:0:0:
309,147,71721,1,8,0:0:0:0:
238,32,71852,1,8,0:0:0:0:
309,147,71982,1,8,0:0:0:0:
239,49,72113,1,0,0:0:0:0:
181,112,72178,1,0,0:0:0:0:
274,48,72243,1,8,0:0:0:0:
274,48,72373,1,0,0:0:0:0:
218,132,72504,1,8,0:0:0:0:
218,132,72569,1,8,0:0:0:0:
218,132,72634,1,0,0:0:0:0:
218,132,72699,1,0,0:0:0:0:
218,132,72765,1,8,0:0:0:0:
218,132,72895,1,0,0:0:0:0:
218,132,73026,1,8,0:0:0:0:
141,224,73156,1,0,0:0:0:0:
141,224,73221,1,0,0:0:0:0:
141,224,73286,1,8,0:0:0:0:
141,224,73417,1,0,0:0:0:0:
145,226,73547,1,8,0:0:0:0:
145,226,73613,1,0,0:0:0:0:
145,226,73678,1,0,0:0:0:0:
145,226,73743,1,0,0:0:0:0:
145,226,73808,1,8,0:0:0:0:
145,226,73939,1,0,0:0:0:0:
145,226,74069,1,8,0:0:0:0:
145,226,74199,1,0,0:0:0:0:
145,226,74265,1,0,0:0:0:0:
145,226,74330,1,0,0:0:0:0:
145,226,74460,1,8,0:0:0:0:
145,226,74591,1,0,0:0:0:0:
145,226,74656,1,8,0:0:0:0:
145,226,74721,1,0,0:0:0:0:
145,226,74786,1,0,0:0:0:0:
145,226,74852,1,8,0:0:0:0:
145,226,74982,1,0,0:0:0:0:
145,226,75113,1,8,0:0:0:0:
145,226,75243,1,0,0:0:0:0:
145,226,75308,1,0,0:0:0:0:
145,226,75373,1,8,0:0:0:0:
145,226,75504,1,8,0:0:0:0:
145,226,75634,1,0,0:0:0:0:
125,164,75895,1,8,0:0:0:0:
125,182,76156,1,0,0:0:0:0:
125,182,76286,1,0,0:0:0:0:
125,182,76417,1,8,0:0:0:0:
125,182,76547,1,0,0:0:0:0:
125,182,76613,1,0,0:0:0:0:
125,182,76678,1,8,0:0:0:0:
125,182,76743,1,0,0:0:0:0:
125,182,76808,1,0,0:0:0:0:
125,182,76939,1,8,0:0:0:0:
125,182,77069,1,0,0:0:0:0:
125,182,77199,1,0,0:0:0:0:
125,182,77330,1,0,0:0:0:0:
125,182,77460,1,8,0:0:0:0:
125,182,77591,1,0,0:0:0:0:
125,182,77656,1,0,0:0:0:0:
125,182,77721,1,8,0:0:0:0:
125,182,77786,1,8,0:0:0:0:
125,182,77852,1,0,0:0:0:0:
125,182,77982,1,8,0:0:0:0:
125,182,78113,1,0,0:0:0:0:
125,182,78243,1,8,0:0:0:0:
125,182,78373,1,0,0:0:0:0:
75,176,78504,1,0,0:0:0:0:
75,176,78634,1,8,0:0:0:0:
75,176,78699,1,8,0:0:0:0:
75,176,78765,1,0,0:0:0:0:
75,176,78830,1,0,0:0:0:0:
75,176,78895,1,8,0:0:0:0:
75,176,79026,1,8,0:0:0:0:
136,165,79156,1,0,0:0:0:0:
136,165,79286,1,8,0:0:0:0:
136,165,79417,1,0,0:0:0:0:
101,94,79547,1,0,0:0:0:0:
136,165,79678,1,8,0:0:0:0:
127,100,79808,1,0,0:0:0:0:
172,198,79939,1,0,0:0:0:0:
172,198,80069,1,8,0:0:0:0:
172,198,80199,1,8,0:0:0:0:
218,132,80330,5,8,0:0:0:0:
218,132,80526,1,8,0:0:0:0:
218,132,80721,1,8,0:0:0:0:
218,132,80852,1,8,0:0:0:0:
218,132,81047,1,8,0:0:0:0:
218,132,81243,1,0,0:0:0:0:
218,132,81439,5,0,0:0:0:0:
218,132,81634,1,0,0:0:0:0:
218,132,81765,1,0,0:0:0:0:
218,132,81895,1,0,0:0:0:0:
218,132,82091,1,0,0:0:0:0:
218,132,82286,1,0,0:0:0:0:
183,113,82417,1,8,0:0:0:0:
183,113,82613,1,8,0:0:0:0:
183,113,82808,1,8,0:0:0:0:
201,101,82939,1,0,0:0:0:0:
211,102,83134,1,0,0:0:0:0:
201,101,83330,1,8,0:0:0:0:
201,101,83526,5,8,0:0:0:0:
201,101,83721,1,8,0:0:0:0:
201,101,83852,1,8,0:0:0:0:
201,101,83982,1,8,0:0:0:0:
201,101,84178,1,8,0:0:0:0:
172,131,84373,1,8,0:0:0:0:
164,135,84504,1,0,0:0:0:0:
164,135,84699,1,0,0:0:0:0:
164,135,84895,1,0,0:0:0:0:
164,135,85026,1,8,0:0:0:0:
164,135,85221,1,8,0:0:0:0:
164,135,85417,1,0,0:0:0:0:
164,135,85613,5,0,0:0:0:0:
230,113,85808,1,0,0:0:0:0:
230,113,85939,1,0,0:0:0:0:
230,113,86069,1,0,0:0:0:0:
230,113,86265,1,0,0:0:0:0:
230,113,86460,1,0,0:0:0:0:
227,113,86591,1,8,0:0:0:0:
227,113,86786,1,8,0:0:0:0:
227,113,86982,1,8,0:0:0:0:
227,113,87113,1,8,0:0:0:0:
227,113,87308,1,8,0:0:0:0:
212,133,87504,1,0,0:0:0:0:
212,133,87699,5,0,0:0:0:0:
212,133,87895,1,0,0:0:0:0:
212,133,88026,1,0,0:0:0:0:
212,133,88156,1,0,0:0:0:0:
104,260,88417,1,8,0:0:0:0:
104,260,88547,1,8,0:0:0:0:
99,264,88678,1,4,0:0:0:0:
99,264,88939,1,4,0:0:0:0:
99,264,89199,1,4,0:0:0:0:
99,264,89395,1,4,0:0:0:0:
99,265,89591,1,4,0:0:0:0:
88,261,89852,1,4,0:0:0:0:
88,261,89982,1,4,0:0:0:0:
88,261,90243,1,4,0:0:0:0:
88,260,90439,1,4,0:0:0:0:
88,260,90634,1,4,0:0:0:0:
88,261,90765,1,12,0:0:0:0:
88,261,91026,1,12,0:0:0:0:
114,185,91286,1,12,0:0:0:0:
114,185,91482,1,12,0:0:0:0:
114,185,91678,1,12,0:0:0:0:
114,185,91939,1,12,0:0:0:0:
114,185,92069,1,12,0:0:0:0:
109,189,92330,5,12,0:0:0:0:
107,189,92526,1,12,0:0:0:0:
106,189,92721,1,12,0:0:0:0:
99,199,92852,1,4,0:0:0:0:
99,199,93113,1,4,0:0:0:0:
99,199,93373,1,4,0:0:0:0:
99,199,93569,1,4,0:0:0:0:
99,199,93765,1,4,0:0:0:0:
99,199,94026,1,4,0:0:0:0:
99,199,94156,1,4,0:0:0:0:
99,199,94417,1,4,0:0:0:0:
99,199,94613,1,4,0:0:0:0:
99,199,94808,1,4,0:0:0:0:
58,177,94939,1,12,0:0:0:0:
58,177,95199,1,12,0:0:0:0:
58,177,95460,1,12,0:0:0:0:
58,177,95656,1,12,0:0:0:0:
58,177,95852,1,12,0:0:0:0:
91,192,95982,1,0,0:0:0:0:
91,192,96113,1,0,0:0:0:0:
91,192,96243,1,8,0:0:0:0:
91,192,96308,1,8,0:0:0:0:
91,192,96373,1,8,0:0:0:0:
91,192,96439,1,8,0:0:0:0:
91,192,96504,1,0,0:0:0:0:
91,192,96634,1,8,0:0:0:0:
91,192,96699,1,8,0:0:0:0:
91,192,96765,1,0,0:0:0:0:
91,192,96830,1,8,0:0:0:0:
91,192,96895,1,0,0:0:0:0:
91,192,96960,1,0,0:0:0:0:
91,192,97026,1,8,0:0:0:0:
91,192,97156,1,0,0:0:0:0:
84,193,97221,1,0,0:0:0:0:
83,193,97286,1,8,0:0:0:0:
83,193,97352,1,8,0:0:0:0:
83,193,97417,1,0,0:0:0:0:
83,193,97547,1,8,0:0:0:0:
83,193,97613,1,0,0:0:0:0:
83,193,97678,1,0,0:0:0:0:
83,193,97743,1,8,0:0:0:0:
83,193,97808,1,8,0:0:0:0:
187,149,97873,1,0,0:0:0:0:
83,193,97939,1,8,0:0:0:0:
205,146,98069,1,0,0:0:0:0:
206,146,98134,1,0,0:0:0:0:
158,123,98199,1,8,0:0:0:0:
158,123,98265,1,0,0:0:0:0:
158,123,98330,1,8,0:0:0:0:
158,123,98395,1,8,0:0:0:0:
158,123,98460,1,0,0:0:0:0:
158,123,98526,1,0,0:0:0:0:
158,123,98591,1,8,0:0:0:0:
158,123,98656,1,0,0:0:0:0:
158,123,98721,1,0,0:0:0:0:
148,113,98786,1,0,0:0:0:0:
83,193,98852,1,8,0:0:0:0:
83,193,98884,1,8,0:0:0:0:
83,193,98982,1,0,0:0:0:0:
83,193,99015,1,0,0:0:0:0:
179,173,99113,1,8,0:0:0:0:
186,171,99178,1,8,0:0:0:0:
179,173,99243,1,8,0:0:0:0:
179,173,99308,1,8,0:0:0:0:
186,171,99373,1,0,0:0:0:0:
186,171,99439,1,0,0:0:0:0:
179,162,99504,1,8,0:0:0:0:
179,162,99569,1,8,0:0:0:0:
179,162,99634,1,0,0:0:0:0:
179,162,99699,1,8,0:0:0:0:
179,162,99765,1,8,0:0:0:0:
179,162,99830,1,0,0:0:0:0:
179,162,99895,1,8,0:0:0:0:
315,135,99960,1,8,0:0:0:0:
315,135,100026,1,0,0:0:0:0:
315,135,100091,1,8,0:0:0:0:
175,159,100156,1,0,0:0:0:0:
175,159,100286,1,8,0:0:0:0:
175,159,100417,1,8,0:0:0:0:
172,155,100547,1,0,0:0:0:0:
172,155,100613,1,0,0:0:0:0:
172,155,100678,1,8,0:0:0:0:
116,176,100873,1,8,0:0:0:0:
130,140,100939,1,0,0:0:0:0:
116,176,101069,1,8,0:0:0:0:
252,194,101199,1,0,0:0:0:0:
252,194,101330,1,8,0:0:0:0:
252,194,101395,1,8,0:0:0:0:
252,194,101460,1,0,0:0:0:0:
252,194,101591,1,8,0:0:0:0:
251,188,101721,1,0,0:0:0:0:
251,188,101786,1,8,0:0:0:0:
251,188,101852,1,8,0:0:0:0:
251,188,101917,1,0,0:0:0:0:
251,188,101982,1,8,0:0:0:0:
251,188,102047,1,8,0:0:0:0:
251,188,102113,1,0,0:0:0:0:
231,170,102243,1,8,0:0:0:0:
246,183,102308,1,8,0:0:0:0:
231,170,102373,1,0,0:0:0:0:
246,183,102439,1,8,0:0:0:0:
246,183,102504,1,0,0:0:0:0:
231,170,102569,1,0,0:0:0:0:
231,170,102634,1,8,0:0:0:0:
231,170,102699,1,0,0:0:0:0:
224,168,102765,1,8,0:0:0:0:
224,168,102830,1,0,0:0:0:0:
224,168,102895,1,0,0:0:0:0:
224,168,102960,1,8,0:0:0:0:
221,167,103026,1,8,0:0:0:0:
221,167,103091,1,0,0:0:0:0:
221,167,103156,1,8,0:0:0:0:
221,167,103286,1,0,0:0:0:0:
221,167,103352,1,0,0:0:0:0:
221,167,103417,1,0,0:0:0:0:
221,167,103482,1,0,0:0:0:0:
221,167,103547,1,8,0:0:0:0:
157,68,103678,1,0,0:0:0:0:
111,150,103743,1,8,0:0:0:0:
173,95,103808,1,8,0:0:0:0:
173,95,103939,1,0,0:0:0:0:
173,95,103982,1,0,0:0:0:0:
221,167,104026,1,0,0:0:0:0:
221,167,104069,1,8,0:0:0:0:
173,95,104134,1,8,0:0:0:0:
173,95,104199,1,0,0:0:0:0:
171,155,104330,5,8,0:0:0:0:
102,167,104363,1,8,0:0:0:0:
171,155,104460,1,0,0:0:0:0:
127,175,104493,1,0,0:0:0:0:
171,155,104591,1,0,0:0:0:0:
127,175,104623,1,0,0:0:0:0:
171,155,104721,1,8,0:0:0:0:
126,175,104754,1,8,0:0:0:0:
171,155,104852,1,0,0:0:0:0:
126,175,104884,1,0,0:0:0:0:
171,155,104982,1,0,0:0:0:0:
126,175,105015,1,0,0:0:0:0:
124,192,105113,1,8,0:0:0:0:
106,143,105156,1,8,0:0:0:0:
106,143,105199,1,8,0:0:0:0:
106,143,105243,1,0,0:0:0:0:
111,170,105308,1,0,0:0:0:0:
171,155,105373,1,8,0:0:0:0:
161,157,113460,5,8,0:0:0:0:
272,198,113721,5,0,0:0:0:0:
272,198,113982,1,0,0:0:0:0:
118,171,114113,1,8,0:0:0:0:
272,198,114243,1,0,0:0:0:0:
118,171,114373,1,8,0:0:0:0:
118,171,114439,1,8,0:0:0:0:
253,190,114504,1,0,0:0:0:0:
113,168,114634,1,8,0:0:0:0:
253,190,114765,1,0,0:0:0:0:
111,168,115026,1,8,0:0:0:0:
253,190,115286,1,0,0:0:0:0:
237,187,115417,1,0,0:0:0:0:
237,187,115547,1,0,0:0:0:0:
237,187,115808,1,0,0:0:0:0:
111,167,116069,1,8,0:0:0:0:
111,167,116199,1,0,0:0:0:0:
111,167,116330,1,8,0:0:0:0:
111,167,116460,1,0,0:0:0:0:
111,167,116591,1,8,0:0:0:0:
109,173,116721,1,0,0:0:0:0:
108,174,116852,1,8,0:0:0:0:
97,182,116982,1,0,0:0:0:0:
97,182,117113,1,8,0:0:0:0:
237,187,117373,1,0,0:0:0:0:
237,187,117634,1,8,0:0:0:0:
125,242,117895,1,0,0:0:0:0:
125,242,118026,1,0,0:0:0:0:
125,242,118156,1,8,0:0:0:0:
125,242,118286,1,0,0:0:0:0:
125,242,118417,1,8,0:0:0:0:
125,242,118547,1,8,0:0:0:0:
125,242,118678,1,0,0:0:0:0:
125,242,118808,1,8,0:0:0:0:
125,242,118939,1,0,0:0:0:0:
125,242,119069,1,8,0:0:0:0:
125,242,119199,1,8,0:0:0:0:
125,242,119330,1,0,0:0:0:0:
125,242,119460,1,8,0:0:0:0:
125,242,119591,1,0,0:0:0:0:
125,242,119721,1,0,0:0:0:0:
125,242,119852,1,8,0:0:0:0:
125,242,119982,1,0,0:0:0:0:
125,242,120047,1,8,0:0:0:0:
125,242,120113,1,0,0:0:0:0:
125,242,120178,1,0,0:0:0:0:
125,242,120243,1,8,0:0:0:0:
125,242,120308,1,8,0:0:0:0:
125,242,120373,1,0,0:0:0:0:
125,242,120439,1,0,0:0:0:0:
125,242,120504,1,8,0:0:0:0:
125,242,120569,1,0,0:0:0:0:
125,242,120634,1,8,0:0:0:0:
125,242,120699,1,8,0:0:0:0:
125,242,120765,1,0,0:0:0:0:
125,242,120830,1,0,0:0:0:0:
125,242,120895,1,8,0:0:0:0:
125,242,120960,1,8,0:0:0:0:
125,242,121026,1,0,0:0:0:0:
191,252,121808,1,0,0:0:0:0:
191,252,121873,1,0,0:0:0:0:
191,252,121939,1,8,0:0:0:0:
191,252,122004,1,0,0:0:0:0:
191,252,122069,1,8,0:0:0:0:
191,252,122134,1,8,0:0:0:0:
191,252,122199,1,0,0:0:0:0:
191,252,122265,1,0,0:0:0:0:
191,252,122330,1,8,0:0:0:0:
336,244,122460,1,0,0:0:0:0:
336,244,122526,1,0,0:0:0:0:
336,244,122591,1,8,0:0:0:0:
336,244,122656,1,8,0:0:0:0:
336,244,122721,1,0,0:0:0:0:
336,244,122786,1,8,0:0:0:0:
231,150,122852,1,8,0:0:0:0:
236,202,122917,1,8,0:0:0:0:
231,150,122982,1,0,0:0:0:0:
236,202,123113,1,8,0:0:0:0:
232,197,123243,1,0,0:0:0:0:
232,197,123373,1,8,0:0:0:0:
232,197,123439,1,0,0:0:0:0:
232,197,123504,1,8,0:0:0:0:
232,197,123569,1,8,0:0:0:0:
239,172,123634,1,0,0:0:0:0:
239,172,123678,1,0,0:0:0:0:
239,172,123721,1,0,0:0:0:0:
203,154,123765,1,8,0:0:0:0:
203,154,123830,1,8,0:0:0:0:
203,154,123895,1,0,0:0:0:0:
203,154,124026,1,8,0:0:0:0:
203,154,124156,1,0,0:0:0:0:
203,154,124286,1,8,0:0:0:0:
203,154,124352,1,0,0:0:0:0:
203,154,124482,1,8,0:0:0:0:
203,154,124547,1,8,0:0:0:0:
203,154,124678,1,0,0:0:0:0:
203,154,124743,1,8,0:0:0:0:
203,154,124808,1,0,0:0:0:0:
203,154,124873,1,0,0:0:0:0:
203,154,124939,1,8,0:0:0:0:
203,154,125004,1,0,0:0:0:0:
203,154,125069,1,8,0:0:0:0:
99,189,125199,1,8,0:0:0:0:
51,150,125232,1,8,0:0:0:0:
99,189,125330,1,0,0:0:0:0:
90,181,125460,1,0,0:0:0:0:
99,189,125591,1,0,0:0:0:0:
90,181,125721,1,0,0:0:0:0:
89,181,125852,1,8,0:0:0:0:
89,181,125917,1,8,0:0:0:0:
90,181,125982,1,8,0:0:0:0:
87,180,126113,1,8,0:0:0:0:
84,179,126178,1,8,0:0:0:0:
84,178,126243,1,4,0:0:0:0:
81,177,126504,1,4,0:0:0:0:
74,178,126765,1,8,0:0:0:0:
75,179,126895,1,8,0:0:0:0:
162,203,127026,1,0,0:0:0:0:
162,203,127156,1,4,0:0:0:0:
187,155,127417,5,0,0:0:0:0:
187,155,127547,1,8,0:0:0:0:
187,155,127678,1,8,0:0:0:0:
187,155,127808,1,4,0:0:0:0:
187,155,128069,1,8,0:0:0:0:
187,155,128199,1,8,0:0:0:0:
193,188,128330,1,0,0:0:0:0:
193,188,128395,1,0,0:0:0:0:
193,188,128460,1,8,0:0:0:0:
193,188,128526,1,0,0:0:0:0:
193,188,128591,1,8,0:0:0:0:
193,188,128656,1,8,0:0:0:0:
192,189,128721,1,0,0:0:0:0:
186,186,128786,1,0,0:0:0:0:
186,186,128852,1,8,0:0:0:0:
186,186,128917,1,8,0:0:0:0:
130,188,128982,1,0,0:0:0:0:
130,188,129113,1,8,0:0:0:0:
130,188,129243,1,8,0:0:0:0:
295,131,129373,1,8,0:0:0:0:
295,131,129417,1,8,0:0:0:0:
295,131,129460,1,8,0:0:0:0:
295,131,129504,1,0,0:0:0:0:
291,118,129569,1,0,0:0:0:0:
291,118,129634,1,8,0:0:0:0:
288,117,129699,1,0,0:0:0:0:
288,117,129765,1,0,0:0:0:0:
280,162,129830,1,0,0:0:0:0:
280,162,129895,1,8,0:0:0:0:
280,162,130026,1,0,0:0:0:0:
280,162,130069,1,0,0:0:0:0:
133,135,130113,1,0,0:0:0:0:
280,162,130156,1,8,0:0:0:0:
280,162,130221,1,8,0:0:0:0:
280,162,130286,1,0,0:0:0:0:
280,162,130352,1,0,0:0:0:0:
280,162,130417,1,8,0:0:0:0:
199,146,130547,1,0,0:0:0:0:
199,146,130613,1,8,0:0:0:0:
199,146,130678,1,0,0:0:0:0:
199,146,130743,1,0,0:0:0:0:
199,146,130808,1,8,0:0:0:0:
196,140,130873,1,8,0:0:0:0:
196,140,130939,1,0,0:0:0:0:
196,136,131004,1,0,0:0:0:0:
196,136,131069,1,8,0:0:0:0:
196,136,131134,1,8,0:0:0:0:
88,136,131199,1,0,0:0:0:0:
88,136,131330,1,0,0:0:0:0:
281,221,131460,1,8,0:0:0:0:
281,221,131526,1,0,0:0:0:0:
281,221,131591,1,8,0:0:0:0:
281,221,131656,1,8,0:0:0:0:
281,221,131721,1,0,0:0:0:0:
188,120,131786,1,8,0:0:0:0:
188,120,131852,1,0,0:0:0:0:
281,221,131917,1,0,0:0:0:0:
188,120,131982,1,8,0:0:0:0:
188,120,132047,1,8,0:0:0:0:
179,90,132113,1,0,0:0:0:0:
179,90,132243,1,8,0:0:0:0:
128,128,132276,1,8,0:0:0:0:
179,90,132373,1,0,0:0:0:0:
144,128,132406,1,0,0:0:0:0:
179,90,132504,1,8,0:0:0:0:
179,90,132569,1,8,0:0:0:0:
179,90,132634,1,8,0:0:0:0:
179,90,132699,1,8,0:0:0:0:
179,90,132765,1,0,0:0:0:0:
179,90,132830,1,0,0:0:0:0:
196,97,132895,1,8,0:0:0:0:
196,97,132960,1,8,0:0:0:0:
196,97,133026,1,0,0:0:0:0:
196,97,133156,1,8,0:0:0:0:
196,97,133221,1,8,0:0:0:0:
196,98,133286,1,0,0:0:0:0:
196,98,133352,1,8,0:0:0:0:
196,98,133417,1,8,0:0:0:0:
196,98,133482,1,8,0:0:0:0:
195,97,133547,1,0,0:0:0:0:
194,97,133678,1,8,0:0:0:0:
185,161,133808,1,8,0:0:0:0:
185,161,133873,1,8,0:0:0:0:
185,161,133939,1,0,0:0:0:0:
185,161,134004,1,8,0:0:0:0:
185,161,134069,1,0,0:0:0:0:
185,161,134134,1,0,0:0:0:0:
185,161,134199,1,8,0:0:0:0:
213,156,134330,1,0,0:0:0:0:
213,156,134363,1,0,0:0:0:0:
213,156,134460,1,8,0:0:0:0:
213,156,134493,1,8,0:0:0:0:
229,170,134591,1,0,0:0:0:0:
252,202,134721,1,8,0:0:0:0:
252,202,134786,1,8,0:0:0:0:
252,202,134852,1,0,0:0:0:0:
252,202,134982,1,0,0:0:0:0:
247,162,135113,1,8,0:0:0:0:
247,162,135178,1,8,0:0:0:0:
247,162,135243,1,8,0:0:0:0:
247,162,135308,1,8,0:0:0:0:
246,161,135373,1,8,0:0:0:0:
246,161,135504,1,0,0:0:0:0:
246,161,135569,1,0,0:0:0:0:
239,162,135634,1,8,0:0:0:0:
238,162,135699,1,0,0:0:0:0:
247,162,135765,1,0,0:0:0:0:
239,162,135830,1,0,0:0:0:0:
238,162,135895,1,8,0:0:0:0:
238,162,135960,1,0,0:0:0:0:
238,162,136026,1,8,0:0:0:0:
238,162,136091,1,8,0:0:0:0:
238,162,136156,1,0,0:0:0:0:
238,162,136221,1,0,0:0:0:0:
238,162,136286,1,8,0:0:0:0:
238,162,136417,1,8,0:0:0:0:
229,169,136547,1,0,0:0:0:0:
229,169,136678,1,8,0:0:0:0:
229,169,136743,1,8,0:0:0:0:
229,169,136808,1,8,0:0:0:0:
229,169,136873,1,8,0:0:0:0:
227,169,136939,1,0,0:0:0:0:
223,164,137069,1,8,0:0:0:0:
238,161,137199,1,0,0:0:0:0:
146,132,137330,1,8,0:0:0:0:
146,132,137373,1,0,0:0:0:0:
146,132,137417,1,0,0:0:0:0:
146,132,137460,1,8,0:0:0:0:
174,126,137526,1,8,0:0:0:0:
174,126,137591,1,0,0:0:0:0:
174,126,137656,1,0,0:0:0:0:
157,112,137721,1,8,0:0:0:0:
143,149,137852,1,0,0:0:0:0:
224,181,137982,1,0,0:0:0:0:
224,181,138047,1,0,0:0:0:0:
224,181,138113,1,8,0:0:0:0:
224,181,138178,1,0,0:0:0:0:
224,181,138243,1,8,0:0:0:0:
224,181,138308,1,8,0:0:0:0:
224,181,138373,1,0,0:0:0:0:
224,181,138439,1,0,0:0:0:0:
224,181,138504,1,8,0:0:0:0:
224,181,138569,1,0,0:0:0:0:
224,181,138634,1,8,0:0:0:0:
224,181,138699,1,8,0:0:0:0:
216,176,138765,1,0,0:0:0:0:
311,241,138895,1,8,0:0:0:0:
222,122,138960,1,0,0:0:0:0:
311,241,139026,1,8,0:0:0:0:
222,122,139091,1,8,0:0:0:0:
222,122,139156,1,0,0:0:0:0:
222,122,139221,1,0,0:0:0:0:
227,121,139286,1,8,0:0:0:0:
222,122,139352,1,0,0:0:0:0:
222,122,139417,1,0,0:0:0:0:
155,188,139482,1,0,0:0:0:0:
220,110,139547,1,8,0:0:0:0:
206,103,139678,1,0,0:0:0:0:
206,103,139743,1,0,0:0:0:0:
206,102,139808,1,8,0:0:0:0:
206,102,139873,1,8,0:0:0:0:
111,143,139939,1,0,0:0:0:0:
211,103,140069,1,8,0:0:0:0:
221,107,140134,1,8,0:0:0:0:
211,103,140199,1,0,0:0:0:0:
211,103,140265,1,0,0:0:0:0:
211,103,140330,1,8,0:0:0:0:
211,103,140395,1,0,0:0:0:0:
211,103,140460,1,0,0:0:0:0:
132,138,140526,1,0,0:0:0:0:
152,123,140591,1,8,0:0:0:0:
152,123,140623,1,8,0:0:0:0:
152,123,140721,1,0,0:0:0:0:
152,123,140754,1,0,0:0:0:0:
152,123,140852,1,8,0:0:0:0:
152,123,140917,1,8,0:0:0:0:
152,123,140982,1,8,0:0:0:0:
152,123,141047,1,8,0:0:0:0:
152,123,141113,1,0,0:0:0:0:
152,123,141178,1,0,0:0:0:0:
152,123,141243,1,0,0:0:0:0:
152,123,141308,1,0,0:0:0:0:
152,123,141373,1,0,0:0:0:0:
152,123,141504,1,8,0:0:0:0:
152,123,141569,1,8,0:0:0:0:
152,123,141634,1,0,0:0:0:0:
152,123,141699,1,8,0:0:0:0:
152,123,141765,1,8,0:0:0:0:
152,123,141830,1,8,0:0:0:0:
92,156,141895,1,0,0:0:0:0:
155,152,142026,1,0,0:0:0:0:
155,152,142069,1,0,0:0:0:0:
155,152,142113,1,0,0:0:0:0:
155,152,142156,1,8,0:0:0:0:
140,191,142286,1,8,0:0:0:0:
140,191,142352,1,8,0:0:0:0:
140,191,142417,1,0,0:0:0:0:
140,191,142482,1,8,0:0:0:0:
140,191,142547,1,8,0:0:0:0:
140,191,142613,1,8,0:0:0:0:
140,191,142678,1,0,0:0:0:0:
140,191,142710,1,0,0:0:0:0:
140,191,142808,1,8,0:0:0:0:
140,191,142841,1,8,0:0:0:0:
323,151,142939,1,0,0:0:0:0:
329,151,143069,1,8,0:0:0:0:
329,151,143134,1,8,0:0:0:0:
329,151,143199,1,0,0:0:0:0:
162,173,143330,1,8,0:0:0:0:
162,173,143460,1,8,0:0:0:0:
162,173,143526,1,8,0:0:0:0:
162,173,143591,1,8,0:0:0:0:
167,164,143656,1,8,0:0:0:0:
162,173,143721,1,8,0:0:0:0:
157,201,143852,1,0,0:0:0:0:
157,201,143917,1,0,0:0:0:0:
157,201,143982,1,8,0:0:0:0:
157,201,144047,1,8,0:0:0:0:
144,191,144178,1,8,0:0:0:0:
144,191,144243,1,0,0:0:0:0:
126,136,144373,1,8,0:0:0:0:
155,183,144439,1,0,0:0:0:0:
155,183,144504,1,8,0:0:0:0:
135,139,144569,1,8,0:0:0:0:
144,191,144634,1,0,0:0:0:0:
135,139,144699,1,0,0:0:0:0:
256,173,144765,1,8,0:0:0:0:
256,173,144797,1,8,0:0:0:0:
256,173,144895,1,0,0:0:0:0:
256,173,144928,1,0,0:0:0:0:
221,157,145026,1,8,0:0:0:0:
221,157,145156,1,0,0:0:0:0:
221,157,145221,1,0,0:0:0:0:
221,157,145286,1,8,0:0:0:0:
221,157,145352,1,8,0:0:0:0:
221,157,145417,1,0,0:0:0:0:
221,157,145547,1,8,0:0:0:0:
221,157,145613,1,8,0:0:0:0:
221,157,145678,1,8,0:0:0:0:
221,157,145743,1,8,0:0:0:0:
221,157,145808,1,8,0:0:0:0:
208,154,145939,1,0,0:0:0:0:
221,157,146004,1,8,0:0:0:0:
221,157,146069,1,0,0:0:0:0:
199,136,146134,1,0,0:0:0:0:
199,136,146199,1,8,0:0:0:0:
221,157,146265,1,0,0:0:0:0:
221,157,146330,1,8,0:0:0:0:
197,153,146395,1,8,0:0:0:0:
197,153,146460,1,0,0:0:0:0:
197,153,146526,1,0,0:0:0:0:
199,136,146591,1,8,0:0:0:0:
199,136,146656,1,0,0:0:0:0:
199,136,146721,1,0,0:0:0:0:
120,134,146786,1,0,0:0:0:0:
199,136,146852,1,8,0:0:0:0:
195,111,146884,1,8,0:0:0:0:
199,136,146982,1,0,0:0:0:0:
195,111,147015,1,0,0:0:0:0:
195,111,147113,1,12,0:0:0:0:
