osu file format v14

[General]
AudioFilename: audio.mp3
AudioLeadIn: 0
PreviewTime: 19090
Countdown: 0
SampleSet: Normal
StackLeniency: 0.7
Mode: 1
LetterboxInBreaks: 0
WidescreenStoryboard: 1

[Editor]
Bookmarks: 144094
DistanceSpacing: 1.1
BeatDivisor: 4
GridSize: 8
TimelineZoom: 2.799999

[Metadata]
Title:terminus//runtimes
TitleUnicode:terminus//runtimes
Artist:katagiri
ArtistUnicode:かたぎり
Creator:Horiiizon
Version:oni
Source:OneShot
Tags:eleventh hour breakcore ambient solstice nightmargin casey gu michael shirt electronic instrumental gamelan4 phob a long afternoon かたぎりの長い午後 miso-nicomi records featured artist fa
BeatmapID:2782221
BeatmapSetID:1343171

[Difficulty]
HPDrainRate:5.5
CircleSize:5
OverallDifficulty:5.5
ApproachRate:5
SliderMultiplier:1.4
SliderTickRate:1

[Events]
//Background and Video events
0,0,"play oneshot.jpg",0,0
//Break Periods
//Storyboard Layer 0 (Background)
//Storyboard Layer 1 (Fail)
//Storyboard Layer 2 (Pass)
//Storyboard Layer 3 (Foreground)
//Storyboard Layer 4 (Overlay)
//Storyboard Sound Samples

[TimingPoints]
490,300,4,1,0,20,1,0
19052,-100,4,1,0,60,0,0
77252,-100,4,1,0,40,0,0
77552,-117.647058823529,4,1,0,40,0,0
85577,-100,4,1,0,50,0,0
86102,-100,4,1,0,60,0,0
86890,-100,4,1,0,60,0,0
125252,-100,4,1,0,30,0,0
125552,-117.647058823529,4,1,0,30,0,0
144452,-117.647058823529,4,1,0,30,0,0

[HitObjects]
256,192,17290,12,0,18790,0:0:0:0:
241,291,19090,5,4,0:0:0:0:
251,241,19690,1,0,0:0:0:0:
237,207,19840,1,0,0:0:0:0:
237,207,19990,1,8,0:0:0:0:
241,198,20140,1,0,0:0:0:0:
241,198,20290,1,8,0:0:0:0:
217,176,20440,1,8,0:0:0:0:
217,134,20515,1,8,0:0:0:0:
220,188,20590,1,0,0:0:0:0:
221,188,20740,1,8,0:0:0:0:
221,172,20890,1,8,0:0:0:0:
219,151,21190,1,0,0:0:0:0:
199,127,21340,1,8,0:0:0:0:
256,161,21490,1,0,0:0:0:0:
194,128,21640,1,0,0:0:0:0:
178,122,21790,1,8,0:0:0:0:
226,157,22090,1,0,0:0:0:0:
184,129,22240,1,0,0:0:0:0:
245,164,22315,1,0,0:0:0:0:
245,164,22390,1,8,0:0:0:0:
169,108,22540,1,0,0:0:0:0:
184,176,22690,1,8,0:0:0:0:
219,184,22840,1,0,0:0:0:0:
195,182,22990,1,0,0:0:0:0:
283,203,23140,1,8,0:0:0:0:
276,207,23215,1,8,0:0:0:0:
214,201,23365,1,0,0:0:0:0:
276,207,23440,1,0,0:0:0:0:
276,207,23590,1,0,0:0:0:0:
242,196,23890,1,8,0:0:0:0:
226,156,23965,1,8,0:0:0:0:
211,148,24040,1,0,0:0:0:0:
224,135,24190,1,0,0:0:0:0:
197,189,24340,1,8,0:0:0:0:
229,171,24490,1,0,0:0:0:0:
228,163,24640,1,8,0:0:0:0:
228,163,24790,1,0,0:0:0:0:
211,148,24940,1,0,0:0:0:0:
211,186,25090,1,8,0:0:0:0:
211,147,25390,1,8,0:0:0:0:
216,173,25540,1,0,0:0:0:0:
224,177,25615,1,0,0:0:0:0:
208,208,25690,1,0,0:0:0:0:
207,154,25840,1,8,0:0:0:0:
213,160,25990,1,0,0:0:0:0:
210,147,26140,1,0,0:0:0:0:
235,170,26290,1,8,0:0:0:0:
235,170,26440,1,0,0:0:0:0:
234,200,26740,1,8,0:0:0:0:
302,202,26815,1,8,0:0:0:0:
182,186,26890,1,0,0:0:0:0:
231,185,27040,1,0,0:0:0:0:
218,193,27190,1,0,0:0:0:0:
239,167,27340,1,0,0:0:0:0:
204,177,27415,1,0,0:0:0:0:
204,177,27490,1,8,0:0:0:0:
202,159,27790,1,0,0:0:0:0:
241,175,27940,1,0,0:0:0:0:
210,161,28015,1,8,0:0:0:0:
210,161,28090,1,0,0:0:0:0:
216,137,28240,1,0,0:0:0:0:
215,129,28390,1,8,0:0:0:0:
162,187,28540,1,0,0:0:0:0:
268,189,28690,1,8,0:0:0:0:
198,167,28840,1,8,0:0:0:0:
223,161,28915,1,8,0:0:0:0:
206,142,28990,1,0,0:0:0:0:
237,160,29140,1,8,0:0:0:0:
206,142,29290,1,0,0:0:0:0:
240,195,29440,1,0,0:0:0:0:
245,201,29590,1,8,0:0:0:0:
246,181,29740,1,0,0:0:0:0:
246,181,29890,1,8,0:0:0:0:
216,170,30190,1,0,0:0:0:0:
241,179,30265,1,0,0:0:0:0:
206,99,30340,1,8,0:0:0:0:
246,170,30490,1,8,0:0:0:0:
225,145,30640,1,0,0:0:0:0:
215,161,30790,1,8,0:0:0:0:
210,115,30940,1,0,0:0:0:0:
236,172,31015,1,0,0:0:0:0:
228,148,31090,1,0,0:0:0:0:
235,160,31240,1,8,0:0:0:0:
243,192,31390,1,0,0:0:0:0:
254,193,31690,1,0,0:0:0:0:
248,172,31840,1,8,0:0:0:0:
225,149,31915,1,8,0:0:0:0:
226,150,31990,1,0,0:0:0:0:
214,147,32140,1,8,0:0:0:0:
228,156,32290,1,0,0:0:0:0:
228,156,32440,1,8,0:0:0:0:
238,164,32590,1,0,0:0:0:0:
219,170,32740,1,8,0:0:0:0:
220,139,32815,1,8,0:0:0:0:
219,170,32965,1,0,0:0:0:0:
223,169,33040,1,0,0:0:0:0:
216,118,33190,1,8,0:0:0:0:
249,152,33340,1,8,0:0:0:0:
238,179,33415,1,8,0:0:0:0:
238,179,33490,1,0,0:0:0:0:
223,169,33790,1,8,0:0:0:0:
224,176,33940,1,8,0:0:0:0:
191,104,34015,1,8,0:0:0:0:
196,114,34090,1,8,0:0:0:0:
221,168,34240,1,0,0:0:0:0:
233,163,34390,1,0,0:0:0:0:
216,156,34540,1,8,0:0:0:0:
213,140,34690,1,0,0:0:0:0:
221,137,34840,1,8,0:0:0:0:
215,148,34915,1,8,0:0:0:0:
215,148,34990,1,0,0:0:0:0:
256,160,35140,1,8,0:0:0:0:
224,140,35290,1,8,0:0:0:0:
201,130,35440,1,0,0:0:0:0:
231,169,35590,1,8,0:0:0:0:
230,199,35890,1,8,0:0:0:0:
218,136,36040,1,0,0:0:0:0:
176,135,36115,1,8,0:0:0:0:
198,157,36190,1,0,0:0:0:0:
300,158,36340,1,8,0:0:0:0:
225,190,36490,1,0,0:0:0:0:
226,174,36640,1,8,0:0:0:0:
204,167,36790,1,8,0:0:0:0:
193,124,36940,1,0,0:0:0:0:
201,180,37015,1,0,0:0:0:0:
193,124,37090,1,8,0:0:0:0:
221,147,37390,1,0,0:0:0:0:
238,208,37540,1,8,0:0:0:0:
252,194,37615,1,8,0:0:0:0:
235,200,37690,1,0,0:0:0:0:
252,217,37840,1,0,0:0:0:0:
220,177,37990,1,8,0:0:0:0:
281,203,38140,1,0,0:0:0:0:
267,127,38290,1,8,0:0:0:0:
190,165,38490,1,0,0:0:0:0:
211,131,38590,1,0,0:0:0:0:
231,184,38690,1,0,0:0:0:0:
244,151,38790,1,0,0:0:0:0:
247,153,38890,1,8,0:0:0:0:
293,142,39190,1,8,0:0:0:0:
221,180,39340,1,0,0:0:0:0:
245,176,39490,1,8,0:0:0:0:
219,165,39640,1,8,0:0:0:0:
220,167,39790,1,0,0:0:0:0:
211,134,39940,1,8,0:0:0:0:
209,148,40090,1,0,0:0:0:0:
200,131,40390,1,0,0:0:0:0:
202,137,40540,1,8,0:0:0:0:
202,172,40615,1,8,0:0:0:0:
206,103,40690,1,0,0:0:0:0:
212,120,40840,1,0,0:0:0:0:
212,121,40990,1,8,0:0:0:0:
210,122,41140,1,8,0:0:0:0:
198,85,41290,1,0,0:0:0:0:
203,83,41440,1,0,0:0:0:0:
217,115,41590,1,8,0:0:0:0:
229,148,41740,1,0,0:0:0:0:
216,114,41815,1,0,0:0:0:0:
216,114,41890,1,8,0:0:0:0:
204,141,42040,1,8,0:0:0:0:
191,91,42190,1,0,0:0:0:0:
219,142,42490,1,0,0:0:0:0:
242,176,42640,1,0,0:0:0:0:
233,171,42715,1,0,0:0:0:0:
221,120,42790,1,8,0:0:0:0:
267,245,42940,1,0,0:0:0:0:
208,178,43090,1,8,0:0:0:0:
201,162,43240,1,0,0:0:0:0:
233,148,43390,1,0,0:0:0:0:
233,148,43540,1,8,0:0:0:0:
182,116,43690,1,0,0:0:0:0:
195,101,43990,1,8,0:0:0:0:
230,196,44140,1,0,0:0:0:0:
242,211,44215,1,0,0:0:0:0:
230,196,44290,1,8,0:0:0:0:
214,152,44440,1,8,0:0:0:0:
225,184,44590,1,0,0:0:0:0:
221,182,44665,1,0,0:0:0:0:
206,121,44740,1,0,0:0:0:0:
211,90,44890,1,8,0:0:0:0:
218,183,45190,1,8,0:0:0:0:
221,185,45340,1,0,0:0:0:0:
236,211,45490,1,8,0:0:0:0:
196,157,45565,1,8,0:0:0:0:
242,171,45640,1,8,0:0:0:0:
178,156,45790,1,8,0:0:0:0:
210,182,45940,1,0,0:0:0:0:
218,192,46090,1,0,0:0:0:0:
203,202,46240,1,8,0:0:0:0:
209,197,46390,1,8,0:0:0:0:
209,197,46465,1,8,0:0:0:0:
218,183,46540,1,0,0:0:0:0:
218,181,46690,1,8,0:0:0:0:
216,164,46990,1,0,0:0:0:0:
239,177,47140,1,8,0:0:0:0:
216,167,47215,1,8,0:0:0:0:
240,179,47290,1,0,0:0:0:0:
223,187,47440,1,0,0:0:0:0:
213,157,47590,1,8,0:0:0:0:
213,157,47740,1,0,0:0:0:0:
213,157,47890,1,8,0:0:0:0:
217,161,48040,1,8,0:0:0:0:
198,165,48190,1,0,0:0:0:0:
217,137,48340,1,8,0:0:0:0:
250,178,48415,1,0,0:0:0:0:
228,177,48490,1,8,0:0:0:0:
229,187,48790,1,8,0:0:0:0:
207,146,48940,1,0,0:0:0:0:
259,149,49015,1,0,0:0:0:0:
259,149,49090,1,8,0:0:0:0:
296,223,49240,1,8,0:0:0:0:
296,223,49315,1,8,0:0:0:0:
296,223,49390,1,0,0:0:0:0:
238,167,49690,1,8,0:0:0:0:
289,268,49840,1,8,0:0:0:0:
227,150,49990,1,0,0:0:0:0:
227,150,50140,1,8,0:0:0:0:
227,150,50290,1,0,0:0:0:0:
227,150,50365,1,0,0:0:0:0:
227,150,50440,1,8,0:0:0:0:
227,150,50590,1,0,0:0:0:0:
209,151,50740,1,0,0:0:0:0:
201,113,50890,1,8,0:0:0:0:
222,153,50965,1,8,0:0:0:0:
369,264,51040,1,8,0:0:0:0:
206,144,51190,1,0,0:0:0:0:
261,211,51340,1,8,0:0:0:0:
239,169,51490,1,8,0:0:0:0:
217,157,51640,1,8,0:0:0:0:
261,222,51790,1,8,0:0:0:0:
214,167,51865,1,8,0:0:0:0:
215,142,51940,1,0,0:0:0:0:
240,165,52240,1,8,0:0:0:0:
212,148,52390,1,8,0:0:0:0:
217,150,52540,1,0,0:0:0:0:
212,158,52690,1,8,0:0:0:0:
214,161,52840,1,8,0:0:0:0:
253,168,52915,1,8,0:0:0:0:
220,167,52990,1,0,0:0:0:0:
233,120,53140,1,8,0:0:0:0:
233,120,53290,1,0,0:0:0:0:
248,191,53590,1,0,0:0:0:0:
221,145,53740,1,0,0:0:0:0:
229,206,53890,1,8,0:0:0:0:
218,177,53965,1,8,0:0:0:0:
218,177,54040,1,8,0:0:0:0:
249,188,54190,1,0,0:0:0:0:
232,153,54340,1,8,0:0:0:0:
231,186,54640,1,0,0:0:0:0:
251,148,54715,1,0,0:0:0:0:
251,148,54790,1,8,0:0:0:0:
252,143,54940,1,0,0:0:0:0:
252,128,55090,1,8,0:0:0:0:
221,127,55240,1,8,0:0:0:0:
268,177,55390,1,0,0:0:0:0:
268,177,55540,1,8,0:0:0:0:
211,128,55615,1,8,0:0:0:0:
206,110,55690,1,0,0:0:0:0:
192,67,55840,1,0,0:0:0:0:
198,79,56140,1,0,0:0:0:0:
247,175,56215,1,0,0:0:0:0:
247,175,56290,1,8,0:0:0:0:
244,168,56440,1,8,0:0:0:0:
216,86,56590,1,0,0:0:0:0:
204,92,56740,1,8,0:0:0:0:
230,161,56890,1,0,0:0:0:0:
219,149,57040,1,0,0:0:0:0:
199,114,57190,1,8,0:0:0:0:
206,118,57340,1,0,0:0:0:0:
193,172,57490,1,8,0:0:0:0:
193,172,57565,1,8,0:0:0:0:
193,172,57640,1,0,0:0:0:0:
200,154,57790,1,0,0:0:0:0:
207,178,57940,1,8,0:0:0:0:
206,95,58015,1,8,0:0:0:0:
206,96,58090,1,0,0:0:0:0:
231,215,58390,1,0,0:0:0:0:
229,208,58465,1,0,0:0:0:0:
205,117,58540,1,8,0:0:0:0:
188,131,58690,1,8,0:0:0:0:
189,133,58840,1,0,0:0:0:0:
188,136,58990,1,8,0:0:0:0:
208,128,59140,1,8,0:0:0:0:
227,177,59290,1,0,0:0:0:0:
207,171,59440,1,0,0:0:0:0:
207,171,59590,1,8,0:0:0:0:
245,190,59740,1,0,0:0:0:0:
231,171,59815,1,0,0:0:0:0:
254,187,59890,1,8,0:0:0:0:
260,174,60040,1,8,0:0:0:0:
197,157,60190,1,0,0:0:0:0:
213,147,60265,1,0,0:0:0:0:
212,137,60340,1,0,0:0:0:0:
205,131,60490,1,0,0:0:0:0:
231,160,60790,1,0,0:0:0:0:
209,159,60865,1,8,0:0:0:0:
238,182,60940,1,0,0:0:0:0:
217,153,61090,1,0,0:0:0:0:
208,154,61240,1,8,0:0:0:0:
226,145,61390,1,0,0:0:0:0:
213,136,61465,1,0,0:0:0:0:
226,145,61540,1,8,0:0:0:0:
219,141,61690,1,8,0:0:0:0:
220,142,61765,1,8,0:0:0:0:
193,157,61840,1,0,0:0:0:0:
234,206,61990,1,8,0:0:0:0:
225,225,62140,1,0,0:0:0:0:
201,128,62290,1,8,0:0:0:0:
220,188,62440,1,8,0:0:0:0:
210,180,62590,1,0,0:0:0:0:
200,142,62740,1,8,0:0:0:0:
222,158,62815,1,8,0:0:0:0:
245,174,62890,1,0,0:0:0:0:
230,170,63190,1,0,0:0:0:0:
217,149,63340,1,8,0:0:0:0:
201,174,63490,1,0,0:0:0:0:
207,163,63640,1,8,0:0:0:0:
210,165,63790,1,0,0:0:0:0:
215,170,63940,1,0,0:0:0:0:
219,150,64015,1,0,0:0:0:0:
245,169,64090,1,8,0:0:0:0:
232,142,64240,1,0,0:0:0:0:
260,156,64390,1,8,0:0:0:0:
260,133,64540,1,8,0:0:0:0:
217,116,64615,1,8,0:0:0:0:
201,156,64690,1,8,0:0:0:0:
215,170,64840,1,0,0:0:0:0:
215,170,64915,1,0,0:0:0:0:
239,130,64990,1,0,0:0:0:0:
231,172,65140,1,8,0:0:0:0:
273,172,65290,1,0,0:0:0:0:
245,182,65590,1,0,0:0:0:0:
258,239,65740,1,8,0:0:0:0:
258,239,65815,1,8,0:0:0:0:
243,184,65890,1,0,0:0:0:0:
220,177,66040,1,8,0:0:0:0:
223,178,66115,1,8,0:0:0:0:
237,181,66190,1,8,0:0:0:0:
226,128,66340,1,8,0:0:0:0:
207,111,66490,1,0,0:0:0:0:
225,107,66640,1,0,0:0:0:0:
226,136,66790,1,8,0:0:0:0:
206,92,66940,1,0,0:0:0:0:
205,161,67015,1,0,0:0:0:0:
251,194,67090,1,8,0:0:0:0:
232,200,67240,1,8,0:0:0:0:
215,91,67315,1,8,0:0:0:0:
215,91,67390,1,0,0:0:0:0:
218,131,67540,1,8,0:0:0:0:
312,283,67690,1,0,0:0:0:0:
251,152,67990,1,0,0:0:0:0:
232,200,68140,1,0,0:0:0:0:
222,115,68215,1,0,0:0:0:0:
223,115,68290,1,8,0:0:0:0:
212,106,68440,1,8,0:0:0:0:
214,180,68590,1,8,0:0:0:0:
206,141,68740,1,0,0:0:0:0:
206,141,68890,1,8,0:0:0:0:
211,74,69040,1,0,0:0:0:0:
194,153,69190,1,8,0:0:0:0:
228,120,69265,1,8,0:0:0:0:
227,120,69340,1,0,0:0:0:0:
195,93,69490,1,0,0:0:0:0:
197,94,69640,1,8,0:0:0:0:
207,97,69790,1,0,0:0:0:0:
207,97,69865,1,0,0:0:0:0:
207,97,69940,1,8,0:0:0:0:
211,74,70090,1,0,0:0:0:0:
202,125,70390,1,8,0:0:0:0:
214,154,70465,1,8,0:0:0:0:
214,154,70540,1,8,0:0:0:0:
215,128,70690,1,0,0:0:0:0:
178,75,70840,1,8,0:0:0:0:
226,136,70990,1,0,0:0:0:0:
229,143,71140,1,8,0:0:0:0:
205,114,71290,1,0,0:0:0:0:
204,119,71440,1,0,0:0:0:0:
204,119,71590,1,8,0:0:0:0:
204,119,71740,1,0,0:0:0:0:
204,119,71815,1,0,0:0:0:0:
199,122,71890,1,0,0:0:0:0:
178,81,72040,1,8,0:0:0:0:
188,86,72115,1,8,0:0:0:0:
188,86,72190,1,0,0:0:0:0:
224,115,72340,1,8,0:0:0:0:
224,115,72490,1,0,0:0:0:0:
212,126,72790,1,8,0:0:0:0:
216,126,72940,1,0,0:0:0:0:
249,171,73015,1,0,0:0:0:0:
211,110,73090,1,8,0:0:0:0:
191,81,73240,1,8,0:0:0:0:
207,121,73390,1,0,0:0:0:0:
203,126,73540,1,0,0:0:0:0:
203,126,73690,1,8,0:0:0:0:
205,137,73840,1,0,0:0:0:0:
213,116,73990,1,8,0:0:0:0:
192,151,74065,1,8,0:0:0:0:
207,121,74140,1,0,0:0:0:0:
223,119,74290,1,0,0:0:0:0:
218,100,74440,1,8,0:0:0:0:
224,103,74590,1,0,0:0:0:0:
216,96,74740,1,8,0:0:0:0:
220,98,74890,1,0,0:0:0:0:
204,113,75190,1,8,0:0:0:0:
208,127,75340,1,0,0:0:0:0:
215,157,75490,1,8,0:0:0:0:
218,85,75640,1,8,0:0:0:0:
222,83,75790,1,0,0:0:0:0:
220,98,75940,1,8,0:0:0:0:
231,110,76090,1,0,0:0:0:0:
236,168,76240,1,0,0:0:0:0:
231,174,76315,1,0,0:0:0:0:
236,168,76390,1,0,0:0:0:0:
208,119,76540,1,8,0:0:0:0:
226,142,76615,1,8,0:0:0:0:
246,155,76690,1,0,0:0:0:0:
213,128,76840,1,8,0:0:0:0:
207,127,76990,1,0,0:0:0:0:
224,123,77140,1,8,0:0:0:0:
224,123,77290,1,0,0:0:0:0:
217,131,77590,1,8,0:0:0:0:
286,247,78190,1,8,0:0:0:0:
286,247,78490,1,0,0:0:0:0:
274,212,79090,1,0,0:0:0:0:
222,221,79690,1,8,0:0:0:0:
219,213,80590,1,0,0:0:0:0:
249,179,80890,1,0,0:0:0:0:
208,156,81490,1,8,0:0:0:0:
224,123,82090,1,0,0:0:0:0:
217,131,82390,1,8,0:0:0:0:
286,247,82990,1,8,0:0:0:0:
286,247,83290,1,0,0:0:0:0:
274,212,83890,1,0,0:0:0:0:
222,221,84490,1,8,0:0:0:0:
219,213,85390,1,0,0:0:0:0:
273,181,85615,1,8,0:0:0:0:
239,201,85690,1,8,0:0:0:0:
217,197,85990,1,0,0:0:0:0:
228,199,86140,1,8,0:0:0:0:
228,198,86215,1,8,0:0:0:0:
220,180,86290,1,8,0:0:0:0:
225,176,86440,1,0,0:0:0:0:
224,214,86590,1,12,0:0:0:0:
251,183,86890,1,0,0:0:0:0:
237,223,87040,1,8,0:0:0:0:
226,177,87115,1,8,0:0:0:0:
227,178,87190,1,0,0:0:0:0:
245,195,87340,1,0,0:0:0:0:
217,149,87490,1,8,0:0:0:0:
223,188,87640,1,8,0:0:0:0:
198,134,87790,1,8,0:0:0:0:
206,142,87940,1,8,0:0:0:0:
207,142,88015,1,8,0:0:0:0:
207,142,88090,1,0,0:0:0:0:
214,151,88240,1,0,0:0:0:0:
217,161,88315,1,0,0:0:0:0:
198,134,88390,1,0,0:0:0:0:
216,164,88540,1,8,0:0:0:0:
214,162,88690,1,0,0:0:0:0:
229,181,88840,1,0,0:0:0:0:
222,151,88915,1,0,0:0:0:0:
222,151,88990,1,8,0:0:0:0:
198,132,89140,1,8,0:0:0:0:
197,136,89290,1,0,0:0:0:0:
214,162,89590,1,8,0:0:0:0:
209,117,89665,1,8,0:0:0:0:
200,153,89740,1,0,0:0:0:0:
200,98,89890,1,8,0:0:0:0:
219,152,90040,1,0,0:0:0:0:
215,103,90115,1,8,0:0:0:0:
244,130,90190,1,0,0:0:0:0:
219,140,90340,1,8,0:0:0:0:
218,138,90490,1,8,0:0:0:0:
211,116,90640,1,0,0:0:0:0:
213,118,90790,1,8,0:0:0:0:
188,78,90940,1,8,0:0:0:0:
204,105,91090,1,0,0:0:0:0:
243,157,91240,1,0,0:0:0:0:
188,78,91315,1,0,0:0:0:0:
205,93,91390,1,8,0:0:0:0:
243,157,91540,1,8,0:0:0:0:
212,93,91615,1,8,0:0:0:0:
212,93,91690,1,0,0:0:0:0:
227,115,91990,1,0,0:0:0:0:
240,181,92140,1,0,0:0:0:0:
228,133,92215,1,0,0:0:0:0:
228,133,92290,1,8,0:0:0:0:
212,116,92440,1,0,0:0:0:0:
201,162,92590,1,0,0:0:0:0:
312,196,92665,1,0,0:0:0:0:
223,197,92740,1,0,0:0:0:0:
182,92,92890,1,8,0:0:0:0:
244,140,93040,1,0,0:0:0:0:
244,140,93190,1,8,0:0:0:0:
261,189,93340,1,8,0:0:0:0:
216,189,93415,1,8,0:0:0:0:
219,164,93490,1,0,0:0:0:0:
225,181,93640,1,0,0:0:0:0:
226,180,93790,1,8,0:0:0:0:
205,158,93940,1,8,0:0:0:0:
209,147,94090,1,0,0:0:0:0:
206,119,94390,1,0,0:0:0:0:
220,146,94540,1,0,0:0:0:0:
198,162,94615,1,0,0:0:0:0:
221,211,94690,1,8,0:0:0:0:
221,211,94840,1,0,0:0:0:0:
199,149,94990,1,0,0:0:0:0:
209,147,95140,1,8,0:0:0:0:
218,154,95290,1,0,0:0:0:0:
232,188,95440,1,0,0:0:0:0:
209,157,95515,1,0,0:0:0:0:
202,133,95590,1,8,0:0:0:0:
231,138,95740,1,8,0:0:0:0:
231,138,95815,1,8,0:0:0:0:
231,138,95890,1,0,0:0:0:0:
209,162,96040,1,0,0:0:0:0:
232,109,96190,1,0,0:0:0:0:
234,113,96340,1,8,0:0:0:0:
234,113,96415,1,8,0:0:0:0:
176,154,96490,1,8,0:0:0:0:
246,191,96790,1,8,0:0:0:0:
221,168,96940,1,0,0:0:0:0:
236,173,97015,1,0,0:0:0:0:
236,173,97090,1,0,0:0:0:0:
254,191,97240,1,8,0:0:0:0:
241,180,97390,1,0,0:0:0:0:
327,186,97540,1,8,0:0:0:0:
232,205,97615,1,8,0:0:0:0:
260,208,97690,1,0,0:0:0:0:
262,211,97840,1,8,0:0:0:0:
237,223,97990,1,0,0:0:0:0:
204,121,98140,1,8,0:0:0:0:
246,216,98290,1,8,0:0:0:0:
263,221,98440,1,0,0:0:0:0:
269,222,98590,1,8,0:0:0:0:
242,192,98740,1,8,0:0:0:0:
171,177,98815,1,8,0:0:0:0:
242,192,98890,1,0,0:0:0:0:
242,192,99040,1,8,0:0:0:0:
217,182,99115,1,8,0:0:0:0:
206,153,99190,1,8,0:0:0:0:
214,271,99340,1,0,0:0:0:0:
214,214,99490,1,8,0:0:0:0:
198,185,99640,1,0,0:0:0:0:
210,202,99790,1,8,0:0:0:0:
192,131,99865,1,8,0:0:0:0:
204,188,100015,1,0,0:0:0:0:
211,139,100090,1,0,0:0:0:0:
206,143,100240,1,0,0:0:0:0:
209,154,100390,1,8,0:0:0:0:
200,161,100540,1,0,0:0:0:0:
196,169,100615,1,0,0:0:0:0:
236,187,100690,1,8,0:0:0:0:
256,170,100840,1,0,0:0:0:0:
219,149,100990,1,8,0:0:0:0:
271,218,101140,1,8,0:0:0:0:
208,128,101215,1,8,0:0:0:0:
208,128,101290,1,0,0:0:0:0:
206,132,101590,1,0,0:0:0:0:
207,132,101740,1,8,0:0:0:0:
202,157,101890,1,0,0:0:0:0:
236,177,102040,1,8,0:0:0:0:
211,154,102115,1,8,0:0:0:0:
211,147,102190,1,0,0:0:0:0:
206,121,102340,1,8,0:0:0:0:
226,122,102490,1,0,0:0:0:0:
215,134,102640,1,8,0:0:0:0:
213,140,102790,1,0,0:0:0:0:
184,192,102865,1,0,0:0:0:0:
190,193,102940,1,8,0:0:0:0:
218,151,103090,1,8,0:0:0:0:
204,135,103240,1,0,0:0:0:0:
210,131,103390,1,8,0:0:0:0:
215,134,103540,1,8,0:0:0:0:
215,146,103615,1,8,0:0:0:0:
216,177,103690,1,0,0:0:0:0:
232,158,103840,1,8,0:0:0:0:
243,145,103990,1,0,0:0:0:0:
186,167,104140,1,0,0:0:0:0:
184,137,104290,1,8,0:0:0:0:
205,138,104440,1,0,0:0:0:0:
116,175,104515,1,0,0:0:0:0:
220,155,104590,1,0,0:0:0:0:
224,142,104740,1,8,0:0:0:0:
219,115,104890,1,0,0:0:0:0:
222,128,105040,1,0,0:0:0:0:
225,130,105115,1,0,0:0:0:0:
225,130,105190,1,8,0:0:0:0:
199,124,105340,1,8,0:0:0:0:
199,124,105490,1,0,0:0:0:0:
209,158,105640,1,8,0:0:0:0:
226,161,105790,1,0,0:0:0:0:
236,149,105865,1,0,0:0:0:0:
195,119,105940,1,8,0:0:0:0:
162,139,106090,1,0,0:0:0:0:
209,174,106390,1,0,0:0:0:0:
223,178,106540,1,0,0:0:0:0:
223,178,106690,1,8,0:0:0:0:
216,143,106840,1,8,0:0:0:0:
265,138,106990,1,0,0:0:0:0:
216,150,107140,1,8,0:0:0:0:
200,155,107215,1,8,0:0:0:0:
200,155,107290,1,0,0:0:0:0:
201,155,107440,1,8,0:0:0:0:
204,116,107590,1,0,0:0:0:0:
205,116,107740,1,8,0:0:0:0:
201,104,107890,1,0,0:0:0:0:
201,104,108040,1,0,0:0:0:0:
276,249,108115,1,0,0:0:0:0:
201,104,108190,1,8,0:0:0:0:
201,103,108340,1,8,0:0:0:0:
218,129,108490,1,0,0:0:0:0:
206,168,108790,1,8,0:0:0:0:
205,157,108940,1,0,0:0:0:0:
197,112,109090,1,8,0:0:0:0:
184,180,109240,1,0,0:0:0:0:
200,119,109315,1,0,0:0:0:0:
200,142,109390,1,0,0:0:0:0:
211,157,109540,1,8,0:0:0:0:
211,160,109615,1,8,0:0:0:0:
211,160,109690,1,0,0:0:0:0:
217,156,109840,1,0,0:0:0:0:
213,127,109990,1,8,0:0:0:0:
217,147,110140,1,0,0:0:0:0:
220,188,110290,1,8,0:0:0:0:
220,188,110440,1,0,0:0:0:0:
216,162,110590,1,0,0:0:0:0:
227,173,110740,1,8,0:0:0:0:
196,111,110815,1,8,0:0:0:0:
196,111,110890,1,0,0:0:0:0:
265,199,111190,1,8,0:0:0:0:
200,110,111340,1,8,0:0:0:0:
220,135,111415,1,0,0:0:0:0:
216,162,111490,1,8,0:0:0:0:
205,127,111640,1,8,0:0:0:0:
220,141,111790,1,0,0:0:0:0:
225,135,111865,1,0,0:0:0:0:
225,135,111940,1,8,0:0:0:0:
257,100,112090,1,0,0:0:0:0:
198,137,112240,1,0,0:0:0:0:
222,136,112390,1,8,0:0:0:0:
222,118,112540,1,8,0:0:0:0:
211,138,112615,1,8,0:0:0:0:
191,117,112690,1,0,0:0:0:0:
247,156,112840,1,0,0:0:0:0:
227,157,112990,1,8,0:0:0:0:
258,153,113140,1,8,0:0:0:0:
209,159,113215,1,8,0:0:0:0:
325,215,113290,1,0,0:0:0:0:
223,122,113590,1,8,0:0:0:0:
204,99,113740,1,0,0:0:0:0:
192,101,113815,1,0,0:0:0:0:
203,109,113890,1,8,0:0:0:0:
245,158,114040,1,8,0:0:0:0:
204,99,114190,1,0,0:0:0:0:
319,240,114340,1,8,0:0:0:0:
215,141,114490,1,8,0:0:0:0:
196,101,114565,1,8,0:0:0:0:
216,140,114640,1,0,0:0:0:0:
201,124,114790,1,8,0:0:0:0:
215,111,114940,1,8,0:0:0:0:
216,113,115015,1,8,0:0:0:0:
216,114,115090,1,8,0:0:0:0:
221,146,115240,1,8,0:0:0:0:
211,125,115390,1,0,0:0:0:0:
214,126,115540,1,8,0:0:0:0:
221,134,115615,1,8,0:0:0:0:
232,175,115690,1,0,0:0:0:0:
240,160,115990,1,8,0:0:0:0:
241,158,116140,1,0,0:0:0:0:
168,163,116290,1,0,0:0:0:0:
220,120,116440,1,8,0:0:0:0:
210,119,116590,1,0,0:0:0:0:
213,163,116665,1,0,0:0:0:0:
216,119,116740,1,8,0:0:0:0:
210,176,116890,1,8,0:0:0:0:
213,177,116965,1,8,0:0:0:0:
213,177,117115,1,0,0:0:0:0:
213,177,117190,1,0,0:0:0:0:
215,121,117340,1,8,0:0:0:0:
216,123,117415,1,8,0:0:0:0:
215,121,117490,1,0,0:0:0:0:
248,177,117640,1,0,0:0:0:0:
206,139,117790,1,8,0:0:0:0:
214,130,117940,1,0,0:0:0:0:
205,130,118090,1,0,0:0:0:0:
206,152,118240,1,8,0:0:0:0:
207,134,118315,1,8,0:0:0:0:
207,135,118465,1,0,0:0:0:0:
202,120,118540,1,0,0:0:0:0:
215,113,118690,1,8,0:0:0:0:
177,129,118765,1,8,0:0:0:0:
213,124,118840,1,8,0:0:0:0:
216,126,118990,1,0,0:0:0:0:
187,71,119065,1,0,0:0:0:0:
238,161,119140,1,8,0:0:0:0:
211,121,119290,1,0,0:0:0:0:
238,113,119440,1,0,0:0:0:0:
211,73,119590,1,8,0:0:0:0:
215,113,119740,1,0,0:0:0:0:
217,132,119890,1,8,0:0:0:0:
217,119,119965,1,8,0:0:0:0:
215,131,120040,1,0,0:0:0:0:
203,99,120190,1,0,0:0:0:0:
204,104,120340,1,8,0:0:0:0:
230,147,120415,1,8,0:0:0:0:
230,155,120490,1,0,0:0:0:0:
225,140,120790,1,8,0:0:0:0:
199,119,120940,1,0,0:0:0:0:
233,289,121090,1,0,0:0:0:0:
192,110,121165,1,0,0:0:0:0:
204,160,121240,1,0,0:0:0:0:
215,122,121390,1,8,0:0:0:0:
206,114,121540,1,8,0:0:0:0:
206,98,121690,1,8,0:0:0:0:
263,150,121765,1,8,0:0:0:0:
214,124,121840,1,0,0:0:0:0:
218,101,121990,1,8,0:0:0:0:
213,113,122140,1,0,0:0:0:0:
232,149,122290,1,8,0:0:0:0:
194,149,122440,1,0,0:0:0:0:
286,245,122590,1,8,0:0:0:0:
221,167,122740,1,8,0:0:0:0:
207,117,122815,1,8,0:0:0:0:
222,193,122890,1,0,0:0:0:0:
277,232,123040,1,8,0:0:0:0:
214,158,123190,1,8,0:0:0:0:
220,155,123340,1,0,0:0:0:0:
215,133,123490,1,8,0:0:0:0:
203,157,123565,1,8,0:0:0:0:
201,143,123640,1,0,0:0:0:0:
204,157,123790,1,8,0:0:0:0:
205,159,123865,1,8,0:0:0:0:
211,128,123940,1,0,0:0:0:0:
211,128,124090,1,8,0:0:0:0:
196,100,124240,1,0,0:0:0:0:
190,123,124315,1,0,0:0:0:0:
209,159,124390,1,8,0:0:0:0:
193,129,124540,1,0,0:0:0:0:
189,97,124690,1,0,0:0:0:0:
196,185,124840,1,8,0:0:0:0:
262,197,124990,1,0,0:0:0:0:
262,197,125065,1,0,0:0:0:0:
205,108,125140,1,0,0:0:0:0:
205,138,125215,1,0,0:0:0:0:
205,139,125290,1,8,0:0:0:0:
217,131,125590,1,8,0:0:0:0:
286,247,126190,1,8,0:0:0:0:
286,247,126490,1,0,0:0:0:0:
218,170,127090,1,8,0:0:0:0:
218,170,127690,1,0,0:0:0:0:
218,170,127990,1,8,0:0:0:0:
246,164,128590,1,8,0:0:0:0:
246,164,128890,1,8,0:0:0:0:
252,172,129490,1,0,0:0:0:0:
224,123,130090,1,0,0:0:0:0:
217,131,130390,1,8,0:0:0:0:
286,247,130990,1,8,0:0:0:0:
286,247,131290,1,0,0:0:0:0:
274,212,131890,1,0,0:0:0:0:
214,223,132490,1,0,0:0:0:0:
214,197,132790,1,8,0:0:0:0:
223,170,133390,1,8,0:0:0:0:
231,177,133690,1,8,0:0:0:0:
223,170,134290,1,0,0:0:0:0:
224,123,134890,1,0,0:0:0:0:
217,131,135190,1,8,0:0:0:0:
286,247,135790,1,8,0:0:0:0:
286,247,136090,1,0,0:0:0:0:
218,170,136690,1,8,0:0:0:0:
218,170,137290,1,0,0:0:0:0:
218,170,137590,1,8,0:0:0:0:
246,164,138190,1,8,0:0:0:0:
246,164,138490,1,8,0:0:0:0:
252,172,139090,1,0,0:0:0:0:
224,123,139690,1,0,0:0:0:0:
217,131,139990,1,8,0:0:0:0:
286,247,140590,1,8,0:0:0:0:
286,247,140890,1,0,0:0:0:0:
274,212,141490,1,0,0:0:0:0:
248,171,142090,1,8,0:0:0:0:
214,197,142390,1,8,0:0:0:0:
248,171,142690,1,0,0:0:0:0:
248,171,142990,1,0,0:0:0:0:
231,177,143290,1,8,0:0:0:0:
223,170,143890,1,0,0:0:0:0:
256,192,144490,12,0,144677,0:0:0:0:
