osu file format v14

[General]
AudioFilename: audio.mp3
AudioLeadIn: 0
PreviewTime: 145985
Countdown: 1
SampleSet: Normal
StackLeniency: 0.7
Mode: 1
LetterboxInBreaks: 0
WidescreenStoryboard: 0

[Editor]
Bookmarks: 127980
DistanceSpacing: 1.2
BeatDivisor: 4
GridSize: 32
TimelineZoom: 2.3

[Metadata]
Title:planet of the kemomimi loli
TitleUnicode:獣耳ロリの惑星
Artist:katagiri
ArtistUnicode:katagiri
Creator:Backfire
Version:Taikoclysm (ft. Legless)
Source:
Tags:katagiri breakcore mashcore legless chroma miku
BeatmapID:1887234
BeatmapSetID:904052

[Difficulty]
HPDrainRate:4
CircleSize:5
OverallDifficulty:6.5
ApproachRate:5
SliderMultiplier:1.4
SliderTickRate:1

[Events]
//Background and Video events
0,0,"2.jpg",0,0
//Break Periods
//Storyboard Layer 0 (Background)
//Storyboard Layer 1 (Fail)
//Storyboard Layer 2 (Pass)
//Storyboard Layer 3 (Foreground)
//Storyboard Sound Samples

[TimingPoints]
980,250,4,1,0,70,1,0
980,-133.333333333333,4,1,0,70,0,0
6980,-129.87012987013,4,1,0,75,0,0
7105,-126.582278481013,4,1,0,76,0,0
7230,-123.456790123457,4,1,0,77,0,0
7355,-120.481927710843,4,1,0,78,0,0
7480,-117.647058823529,4,1,0,79,0,0
7605,-116.279069767442,4,1,0,80,0,0
7730,-114.942528735632,4,1,0,81,0,0
7855,-113.636363636364,4,1,0,82,0,0
7980,-112.359550561798,4,1,0,83,0,0
8042,-111.111111111111,4,1,0,84,0,0
8105,-109.89010989011,4,1,0,85,0,0
8167,-108.695652173913,4,1,0,86,0,0
8230,-107.52688172043,4,1,0,87,0,0
8292,-106.382978723404,4,1,0,88,0,0
8355,-105.263157894737,4,1,0,89,0,0
8417,-104.166666666667,4,1,0,90,0,0
8480,-103.092783505155,4,1,0,91,0,0
8605,-102.040816326531,4,1,0,92,0,0
8730,-101.010101010101,4,1,0,94,0,0
8980,-100,4,1,0,95,0,1
24980,-100,4,1,0,80,0,0
25480,-133.333333333333,4,1,0,90,0,0
32355,-131.578947368421,4,1,0,90,0,0
32417,-129.87012987013,4,1,0,90,0,0
32480,-128.205128205128,4,1,0,90,0,0
32605,-126.582278481013,4,1,0,90,0,0
32730,-125,4,1,0,90,0,0
32855,-121.951219512195,4,1,0,90,0,0
32980,-117.647058823529,4,1,0,90,0,0
40230,-114.942528735632,4,1,0,90,0,0
40355,-112.359550561798,4,1,0,90,0,0
40480,-109.89010989011,4,1,0,90,0,0
40521,-108.695652173913,4,1,0,90,0,0
40563,-107.52688172043,4,1,0,90,0,0
40605,-106.382978723404,4,1,0,90,0,0
40730,-104.166666666667,4,1,0,93,0,0
40855,-102.040816326531,4,1,0,96,0,0
40980,-100,4,1,0,100,0,0
43980,-90.9090909090909,4,1,0,100,0,1
44105,-83.3333333333333,4,1,0,100,0,1
44230,-76.9230769230769,4,1,0,100,0,1
44480,-83.3333333333333,4,1,0,100,0,1
44605,-90.9090909090909,4,1,0,100,0,1
44730,-92.5925925925926,4,1,0,100,0,1
44771,-94.3396226415094,4,1,0,100,0,1
44813,-96.1538461538461,4,1,0,100,0,1
44855,-98.0392156862745,4,1,0,100,0,1
44980,-100,4,1,0,100,0,0
48230,-99.009900990099,4,1,0,100,0,0
48292,-98.0392156862745,4,1,0,100,0,0
48355,-97.0873786407767,4,1,0,100,0,0
48417,-96.1538461538461,4,1,0,100,0,0
48480,-95.2380952380952,4,1,0,100,0,0
48542,-94.3396226415094,4,1,0,100,0,0
48605,-93.4579439252336,4,1,0,100,0,0
48667,-92.5925925925926,4,1,0,100,0,0
48730,-91.743119266055,4,1,0,100,0,0
48855,-90.9090909090909,4,1,0,100,0,0
48980,-86.9565217391304,4,1,0,100,0,0
49105,-88.4955752212389,4,1,0,100,0,0
49167,-90.0900900900901,4,1,0,100,0,0
49230,-91.743119266055,4,1,0,100,0,0
49355,-95.2380952380952,4,1,0,100,0,0
49480,-100,4,1,0,100,0,0
51980,-25,4,1,0,100,0,0
52605,-76.9230769230769,4,1,0,100,0,0
52730,-83.3333333333333,4,1,0,100,0,0
52855,-86.9565217391304,4,1,0,100,0,0
52980,-90.9090909090909,4,1,0,100,0,0
54980,-93.4579439252336,4,1,0,100,0,0
55105,-96.1538461538461,4,1,0,100,0,0
55230,-100,4,1,0,100,0,0
55480,-111.111111111111,4,1,0,100,0,0
55730,-125,4,1,0,100,0,0
55980,-105.263157894737,4,1,0,100,0,0
56105,-90.9090909090909,4,1,0,100,0,0
56230,-80,4,1,0,100,0,0
56480,-66.6666666666667,4,1,0,100,0,0
56730,-57.1428571428571,4,1,0,100,0,0
56980,-90.9090909090909,4,1,0,100,0,1
64730,-90.0900900900901,4,1,0,100,0,1
64792,-89.2857142857143,4,1,0,100,0,1
64855,-88.4955752212389,4,1,0,100,0,1
64917,-87.719298245614,4,1,0,100,0,1
64980,-86.9565217391304,4,1,0,100,0,0
65230,-83.3333333333333,4,1,0,100,0,0
65355,-80,4,1,0,100,0,0
65480,-76.9230769230769,4,1,0,100,0,0
65730,-80,4,1,0,100,0,0
65855,-83.3333333333333,4,1,0,100,0,0
65980,-86.9565217391304,4,1,0,100,0,0
66230,-83.3333333333333,4,1,0,100,0,0
66355,-80,4,1,0,100,0,0
66480,-76.9230769230769,4,1,0,100,0,0
66605,-80,4,1,0,100,0,0
66730,-83.3333333333333,4,1,0,100,0,0
66855,-86.9565217391304,4,1,0,100,0,0
66980,-90.9090909090909,4,1,0,100,0,0
67230,-83.3333333333333,4,1,0,100,0,0
67355,-80,4,1,0,100,0,0
67480,-76.9230769230769,4,1,0,100,0,0
67730,-80,4,1,0,100,0,0
67855,-83.3333333333333,4,1,0,100,0,0
67980,-86.9565217391304,4,1,0,100,0,0
68230,-83.3333333333333,4,1,0,100,0,0
68355,-80,4,1,0,100,0,0
68480,-76.9230769230769,4,1,0,100,0,0
68605,-78.7401574803149,4,1,0,100,0,0
68667,-80.6451612903226,4,1,0,100,0,0
68730,-82.6446280991736,4,1,0,100,0,0
68855,-84.7457627118644,4,1,0,100,0,0
68980,-86.9565217391304,4,1,0,100,0,0
70605,-86.2068965517241,4,1,0,100,0,0
70667,-85.4700854700855,4,1,0,100,0,0
70730,-84.7457627118644,4,1,0,100,0,0
70855,-84.0336134453781,4,1,0,100,0,0
70980,-83.3333333333333,4,1,0,100,0,0
71105,-82.6446280991736,4,1,0,100,0,0
71167,-81.9672131147541,4,1,0,100,0,0
71230,-81.3008130081301,4,1,0,100,0,0
71355,-80.6451612903226,4,1,0,100,0,0
71480,-80,4,1,0,100,0,0
71605,-79.3650793650794,4,1,0,100,0,0
71667,-78.7401574803149,4,1,0,100,0,0
71730,-78.125,4,1,0,100,0,0
71855,-77.5193798449612,4,1,0,100,0,0
71980,-76.9230769230769,4,1,0,100,0,0
72042,-76.3358778625954,4,1,0,100,0,0
72105,-75.7575757575758,4,1,0,100,0,0
72167,-75.187969924812,4,1,0,100,0,0
72230,-74.6268656716418,4,1,0,100,0,0
72292,-74.0740740740741,4,1,0,100,0,0
72355,-73.5294117647059,4,1,0,100,0,0
72417,-72.992700729927,4,1,0,100,0,0
72480,-72.463768115942,4,1,0,100,0,0
72542,-71.9424460431655,4,1,0,100,0,0
72605,-71.4285714285714,4,1,0,100,0,0
72667,-70.4225352112676,4,1,0,100,0,0
72730,-68.9655172413793,4,1,0,100,0,0
72980,-90.9090909090909,4,1,0,100,0,1
80855,-90.9090909090909,4,1,0,100,0,0
80980,-90.9090909090909,4,1,0,100,0,1
84730,-90.0900900900901,4,1,0,100,0,1
84855,-89.2857142857143,4,1,0,100,0,1
84980,-88.4955752212389,4,1,0,100,0,1
85042,-87.719298245614,4,1,0,100,0,1
85105,-86.9565217391304,4,1,0,100,0,1
85230,-86.2068965517241,4,1,0,100,0,1
85355,-85.4700854700855,4,1,0,100,0,1
85417,-84.7457627118644,4,1,0,100,0,1
85480,-84.0336134453781,4,1,0,100,0,1
85605,-83.3333333333333,4,1,0,100,0,1
85730,-82.6446280991736,4,1,0,100,0,1
85792,-81.9672131147541,4,1,0,100,0,1
85855,-81.3008130081301,4,1,0,100,0,1
85980,-80.6451612903226,4,1,0,100,0,1
86105,-80,4,1,0,100,0,1
86167,-79.3650793650794,4,1,0,100,0,1
86230,-78.7401574803149,4,1,0,100,0,1
86355,-78.125,4,1,0,100,0,1
86480,-77.5193798449612,4,1,0,100,0,1
86542,-76.9230769230769,4,1,0,100,0,1
86605,-76.3358778625954,4,1,0,100,0,1
88480,-50,4,1,0,100,0,0
89980,-133.333333333333,4,1,0,80,0,0
96980,-121.951219512195,4,1,0,85,0,0
97167,-109.89010989011,4,1,0,90,0,0
97355,-100,4,1,0,95,0,0
97730,-95.2380952380952,4,1,0,100,0,0
97855,-90.9090909090909,4,1,0,100,0,0
97980,-86.9565217391304,4,1,0,100,0,0
103980,-83.3333333333333,4,1,0,100,0,0
104167,-80,4,1,0,100,0,0
104355,-76.9230769230769,4,1,0,100,0,0
104480,-40,4,1,0,60,0,0
104980,-83.3333333333333,4,1,0,100,0,0
105167,-80,4,1,0,100,0,0
105355,-76.9230769230769,4,1,0,100,0,0
105480,-40,4,1,0,100,0,0
105980,-83.3333333333333,4,1,0,100,0,0
106167,-80,4,1,0,100,0,0
106355,-76.9230769230769,4,1,0,100,0,0
106480,-40,4,1,0,100,0,0
106980,-83.3333333333333,4,1,0,100,0,0
107230,-80,4,1,0,100,0,0
107480,-76.9230769230769,4,1,0,100,0,0
107730,-74.0740740740741,4,1,0,100,0,0
107980,-71.4285714285714,4,1,0,100,0,0
108105,-70.9219858156028,4,1,0,100,0,0
108230,-70.4225352112676,4,1,0,100,0,0
108355,-69.9300699300699,4,1,0,100,0,0
108480,-69.4444444444444,4,1,0,100,0,0
108605,-68.9655172413793,4,1,0,100,0,0
108730,-68.4931506849315,4,1,0,100,0,0
108792,-68.0272108843537,4,1,0,100,0,0
108855,-67.5675675675676,4,1,0,100,0,0
108917,-67.1140939597315,4,1,0,100,0,0
108980,-50,4,1,0,100,0,0
109980,-57.1428571428571,4,1,0,100,0,0
110605,-90.9090909090909,4,1,0,100,0,0
110730,-89.2857142857143,4,1,0,100,0,0
110792,-87.719298245614,4,1,0,100,0,0
110855,-86.2068965517241,4,1,0,100,0,0
110917,-84.7457627118644,4,1,0,100,0,0
110980,-83.3333333333333,4,1,0,100,0,1
121980,-81.3008130081301,4,1,0,100,0,1
122105,-79.3650793650794,4,1,0,100,0,1
122355,-77.5193798449612,4,1,0,100,0,1
122480,-75.7575757575758,4,1,0,100,0,1
122730,-74.0740740740741,4,1,0,100,0,1
122855,-72.463768115942,4,1,0,100,0,1
123105,-70.9219858156028,4,1,0,100,0,1
123230,-68.9655172413793,4,1,0,100,0,1
123480,-66.6666666666667,4,1,0,100,0,1
123605,-67.1140939597315,4,1,0,100,0,1
123667,-67.5675675675676,4,1,0,100,0,1
123730,-68.0272108843537,4,1,0,100,0,1
123855,-68.9655172413793,4,1,0,100,0,1
123980,-69.9300699300699,4,1,0,100,0,1
124105,-70.9219858156028,4,1,0,100,0,1
124167,-71.4285714285714,4,1,0,100,0,1
124230,-71.9424460431655,4,1,0,100,0,1
124355,-72.992700729927,4,1,0,100,0,1
124480,-74.0740740740741,4,1,0,100,0,1
124605,-75.187969924812,4,1,0,100,0,1
124667,-75.7575757575758,4,1,0,100,0,1
124730,-76.3358778625954,4,1,0,100,0,1
124855,-77.5193798449612,4,1,0,100,0,1
124980,-78.7401574803149,4,1,0,100,0,1
125105,-80,4,1,0,100,0,1
125230,-81.3008130081301,4,1,0,100,0,1
125355,-82.6446280991736,4,1,0,100,0,1
125480,-84.0336134453781,4,1,0,100,0,1
125542,-84.7457627118644,4,1,0,100,0,1
125605,-85.4700854700855,4,1,0,100,0,1
125667,-86.2068965517241,4,1,0,100,0,1
125730,-86.9565217391304,4,1,0,100,0,1
125855,-88.4955752212389,4,1,0,100,0,1
125980,-90.0900900900901,4,1,0,100,0,1
126230,-92.5925925925926,4,1,0,100,0,1
126355,-94.3396226415094,4,1,0,100,0,1
126605,-96.1538461538461,4,1,0,100,0,1
126730,-98.0392156862745,4,1,0,100,0,1
126980,-100,4,1,0,100,0,1
129480,-71.4285714285714,4,1,0,100,0,0
129980,-100,4,1,0,100,0,0
130980,-71.4285714285714,4,1,0,100,0,0
131855,-100,4,1,0,100,0,0
133480,-71.4285714285714,4,1,0,100,0,0
133980,-100,4,1,0,100,0,0
135271,-102.040816326531,4,1,0,100,0,0
135313,-104.166666666667,4,1,0,100,0,0
135355,-106.382978723404,4,1,0,100,0,0
135417,-109.89010989011,4,1,0,100,0,0
135480,-113.636363636364,4,1,0,100,0,0
135605,-121.951219512195,4,1,0,100,0,0
135730,-131.578947368421,4,1,0,100,0,0
135855,-142.857142857143,4,1,0,100,0,0
135980,-98.0392156862745,4,1,0,100,0,0
136980,-96.1538461538461,4,1,0,100,0,0
137917,-95.2380952380952,4,1,0,100,0,0
137980,-94.3396226415094,4,1,0,100,0,0
138980,-92.5925925925926,4,1,0,100,0,0
139917,-91.743119266055,4,1,0,100,0,0
139980,-90.9090909090909,4,1,0,100,0,0
140917,-90.0900900900901,4,1,0,100,0,0
140980,-89.2857142857143,4,1,0,100,0,0
141980,-87.719298245614,4,1,0,100,0,0
142980,-86.9565217391304,4,1,0,100,0,0
143980,-85.4700854700855,4,1,0,100,0,0
144230,-84.0336134453781,4,1,0,100,0,0
144480,-83.3333333333333,4,1,0,100,0,0
144730,-84.7457627118644,4,1,0,100,0,0
144855,-86.2068965517241,4,1,0,100,0,0
144980,-87.719298245614,4,1,0,100,0,0
145105,-89.2857142857143,4,1,0,100,0,0
145230,-90.9090909090909,4,1,0,100,0,0
145355,-92.5925925925926,4,1,0,100,0,0
145480,-94.3396226415094,4,1,0,100,0,0
145542,-96.1538461538461,4,1,0,100,0,0
145605,-98.0392156862745,4,1,0,100,0,0
145730,-100,4,1,0,100,0,0
145980,-86.9565217391304,4,1,0,100,0,1
151855,-88.4955752212389,4,1,0,100,0,1
151980,-90.9090909090909,4,1,0,100,0,0
153730,-90.0900900900901,4,1,0,100,0,0
153792,-89.2857142857143,4,1,0,100,0,0
153855,-88.4955752212389,4,1,0,100,0,0
153917,-87.719298245614,4,1,0,100,0,0
153980,-86.9565217391304,4,1,0,100,0,1
159855,-89.2857142857143,4,1,0,100,0,1
159980,-90.9090909090909,4,1,0,100,0,0
160980,-90.9090909090909,4,1,0,100,0,0
161980,-125,4,1,0,70,0,0
163792,-117.647058823529,4,1,0,80,0,0
163855,-111.111111111111,4,1,0,85,0,0
163917,-105.263157894737,4,1,0,90,0,0
163980,-100,4,1,0,100,0,0
165792,-99.009900990099,4,1,0,100,0,0
165855,-98.0392156862745,4,1,0,100,0,0
167792,-97.0873786407767,4,1,0,100,0,0
167855,-96.1538461538461,4,1,0,100,0,0
169792,-95.2380952380952,4,1,0,100,0,0
169855,-94.3396226415094,4,1,0,100,0,0
171542,-93.4579439252336,4,1,0,100,0,0
171605,-92.5925925925926,4,1,0,100,0,0
171667,-91.743119266055,4,1,0,100,0,0
171730,-90.9090909090909,4,1,0,100,0,0
171792,-90.0900900900901,4,1,0,100,0,0
171855,-89.2857142857143,4,1,0,100,0,0
171917,-88.4955752212389,4,1,0,100,0,0
171980,-87.719298245614,4,1,0,100,0,0
172105,-86.9565217391304,4,1,0,100,0,0
178230,-88.4955752212389,4,1,0,100,0,0
178480,-90.0900900900901,4,1,0,100,0,0
178730,-91.743119266055,4,1,0,100,0,0
178855,-93.4579439252336,4,1,0,100,0,0
178980,-95.2380952380952,4,1,0,100,0,0
179105,-96.1538461538461,4,1,0,100,0,0
179230,-97.0873786407767,4,1,0,100,0,0
179480,-98.0392156862745,4,1,0,100,0,0
179730,-99.009900990099,4,1,0,100,0,0
179855,-100,4,1,0,100,0,0
179980,-100,4,1,0,70,0,0
180480,-147.058823529412,4,1,0,70,0,0
187667,-142.857142857143,4,1,0,70,0,0
187730,-138.888888888889,4,1,0,70,0,0
187855,-131.578947368421,4,1,0,70,0,0
187980,-125,4,1,0,70,0,0
195980,-111.111111111111,4,1,0,80,0,0
197980,-109.89010989011,4,1,0,85,0,0
199980,-108.695652173913,4,1,0,90,0,0
200105,-107.52688172043,4,1,0,90,0,0
200230,-106.382978723404,4,1,0,90,0,0
200355,-105.263157894737,4,1,0,90,0,0
200480,-104.166666666667,4,1,0,90,0,0
200605,-103.092783505155,4,1,0,90,0,0
200730,-102.040816326531,4,1,0,90,0,0
200855,-101.010101010101,4,1,0,90,0,0
200980,-100,4,1,0,90,0,0
201105,-99.009900990099,4,1,0,95,0,0
201230,-98.0392156862745,4,1,0,95,0,0
201355,-97.0873786407767,4,1,0,95,0,0
201480,-96.1538461538461,4,1,0,95,0,0
201605,-95.2380952380952,4,1,0,95,0,0
201730,-94.3396226415094,4,1,0,95,0,0
201855,-93.4579439252336,4,1,0,95,0,0
201980,-92.5925925925926,4,1,0,95,0,0
202042,-91.743119266055,4,1,0,95,0,0
202105,-90.9090909090909,4,1,0,95,0,0
202167,-90.0900900900901,4,1,0,95,0,0
202230,-89.2857142857143,4,1,0,95,0,0
202292,-88.4955752212389,4,1,0,95,0,0
202355,-87.4890638670166,4,1,0,95,0,0
202417,-86.9565217391304,4,1,0,95,0,0
202480,-86.2068965517241,4,1,0,95,0,0
202542,-85.4700854700855,4,1,0,95,0,0
202605,-84.7457627118644,4,1,0,95,0,0
202667,-84.0336134453781,4,1,0,95,0,0
202730,-83.3333333333333,4,1,0,95,0,0
203980,-83.3333333333333,4,1,0,95,0,1
214980,-83.3333333333333,4,1,0,95,0,0
215980,-86.9565217391304,4,1,0,100,0,0
223855,-84.7457627118644,4,1,0,100,0,0
223980,-83.3333333333333,4,1,0,100,0,1
231980,-66.6666666666667,4,1,0,100,0,0

[HitObjects]
333,207,980,5,0,0:0:0:0:
333,207,1230,1,0,0:0:0:0:
333,207,1355,1,0,0:0:0:0:
337,208,1480,1,8,0:0:0:0:
338,207,1730,1,0,0:0:0:0:
343,199,1855,1,8,0:0:0:0:
348,196,1980,1,0,0:0:0:0:
353,189,2105,1,8,0:0:0:0:
356,195,2230,1,0,0:0:0:0:
348,187,2355,1,0,0:0:0:0:
354,188,2480,1,8,0:0:0:0:
355,186,2730,1,8,0:0:0:0:
365,187,2855,1,8,0:0:0:0:
365,187,2980,5,0,0:0:0:0:
340,160,3230,1,0,0:0:0:0:
345,167,3355,1,0,0:0:0:0:
346,173,3480,1,8,0:0:0:0:
371,178,3730,1,0,0:0:0:0:
372,181,3855,1,0,0:0:0:0:
372,180,3980,1,0,0:0:0:0:
371,178,4105,1,0,0:0:0:0:
370,178,4230,1,8,0:0:0:0:
375,175,4355,1,0,0:0:0:0:
377,177,4480,1,8,0:0:0:0:
356,179,4730,1,0,0:0:0:0:
425,201,4855,1,0,0:0:0:0:
426,195,4980,5,8,0:0:0:0:
425,201,5230,1,0,0:0:0:0:
425,201,5355,1,8,0:0:0:0:
425,201,5480,1,0,0:0:0:0:
425,201,5605,1,0,0:0:0:0:
424,195,5730,1,8,0:0:0:0:
437,186,5980,1,0,0:0:0:0:
439,188,6105,1,0,0:0:0:0:
419,188,6230,1,8,0:0:0:0:
419,190,6355,1,8,0:0:0:0:
401,194,6480,1,0,0:0:0:0:
419,180,6730,1,0,0:0:0:0:
379,165,6980,5,4,0:0:0:0:
379,165,7105,1,0,0:0:0:0:
379,165,7230,1,0,0:0:0:0:
379,165,7355,1,0,0:0:0:0:
379,165,7480,5,8,0:0:0:0:
379,165,7605,1,8,0:0:0:0:
379,165,7730,1,8,0:0:0:0:
379,165,7855,1,8,0:0:0:0:
375,169,7980,5,0,0:0:0:0:
398,156,8042,1,0,0:0:0:0:
394,157,8105,1,8,0:0:0:0:
398,157,8167,1,0,0:0:0:0:
398,156,8230,1,8,0:0:0:0:
398,156,8292,1,8,0:0:0:0:
398,156,8355,1,0,0:0:0:0:
401,151,8417,1,0,0:0:0:0:
400,151,8480,1,8,0:0:0:0:
401,151,8605,1,0,0:0:0:0:
403,149,8730,1,12,0:0:0:0:
370,150,8980,5,4,0:0:0:0:
375,158,9105,1,0,0:0:0:0:
376,157,9167,1,0,0:0:0:0:
376,156,9230,1,8,0:0:0:0:
336,127,9355,1,0,0:0:0:0:
336,127,9480,1,8,0:0:0:0:
336,127,9542,1,8,0:0:0:0:
336,127,9605,1,8,0:0:0:0:
336,127,9667,1,8,0:0:0:0:
336,127,9730,1,0,0:0:0:0:
341,125,9855,1,0,0:0:0:0:
343,126,9980,5,8,0:0:0:0:
357,182,10105,1,0,0:0:0:0:
357,182,10167,1,0,0:0:0:0:
357,182,10230,1,8,0:0:0:0:
357,182,10355,1,8,0:0:0:0:
365,173,10480,1,8,0:0:0:0:
362,178,10542,1,8,0:0:0:0:
369,169,10605,1,0,0:0:0:0:
472,152,10667,1,0,0:0:0:0:
369,168,10730,1,8,0:0:0:0:
344,159,10855,1,0,0:0:0:0:
359,151,10980,5,8,0:0:0:0:
359,151,11105,1,0,0:0:0:0:
354,151,11167,1,0,0:0:0:0:
354,151,11230,1,8,0:0:0:0:
352,151,11355,1,0,0:0:0:0:
301,106,11417,1,0,0:0:0:0:
327,135,11480,1,8,0:0:0:0:
335,122,11542,1,8,0:0:0:0:
341,126,11605,1,0,0:0:0:0:
341,127,11667,1,0,0:0:0:0:
341,128,11730,1,8,0:0:0:0:
379,145,11855,1,0,0:0:0:0:
381,148,11980,1,8,0:0:0:0:
383,138,12042,1,8,0:0:0:0:
383,141,12105,1,0,0:0:0:0:
374,134,12230,1,8,0:0:0:0:
373,133,12355,1,0,0:0:0:0:
366,135,12417,1,0,0:0:0:0:
366,135,12480,1,8,0:0:0:0:
369,137,12605,1,8,0:0:0:0:
373,131,12667,1,8,0:0:0:0:
369,137,12730,1,0,0:0:0:0:
369,137,12855,1,8,0:0:0:0:
369,137,12980,5,4,0:0:0:0:
368,135,13105,1,0,0:0:0:0:
374,134,13167,1,0,0:0:0:0:
374,134,13230,1,8,0:0:0:0:
373,133,13355,1,0,0:0:0:0:
310,153,13480,1,0,0:0:0:0:
310,153,13542,1,8,0:0:0:0:
314,141,13605,1,8,0:0:0:0:
310,153,13667,1,8,0:0:0:0:
312,142,13730,1,0,0:0:0:0:
299,129,13855,1,0,0:0:0:0:
299,129,13980,5,8,0:0:0:0:
297,129,14105,1,0,0:0:0:0:
299,129,14167,1,0,0:0:0:0:
298,128,14230,1,8,0:0:0:0:
290,128,14292,1,0,0:0:0:0:
288,129,14355,1,8,0:0:0:0:
283,126,14480,1,0,0:0:0:0:
286,126,14605,1,8,0:0:0:0:
286,126,14730,1,8,0:0:0:0:
286,126,14792,1,8,0:0:0:0:
284,124,14855,1,0,0:0:0:0:
351,160,14980,5,8,0:0:0:0:
351,160,15042,1,0,0:0:0:0:
360,160,15105,1,8,0:0:0:0:
357,168,15167,1,8,0:0:0:0:
359,159,15230,1,0,0:0:0:0:
359,159,15292,1,0,0:0:0:0:
367,155,15355,1,8,0:0:0:0:
321,153,15417,1,0,0:0:0:0:
370,158,15480,1,8,0:0:0:0:
356,166,15542,1,8,0:0:0:0:
366,152,15605,1,0,0:0:0:0:
321,153,15667,1,0,0:0:0:0:
321,153,15730,1,8,0:0:0:0:
321,153,15855,1,8,0:0:0:0:
351,160,15980,1,0,0:0:0:0:
351,160,16042,1,0,0:0:0:0:
334,144,16105,1,8,0:0:0:0:
334,144,16230,1,0,0:0:0:0:
334,144,16355,1,8,0:0:0:0:
359,163,16417,1,0,0:0:0:0:
364,163,16480,1,8,0:0:0:0:
353,156,16605,1,0,0:0:0:0:
351,153,16730,1,8,0:0:0:0:
349,150,16792,1,8,0:0:0:0:
349,150,16855,1,8,0:0:0:0:
345,150,16917,1,8,0:0:0:0:
345,150,16980,5,4,0:0:0:0:
325,154,17105,1,0,0:0:0:0:
335,153,17230,1,8,0:0:0:0:
338,156,17355,1,0,0:0:0:0:
338,155,17417,1,0,0:0:0:0:
336,156,17480,1,0,0:0:0:0:
329,146,17605,1,0,0:0:0:0:
329,146,17730,1,8,0:0:0:0:
332,150,17792,1,0,0:0:0:0:
325,149,17855,1,8,0:0:0:0:
328,150,17917,1,8,0:0:0:0:
325,149,17980,5,0,0:0:0:0:
317,124,18105,1,0,0:0:0:0:
317,124,18230,1,8,0:0:0:0:
359,155,18355,1,0,0:0:0:0:
353,162,18417,1,0,0:0:0:0:
346,141,18480,1,0,0:0:0:0:
350,140,18605,1,0,0:0:0:0:
350,140,18730,1,8,0:0:0:0:
353,155,18792,1,8,0:0:0:0:
317,124,18855,1,0,0:0:0:0:
317,124,18917,1,8,0:0:0:0:
317,124,18980,5,0,0:0:0:0:
349,140,19105,1,0,0:0:0:0:
354,138,19230,1,8,0:0:0:0:
359,155,19292,1,0,0:0:0:0:
317,124,19355,1,8,0:0:0:0:
312,121,19417,1,8,0:0:0:0:
317,124,19480,1,0,0:0:0:0:
330,124,19542,1,8,0:0:0:0:
328,119,19605,1,0,0:0:0:0:
381,157,19667,1,0,0:0:0:0:
241,138,19730,1,8,0:0:0:0:
346,132,19855,1,0,0:0:0:0:
346,132,19980,1,0,0:0:0:0:
347,131,20042,1,0,0:0:0:0:
346,132,20105,1,8,0:0:0:0:
350,130,20230,1,8,0:0:0:0:
350,130,20355,1,0,0:0:0:0:
350,130,20417,1,0,0:0:0:0:
346,131,20480,1,8,0:0:0:0:
344,133,20542,1,8,0:0:0:0:
349,127,20605,1,0,0:0:0:0:
349,127,20730,1,8,0:0:0:0:
346,132,20855,1,8,0:0:0:0:
350,126,20980,5,4,0:0:0:0:
299,153,21105,1,0,0:0:0:0:
299,153,21167,1,0,0:0:0:0:
299,153,21230,1,8,0:0:0:0:
308,108,21355,1,0,0:0:0:0:
308,108,21480,1,8,0:0:0:0:
308,108,21542,1,0,0:0:0:0:
308,108,21605,1,0,0:0:0:0:
317,103,21667,1,0,0:0:0:0:
317,103,21730,1,8,0:0:0:0:
317,119,21855,5,8,0:0:0:0:
317,119,21917,5,8,0:0:0:0:
317,119,21980,1,0,0:0:0:0:
317,119,22105,1,0,0:0:0:0:
317,119,22230,1,8,0:0:0:0:
325,138,22292,1,0,0:0:0:0:
317,119,22355,1,8,0:0:0:0:
328,120,22480,1,0,0:0:0:0:
321,118,22542,1,0,0:0:0:0:
325,120,22605,1,8,0:0:0:0:
325,120,22667,1,8,0:0:0:0:
325,120,22730,1,0,0:0:0:0:
322,111,22792,1,0,0:0:0:0:
326,112,22855,1,8,0:0:0:0:
323,115,22980,5,0,0:0:0:0:
334,124,23042,1,8,0:0:0:0:
319,113,23105,1,0,0:0:0:0:
322,128,23167,1,0,0:0:0:0:
322,128,23230,1,8,0:0:0:0:
325,126,23292,1,0,0:0:0:0:
317,119,23355,1,8,0:0:0:0:
334,124,23417,1,8,0:0:0:0:
321,122,23480,1,0,0:0:0:0:
335,124,23542,1,0,0:0:0:0:
319,121,23605,1,8,0:0:0:0:
317,120,23667,1,0,0:0:0:0:
314,120,23730,1,8,0:0:0:0:
314,120,23855,1,0,0:0:0:0:
313,118,23980,1,8,0:0:0:0:
325,120,24105,1,0,0:0:0:0:
327,121,24167,1,0,0:0:0:0:
332,122,24230,1,8,0:0:0:0:
310,148,24355,1,8,0:0:0:0:
313,136,24480,1,0,0:0:0:0:
313,136,24542,1,0,0:0:0:0:
313,136,24605,1,0,0:0:0:0:
314,140,24730,1,8,0:0:0:0:
317,135,24855,1,8,0:0:0:0:
346,141,24980,5,4,0:0:0:0:
271,151,25480,1,8,0:0:0:0:
268,182,25855,5,4,0:0:0:0:
311,126,26230,1,0,0:0:0:0:
311,126,26480,1,8,0:0:0:0:
297,162,26980,5,4,0:0:0:0:
346,102,27480,1,8,0:0:0:0:
301,166,27855,5,4,0:0:0:0:
405,148,28230,1,8,0:0:0:0:
321,157,28480,5,4,0:0:0:0:
322,156,28980,5,4,0:0:0:0:
324,109,29480,1,8,0:0:0:0:
397,161,29855,5,4,0:0:0:0:
324,109,30230,1,0,0:0:0:0:
359,133,30480,1,8,0:0:0:0:
397,160,30980,5,4,0:0:0:0:
332,106,31480,1,8,0:0:0:0:
397,160,31855,5,4,0:0:0:0:
397,160,32355,1,0,0:0:0:0:
394,151,32417,1,0,0:0:0:0:
357,118,32480,1,8,0:0:0:0:
386,144,32605,1,0,0:0:0:0:
385,138,32730,1,8,0:0:0:0:
363,120,32855,1,8,0:0:0:0:
365,125,32980,5,4,0:0:0:0:
285,81,33230,1,0,0:0:0:0:
291,85,33355,1,0,0:0:0:0:
290,84,33480,1,8,0:0:0:0:
405,159,33730,1,0,0:0:0:0:
285,81,33855,5,4,0:0:0:0:
405,159,33980,1,0,0:0:0:0:
348,123,34230,1,0,0:0:0:0:
348,123,34355,1,0,0:0:0:0:
348,123,34417,1,0,0:0:0:0:
346,128,34480,1,8,0:0:0:0:
348,123,34730,1,0,0:0:0:0:
348,123,34980,5,4,0:0:0:0:
348,123,35230,1,0,0:0:0:0:
348,123,35355,1,0,0:0:0:0:
346,128,35480,1,8,0:0:0:0:
394,160,35730,1,0,0:0:0:0:
330,130,35855,5,4,0:0:0:0:
394,160,35980,1,0,0:0:0:0:
398,144,36230,1,0,0:0:0:0:
338,122,36355,1,0,0:0:0:0:
338,122,36417,1,0,0:0:0:0:
336,122,36480,1,8,0:0:0:0:
363,150,36730,1,0,0:0:0:0:
363,150,36855,1,8,0:0:0:0:
301,114,36980,5,4,0:0:0:0:
322,101,37230,1,0,0:0:0:0:
325,106,37355,1,0,0:0:0:0:
325,106,37480,1,8,0:0:0:0:
318,125,37730,1,0,0:0:0:0:
301,114,37855,5,4,0:0:0:0:
400,144,37980,1,0,0:0:0:0:
400,144,38230,1,0,0:0:0:0:
321,118,38355,1,0,0:0:0:0:
321,118,38417,1,0,0:0:0:0:
321,118,38480,1,8,0:0:0:0:
404,137,38730,1,0,0:0:0:0:
403,138,38855,1,8,0:0:0:0:
317,125,38980,5,4,0:0:0:0:
366,152,39105,1,0,0:0:0:0:
376,160,39230,1,8,0:0:0:0:
319,155,39355,1,8,0:0:0:0:
297,167,39480,1,0,0:0:0:0:
319,155,39605,1,0,0:0:0:0:
319,155,39730,1,8,0:0:0:0:
317,125,39855,5,4,0:0:0:0:
319,155,39980,1,0,0:0:0:0:
319,155,40230,1,0,0:0:0:0:
330,151,40355,1,8,0:0:0:0:
383,128,40480,1,0,0:0:0:0:
383,128,40521,1,0,0:0:0:0:
391,126,40563,1,0,0:0:0:0:
383,117,40605,1,8,0:0:0:0:
374,106,40730,1,0,0:0:0:0:
341,147,40855,1,8,0:0:0:0:
339,157,40980,5,4,0:0:0:0:
313,158,41105,1,0,0:0:0:0:
311,152,41167,1,0,0:0:0:0:
309,151,41230,1,8,0:0:0:0:
311,149,41355,1,0,0:0:0:0:
310,146,41480,1,0,0:0:0:0:
310,144,41542,1,8,0:0:0:0:
311,144,41605,1,0,0:0:0:0:
319,139,41667,1,0,0:0:0:0:
323,123,41730,1,8,0:0:0:0:
323,124,41792,1,8,0:0:0:0:
323,124,41855,1,0,0:0:0:0:
299,96,41980,1,0,0:0:0:0:
297,102,42042,1,0,0:0:0:0:
305,133,42105,1,0,0:0:0:0:
307,134,42230,1,8,0:0:0:0:
303,135,42355,1,0,0:0:0:0:
415,151,42417,1,0,0:0:0:0:
397,146,42480,1,8,0:0:0:0:
387,141,42542,1,8,0:0:0:0:
395,144,42605,1,0,0:0:0:0:
388,138,42730,1,0,0:0:0:0:
388,138,42855,1,8,0:0:0:0:
388,140,42917,1,0,0:0:0:0:
385,140,42980,1,8,0:0:0:0:
383,143,43105,1,0,0:0:0:0:
381,138,43230,1,8,0:0:0:0:
385,136,43355,1,0,0:0:0:0:
336,149,43417,1,0,0:0:0:0:
363,149,43480,1,0,0:0:0:0:
352,153,43542,1,0,0:0:0:0:
346,151,43605,1,8,0:0:0:0:
348,131,43730,1,0,0:0:0:0:
345,130,43855,1,8,0:0:0:0:
363,151,43980,5,4,0:0:0:0:
363,151,44105,1,4,0:0:0:0:
363,151,44230,1,4,0:0:0:0:
357,148,44480,1,4,0:0:0:0:
363,151,44605,1,4,0:0:0:0:
359,148,44730,1,8,0:0:0:0:
384,146,44771,1,8,0:0:0:0:
385,145,44813,1,8,0:0:0:0:
339,128,44855,1,8,0:0:0:0:
294,144,44980,5,4,0:0:0:0:
326,142,45105,1,0,0:0:0:0:
357,107,45167,1,0,0:0:0:0:
357,107,45230,1,8,0:0:0:0:
361,111,45355,1,0,0:0:0:0:
377,182,45417,1,8,0:0:0:0:
367,108,45480,1,0,0:0:0:0:
370,107,45542,1,0,0:0:0:0:
370,107,45605,1,8,0:0:0:0:
374,105,45667,1,0,0:0:0:0:
373,108,45730,1,8,0:0:0:0:
377,182,45855,1,0,0:0:0:0:
390,159,45917,1,0,0:0:0:0:
387,164,45980,1,8,0:0:0:0:
399,144,46042,1,8,0:0:0:0:
398,146,46105,1,0,0:0:0:0:
397,149,46230,1,8,0:0:0:0:
388,141,46355,1,0,0:0:0:0:
386,142,46417,1,0,0:0:0:0:
392,132,46480,1,8,0:0:0:0:
392,133,46542,1,0,0:0:0:0:
392,133,46605,1,0,0:0:0:0:
398,121,46667,1,0,0:0:0:0:
398,120,46730,1,8,0:0:0:0:
397,121,46855,1,0,0:0:0:0:
403,116,46980,5,8,0:0:0:0:
403,116,47042,1,8,0:0:0:0:
403,116,47105,1,8,0:0:0:0:
403,115,47230,1,0,0:0:0:0:
403,115,47355,1,8,0:0:0:0:
404,115,47417,1,8,0:0:0:0:
404,115,47480,1,8,0:0:0:0:
405,114,47605,1,0,0:0:0:0:
403,113,47730,1,8,0:0:0:0:
403,113,47792,1,8,0:0:0:0:
403,113,47855,1,8,0:0:0:0:
403,116,47917,1,0,0:0:0:0:
403,116,47980,1,8,0:0:0:0:
402,109,48105,1,0,0:0:0:0:
346,163,48230,1,0,0:0:0:0:
351,166,48292,1,0,0:0:0:0:
356,169,48355,1,8,0:0:0:0:
353,166,48417,1,8,0:0:0:0:
351,160,48480,1,0,0:0:0:0:
356,157,48542,1,0,0:0:0:0:
351,160,48605,1,8,0:0:0:0:
359,160,48667,1,8,0:0:0:0:
358,160,48730,1,0,0:0:0:0:
359,164,48761,1,0,0:0:0:0:
199,153,48855,1,8,0:0:0:0:
246,136,48886,1,8,0:0:0:0:
248,168,48980,5,4,0:0:0:0:
409,108,49105,1,0,0:0:0:0:
415,115,49167,1,0,0:0:0:0:
415,118,49230,1,8,0:0:0:0:
409,108,49355,1,0,0:0:0:0:
410,101,49480,1,8,0:0:0:0:
402,109,49542,1,0,0:0:0:0:
403,109,49605,1,8,0:0:0:0:
400,108,49667,1,8,0:0:0:0:
400,108,49730,1,0,0:0:0:0:
397,106,49792,1,0,0:0:0:0:
397,106,49855,1,8,0:0:0:0:
409,108,49980,1,0,0:0:0:0:
409,108,50105,1,0,0:0:0:0:
406,106,50167,1,0,0:0:0:0:
408,105,50230,1,8,0:0:0:0:
409,108,50292,1,8,0:0:0:0:
409,108,50355,1,0,0:0:0:0:
394,164,50480,1,0,0:0:0:0:
404,131,50605,1,0,0:0:0:0:
404,131,50667,1,0,0:0:0:0:
403,131,50730,1,8,0:0:0:0:
401,114,50855,1,8,0:0:0:0:
401,113,50980,5,0,0:0:0:0:
401,113,51042,1,0,0:0:0:0:
399,111,51105,1,8,0:0:0:0:
398,111,51167,1,8,0:0:0:0:
398,111,51230,1,8,0:0:0:0:
398,110,51292,1,8,0:0:0:0:
398,111,51355,1,0,0:0:0:0:
397,109,51480,1,0,0:0:0:0:
399,108,51605,1,0,0:0:0:0:
399,107,51667,1,0,0:0:0:0:
399,107,51730,1,8,0:0:0:0:
400,104,51855,1,0,0:0:0:0:
256,192,51980,12,0,52480,0:0:0:0:
308,128,52605,5,8,0:0:0:0:
316,148,52730,1,8,0:0:0:0:
316,148,52855,1,8,0:0:0:0:
314,141,52980,1,4,0:0:0:0:
313,138,53105,1,0,0:0:0:0:
394,119,53167,1,0,0:0:0:0:
389,121,53230,1,8,0:0:0:0:
340,157,53355,1,8,0:0:0:0:
340,157,53417,1,8,0:0:0:0:
340,157,53480,1,0,0:0:0:0:
406,102,53542,1,0,0:0:0:0:
395,150,53605,1,8,0:0:0:0:
395,150,53646,1,8,0:0:0:0:
395,150,53688,1,8,0:0:0:0:
394,142,53730,1,0,0:0:0:0:
412,95,53855,1,0,0:0:0:0:
398,124,53980,5,8,0:0:0:0:
398,123,54021,1,0,0:0:0:0:
399,118,54063,1,0,0:0:0:0:
399,118,54105,1,8,0:0:0:0:
414,93,54230,1,0,0:0:0:0:
406,108,54355,1,8,0:0:0:0:
406,109,54396,1,8,0:0:0:0:
406,109,54438,1,8,0:0:0:0:
406,109,54480,1,0,0:0:0:0:
416,89,54605,5,0,0:0:0:0:
416,89,54667,1,0,0:0:0:0:
407,102,54730,1,8,0:0:0:0:
407,102,54771,1,0,0:0:0:0:
407,102,54813,1,0,0:0:0:0:
405,103,54855,1,8,0:0:0:0:
414,93,54980,1,0,0:0:0:0:
410,156,55105,1,8,0:0:0:0:
401,151,55230,1,0,0:0:0:0:
401,151,55480,1,8,0:0:0:0:
401,151,55730,1,0,0:0:0:0:
401,145,55980,5,8,0:0:0:0:
385,147,56105,5,8,0:0:0:0:
387,148,56230,5,8,0:0:0:0:
401,151,56480,5,8,0:0:0:0:
336,118,56730,5,12,0:0:0:0:
336,122,56980,5,4,0:0:0:0:
294,158,57105,1,8,0:0:0:0:
359,102,57167,1,8,0:0:0:0:
335,158,57230,1,0,0:0:0:0:
355,142,57292,1,8,0:0:0:0:
348,158,57355,1,0,0:0:0:0:
329,146,57417,1,0,0:0:0:0:
352,157,57480,1,8,0:0:0:0:
366,162,57542,1,8,0:0:0:0:
370,161,57605,1,0,0:0:0:0:
372,152,57667,1,0,0:0:0:0:
375,151,57730,1,8,0:0:0:0:
366,145,57855,5,8,0:0:0:0:
319,113,57917,1,8,0:0:0:0:
366,145,57980,1,0,0:0:0:0:
394,152,58105,1,0,0:0:0:0:
348,111,58167,1,0,0:0:0:0:
403,141,58230,1,8,0:0:0:0:
361,131,58292,1,0,0:0:0:0:
357,125,58355,1,8,0:0:0:0:
394,141,58417,1,8,0:0:0:0:
392,140,58480,1,0,0:0:0:0:
346,113,58542,1,0,0:0:0:0:
401,156,58605,1,8,0:0:0:0:
399,153,58667,1,8,0:0:0:0:
386,144,58730,5,0,0:0:0:0:
388,141,58855,1,0,0:0:0:0:
365,133,58917,1,0,0:0:0:0:
387,142,58980,1,8,0:0:0:0:
387,142,59105,1,0,0:0:0:0:
408,148,59167,1,8,0:0:0:0:
381,142,59230,1,0,0:0:0:0:
373,140,59355,1,8,0:0:0:0:
377,142,59417,1,0,0:0:0:0:
370,138,59542,1,0,0:0:0:0:
487,233,59667,1,8,0:0:0:0:
374,138,59730,1,0,0:0:0:0:
410,118,59792,1,0,0:0:0:0:
410,118,59855,1,8,0:0:0:0:
410,118,59917,1,8,0:0:0:0:
410,118,59980,1,0,0:0:0:0:
410,118,60105,1,0,0:0:0:0:
410,118,60230,1,8,0:0:0:0:
444,155,60355,1,0,0:0:0:0:
444,155,60417,1,8,0:0:0:0:
418,149,60542,1,0,0:0:0:0:
418,149,60667,1,0,0:0:0:0:
418,149,60730,1,8,0:0:0:0:
408,139,60792,1,0,0:0:0:0:
408,139,60855,1,8,0:0:0:0:
408,138,60980,5,4,0:0:0:0:
410,138,61105,1,0,0:0:0:0:
410,138,61167,1,0,0:0:0:0:
410,138,61230,1,8,0:0:0:0:
406,135,61355,1,8,0:0:0:0:
406,135,61417,1,8,0:0:0:0:
405,134,61480,1,0,0:0:0:0:
405,134,61542,1,0,0:0:0:0:
406,133,61605,1,8,0:0:0:0:
408,133,61667,1,0,0:0:0:0:
408,132,61730,1,8,0:0:0:0:
351,96,61855,5,0,0:0:0:0:
351,96,61917,1,8,0:0:0:0:
408,138,61980,1,8,0:0:0:0:
377,120,62042,1,0,0:0:0:0:
392,159,62105,1,8,0:0:0:0:
373,142,62230,1,8,0:0:0:0:
385,124,62355,1,0,0:0:0:0:
339,111,62417,1,0,0:0:0:0:
400,117,62480,1,8,0:0:0:0:
395,113,62542,1,8,0:0:0:0:
401,117,62605,1,0,0:0:0:0:
401,111,62730,1,8,0:0:0:0:
401,111,62855,5,0,0:0:0:0:
401,111,62917,1,0,0:0:0:0:
401,109,62980,1,0,0:0:0:0:
375,117,63105,1,0,0:0:0:0:
373,115,63230,1,8,0:0:0:0:
373,115,63355,1,0,0:0:0:0:
373,115,63417,1,8,0:0:0:0:
379,117,63542,1,0,0:0:0:0:
381,116,63667,1,8,0:0:0:0:
381,116,63730,1,0,0:0:0:0:
381,116,63792,1,0,0:0:0:0:
381,116,63855,1,8,0:0:0:0:
414,128,63917,1,0,0:0:0:0:
429,129,63980,1,8,0:0:0:0:
430,122,64105,1,0,0:0:0:0:
430,120,64230,1,8,0:0:0:0:
430,122,64292,1,8,0:0:0:0:
427,118,64355,1,0,0:0:0:0:
421,124,64417,1,0,0:0:0:0:
420,122,64480,1,8,0:0:0:0:
419,122,64542,1,0,0:0:0:0:
418,122,64605,1,8,0:0:0:0:
417,123,64667,1,0,0:0:0:0:
416,116,64730,1,8,0:0:0:0:
410,114,64792,1,0,0:0:0:0:
410,114,64855,1,8,0:0:0:0:
410,113,64917,1,8,0:0:0:0:
410,113,64980,5,4,0:0:0:0:
410,142,65230,1,4,0:0:0:0:
421,142,65355,1,4,0:0:0:0:
426,140,65480,1,12,0:0:0:0:
432,142,65730,5,4,0:0:0:0:
432,142,65855,1,4,0:0:0:0:
432,142,65980,1,4,0:0:0:0:
432,142,66230,5,4,0:0:0:0:
432,142,66355,1,4,0:0:0:0:
432,142,66480,1,12,0:0:0:0:
354,153,66605,1,4,0:0:0:0:
432,142,66730,5,4,0:0:0:0:
432,142,66855,1,4,0:0:0:0:
432,142,66980,1,4,0:0:0:0:
432,142,67230,5,4,0:0:0:0:
432,142,67355,1,4,0:0:0:0:
361,144,67480,1,12,0:0:0:0:
358,120,67730,5,4,0:0:0:0:
370,119,67855,1,4,0:0:0:0:
379,119,67980,1,4,0:0:0:0:
375,118,68230,5,4,0:0:0:0:
336,169,68355,1,4,0:0:0:0:
365,160,68480,1,12,0:0:0:0:
347,166,68605,1,0,0:0:0:0:
342,165,68667,1,0,0:0:0:0:
347,166,68730,1,8,0:0:0:0:
334,161,68855,1,0,0:0:0:0:
334,160,68980,5,4,0:0:0:0:
365,136,69105,1,0,0:0:0:0:
365,133,69167,1,0,0:0:0:0:
363,131,69230,1,8,0:0:0:0:
364,126,69355,1,0,0:0:0:0:
363,124,69480,5,0,0:0:0:0:
367,122,69605,1,0,0:0:0:0:
367,123,69667,1,0,0:0:0:0:
376,126,69730,1,8,0:0:0:0:
374,119,69855,1,0,0:0:0:0:
374,115,69980,5,0,0:0:0:0:
375,114,70105,1,0,0:0:0:0:
375,114,70167,1,0,0:0:0:0:
376,113,70230,1,8,0:0:0:0:
341,104,70355,1,0,0:0:0:0:
341,104,70417,1,0,0:0:0:0:
348,104,70480,1,0,0:0:0:0:
341,104,70605,5,0,0:0:0:0:
365,146,70667,1,0,0:0:0:0:
370,146,70730,1,8,0:0:0:0:
398,147,70855,1,0,0:0:0:0:
398,147,70980,1,8,0:0:0:0:
396,137,71105,5,0,0:0:0:0:
398,147,71167,1,0,0:0:0:0:
396,137,71230,1,8,0:0:0:0:
394,125,71355,1,0,0:0:0:0:
397,127,71480,1,8,0:0:0:0:
397,127,71605,5,0,0:0:0:0:
397,124,71667,1,0,0:0:0:0:
399,119,71730,1,8,0:0:0:0:
398,119,71855,1,0,0:0:0:0:
328,174,71980,5,8,0:0:0:0:
335,176,72042,1,0,0:0:0:0:
344,178,72105,1,0,0:0:0:0:
345,171,72167,1,0,0:0:0:0:
352,168,72230,1,8,0:0:0:0:
351,168,72292,1,0,0:0:0:0:
357,163,72355,1,0,0:0:0:0:
357,167,72417,1,0,0:0:0:0:
362,161,72480,1,8,0:0:0:0:
359,161,72542,1,0,0:0:0:0:
357,159,72605,1,0,0:0:0:0:
356,159,72667,1,0,0:0:0:0:
360,156,72730,1,8,0:0:0:0:
339,160,72980,5,4,0:0:0:0:
324,157,73105,1,0,0:0:0:0:
385,153,73167,1,0,0:0:0:0:
388,158,73230,1,8,0:0:0:0:
385,153,73355,1,8,0:0:0:0:
385,153,73417,1,0,0:0:0:0:
385,153,73480,1,0,0:0:0:0:
385,153,73542,1,0,0:0:0:0:
393,146,73605,1,8,0:0:0:0:
394,146,73667,1,0,0:0:0:0:
390,142,73730,1,8,0:0:0:0:
370,140,73855,1,0,0:0:0:0:
370,140,73980,1,8,0:0:0:0:
370,140,74105,1,0,0:0:0:0:
370,140,74167,1,0,0:0:0:0:
372,140,74230,1,8,0:0:0:0:
372,140,74355,1,8,0:0:0:0:
374,143,74417,1,8,0:0:0:0:
371,142,74480,1,8,0:0:0:0:
375,142,74542,1,8,0:0:0:0:
375,142,74605,1,0,0:0:0:0:
377,142,74730,5,8,0:0:0:0:
377,140,74855,1,0,0:0:0:0:
405,138,74896,1,0,0:0:0:0:
405,138,74938,1,0,0:0:0:0:
377,140,74980,1,8,0:0:0:0:
411,122,75105,1,8,0:0:0:0:
412,115,75167,1,8,0:0:0:0:
412,115,75230,1,0,0:0:0:0:
416,115,75355,5,8,0:0:0:0:
427,146,75480,1,8,0:0:0:0:
412,144,75542,1,8,0:0:0:0:
412,144,75605,1,0,0:0:0:0:
412,144,75730,5,8,0:0:0:0:
412,144,75855,1,8,0:0:0:0:
412,144,75917,1,8,0:0:0:0:
415,144,75980,1,0,0:0:0:0:
415,144,76105,5,8,0:0:0:0:
415,144,76230,1,8,0:0:0:0:
415,144,76292,1,8,0:0:0:0:
412,138,76355,1,0,0:0:0:0:
422,138,76480,5,8,0:0:0:0:
423,138,76605,1,8,0:0:0:0:
422,138,76667,1,8,0:0:0:0:
422,141,76730,1,0,0:0:0:0:
423,141,76792,1,8,0:0:0:0:
423,140,76855,1,0,0:0:0:0:
426,141,76980,5,4,0:0:0:0:
384,154,77105,1,0,0:0:0:0:
384,154,77167,1,0,0:0:0:0:
384,154,77230,1,8,0:0:0:0:
385,132,77355,1,8,0:0:0:0:
388,132,77417,1,0,0:0:0:0:
379,135,77480,1,0,0:0:0:0:
381,137,77542,1,0,0:0:0:0:
383,124,77605,1,8,0:0:0:0:
385,126,77667,1,0,0:0:0:0:
383,124,77730,1,8,0:0:0:0:
379,113,77855,1,0,0:0:0:0:
379,113,77980,1,8,0:0:0:0:
379,113,78042,1,8,0:0:0:0:
379,113,78105,1,0,0:0:0:0:
377,109,78230,1,8,0:0:0:0:
377,109,78355,1,8,0:0:0:0:
361,135,78417,1,8,0:0:0:0:
415,150,78480,1,8,0:0:0:0:
412,135,78542,1,8,0:0:0:0:
414,129,78605,1,0,0:0:0:0:
415,129,78667,1,0,0:0:0:0:
419,129,78730,1,8,0:0:0:0:
349,95,78855,1,0,0:0:0:0:
351,103,78980,5,8,0:0:0:0:
384,119,79042,1,0,0:0:0:0:
385,120,79105,1,8,0:0:0:0:
382,118,79167,1,8,0:0:0:0:
382,118,79230,1,0,0:0:0:0:
385,111,79292,1,0,0:0:0:0:
383,111,79355,1,8,0:0:0:0:
383,110,79417,1,0,0:0:0:0:
384,109,79480,1,8,0:0:0:0:
362,128,79542,1,8,0:0:0:0:
362,127,79605,1,0,0:0:0:0:
365,126,79667,1,0,0:0:0:0:
367,125,79730,1,8,0:0:0:0:
365,126,79792,1,8,0:0:0:0:
372,123,79855,1,0,0:0:0:0:
370,121,79917,1,8,0:0:0:0:
370,121,79980,5,0,0:0:0:0:
370,121,80042,1,0,0:0:0:0:
370,121,80105,1,0,0:0:0:0:
369,119,80167,1,0,0:0:0:0:
371,119,80230,1,8,0:0:0:0:
380,120,80292,1,8,0:0:0:0:
377,126,80355,1,8,0:0:0:0:
380,128,80417,1,8,0:0:0:0:
385,130,80480,1,0,0:0:0:0:
373,144,80542,1,0,0:0:0:0:
379,142,80605,1,8,0:0:0:0:
379,142,80667,1,8,0:0:0:0:
383,140,80730,1,0,0:0:0:0:
374,116,80771,1,0,0:0:0:0:
372,117,80813,1,0,0:0:0:0:
368,100,80855,1,8,0:0:0:0:
366,81,80980,5,4,0:0:0:0:
332,157,81105,1,0,0:0:0:0:
328,153,81167,1,0,0:0:0:0:
324,149,81230,1,8,0:0:0:0:
312,148,81355,1,0,0:0:0:0:
316,138,81417,1,8,0:0:0:0:
319,135,81480,1,0,0:0:0:0:
328,133,81542,1,0,0:0:0:0:
330,135,81605,1,8,0:0:0:0:
326,130,81730,1,8,0:0:0:0:
326,130,81855,1,0,0:0:0:0:
329,128,81917,1,0,0:0:0:0:
326,130,81980,1,8,0:0:0:0:
326,130,82105,1,8,0:0:0:0:
330,128,82230,1,0,0:0:0:0:
331,126,82355,1,8,0:0:0:0:
328,125,82417,1,8,0:0:0:0:
331,126,82480,1,8,0:0:0:0:
328,124,82542,1,8,0:0:0:0:
328,124,82605,1,0,0:0:0:0:
329,124,82730,5,8,0:0:0:0:
333,119,82855,1,0,0:0:0:0:
326,114,82896,1,0,0:0:0:0:
317,115,82938,1,0,0:0:0:0:
334,120,82980,1,8,0:0:0:0:
330,112,83105,1,8,0:0:0:0:
370,123,83167,1,8,0:0:0:0:
370,123,83230,1,0,0:0:0:0:
366,130,83355,5,8,0:0:0:0:
366,128,83480,1,8,0:0:0:0:
370,123,83542,1,8,0:0:0:0:
370,123,83605,1,0,0:0:0:0:
370,123,83730,5,8,0:0:0:0:
375,121,83855,1,8,0:0:0:0:
380,127,83917,1,8,0:0:0:0:
375,115,83980,1,0,0:0:0:0:
352,138,84105,5,8,0:0:0:0:
366,137,84230,1,8,0:0:0:0:
371,138,84292,1,8,0:0:0:0:
325,128,84355,1,0,0:0:0:0:
329,128,84480,5,8,0:0:0:0:
334,128,84605,1,8,0:0:0:0:
334,128,84667,1,0,0:0:0:0:
321,122,84730,1,8,0:0:0:0:
330,115,84855,5,8,0:0:0:0:
314,113,84980,1,8,0:0:0:0:
304,110,85042,1,8,0:0:0:0:
308,111,85105,1,0,0:0:0:0:
307,111,85230,5,8,0:0:0:0:
305,106,85355,1,8,0:0:0:0:
309,102,85417,1,0,0:0:0:0:
306,100,85480,1,8,0:0:0:0:
317,108,85605,5,8,0:0:0:0:
320,109,85730,1,8,0:0:0:0:
321,108,85792,1,8,0:0:0:0:
323,111,85855,1,0,0:0:0:0:
323,109,85980,5,8,0:0:0:0:
325,109,86105,1,8,0:0:0:0:
324,111,86167,1,0,0:0:0:0:
321,110,86230,1,8,0:0:0:0:
314,108,86355,5,8,0:0:0:0:
312,106,86480,1,8,0:0:0:0:
311,106,86542,1,8,0:0:0:0:
308,105,86605,1,0,0:0:0:0:
307,105,86730,5,8,0:0:0:0:
363,129,86792,1,0,0:0:0:0:
296,101,86855,1,8,0:0:0:0:
306,104,86980,5,8,0:0:0:0:
301,108,87042,1,8,0:0:0:0:
292,104,87105,1,0,0:0:0:0:
288,100,87167,1,0,0:0:0:0:
288,100,87230,1,8,0:0:0:0:
345,113,87292,1,0,0:0:0:0:
341,109,87355,1,8,0:0:0:0:
328,122,87417,1,0,0:0:0:0:
343,115,87480,5,8,0:0:0:0:
337,107,87542,1,8,0:0:0:0:
336,108,87605,1,0,0:0:0:0:
336,125,87667,1,0,0:0:0:0:
336,109,87730,1,8,0:0:0:0:
330,109,87792,1,0,0:0:0:0:
336,124,87855,1,8,0:0:0:0:
335,124,87917,1,0,0:0:0:0:
345,124,87980,5,8,0:0:0:0:
335,124,88042,1,8,0:0:0:0:
348,125,88105,1,0,0:0:0:0:
332,126,88167,1,0,0:0:0:0:
347,126,88230,1,8,0:0:0:0:
336,126,88292,1,0,0:0:0:0:
346,126,88355,1,8,0:0:0:0:
256,192,88480,12,0,89855,0:0:0:0:
459,135,89980,5,4,0:0:0:0:
372,130,90355,1,0,0:0:0:0:
356,120,90480,1,8,0:0:0:0:
356,120,90730,1,0,0:0:0:0:
356,120,90855,1,8,0:0:0:0:
396,153,90980,1,0,0:0:0:0:
396,153,91105,1,0,0:0:0:0:
401,153,91230,1,8,0:0:0:0:
422,146,91480,1,8,0:0:0:0:
421,145,91605,1,8,0:0:0:0:
404,135,91855,1,8,0:0:0:0:
413,133,91980,5,0,0:0:0:0:
450,172,92230,1,0,0:0:0:0:
417,153,92355,1,0,0:0:0:0:
450,172,92480,1,8,0:0:0:0:
376,144,92542,1,8,0:0:0:0:
376,144,92605,1,8,0:0:0:0:
380,148,92667,1,8,0:0:0:0:
382,147,92730,1,8,0:0:0:0:
405,126,92980,1,0,0:0:0:0:
405,126,93105,1,0,0:0:0:0:
403,134,93230,1,8,0:0:0:0:
408,131,93480,1,0,0:0:0:0:
405,135,93605,1,8,0:0:0:0:
412,115,93730,1,8,0:0:0:0:
410,133,93855,1,8,0:0:0:0:
405,126,93980,5,4,0:0:0:0:
417,116,94230,1,0,0:0:0:0:
430,149,94355,1,0,0:0:0:0:
417,110,94480,1,8,0:0:0:0:
426,116,94730,1,0,0:0:0:0:
414,129,94855,1,8,0:0:0:0:
432,122,94980,1,0,0:0:0:0:
421,131,95105,1,0,0:0:0:0:
421,131,95230,1,8,0:0:0:0:
423,120,95480,1,8,0:0:0:0:
426,124,95605,1,8,0:0:0:0:
437,124,95855,1,0,0:0:0:0:
437,122,95980,5,8,0:0:0:0:
428,120,96230,1,0,0:0:0:0:
430,120,96355,1,0,0:0:0:0:
419,138,96480,1,8,0:0:0:0:
402,128,96730,1,8,0:0:0:0:
430,141,96855,1,8,0:0:0:0:
402,147,96980,1,4,0:0:0:0:
415,128,97167,1,4,0:0:0:0:
430,120,97355,1,4,0:0:0:0:
342,169,97730,1,12,0:0:0:0:
360,159,97855,1,8,0:0:0:0:
362,146,97980,5,4,0:0:0:0:
360,159,98105,1,0,0:0:0:0:
392,144,98230,1,8,0:0:0:0:
392,144,98355,1,0,0:0:0:0:
392,144,98480,1,0,0:0:0:0:
333,140,98605,1,8,0:0:0:0:
333,140,98667,1,8,0:0:0:0:
337,136,98730,1,0,0:0:0:0:
407,138,98855,1,8,0:0:0:0:
408,144,98980,5,0,0:0:0:0:
408,144,99105,1,0,0:0:0:0:
407,144,99230,1,8,0:0:0:0:
408,143,99355,1,0,0:0:0:0:
370,142,99480,1,8,0:0:0:0:
370,142,99542,1,8,0:0:0:0:
345,131,99605,1,0,0:0:0:0:
345,131,99667,1,0,0:0:0:0:
415,142,99730,1,8,0:0:0:0:
416,155,99855,1,0,0:0:0:0:
415,142,99980,5,8,0:0:0:0:
415,144,100105,1,8,0:0:0:0:
413,142,100230,1,0,0:0:0:0:
426,153,100355,1,8,0:0:0:0:
417,148,100480,1,0,0:0:0:0:
339,131,100605,1,0,0:0:0:0:
339,130,100667,1,0,0:0:0:0:
341,129,100730,1,8,0:0:0:0:
428,155,100855,1,0,0:0:0:0:
434,164,100980,5,8,0:0:0:0:
432,163,101105,1,8,0:0:0:0:
432,162,101230,1,0,0:0:0:0:
432,162,101355,1,8,0:0:0:0:
427,158,101480,1,0,0:0:0:0:
354,113,101542,1,0,0:0:0:0:
352,114,101605,1,0,0:0:0:0:
354,114,101667,1,0,0:0:0:0:
354,114,101730,1,8,0:0:0:0:
361,118,101855,1,8,0:0:0:0:
365,120,101917,1,0,0:0:0:0:
364,122,101980,5,8,0:0:0:0:
424,173,102105,1,0,0:0:0:0:
361,128,102230,1,8,0:0:0:0:
359,127,102292,1,8,0:0:0:0:
429,177,102355,1,0,0:0:0:0:
372,136,102480,1,0,0:0:0:0:
378,127,102605,1,0,0:0:0:0:
379,127,102667,1,0,0:0:0:0:
379,127,102730,1,8,0:0:0:0:
397,119,102855,1,0,0:0:0:0:
397,119,102980,5,8,0:0:0:0:
395,118,103105,1,8,0:0:0:0:
395,118,103167,1,8,0:0:0:0:
395,118,103230,1,0,0:0:0:0:
394,115,103355,1,0,0:0:0:0:
389,151,103480,1,8,0:0:0:0:
389,151,103542,1,8,0:0:0:0:
389,151,103605,1,0,0:0:0:0:
397,160,103667,1,0,0:0:0:0:
398,143,103730,1,8,0:0:0:0:
394,137,103792,1,0,0:0:0:0:
393,135,103855,1,8,0:0:0:0:
393,114,103980,5,4,0:0:0:0:
395,118,104167,1,4,0:0:0:0:
394,115,104355,1,4,0:0:0:0:
329,294,104480,2,0,L|332:95,3,175
363,125,104980,5,4,0:0:0:0:
368,131,105167,1,4,0:0:0:0:
369,130,105355,1,4,0:0:0:0:
346,243,105480,2,0,L|177:124,3,175
387,136,105980,5,4,0:0:0:0:
368,142,106167,1,4,0:0:0:0:
379,180,106355,1,4,0:0:0:0:
399,215,106480,2,0,L|262:66,3,175
274,155,106980,5,4,0:0:0:0:
274,155,107230,1,0,0:0:0:0:
274,155,107480,1,0,0:0:0:0:
274,155,107730,1,0,0:0:0:0:
340,144,107980,5,8,0:0:0:0:
340,144,108105,1,0,0:0:0:0:
348,144,108230,1,0,0:0:0:0:
306,100,108355,1,0,0:0:0:0:
356,142,108480,5,8,0:0:0:0:
384,149,108605,1,0,0:0:0:0:
383,142,108730,1,0,0:0:0:0:
370,152,108792,1,0,0:0:0:0:
391,135,108855,1,0,0:0:0:0:
350,128,108917,1,0,0:0:0:0:
256,192,108980,12,0,109855,0:0:0:0:
402,152,109980,5,4,0:0:0:0:
343,117,110605,5,0,0:0:0:0:
320,153,110730,1,8,0:0:0:0:
320,153,110792,1,8,0:0:0:0:
317,128,110855,1,8,0:0:0:0:
317,128,110917,1,8,0:0:0:0:
321,126,110980,1,4,0:0:0:0:
313,133,111105,1,0,0:0:0:0:
314,133,111230,1,0,0:0:0:0:
315,131,111292,1,0,0:0:0:0:
320,127,111355,1,8,0:0:0:0:
337,113,111480,1,0,0:0:0:0:
330,108,111605,1,8,0:0:0:0:
330,107,111667,1,8,0:0:0:0:
330,106,111730,1,0,0:0:0:0:
332,104,111855,1,0,0:0:0:0:
334,104,111980,1,8,0:0:0:0:
327,115,112042,1,0,0:0:0:0:
334,120,112105,1,0,0:0:0:0:
337,118,112167,1,0,0:0:0:0:
339,118,112230,1,8,0:0:0:0:
336,111,112355,1,8,0:0:0:0:
341,107,112480,1,0,0:0:0:0:
339,107,112605,1,0,0:0:0:0:
339,108,112667,1,0,0:0:0:0:
336,108,112730,1,8,0:0:0:0:
336,108,112855,1,0,0:0:0:0:
341,143,112980,1,8,0:0:0:0:
345,144,113042,1,8,0:0:0:0:
350,137,113105,1,0,0:0:0:0:
356,133,113167,1,0,0:0:0:0:
358,136,113230,1,8,0:0:0:0:
359,126,113355,1,0,0:0:0:0:
365,130,113480,1,0,0:0:0:0:
359,129,113542,1,0,0:0:0:0:
365,131,113605,1,8,0:0:0:0:
373,129,113667,1,8,0:0:0:0:
366,131,113730,1,0,0:0:0:0:
373,128,113792,1,0,0:0:0:0:
374,126,113855,1,8,0:0:0:0:
363,115,113980,5,4,0:0:0:0:
365,120,114105,1,0,0:0:0:0:
370,119,114167,1,0,0:0:0:0:
368,121,114230,1,8,0:0:0:0:
368,116,114355,1,0,0:0:0:0:
366,113,114417,1,8,0:0:0:0:
366,115,114480,1,0,0:0:0:0:
366,113,114542,1,0,0:0:0:0:
368,109,114605,1,8,0:0:0:0:
363,104,114730,1,0,0:0:0:0:
363,104,114855,1,8,0:0:0:0:
370,106,114917,1,0,0:0:0:0:
370,106,114980,1,8,0:0:0:0:
369,105,115105,1,0,0:0:0:0:
369,105,115230,1,8,0:0:0:0:
335,123,115292,1,8,0:0:0:0:
335,123,115355,1,0,0:0:0:0:
335,123,115417,1,0,0:0:0:0:
351,102,115480,1,8,0:0:0:0:
354,95,115605,1,0,0:0:0:0:
356,95,115730,1,0,0:0:0:0:
363,97,115792,1,0,0:0:0:0:
361,91,115855,1,8,0:0:0:0:
359,94,115980,1,8,0:0:0:0:
360,94,116105,1,0,0:0:0:0:
360,94,116167,1,0,0:0:0:0:
360,94,116230,1,8,0:0:0:0:
370,91,116292,1,8,0:0:0:0:
365,92,116355,1,0,0:0:0:0:
370,91,116480,1,8,0:0:0:0:
366,88,116605,1,0,0:0:0:0:
363,91,116667,1,0,0:0:0:0:
357,100,116730,1,8,0:0:0:0:
362,117,116855,1,8,0:0:0:0:
366,114,116980,1,0,0:0:0:0:
367,114,117105,1,8,0:0:0:0:
367,114,117167,1,8,0:0:0:0:
367,114,117230,1,0,0:0:0:0:
377,117,117355,1,8,0:0:0:0:
376,117,117480,1,0,0:0:0:0:
376,113,117605,1,8,0:0:0:0:
376,113,117667,1,0,0:0:0:0:
375,111,117730,1,8,0:0:0:0:
375,108,117792,1,8,0:0:0:0:
374,109,117855,1,0,0:0:0:0:
379,104,117980,5,4,0:0:0:0:
380,103,118105,1,0,0:0:0:0:
380,103,118167,1,0,0:0:0:0:
380,103,118230,1,8,0:0:0:0:
380,103,118355,1,0,0:0:0:0:
331,94,118480,1,8,0:0:0:0:
331,94,118542,1,0,0:0:0:0:
332,99,118605,1,0,0:0:0:0:
332,98,118667,1,0,0:0:0:0:
332,98,118730,1,8,0:0:0:0:
331,94,118855,1,8,0:0:0:0:
331,94,118980,1,0,0:0:0:0:
331,94,119105,1,0,0:0:0:0:
331,94,119167,1,0,0:0:0:0:
331,94,119230,1,8,0:0:0:0:
331,94,119355,1,8,0:0:0:0:
331,94,119480,1,0,0:0:0:0:
357,111,119542,1,0,0:0:0:0:
352,151,119605,1,8,0:0:0:0:
363,142,119667,1,8,0:0:0:0:
366,143,119730,1,0,0:0:0:0:
366,146,119855,1,8,0:0:0:0:
370,139,119980,1,0,0:0:0:0:
376,135,120042,1,0,0:0:0:0:
381,130,120105,1,0,0:0:0:0:
384,122,120230,1,8,0:0:0:0:
384,122,120355,1,0,0:0:0:0:
384,122,120417,1,0,0:0:0:0:
383,122,120480,1,0,0:0:0:0:
384,124,120605,1,8,0:0:0:0:
385,124,120730,1,0,0:0:0:0:
328,109,120792,1,0,0:0:0:0:
385,124,120855,1,8,0:0:0:0:
384,123,120980,5,0,0:0:0:0:
328,109,121042,1,0,0:0:0:0:
341,106,121105,1,8,0:0:0:0:
328,109,121167,1,8,0:0:0:0:
342,100,121230,1,0,0:0:0:0:
339,99,121292,1,0,0:0:0:0:
340,99,121355,1,8,0:0:0:0:
339,99,121417,1,8,0:0:0:0:
339,109,121480,1,0,0:0:0:0:
341,105,121542,1,8,0:0:0:0:
341,105,121605,1,0,0:0:0:0:
345,98,121730,1,0,0:0:0:0:
347,95,121792,1,0,0:0:0:0:
347,95,121855,1,8,0:0:0:0:
306,133,121980,5,4,0:0:0:0:
306,133,122105,1,4,0:0:0:0:
306,133,122355,5,4,0:0:0:0:
381,146,122480,1,4,0:0:0:0:
359,131,122730,5,4,0:0:0:0:
361,135,122855,1,4,0:0:0:0:
390,120,123105,5,4,0:0:0:0:
392,125,123230,1,4,0:0:0:0:
386,121,123480,5,4,0:0:0:0:
337,126,123605,1,0,0:0:0:0:
341,128,123667,1,0,0:0:0:0:
343,122,123730,1,8,0:0:0:0:
345,113,123855,1,0,0:0:0:0:
343,118,123980,5,8,0:0:0:0:
326,122,124105,1,0,0:0:0:0:
330,122,124167,1,0,0:0:0:0:
337,126,124230,1,8,0:0:0:0:
335,118,124355,1,0,0:0:0:0:
335,118,124480,1,8,0:0:0:0:
335,118,124605,1,0,0:0:0:0:
341,128,124667,1,0,0:0:0:0:
341,129,124730,1,8,0:0:0:0:
345,113,124855,1,0,0:0:0:0:
387,160,124980,5,8,0:0:0:0:
387,160,125105,1,0,0:0:0:0:
387,160,125230,1,8,0:0:0:0:
387,160,125355,1,0,0:0:0:0:
379,168,125480,1,8,0:0:0:0:
379,168,125542,1,8,0:0:0:0:
379,168,125605,1,0,0:0:0:0:
386,168,125667,1,0,0:0:0:0:
390,169,125730,1,8,0:0:0:0:
414,151,125855,1,8,0:0:0:0:
414,151,125980,5,0,0:0:0:0:
410,145,126230,1,8,0:0:0:0:
422,141,126355,1,0,0:0:0:0:
425,142,126605,1,8,0:0:0:0:
425,142,126730,1,0,0:0:0:0:
256,192,126980,12,0,127605,0:0:0:0:
256,192,127730,5,8,0:0:0:0:
256,192,127792,1,8,0:0:0:0:
256,192,127855,1,8,0:0:0:0:
256,192,127917,1,8,0:0:0:0:
256,192,127980,1,0,0:0:0:0:
256,192,128105,1,0,0:0:0:0:
256,192,128167,1,0,0:0:0:0:
256,192,128230,1,8,0:0:0:0:
256,192,128355,1,8,0:0:0:0:
256,192,128480,1,0,0:0:0:0:
256,192,128542,1,8,0:0:0:0:
256,192,128605,1,8,0:0:0:0:
256,192,128730,1,8,0:0:0:0:
256,192,128792,1,0,0:0:0:0:
256,192,128855,1,8,0:0:0:0:
256,192,128917,1,0,0:0:0:0:
256,192,128980,1,0,0:0:0:0:
256,192,129105,1,0,0:0:0:0:
256,192,129167,1,0,0:0:0:0:
256,192,129230,1,8,0:0:0:0:
256,192,129292,1,0,0:0:0:0:
256,192,129355,1,0,0:0:0:0:
413,113,129480,5,12,0:0:0:0:
415,117,129730,1,4,0:0:0:0:
403,126,129980,5,0,0:0:0:0:
224,192,130105,1,0,0:0:0:0:
224,192,130167,1,0,0:0:0:0:
224,192,130230,1,8,0:0:0:0:
224,192,130292,1,0,0:0:0:0:
224,192,130355,1,8,0:0:0:0:
224,192,130480,1,0,0:0:0:0:
224,192,130542,1,0,0:0:0:0:
224,192,130605,1,8,0:0:0:0:
224,192,130667,1,8,0:0:0:0:
224,192,130730,1,0,0:0:0:0:
224,192,130792,1,8,0:0:0:0:
224,192,130855,1,0,0:0:0:0:
224,192,130980,5,12,0:0:0:0:
353,122,131230,1,4,0:0:0:0:
368,123,131480,1,12,0:0:0:0:
366,135,131730,1,4,0:0:0:0:
224,192,131855,5,8,0:0:0:0:
224,192,131917,1,8,0:0:0:0:
384,128,131980,1,0,0:0:0:0:
224,192,132042,1,0,0:0:0:0:
224,192,132105,1,8,0:0:0:0:
224,192,132230,1,8,0:0:0:0:
224,192,132355,1,8,0:0:0:0:
224,192,132417,1,8,0:0:0:0:
224,192,132480,1,0,0:0:0:0:
224,192,132605,1,0,0:0:0:0:
224,192,132730,1,8,0:0:0:0:
224,192,132792,1,8,0:0:0:0:
224,192,132855,1,8,0:0:0:0:
224,192,132917,1,8,0:0:0:0:
224,192,132980,1,0,0:0:0:0:
224,192,133042,1,0,0:0:0:0:
224,192,133105,1,8,0:0:0:0:
224,192,133230,1,0,0:0:0:0:
256,192,133292,1,0,0:0:0:0:
224,192,133355,1,0,0:0:0:0:
255,189,133480,5,12,0:0:0:0:
255,189,133730,1,4,0:0:0:0:
256,192,133980,5,0,0:0:0:0:
256,192,134105,1,8,0:0:0:0:
256,192,134167,1,8,0:0:0:0:
256,192,134230,1,8,0:0:0:0:
256,192,134355,1,0,0:0:0:0:
256,192,134417,1,0,0:0:0:0:
256,192,134480,1,8,0:0:0:0:
256,192,134542,1,8,0:0:0:0:
256,192,134605,1,0,0:0:0:0:
256,192,134667,1,0,0:0:0:0:
256,192,134730,1,8,0:0:0:0:
256,192,134855,1,0,0:0:0:0:
258,194,134980,5,12,0:0:0:0:
256,192,135230,1,8,0:0:0:0:
256,192,135292,1,8,0:0:0:0:
256,192,135355,1,8,0:0:0:0:
256,192,135417,1,8,0:0:0:0:
256,192,135480,1,0,0:0:0:0:
256,192,135605,1,0,0:0:0:0:
256,192,135730,1,8,0:0:0:0:
256,192,135855,1,0,0:0:0:0:
256,192,135980,5,0,0:0:0:0:
224,192,136105,1,0,0:0:0:0:
256,192,136167,1,0,0:0:0:0:
224,192,136230,1,8,0:0:0:0:
224,192,136355,1,0,0:0:0:0:
224,192,136417,1,8,0:0:0:0:
224,192,136542,1,8,0:0:0:0:
224,192,136605,1,0,0:0:0:0:
224,160,136667,1,0,0:0:0:0:
224,160,136730,1,8,0:0:0:0:
224,160,136855,1,8,0:0:0:0:
224,160,136980,5,0,0:0:0:0:
224,192,137105,1,0,0:0:0:0:
224,192,137167,1,0,0:0:0:0:
224,192,137230,1,8,0:0:0:0:
224,192,137292,1,8,0:0:0:0:
224,192,137355,1,0,0:0:0:0:
224,192,137417,1,8,0:0:0:0:
224,192,137542,1,0,0:0:0:0:
224,192,137605,1,8,0:0:0:0:
224,192,137730,1,8,0:0:0:0:
224,192,137855,1,8,0:0:0:0:
224,192,137917,1,0,0:0:0:0:
224,192,137980,5,0,0:0:0:0:
224,192,138105,1,8,0:0:0:0:
224,192,138167,1,8,0:0:0:0:
224,192,138230,1,0,0:0:0:0:
224,192,138355,1,8,0:0:0:0:
224,192,138417,1,0,0:0:0:0:
224,192,138542,1,8,0:0:0:0:
224,192,138605,1,8,0:0:0:0:
224,192,138667,1,0,0:0:0:0:
224,192,138730,1,8,0:0:0:0:
224,192,138855,1,0,0:0:0:0:
224,192,138980,5,0,0:0:0:0:
224,192,139042,1,0,0:0:0:0:
353,137,139105,1,8,0:0:0:0:
224,192,139167,1,0,0:0:0:0:
224,192,139230,1,0,0:0:0:0:
224,192,139355,1,8,0:0:0:0:
224,192,139417,1,8,0:0:0:0:
224,192,139542,1,0,0:0:0:0:
224,192,139605,1,8,0:0:0:0:
224,192,139730,1,0,0:0:0:0:
224,192,139792,1,8,0:0:0:0:
224,192,139855,1,0,0:0:0:0:
224,192,139917,1,8,0:0:0:0:
224,192,139980,5,0,0:0:0:0:
256,192,140105,1,0,0:0:0:0:
256,192,140167,1,0,0:0:0:0:
256,192,140230,1,8,0:0:0:0:
256,192,140355,1,8,0:0:0:0:
256,192,140417,1,8,0:0:0:0:
256,192,140480,1,0,0:0:0:0:
256,192,140605,1,0,0:0:0:0:
256,192,140730,1,8,0:0:0:0:
256,192,140855,1,8,0:0:0:0:
256,192,140917,1,8,0:0:0:0:
256,192,140980,5,0,0:0:0:0:
256,192,141042,1,0,0:0:0:0:
256,192,141105,1,8,0:0:0:0:
256,192,141230,1,8,0:0:0:0:
256,192,141355,1,8,0:0:0:0:
256,192,141417,1,0,0:0:0:0:
256,192,141480,1,0,0:0:0:0:
256,192,141605,1,0,0:0:0:0:
256,192,141730,1,8,0:0:0:0:
256,192,141855,1,8,0:0:0:0:
256,192,141980,5,0,0:0:0:0:
256,192,142105,1,0,0:0:0:0:
256,192,142167,1,0,0:0:0:0:
256,192,142230,1,8,0:0:0:0:
256,192,142355,1,0,0:0:0:0:
256,192,142417,1,0,0:0:0:0:
256,192,142480,1,8,0:0:0:0:
256,192,142542,1,0,0:0:0:0:
256,192,142605,1,8,0:0:0:0:
256,192,142667,1,8,0:0:0:0:
256,192,142730,1,0,0:0:0:0:
256,192,142855,1,8,0:0:0:0:
256,192,142980,5,0,0:0:0:0:
256,192,143042,1,0,0:0:0:0:
256,192,143105,1,0,0:0:0:0:
256,192,143167,1,0,0:0:0:0:
256,192,143230,1,8,0:0:0:0:
256,192,143292,1,8,0:0:0:0:
256,192,143355,1,8,0:0:0:0:
256,192,143417,1,8,0:0:0:0:
256,192,143480,1,0,0:0:0:0:
256,192,143542,1,0,0:0:0:0:
256,192,143605,1,8,0:0:0:0:
256,192,143667,1,0,0:0:0:0:
256,192,143730,1,8,0:0:0:0:
256,192,143855,1,8,0:0:0:0:
256,192,143980,5,0,0:0:0:0:
256,192,144230,1,0,0:0:0:0:
256,192,144480,1,0,0:0:0:0:
256,192,144730,5,8,0:0:0:0:
256,192,144855,1,8,0:0:0:0:
256,192,144980,5,0,0:0:0:0:
256,192,145105,1,0,0:0:0:0:
256,192,145230,5,8,0:0:0:0:
256,192,145355,1,8,0:0:0:0:
256,192,145480,5,0,0:0:0:0:
256,192,145542,1,0,0:0:0:0:
256,192,145605,1,0,0:0:0:0:
256,192,145730,5,8,0:0:0:0:
358,144,145980,5,4,0:0:0:0:
363,144,146105,1,0,0:0:0:0:
366,135,146230,1,8,0:0:0:0:
370,124,146292,1,8,0:0:0:0:
366,122,146355,1,8,0:0:0:0:
372,129,146480,1,0,0:0:0:0:
354,161,146542,1,8,0:0:0:0:
335,143,146605,1,0,0:0:0:0:
339,146,146667,1,0,0:0:0:0:
341,141,146730,1,8,0:0:0:0:
333,134,146855,1,8,0:0:0:0:
331,130,146980,1,0,0:0:0:0:
326,126,147042,1,0,0:0:0:0:
335,129,147105,1,0,0:0:0:0:
334,128,147230,1,8,0:0:0:0:
357,149,147355,1,0,0:0:0:0:
344,148,147417,1,8,0:0:0:0:
343,141,147480,1,0,0:0:0:0:
328,139,147542,1,8,0:0:0:0:
330,153,147605,1,0,0:0:0:0:
336,134,147667,1,0,0:0:0:0:
360,170,147730,1,8,0:0:0:0:
370,173,147855,1,8,0:0:0:0:
386,124,147980,5,4,0:0:0:0:
256,192,148105,1,0,0:0:0:0:
256,192,148167,1,0,0:0:0:0:
256,192,148230,1,8,0:0:0:0:
339,153,148355,1,0,0:0:0:0:
256,192,148480,1,0,0:0:0:0:
256,192,148542,1,8,0:0:0:0:
256,192,148605,1,8,0:0:0:0:
256,192,148667,1,0,0:0:0:0:
256,192,148730,1,8,0:0:0:0:
256,192,148855,1,8,0:0:0:0:
256,192,148980,1,0,0:0:0:0:
256,192,149042,1,8,0:0:0:0:
224,192,149105,1,0,0:0:0:0:
224,192,149230,1,8,0:0:0:0:
224,192,149355,1,8,0:0:0:0:
256,192,149417,1,0,0:0:0:0:
256,192,149480,1,8,0:0:0:0:
256,192,149605,1,8,0:0:0:0:
256,192,149667,1,0,0:0:0:0:
256,192,149730,1,8,0:0:0:0:
256,192,149792,1,8,0:0:0:0:
256,192,149855,1,8,0:0:0:0:
256,192,149917,1,8,0:0:0:0:
256,192,149980,5,4,0:0:0:0:
256,192,150105,1,0,0:0:0:0:
256,192,150167,1,0,0:0:0:0:
256,192,150230,1,8,0:0:0:0:
256,192,150355,1,8,0:0:0:0:
256,192,150480,1,8,0:0:0:0:
256,192,150542,1,0,0:0:0:0:
256,192,150605,1,0,0:0:0:0:
256,192,150667,1,0,0:0:0:0:
256,192,150730,1,8,0:0:0:0:
256,192,150855,1,8,0:0:0:0:
256,192,150980,1,0,0:0:0:0:
256,192,151042,1,0,0:0:0:0:
256,192,151105,1,0,0:0:0:0:
256,192,151230,1,8,0:0:0:0:
256,192,151355,1,0,0:0:0:0:
256,192,151417,1,0,0:0:0:0:
256,192,151480,1,0,0:0:0:0:
256,192,151605,1,8,0:0:0:0:
256,192,151730,1,0,0:0:0:0:
224,192,151855,1,8,0:0:0:0:
256,192,151980,5,0,0:0:0:0:
224,192,152105,1,0,0:0:0:0:
224,192,152167,1,0,0:0:0:0:
224,192,152230,1,8,0:0:0:0:
256,192,152355,1,0,0:0:0:0:
256,192,152417,1,8,0:0:0:0:
256,192,152480,1,0,0:0:0:0:
256,192,152542,1,8,0:0:0:0:
256,192,152605,1,8,0:0:0:0:
256,192,152667,1,8,0:0:0:0:
256,192,152730,1,0,0:0:0:0:
256,192,152855,1,8,0:0:0:0:
256,192,152980,1,0,0:0:0:0:
256,192,153042,1,8,0:0:0:0:
256,192,153105,1,0,0:0:0:0:
256,192,153167,1,0,0:0:0:0:
256,192,153230,1,8,0:0:0:0:
256,192,153292,1,0,0:0:0:0:
256,192,153355,1,0,0:0:0:0:
256,192,153417,1,8,0:0:0:0:
256,192,153480,1,0,0:0:0:0:
256,192,153605,1,8,0:0:0:0:
256,192,153730,1,8,0:0:0:0:
256,192,153792,1,8,0:0:0:0:
256,192,153855,1,8,0:0:0:0:
256,192,153917,1,8,0:0:0:0:
256,192,153980,5,4,0:0:0:0:
256,192,154105,1,0,0:0:0:0:
256,192,154167,1,0,0:0:0:0:
256,192,154230,1,8,0:0:0:0:
256,192,154355,1,8,0:0:0:0:
256,192,154417,1,0,0:0:0:0:
256,192,154480,1,8,0:0:0:0:
256,192,154542,1,0,0:0:0:0:
256,192,154605,1,0,0:0:0:0:
256,192,154730,1,8,0:0:0:0:
256,192,154855,1,8,0:0:0:0:
256,192,154917,1,8,0:0:0:0:
256,192,154980,1,0,0:0:0:0:
256,192,155105,1,0,0:0:0:0:
256,192,155230,1,8,0:0:0:0:
256,192,155355,1,8,0:0:0:0:
256,192,155417,1,8,0:0:0:0:
256,192,155480,1,0,0:0:0:0:
256,192,155605,1,0,0:0:0:0:
256,192,155667,1,0,0:0:0:0:
256,192,155730,1,8,0:0:0:0:
256,192,155792,1,8,0:0:0:0:
256,192,155855,1,0,0:0:0:0:
350,120,155980,5,0,0:0:0:0:
350,120,156011,1,0,0:0:0:0:
365,112,156105,1,8,0:0:0:0:
365,112,156136,1,8,0:0:0:0:
379,117,156230,1,0,0:0:0:0:
378,117,156261,1,0,0:0:0:0:
378,117,156355,1,8,0:0:0:0:
377,117,156386,1,8,0:0:0:0:
382,111,156480,1,0,0:0:0:0:
379,109,156605,1,8,0:0:0:0:
256,192,156855,5,0,0:0:0:0:
325,86,156980,1,0,0:0:0:0:
325,86,157011,1,0,0:0:0:0:
351,129,157105,1,8,0:0:0:0:
345,126,157136,1,8,0:0:0:0:
338,118,157230,1,0,0:0:0:0:
338,118,157261,1,0,0:0:0:0:
338,118,157355,1,0,0:0:0:0:
337,154,157386,1,0,0:0:0:0:
325,86,157480,1,8,0:0:0:0:
297,77,157511,1,8,0:0:0:0:
395,153,157605,1,0,0:0:0:0:
279,117,157636,1,0,0:0:0:0:
375,110,157730,1,8,0:0:0:0:
363,144,157855,1,8,0:0:0:0:
359,140,157980,5,4,0:0:0:0:
256,192,158230,1,8,0:0:0:0:
256,192,158292,1,8,0:0:0:0:
256,192,158355,1,0,0:0:0:0:
256,192,158480,1,8,0:0:0:0:
256,192,158542,1,8,0:0:0:0:
256,192,158605,1,0,0:0:0:0:
256,192,158667,1,8,0:0:0:0:
256,192,158730,1,0,0:0:0:0:
256,192,158855,1,8,0:0:0:0:
256,192,158980,1,0,0:0:0:0:
256,192,159042,1,0,0:0:0:0:
256,192,159105,1,0,0:0:0:0:
256,192,159230,1,8,0:0:0:0:
256,192,159355,1,0,0:0:0:0:
256,192,159417,1,0,0:0:0:0:
256,192,159480,1,0,0:0:0:0:
256,192,159605,1,8,0:0:0:0:
256,192,159730,1,0,0:0:0:0:
256,192,159855,1,8,0:0:0:0:
256,192,159980,5,0,0:0:0:0:
256,192,160105,1,0,0:0:0:0:
256,192,160167,1,0,0:0:0:0:
256,192,160230,1,8,0:0:0:0:
256,192,160355,1,0,0:0:0:0:
256,192,160417,1,8,0:0:0:0:
256,192,160480,1,0,0:0:0:0:
256,192,160542,1,8,0:0:0:0:
256,192,160605,1,0,0:0:0:0:
256,192,160667,1,8,0:0:0:0:
256,192,160730,1,0,0:0:0:0:
256,192,160855,1,8,0:0:0:0:
256,192,160917,1,8,0:0:0:0:
256,192,160980,12,0,161855,0:0:0:0:
256,192,161980,5,0,0:0:0:0:
256,192,162230,1,8,0:0:0:0:
256,192,162480,1,0,0:0:0:0:
256,192,162605,1,0,0:0:0:0:
256,192,162730,1,8,0:0:0:0:
256,192,162980,1,0,0:0:0:0:
256,192,163230,1,8,0:0:0:0:
368,149,163355,1,8,0:0:0:0:
256,192,163480,1,0,0:0:0:0:
256,192,163730,1,8,0:0:0:0:
256,192,163792,1,8,0:0:0:0:
256,192,163855,1,8,0:0:0:0:
256,192,163917,1,8,0:0:0:0:
256,192,163980,5,0,0:0:0:0:
321,159,164011,1,0,0:0:0:0:
256,192,164105,1,8,0:0:0:0:
256,192,164136,1,8,0:0:0:0:
256,192,164355,5,0,0:0:0:0:
256,192,164386,1,0,0:0:0:0:
256,192,164480,1,0,0:0:0:0:
256,192,164511,1,0,0:0:0:0:
256,192,164605,1,8,0:0:0:0:
256,192,164855,5,8,0:0:0:0:
256,192,164886,1,8,0:0:0:0:
256,192,164980,1,8,0:0:0:0:
256,192,165011,1,8,0:0:0:0:
256,192,165105,1,0,0:0:0:0:
256,192,165355,5,0,0:0:0:0:
256,192,165386,1,0,0:0:0:0:
256,192,165480,1,8,0:0:0:0:
256,192,165511,1,8,0:0:0:0:
256,192,165605,1,0,0:0:0:0:
256,192,165730,5,8,0:0:0:0:
256,192,165792,1,8,0:0:0:0:
256,192,165855,1,8,0:0:0:0:
256,192,165917,1,8,0:0:0:0:
256,192,165980,1,0,0:0:0:0:
328,144,166011,1,0,0:0:0:0:
256,192,166105,1,0,0:0:0:0:
256,192,166136,1,0,0:0:0:0:
256,192,166355,5,0,0:0:0:0:
256,192,166386,1,0,0:0:0:0:
256,192,166480,1,8,0:0:0:0:
256,192,166511,1,8,0:0:0:0:
256,192,166605,1,0,0:0:0:0:
256,192,166855,5,8,0:0:0:0:
256,192,166886,1,8,0:0:0:0:
256,192,166980,1,0,0:0:0:0:
256,192,167011,1,0,0:0:0:0:
256,192,167105,1,8,0:0:0:0:
256,192,167355,5,8,0:0:0:0:
256,192,167386,1,8,0:0:0:0:
256,192,167480,1,8,0:0:0:0:
256,192,167511,1,8,0:0:0:0:
256,192,167605,1,0,0:0:0:0:
256,192,167730,5,8,0:0:0:0:
256,192,167792,1,8,0:0:0:0:
256,192,167855,1,8,0:0:0:0:
256,192,167917,1,8,0:0:0:0:
256,192,167980,1,0,0:0:0:0:
331,145,168011,1,0,0:0:0:0:
224,192,168105,1,8,0:0:0:0:
224,192,168136,1,8,0:0:0:0:
224,192,168355,5,8,0:0:0:0:
224,192,168386,1,8,0:0:0:0:
224,192,168480,1,8,0:0:0:0:
224,192,168511,1,8,0:0:0:0:
224,192,168605,1,0,0:0:0:0:
224,192,168855,5,0,0:0:0:0:
224,192,168886,1,0,0:0:0:0:
224,192,168980,1,0,0:0:0:0:
224,192,169011,1,0,0:0:0:0:
224,192,169105,1,8,0:0:0:0:
224,192,169355,5,8,0:0:0:0:
224,192,169386,1,8,0:0:0:0:
224,192,169480,1,0,0:0:0:0:
224,192,169511,1,0,0:0:0:0:
224,192,169605,1,8,0:0:0:0:
224,192,169730,5,8,0:0:0:0:
224,192,169792,1,8,0:0:0:0:
224,192,169855,1,8,0:0:0:0:
224,192,169917,1,8,0:0:0:0:
224,192,169980,1,0,0:0:0:0:
335,149,170011,1,0,0:0:0:0:
224,192,170105,1,8,0:0:0:0:
224,192,170136,1,8,0:0:0:0:
224,192,170355,5,0,0:0:0:0:
224,192,170386,1,0,0:0:0:0:
224,192,170480,1,8,0:0:0:0:
224,192,170511,1,8,0:0:0:0:
224,192,170605,1,0,0:0:0:0:
224,192,170855,5,8,0:0:0:0:
224,192,170886,1,8,0:0:0:0:
224,192,170980,1,0,0:0:0:0:
224,192,171011,1,0,0:0:0:0:
224,192,171105,1,0,0:0:0:0:
224,192,171355,5,0,0:0:0:0:
224,192,171480,1,8,0:0:0:0:
224,192,171542,1,8,0:0:0:0:
224,192,171605,1,0,0:0:0:0:
224,192,171667,1,0,0:0:0:0:
224,192,171730,1,8,0:0:0:0:
224,192,171792,1,8,0:0:0:0:
224,192,171855,1,8,0:0:0:0:
224,192,171917,1,8,0:0:0:0:
224,192,171980,5,4,0:0:0:0:
224,192,172105,1,0,0:0:0:0:
224,192,172167,1,0,0:0:0:0:
224,192,172230,1,8,0:0:0:0:
224,192,172355,1,0,0:0:0:0:
224,192,172417,1,0,0:0:0:0:
224,192,172480,1,8,0:0:0:0:
224,192,172542,1,0,0:0:0:0:
224,192,172605,1,0,0:0:0:0:
224,192,172667,1,8,0:0:0:0:
224,192,172730,1,8,0:0:0:0:
224,192,172855,1,8,0:0:0:0:
224,192,172980,5,0,0:0:0:0:
224,192,173105,1,0,0:0:0:0:
224,192,173167,1,8,0:0:0:0:
224,192,173230,1,0,0:0:0:0:
224,192,173355,1,8,0:0:0:0:
224,192,173417,1,8,0:0:0:0:
224,192,173480,1,0,0:0:0:0:
224,192,173542,1,8,0:0:0:0:
224,192,173605,1,8,0:0:0:0:
224,192,173730,1,0,0:0:0:0:
224,192,173792,1,0,0:0:0:0:
224,192,173855,1,0,0:0:0:0:
224,192,173917,1,8,0:0:0:0:
224,192,173980,5,0,0:0:0:0:
224,192,174105,1,8,0:0:0:0:
224,192,174230,1,0,0:0:0:0:
224,192,174355,1,8,0:0:0:0:
224,192,174417,1,8,0:0:0:0:
224,192,174480,1,0,0:0:0:0:
224,192,174542,1,0,0:0:0:0:
224,192,174605,1,8,0:0:0:0:
224,192,174667,1,8,0:0:0:0:
224,192,174730,1,0,0:0:0:0:
224,192,174792,1,8,0:0:0:0:
224,192,174855,1,8,0:0:0:0:
224,192,174917,1,8,0:0:0:0:
224,192,174980,5,0,0:0:0:0:
224,192,175105,1,0,0:0:0:0:
224,192,175167,1,8,0:0:0:0:
224,192,175230,1,0,0:0:0:0:
224,192,175292,1,8,0:0:0:0:
224,192,175355,1,8,0:0:0:0:
224,192,175417,1,8,0:0:0:0:
224,192,175480,1,0,0:0:0:0:
379,140,175605,1,8,0:0:0:0:
224,192,175730,1,0,0:0:0:0:
224,192,175855,1,8,0:0:0:0:
224,192,175980,5,0,0:0:0:0:
224,192,176105,1,0,0:0:0:0:
224,192,176167,1,8,0:0:0:0:
224,192,176230,1,0,0:0:0:0:
192,192,176292,1,0,0:0:0:0:
224,192,176355,1,8,0:0:0:0:
224,192,176417,1,0,0:0:0:0:
224,192,176480,1,8,0:0:0:0:
224,192,176542,1,8,0:0:0:0:
224,192,176605,1,0,0:0:0:0:
224,192,176730,1,8,0:0:0:0:
224,192,176855,1,0,0:0:0:0:
224,192,176980,5,0,0:0:0:0:
224,192,177042,1,0,0:0:0:0:
224,192,177105,1,8,0:0:0:0:
224,192,177167,1,8,0:0:0:0:
224,192,177230,1,0,0:0:0:0:
224,192,177292,1,0,0:0:0:0:
224,192,177355,1,8,0:0:0:0:
224,192,177417,1,0,0:0:0:0:
224,192,177480,1,8,0:0:0:0:
224,192,177605,1,0,0:0:0:0:
224,192,177730,1,8,0:0:0:0:
224,192,177792,1,8,0:0:0:0:
224,192,177855,1,8,0:0:0:0:
224,192,177917,1,8,0:0:0:0:
224,192,177980,5,4,0:0:0:0:
224,192,178230,1,12,0:0:0:0:
224,192,178480,1,4,0:0:0:0:
224,192,178730,1,12,0:0:0:0:
224,192,178855,1,12,0:0:0:0:
224,192,178980,1,4,0:0:0:0:
224,192,179105,1,4,0:0:0:0:
224,192,179230,1,12,0:0:0:0:
224,192,179480,1,4,0:0:0:0:
224,192,179730,1,12,0:0:0:0:
224,192,179855,1,12,0:0:0:0:
224,192,179980,5,4,0:0:0:0:
369,143,180480,1,8,0:0:0:0:
224,192,180730,1,0,0:0:0:0:
363,140,180980,1,0,0:0:0:0:
314,140,181480,5,0,0:0:0:0:
224,192,181730,1,8,0:0:0:0:
320,150,181980,1,0,0:0:0:0:
321,151,182480,5,8,0:0:0:0:
224,192,182730,1,0,0:0:0:0:
367,152,182980,1,0,0:0:0:0:
367,152,183480,5,0,0:0:0:0:
224,192,183730,1,8,0:0:0:0:
367,152,183980,1,0,0:0:0:0:
367,152,184480,5,8,0:0:0:0:
224,192,184730,1,0,0:0:0:0:
310,129,184980,1,0,0:0:0:0:
319,160,185480,5,0,0:0:0:0:
256,192,185605,1,8,0:0:0:0:
224,192,185730,1,8,0:0:0:0:
319,160,185980,1,0,0:0:0:0:
323,163,186480,5,8,0:0:0:0:
224,192,186730,1,0,0:0:0:0:
324,161,186980,1,0,0:0:0:0:
365,167,187480,5,0,0:0:0:0:
224,192,187605,1,8,0:0:0:0:
224,192,187667,1,8,0:0:0:0:
224,192,187730,1,8,0:0:0:0:
224,192,187855,1,8,0:0:0:0:
224,192,187980,5,4,0:0:0:0:
344,148,188230,1,8,0:0:0:0:
224,160,188355,1,0,0:0:0:0:
336,112,188730,1,0,0:0:0:0:
256,192,188855,1,8,0:0:0:0:
340,142,188980,1,0,0:0:0:0:
341,139,189230,1,8,0:0:0:0:
256,192,189355,1,0,0:0:0:0:
346,139,189730,1,0,0:0:0:0:
256,160,189855,1,8,0:0:0:0:
256,160,189980,5,4,0:0:0:0:
341,139,190230,1,8,0:0:0:0:
256,160,190355,1,0,0:0:0:0:
340,135,190730,1,0,0:0:0:0:
256,160,190855,1,8,0:0:0:0:
337,134,190980,1,8,0:0:0:0:
333,139,191230,1,0,0:0:0:0:
256,160,191355,1,8,0:0:0:0:
411,153,191730,1,0,0:0:0:0:
256,160,191855,1,8,0:0:0:0:
256,160,191980,5,4,0:0:0:0:
361,132,192230,1,8,0:0:0:0:
256,160,192355,1,0,0:0:0:0:
356,133,192730,1,0,0:0:0:0:
256,160,192855,1,8,0:0:0:0:
355,122,192980,1,0,0:0:0:0:
358,124,193230,1,8,0:0:0:0:
256,160,193355,1,0,0:0:0:0:
360,123,193730,1,0,0:0:0:0:
224,160,193855,1,8,0:0:0:0:
224,160,193980,5,4,0:0:0:0:
358,124,194230,1,8,0:0:0:0:
256,160,194355,1,0,0:0:0:0:
360,123,194730,1,0,0:0:0:0:
256,160,194855,1,8,0:0:0:0:
256,192,194980,8,0,195855,0:0:0:0:
256,160,195980,5,0,0:0:0:0:
256,160,196230,1,8,0:0:0:0:
256,160,196480,1,0,0:0:0:0:
256,160,196542,1,0,0:0:0:0:
256,160,196605,1,0,0:0:0:0:
256,160,196730,1,8,0:0:0:0:
256,160,196855,1,8,0:0:0:0:
256,160,196980,1,0,0:0:0:0:
256,160,197230,1,8,0:0:0:0:
256,160,197480,1,0,0:0:0:0:
256,160,197542,1,0,0:0:0:0:
256,160,197605,1,0,0:0:0:0:
256,160,197667,1,0,0:0:0:0:
256,160,197730,1,8,0:0:0:0:
256,160,197855,1,8,0:0:0:0:
256,160,197980,5,0,0:0:0:0:
256,160,198230,1,8,0:0:0:0:
256,160,198480,1,0,0:0:0:0:
256,160,198542,1,8,0:0:0:0:
256,160,198605,1,8,0:0:0:0:
256,160,198667,1,8,0:0:0:0:
256,160,198730,1,0,0:0:0:0:
256,160,198855,1,8,0:0:0:0:
256,160,198980,1,0,0:0:0:0:
256,160,199105,1,0,0:0:0:0:
256,160,199230,1,8,0:0:0:0:
256,160,199480,1,0,0:0:0:0:
256,160,199542,1,0,0:0:0:0:
256,160,199605,1,0,0:0:0:0:
256,160,199730,1,8,0:0:0:0:
256,160,199855,1,8,0:0:0:0:
256,160,199980,5,0,0:0:0:0:
256,160,200105,1,0,0:0:0:0:
256,160,200230,1,0,0:0:0:0:
256,160,200355,1,0,0:0:0:0:
256,160,200480,5,8,0:0:0:0:
256,160,200605,1,8,0:0:0:0:
256,160,200730,1,8,0:0:0:0:
256,160,200855,1,8,0:0:0:0:
256,160,200980,5,0,0:0:0:0:
256,160,201105,1,0,0:0:0:0:
256,160,201230,5,8,0:0:0:0:
256,160,201355,1,8,0:0:0:0:
256,160,201480,5,0,0:0:0:0:
256,160,201605,1,0,0:0:0:0:
256,160,201730,5,8,0:0:0:0:
256,160,201855,1,8,0:0:0:0:
256,160,201980,5,0,0:0:0:0:
256,160,202042,1,0,0:0:0:0:
256,160,202105,1,0,0:0:0:0:
256,160,202167,1,0,0:0:0:0:
256,160,202230,5,8,0:0:0:0:
256,160,202292,1,8,0:0:0:0:
256,160,202355,1,8,0:0:0:0:
256,160,202417,1,8,0:0:0:0:
256,160,202480,5,0,0:0:0:0:
256,160,202542,1,0,0:0:0:0:
256,160,202605,1,0,0:0:0:0:
256,160,202667,1,0,0:0:0:0:
256,160,202730,5,8,0:0:0:0:
256,160,202792,1,8,0:0:0:0:
256,160,202855,1,0,0:0:0:0:
256,160,202917,1,0,0:0:0:0:
256,160,202980,1,8,0:0:0:0:
256,160,203042,1,0,0:0:0:0:
256,160,203105,1,0,0:0:0:0:
256,160,203167,1,8,0:0:0:0:
256,160,203230,1,0,0:0:0:0:
256,160,203292,1,0,0:0:0:0:
256,160,203355,1,8,0:0:0:0:
256,160,203417,1,0,0:0:0:0:
256,160,203480,1,8,0:0:0:0:
256,160,203542,1,8,0:0:0:0:
256,160,203605,1,8,0:0:0:0:
256,160,203730,1,0,0:0:0:0:
256,160,203855,1,8,0:0:0:0:
256,160,203980,5,8,0:0:0:0:
256,160,204042,1,0,0:0:0:0:
256,160,204105,1,0,0:0:0:0:
256,160,204167,1,0,0:0:0:0:
256,160,204230,1,8,0:0:0:0:
256,160,204355,1,8,0:0:0:0:
256,160,204417,1,8,0:0:0:0:
256,160,204480,1,0,0:0:0:0:
256,160,204605,1,0,0:0:0:0:
256,160,204730,1,8,0:0:0:0:
256,160,204855,1,0,0:0:0:0:
256,160,204917,1,8,0:0:0:0:
256,160,204980,1,0,0:0:0:0:
256,160,205105,1,0,0:0:0:0:
256,160,205167,1,0,0:0:0:0:
256,160,205230,1,8,0:0:0:0:
256,160,205355,1,0,0:0:0:0:
256,160,205417,1,8,0:0:0:0:
256,160,205480,1,0,0:0:0:0:
256,160,205542,1,8,0:0:0:0:
256,160,205605,1,0,0:0:0:0:
256,160,205730,1,8,0:0:0:0:
256,160,205855,1,8,0:0:0:0:
256,160,205980,5,0,0:0:0:0:
364,122,206105,1,0,0:0:0:0:
256,160,206230,1,8,0:0:0:0:
256,160,206292,1,8,0:0:0:0:
256,160,206355,1,8,0:0:0:0:
256,160,206480,1,0,0:0:0:0:
256,160,206542,1,0,0:0:0:0:
256,160,206605,1,0,0:0:0:0:
256,160,206730,1,8,0:0:0:0:
256,160,206792,1,8,0:0:0:0:
256,160,206855,1,0,0:0:0:0:
256,160,206917,1,8,0:0:0:0:
256,160,206980,1,0,0:0:0:0:
256,160,207105,1,0,0:0:0:0:
256,160,207167,1,0,0:0:0:0:
256,160,207230,1,8,0:0:0:0:
256,160,207355,1,8,0:0:0:0:
256,160,207480,1,0,0:0:0:0:
256,160,207542,1,8,0:0:0:0:
256,160,207667,1,0,0:0:0:0:
256,160,207730,1,8,0:0:0:0:
256,160,207855,1,8,0:0:0:0:
256,160,207980,5,0,0:0:0:0:
321,142,208105,1,0,0:0:0:0:
321,142,208167,1,0,0:0:0:0:
256,160,208230,1,8,0:0:0:0:
256,160,208355,1,8,0:0:0:0:
256,160,208480,1,0,0:0:0:0:
256,160,208542,1,0,0:0:0:0:
256,160,208605,1,8,0:0:0:0:
256,160,208667,1,8,0:0:0:0:
256,160,208730,1,0,0:0:0:0:
256,160,208792,1,0,0:0:0:0:
256,160,208855,1,8,0:0:0:0:
256,160,208917,1,8,0:0:0:0:
256,160,208980,1,0,0:0:0:0:
256,160,209105,1,0,0:0:0:0:
256,160,209230,1,8,0:0:0:0:
256,160,209355,1,0,0:0:0:0:
256,160,209480,1,8,0:0:0:0:
256,160,209542,1,0,0:0:0:0:
256,160,209667,1,0,0:0:0:0:
256,160,209730,1,8,0:0:0:0:
256,160,209792,1,0,0:0:0:0:
256,160,209855,1,8,0:0:0:0:
256,160,209917,1,8,0:0:0:0:
256,160,209980,5,0,0:0:0:0:
256,160,210105,1,8,0:0:0:0:
256,160,210167,1,0,0:0:0:0:
256,160,210230,1,8,0:0:0:0:
256,160,210355,1,0,0:0:0:0:
256,160,210480,1,8,0:0:0:0:
256,160,210542,1,0,0:0:0:0:
256,160,210605,1,8,0:0:0:0:
256,160,210667,1,0,0:0:0:0:
256,160,210730,1,8,0:0:0:0:
256,160,210792,1,8,0:0:0:0:
256,160,210855,1,8,0:0:0:0:
256,160,210980,1,0,0:0:0:0:
256,160,211105,1,0,0:0:0:0:
256,160,211167,1,0,0:0:0:0:
256,160,211230,1,8,0:0:0:0:
256,160,211355,1,8,0:0:0:0:
256,160,211417,1,0,0:0:0:0:
256,160,211480,1,8,0:0:0:0:
256,160,211542,1,8,0:0:0:0:
256,160,211605,1,0,0:0:0:0:
256,160,211667,1,0,0:0:0:0:
256,160,211730,1,8,0:0:0:0:
256,160,211792,1,0,0:0:0:0:
256,160,211855,1,8,0:0:0:0:
256,160,211917,1,8,0:0:0:0:
256,160,211980,5,0,0:0:0:0:
346,127,212105,1,0,0:0:0:0:
256,160,212230,1,8,0:0:0:0:
354,128,212355,1,0,0:0:0:0:
256,160,212480,1,0,0:0:0:0:
256,160,212605,1,8,0:0:0:0:
256,160,212667,1,0,0:0:0:0:
256,160,212730,1,8,0:0:0:0:
256,160,212855,1,8,0:0:0:0:
256,160,212980,5,0,0:0:0:0:
374,151,213105,1,0,0:0:0:0:
256,160,213230,1,8,0:0:0:0:
359,149,213355,1,0,0:0:0:0:
256,160,213480,1,0,0:0:0:0:
256,160,213605,1,8,0:0:0:0:
256,160,213667,1,0,0:0:0:0:
256,160,213730,1,8,0:0:0:0:
256,160,213855,1,8,0:0:0:0:
256,160,213980,5,0,0:0:0:0:
256,160,214105,1,0,0:0:0:0:
256,160,214230,1,8,0:0:0:0:
256,160,214355,1,0,0:0:0:0:
256,160,214480,1,0,0:0:0:0:
256,160,214605,1,8,0:0:0:0:
337,135,214667,1,8,0:0:0:0:
256,160,214730,1,0,0:0:0:0:
256,160,214792,1,0,0:0:0:0:
256,160,214855,1,8,0:0:0:0:
256,160,214917,1,8,0:0:0:0:
256,192,214980,12,0,215730,0:0:0:0:
256,192,215980,5,0,0:0:0:0:
256,192,216105,1,0,0:0:0:0:
256,192,216167,1,0,0:0:0:0:
256,192,216230,1,8,0:0:0:0:
256,192,216355,1,8,0:0:0:0:
256,192,216417,1,0,0:0:0:0:
330,133,216480,1,0,0:0:0:0:
256,192,216542,1,8,0:0:0:0:
256,192,216605,1,0,0:0:0:0:
256,192,216730,1,8,0:0:0:0:
256,192,216855,1,8,0:0:0:0:
256,192,216917,1,8,0:0:0:0:
256,192,216980,5,0,0:0:0:0:
256,192,217105,1,0,0:0:0:0:
342,122,217167,1,0,0:0:0:0:
256,192,217230,1,8,0:0:0:0:
345,123,217292,1,0,0:0:0:0:
256,192,217355,1,0,0:0:0:0:
256,192,217417,1,8,0:0:0:0:
345,125,217480,1,0,0:0:0:0:
256,192,217542,1,0,0:0:0:0:
256,192,217605,1,8,0:0:0:0:
348,124,217667,1,0,0:0:0:0:
256,192,217730,1,8,0:0:0:0:
256,192,217792,1,0,0:0:0:0:
256,192,217855,1,8,0:0:0:0:
256,192,217917,1,8,0:0:0:0:
256,192,217980,5,0,0:0:0:0:
256,192,218105,1,0,0:0:0:0:
256,192,218167,1,0,0:0:0:0:
256,192,218230,1,8,0:0:0:0:
256,192,218355,1,0,0:0:0:0:
256,192,218417,1,0,0:0:0:0:
355,143,218542,1,0,0:0:0:0:
359,129,218605,1,0,0:0:0:0:
256,192,218730,1,8,0:0:0:0:
256,192,218792,1,0,0:0:0:0:
256,192,218855,1,8,0:0:0:0:
256,192,218917,1,8,0:0:0:0:
256,192,218980,5,0,0:0:0:0:
256,192,219105,1,0,0:0:0:0:
380,138,219167,1,0,0:0:0:0:
256,192,219230,1,8,0:0:0:0:
256,192,219355,1,8,0:0:0:0:
256,192,219417,1,8,0:0:0:0:
256,192,219480,1,0,0:0:0:0:
256,192,219542,1,8,0:0:0:0:
256,192,219605,1,8,0:0:0:0:
256,192,219730,1,8,0:0:0:0:
256,192,219855,1,0,0:0:0:0:
256,192,219980,5,4,0:0:0:0:
256,192,220105,1,0,0:0:0:0:
256,192,220167,1,0,0:0:0:0:
256,192,220230,1,8,0:0:0:0:
256,192,220355,1,0,0:0:0:0:
333,135,220417,1,8,0:0:0:0:
256,192,220480,1,0,0:0:0:0:
256,192,220542,1,0,0:0:0:0:
332,122,220605,1,8,0:0:0:0:
224,192,220667,1,0,0:0:0:0:
224,192,220730,1,8,0:0:0:0:
224,192,220855,1,8,0:0:0:0:
256,192,220980,5,0,0:0:0:0:
256,192,221105,1,0,0:0:0:0:
256,192,221167,1,0,0:0:0:0:
256,192,221230,1,8,0:0:0:0:
256,192,221355,1,0,0:0:0:0:
256,192,221417,1,8,0:0:0:0:
256,192,221542,1,0,0:0:0:0:
256,192,221605,1,0,0:0:0:0:
256,192,221730,1,8,0:0:0:0:
256,192,221792,1,0,0:0:0:0:
256,192,221855,1,8,0:0:0:0:
256,192,221917,1,8,0:0:0:0:
256,192,221980,5,0,0:0:0:0:
256,192,222105,1,0,0:0:0:0:
256,192,222167,1,8,0:0:0:0:
256,192,222230,1,0,0:0:0:0:
256,192,222292,1,0,0:0:0:0:
256,192,222355,1,8,0:0:0:0:
256,192,222480,1,0,0:0:0:0:
256,192,222542,1,0,0:0:0:0:
256,192,222605,1,8,0:0:0:0:
256,192,222730,1,0,0:0:0:0:
256,192,222792,1,8,0:0:0:0:
256,192,222855,1,0,0:0:0:0:
256,192,222917,1,8,0:0:0:0:
256,192,222980,5,0,0:0:0:0:
256,192,223105,1,8,0:0:0:0:
256,192,223167,1,8,0:0:0:0:
256,192,223292,1,0,0:0:0:0:
256,192,223355,1,0,0:0:0:0:
256,192,223480,1,8,0:0:0:0:
256,192,223542,1,8,0:0:0:0:
256,192,223667,1,0,0:0:0:0:
256,192,223730,1,0,0:0:0:0:
256,192,223855,1,8,0:0:0:0:
256,192,223980,5,4,0:0:0:0:
256,192,224105,1,0,0:0:0:0:
256,192,224167,1,0,0:0:0:0:
256,192,224230,1,8,0:0:0:0:
256,192,224355,1,0,0:0:0:0:
256,192,224480,1,0,0:0:0:0:
256,192,224542,1,8,0:0:0:0:
256,192,224605,1,8,0:0:0:0:
256,192,224667,1,8,0:0:0:0:
256,192,224730,1,0,0:0:0:0:
256,192,224792,1,8,0:0:0:0:
256,192,224855,1,8,0:0:0:0:
256,192,224917,1,8,0:0:0:0:
256,192,224980,5,0,0:0:0:0:
256,192,225105,1,0,0:0:0:0:
344,114,225167,1,0,0:0:0:0:
256,192,225230,1,8,0:0:0:0:
256,192,225355,1,8,0:0:0:0:
256,192,225480,1,0,0:0:0:0:
256,192,225542,1,8,0:0:0:0:
256,192,225605,1,8,0:0:0:0:
256,192,225667,1,0,0:0:0:0:
256,192,225730,1,8,0:0:0:0:
256,192,225792,1,8,0:0:0:0:
256,192,225855,1,0,0:0:0:0:
256,192,225917,1,0,0:0:0:0:
256,192,225980,5,8,0:0:0:0:
256,192,226105,1,8,0:0:0:0:
256,192,226167,1,8,0:0:0:0:
256,192,226230,1,0,0:0:0:0:
256,192,226355,1,8,0:0:0:0:
256,192,226480,1,0,0:0:0:0:
256,192,226542,1,0,0:0:0:0:
256,192,226605,1,0,0:0:0:0:
256,192,226667,1,0,0:0:0:0:
256,192,226730,1,8,0:0:0:0:
256,192,226792,1,8,0:0:0:0:
256,192,226855,1,8,0:0:0:0:
256,192,226917,1,8,0:0:0:0:
256,192,226980,5,0,0:0:0:0:
256,192,227105,1,0,0:0:0:0:
256,192,227167,1,0,0:0:0:0:
256,192,227230,1,8,0:0:0:0:
256,192,227355,1,8,0:0:0:0:
256,192,227480,1,8,0:0:0:0:
256,192,227542,1,8,0:0:0:0:
256,192,227605,1,8,0:0:0:0:
256,192,227667,1,0,0:0:0:0:
256,192,227730,1,8,0:0:0:0:
256,192,227792,1,0,0:0:0:0:
256,160,227855,1,8,0:0:0:0:
256,192,227980,5,4,0:0:0:0:
256,192,228105,1,0,0:0:0:0:
256,192,228167,1,0,0:0:0:0:
256,192,228230,1,8,0:0:0:0:
256,192,228355,1,8,0:0:0:0:
256,192,228480,1,0,0:0:0:0:
256,192,228542,1,8,0:0:0:0:
256,192,228605,1,8,0:0:0:0:
256,192,228667,1,0,0:0:0:0:
256,192,228730,1,8,0:0:0:0:
256,192,228792,1,0,0:0:0:0:
256,192,228855,1,8,0:0:0:0:
256,192,228917,1,8,0:0:0:0:
256,192,228980,5,0,0:0:0:0:
256,192,229105,1,8,0:0:0:0:
256,192,229167,1,0,0:0:0:0:
256,192,229230,1,0,0:0:0:0:
256,192,229355,1,8,0:0:0:0:
256,192,229480,1,0,0:0:0:0:
256,192,229542,1,0,0:0:0:0:
256,192,229605,1,8,0:0:0:0:
256,192,229667,1,8,0:0:0:0:
256,192,229730,1,0,0:0:0:0:
256,192,229792,1,0,0:0:0:0:
256,192,229855,1,8,0:0:0:0:
256,192,229917,1,8,0:0:0:0:
256,192,229980,5,0,0:0:0:0:
256,192,230042,1,0,0:0:0:0:
256,192,230105,1,8,0:0:0:0:
256,192,230167,1,0,0:0:0:0:
256,192,230230,1,8,0:0:0:0:
256,192,230292,1,0,0:0:0:0:
256,192,230355,1,8,0:0:0:0:
256,192,230417,1,0,0:0:0:0:
256,192,230480,1,8,0:0:0:0:
256,192,230542,1,8,0:0:0:0:
256,192,230605,1,8,0:0:0:0:
256,192,230667,1,0,0:0:0:0:
256,192,230730,1,8,0:0:0:0:
256,192,230792,1,8,0:0:0:0:
256,192,230855,1,8,0:0:0:0:
256,192,230980,5,4,0:0:0:0:
256,192,231105,1,0,0:0:0:0:
256,192,231230,1,8,0:0:0:0:
256,192,231480,1,8,0:0:0:0:
256,192,231542,1,8,0:0:0:0:
256,192,231605,1,8,0:0:0:0:
256,192,231730,1,0,0:0:0:0:
256,192,231855,1,8,0:0:0:0:
256,192,231980,12,0,237980,0:0:0:0:
