osu file format v14

[General]
AudioFilename: audio.mp3
AudioLeadIn: 0
PreviewTime: 277040
Countdown: 0
SampleSet: Normal
StackLeniency: 0.7
Mode: 1
LetterboxInBreaks: 0
WidescreenStoryboard: 0

[Editor]
DistanceSpacing: 0.36
BeatDivisor: 4
GridSize: 8
TimelineZoom: 4.899998

[Metadata]
Title:katagiri wa Denki Kitsune no Yume o Miru ka?
TitleUnicode:かたぎりは電気狐の夢を見るか?
Artist:katagiri
ArtistUnicode:かたぎり
Creator:woosungko
Version:DAYBREAK
Source:
Tags:electronic mashup mashcore japanese miso-nicomi records Breakcore does dream of electric foxes jcore j-core M3 Autumn 2021 E-09
BeatmapID:4223180
BeatmapSetID:2026828

[Difficulty]
HPDrainRate:5.5
CircleSize:5
OverallDifficulty:7
ApproachRate:5
SliderMultiplier:1.4
SliderTickRate:1

[Events]
//Background and Video events
0,0,"BG.jpg",0,0
//Break Periods
//Storyboard Layer 0 (Background)
//Storyboard Layer 1 (Fail)
//Storyboard Layer 2 (Pass)
//Storyboard Layer 3 (Foreground)
//Storyboard Layer 4 (Overlay)
//Storyboard Sound Samples

[TimingPoints]
20,240,4,1,0,40,1,8
980,240,4,1,0,40,1,0
980,-166.666666666667,4,1,0,40,0,0
1685,-80,4,1,0,80,0,0
1925,-95.2380952380952,4,1,0,80,0,0
7685,-95.2380952380952,4,1,0,80,0,0
7805,-96.3030900564392,4,1,0,80,0,0
7865,-96.8400451443942,4,1,0,80,0,0
7925,-97.3799941213958,4,1,0,80,0,0
8045,-98.4689406074672,4,1,0,80,0,0
8105,-99.0179717822065,4,1,0,80,0,0
8165,-99.5700641783723,4,1,0,80,0,0
8225,-100.125234864352,4,1,0,80,0,0
8285,-100.6835010037,4,1,0,80,0,0
8405,-101.809388775747,4,1,0,80,0,0
8525,-102.947866726549,4,1,0,80,0,0
8645,-104.101603164689,4,1,0,80,0,0
8765,-102.569041771608,4,1,0,80,0,0
8825,-101.811242714717,4,1,0,80,0,0
8885,-101.059042417459,4,1,0,80,0,0
9005,-99.5712729487628,4,1,0,80,0,0
9125,-98.1054061019304,4,1,0,80,0,0
9245,-96.6611194312773,4,1,0,80,0,0
9305,-95.9469691976609,4,1,0,80,0,0
9365,-80,4,1,0,80,0,0
9605,-95.2380952380952,4,1,0,80,0,0
24725,-80,4,1,0,80,0,0
24965,-95.2380952380952,4,1,0,80,0,0
25025,-95.4677626085795,4,1,0,80,0,0
25085,-95.6979838236249,4,1,0,80,0,0
25145,-95.9287602188318,4,1,0,80,0,0
25205,-96.1600931330211,4,1,0,80,0,0
25265,-96.3919839082426,4,1,0,80,0,0
25325,-96.6244338897823,4,1,0,80,0,0
25385,-96.8574444261702,4,1,0,80,0,0
25445,-97.0910168691886,4,1,0,80,0,0
25565,-97.5598528985525,4,1,0,80,0,0
25685,-98.0309528574695,4,1,0,80,0,0
25745,-98.2673552247424,4,1,0,80,0,0
25805,-98.5043276780709,4,1,0,80,0,0
25865,-98.7418715922219,4,1,0,80,0,0
25925,-98.9799883452773,4,1,0,80,0,0
26045,-99.4579458970538,4,1,0,80,0,0
26105,-99.6977894685871,4,1,0,80,0,0
26165,-99.9382114246658,4,1,0,80,0,0
26285,-100.420796072936,4,1,0,80,0,0
26405,-100.905711040506,4,1,0,80,0,0
26465,-101.149045908382,4,1,0,80,0,0
26525,-101.39296758009,4,1,0,80,0,0
26585,-101.637477470712,4,1,0,80,0,0
26645,-101.882576998742,4,1,0,80,0,0
26705,-102.128267586095,4,1,0,80,0,0
26765,-102.374550658116,4,1,0,80,0,0
26885,-102.868899974728,4,1,0,80,0,0
26945,-103.116969087227,4,1,0,80,0,0
27005,-103.365636420224,4,1,0,80,0,0
27065,-103.614903416332,4,1,0,80,0,0
27125,-103.864771521643,4,1,0,80,0,0
27185,-104.115242185737,4,1,0,80,0,0
27245,-104.366316861689,4,1,0,80,0,0
27305,-104.617997006076,4,1,0,80,0,0
27365,-104.870284078992,4,1,0,80,0,0
27485,-105.376684868389,4,1,0,80,0,0
27545,-105.630801522692,4,1,0,80,0,0
27605,-105.885530981184,4,1,0,80,0,0
27725,-106.39683422543,4,1,0,80,0,0
27785,-106.653410977446,4,1,0,80,0,0
27845,-106.910606466196,4,1,0,80,0,0
27905,-107.168422183767,4,1,0,80,0,0
27965,-107.426859625847,4,1,0,80,0,0
28085,-107.94560568432,4,1,0,80,0,0
28145,-108.205917310155,4,1,0,80,0,0
28205,-108.466856679399,4,1,0,80,0,0
28325,-80,4,1,0,80,0,0
28565,-110.045760535737,4,1,0,80,0,0
28625,-110.311136700516,4,1,0,80,0,0
28685,-110.577152821878,4,1,0,80,0,0
28805,-111.111111111111,4,1,0,80,0,0
28925,-110.577152821878,4,1,0,80,0,0
28985,-110.311136700516,4,1,0,80,0,0
29045,-110.045760535737,4,1,0,80,0,0
29105,-109.781022787992,4,1,0,80,0,0
29165,-109.51692192144,4,1,0,80,0,0
29225,-109.253456403929,4,1,0,80,0,0
29285,-108.990624706998,4,1,0,80,0,0
29405,-108.466856679399,4,1,0,80,0,0
29525,-107.94560568432,4,1,0,80,0,0
29585,-107.685920291729,4,1,0,80,0,0
29645,-107.426859625847,4,1,0,80,0,0
29705,-107.168422183767,4,1,0,80,0,0
29765,-106.910606466196,4,1,0,80,0,0
29825,-106.653410977446,4,1,0,80,0,0
29885,-106.39683422543,4,1,0,80,0,0
29945,-106.140874721648,4,1,0,80,0,0
30005,-105.885530981184,4,1,0,80,0,0
30125,-105.376684868389,4,1,0,80,0,0
30245,-104.870284078992,4,1,0,80,0,0
30305,-104.617997006076,4,1,0,80,0,0
30365,-104.366316861689,4,1,0,80,0,0
30485,-103.864771521643,4,1,0,80,0,0
30605,-103.365636420224,4,1,0,80,0,0
30665,-103.116969087227,4,1,0,80,0,0
30725,-102.868899974728,4,1,0,80,0,0
30845,-102.374550658116,4,1,0,80,0,0
30965,-101.882576998742,4,1,0,80,0,0
31025,-101.637477470712,4,1,0,80,0,0
31085,-101.39296758009,4,1,0,80,0,0
31145,-101.149045908382,4,1,0,80,0,0
31205,-100.905711040506,4,1,0,80,0,0
31325,-100.420796072936,4,1,0,80,0,0
31445,-99.9382114246658,4,1,0,80,0,0
31505,-99.6977894685871,4,1,0,80,0,0
31565,-99.4579458970538,4,1,0,80,0,0
31625,-99.2186793186424,4,1,0,80,0,0
31685,-98.9799883452773,4,1,0,80,0,0
31805,-98.5043276780709,4,1,0,80,0,0
31925,-98.0309528574695,4,1,0,80,0,0
32045,-97.5598528985525,4,1,0,80,0,0
32105,-97.3251525738795,4,1,0,80,0,0
32165,-97.0910168691886,4,1,0,80,0,0
32225,-96.8574444261702,4,1,0,80,0,0
32285,-96.6244338897823,4,1,0,80,0,0
32345,-96.3919839082426,4,1,0,80,0,0
32405,-96.1600931330211,4,1,0,80,0,0
32525,-95.6979838236249,4,1,0,80,0,0
32645,-95.2380952380952,4,1,0,80,0,0
48005,-95.2380952380952,4,1,0,80,0,0
48125,-96.4441178320304,4,1,0,80,0,0
48245,-97.665412576185,4,1,0,80,0,0
48485,-100.154594543603,4,1,0,80,0,0
48665,-102.063026684498,4,1,0,80,0,0
48845,-104.007823739583,4,1,0,80,0,0
48965,-105.324899486031,4,1,0,80,0,0
49085,-106.658653675114,4,1,0,80,0,0
49205,-108.009297509909,4,1,0,80,0,0
49445,-110.762112335376,4,1,0,80,0,0
49475,-111.111111111111,4,1,0,80,0,0
49685,-80,4,1,0,80,0,0
49925,-95.2380952380952,4,1,0,80,0,0
81365,-117.647058823529,4,1,0,80,0,0
81485,-115.750524298885,4,1,0,80,0,0
81605,-88.8429169440797,4,1,0,80,0,0
81845,-110.242396249139,4,1,0,80,0,0
82085,-106.716710472854,4,1,0,80,0,0
82325,-82.2693990696293,4,1,0,80,0,0
82565,-80.1603206412826,4,1,0,80,0,0
82805,-90.9090909090909,4,1,0,80,0,0
82835,-91.2354393953302,4,1,0,80,0,0
82925,-92.2215309117065,4,1,0,80,0,0
82955,-92.5525908388353,4,1,0,80,0,0
83045,-93.5529184006872,4,1,0,80,0,0
83285,-96.2736339541421,4,1,0,80,0,0
83345,-96.9660872266949,4,1,0,80,0,0
83405,-97.6635210065266,4,1,0,80,0,0
83465,-98.3659711162026,4,1,0,80,0,0
83525,-99.0734736359444,4,1,0,80,0,0
83555,-99.4291308955675,4,1,0,80,0,0
83645,-100.503781525921,4,1,0,80,0,0
83675,-100.864573352507,4,1,0,80,0,0
83765,-101.954738542098,4,1,0,80,0,0
83795,-102.320739062567,4,1,0,80,0,0
83885,-103.426642792605,4,1,0,80,0,0
83915,-103.797927204039,4,1,0,80,0,0
84005,-104.919796689315,4,1,0,80,0,0
84245,-107.971084961214,4,1,0,80,0,0
84365,-109.529846242532,4,1,0,80,0,0
84485,-80,4,1,0,80,0,0
84720,-90.9090909090909,4,1,0,80,0,0
84750,-91.2354393953302,4,1,0,80,0,0
84840,-92.2215309117065,4,1,0,80,0,0
84870,-92.5525908388353,4,1,0,80,0,0
84960,-93.5529184006872,4,1,0,80,0,0
85080,-94.9035269178627,4,1,0,80,0,0
85140,-95.5861256221183,4,1,0,80,0,0
85200,-96.2736339541421,4,1,0,80,0,0
85320,-97.6635210065266,4,1,0,80,0,0
85440,-99.0734736359444,4,1,0,80,0,0
85680,-101.954738542098,4,1,0,80,0,0
85740,-102.688053463911,4,1,0,80,0,0
85800,-103.426642792605,4,1,0,80,0,0
85860,-104.170544464635,4,1,0,80,0,0
85920,-104.919796689315,4,1,0,80,0,0
86040,-106.43450700997,4,1,0,80,0,0
86160,-107.971084961214,4,1,0,80,0,0
86280,-109.529846242532,4,1,0,80,0,0
86400,-80,4,1,0,80,0,0
86645,-90.9090909090909,4,1,0,80,0,0
86675,-91.2354393953302,4,1,0,80,0,0
86765,-92.2215309117065,4,1,0,80,0,0
86795,-92.5525908388353,4,1,0,80,0,0
86885,-93.5529184006872,4,1,0,80,0,0
87125,-96.2736339541421,4,1,0,80,0,0
87185,-96.9660872266949,4,1,0,80,0,0
87245,-97.6635210065266,4,1,0,80,0,0
87305,-98.3659711162026,4,1,0,80,0,0
87365,-99.0734736359444,4,1,0,80,0,0
87395,-99.4291308955675,4,1,0,80,0,0
87485,-100.503781525921,4,1,0,80,0,0
87515,-100.864573352507,4,1,0,80,0,0
87605,-101.954738542098,4,1,0,80,0,0
87635,-102.320739062567,4,1,0,80,0,0
87725,-103.426642792605,4,1,0,80,0,0
87755,-103.797927204039,4,1,0,80,0,0
87845,-104.919796689315,4,1,0,80,0,0
87905,-105.674437950781,4,1,0,80,0,0
87965,-106.43450700997,4,1,0,80,0,0
88085,-107.971084961214,4,1,0,80,0,0
88205,-109.529846242532,4,1,0,80,0,0
88325,-80,4,1,0,80,0,0
88565,-90.9090909090909,4,1,0,80,0,0
88625,-91.5629594182487,4,1,0,80,0,0
88685,-92.2215309117065,4,1,0,80,0,0
88745,-92.8848392159309,4,1,0,80,0,0
88805,-93.5529184006872,4,1,0,80,0,0
89045,-96.2736339541421,4,1,0,80,0,0
89075,-96.6192402559047,4,1,0,80,0,0
89165,-97.6635210065266,4,1,0,80,0,0
89195,-98.0141167711807,4,1,0,80,0,0
89285,-99.0734736359444,4,1,0,80,0,0
89525,-101.954738542098,4,1,0,80,0,0
89555,-102.320739062567,4,1,0,80,0,0
89645,-103.426642792605,4,1,0,80,0,0
89675,-103.797927204039,4,1,0,80,0,0
89765,-104.919796689315,4,1,0,80,0,0
89805,-105.422289694827,4,1,0,80,0,0
89845,-105.927189293076,4,1,0,80,0,0
89885,-106.43450700997,4,1,0,80,0,0
90005,-107.971084961214,4,1,0,80,0,0
90125,-109.529846242532,4,1,0,80,0,0
90245,-80,4,1,0,80,0,0
90485,-90.9090909090909,4,1,0,80,0,0
90545,-91.2136464282085,4,1,0,80,0,0
90605,-91.5192222420325,4,1,0,80,0,0
90665,-91.8258217686633,4,1,0,80,0,0
90725,-92.133448437652,4,1,0,80,0,0
90845,-92.7517969783935,4,1,0,80,0,0
90965,-93.3742955311483,4,1,0,80,0,0
91205,-94.6318542699324,4,1,0,80,0,0
91245,-94.8430878958491,4,1,0,80,0,0
91285,-95.0547930294317,4,1,0,80,0,0
91325,-95.2669707231614,4,1,0,80,0,0
91445,-95.9063497253204,4,1,0,80,0,0
91685,-97.1980099998735,4,1,0,80,0,0
91715,-97.3606859153704,4,1,0,80,0,0
91805,-97.850349065279,4,1,0,80,0,0
91835,-98.0141167711807,4,1,0,80,0,0
91925,-98.5070662682231,4,1,0,80,0,0
91955,-98.6719330920203,4,1,0,80,0,0
92045,-99.1681909923335,4,1,0,80,0,0
92075,-99.3341643106953,4,1,0,80,0,0
92165,-99.8337528184447,4,1,0,80,0,0
92405,-101.17830709399,4,1,0,80,0,0
92465,-101.517265624235,4,1,0,80,0,0
92525,-101.857359703082,4,1,0,80,0,0
92645,-102.540969736184,4,1,0,80,0,0
92705,-102.884493337141,4,1,0,80,0,0
92765,-103.229167780193,4,1,0,80,0,0
92825,-103.574996920788,4,1,0,80,0,0
92885,-103.921984627291,4,1,0,80,0,0
93005,-104.619451276319,4,1,0,80,0,0
93125,-105.321598934166,4,1,0,80,0,0
93245,-106.028459017164,4,1,0,80,0,0
93305,-106.383666093313,4,1,0,80,0,0
93365,-106.740063152493,4,1,0,80,0,0
93485,-107.456443179598,4,1,0,80,0,0
93605,-108.177631151611,4,1,0,80,0,0
93845,-109.634560219957,4,1,0,80,0,0
93965,-110.370366503956,4,1,0,80,0,0
94085,-111.111111111111,4,1,0,80,0,0
94125,-110.879095939162,4,1,0,80,0,0
94165,-110.647565246574,4,1,0,80,0,0
94205,-110.416518021686,4,1,0,80,0,0
94325,-109.7262670683,4,1,0,80,0,0
94445,-109.040331106794,4,1,0,80,0,0
94565,-108.358683162696,4,1,0,80,0,0
94805,-107.008144270913,4,1,0,80,0,0
94925,-106.339200213209,4,1,0,80,0,0
95045,-105.674437950781,4,1,0,80,0,0
95075,-105.508897723594,4,1,0,80,0,0
95165,-105.013831341816,4,1,0,80,0,0
95195,-104.849325962509,4,1,0,80,0,0
95285,-104.357354407919,4,1,0,80,0,0
95525,-103.056686462741,4,1,0,80,0,0
95585,-102.734060381053,4,1,0,80,0,0
95645,-102.412444302617,4,1,0,80,0,0
95705,-102.09183506555,4,1,0,80,0,0
95765,-101.772229517864,4,1,0,80,0,0
95885,-101.136016931998,4,1,0,80,0,0
96005,-100.503781525921,4,1,0,80,0,0
96065,-100.18914748963,4,1,0,80,0,0
96125,-99.8754984369404,4,1,0,80,0,0
96245,-99.251142957786,4,1,0,80,0,0
96365,-98.630690535642,4,1,0,80,0,0
96485,-98.0141167711807,4,1,0,80,0,0
96545,-97.7072768025241,4,1,0,80,0,0
96605,-97.4013974176026,4,1,0,80,0,0
96725,-96.7925083796832,4,1,0,80,0,0
96845,-96.1874257128256,4,1,0,80,0,0
96965,-95.5861256221183,4,1,0,80,0,0
97085,-94.9885844614001,4,1,0,80,0,0
97145,-94.6912161308064,4,1,0,80,0,0
97265,-94.0992693516231,4,1,0,80,0,0
97325,-93.8046850834625,4,1,0,80,0,0
97445,-93.2182803093306,4,1,0,80,0,0
97505,-92.9264540382731,4,1,0,80,0,0
97565,-92.6355413495322,4,1,0,80,0,0
97685,-92.0564452878236,4,1,0,80,0,0
97925,-90.9090909090909,4,1,0,80,0,0
98165,-92.0564452878236,4,1,0,80,0,0
98195,-92.2008790293923,4,1,0,80,0,0
98285,-92.6355413495322,4,1,0,80,0,0
98315,-92.7808836750753,4,1,0,80,0,0
98405,-93.2182803093306,4,1,0,80,0,0
98435,-93.3645369344434,4,1,0,80,0,0
98645,-94.3947787323299,4,1,0,80,0,0
98675,-94.5428812474144,4,1,0,80,0,0
98765,-94.9885844614001,4,1,0,80,0,0
98795,-95.1376186394762,4,1,0,80,0,0
98885,-95.5861256221183,4,1,0,80,0,0
98915,-95.7360973239638,4,1,0,80,0,0
99125,-96.7925083796832,4,1,0,80,0,0
99155,-96.9443728591055,4,1,0,80,0,0
99245,-97.4013974176026,4,1,0,80,0,0
99275,-97.5542172252658,4,1,0,80,0,0
99365,-98.0141167711807,4,1,0,80,0,0
99425,-98.3219203401896,4,1,0,80,0,0
99485,-98.630690535642,4,1,0,80,0,0
99545,-98.9404303931318,4,1,0,80,0,0
99605,-99.251142957786,4,1,0,80,0,0
99725,-99.8754984369404,4,1,0,80,0,0
99845,-100.503781525921,4,1,0,80,0,0
100085,-101.772229517864,4,1,0,80,0,0
100115,-101.931907027147,4,1,0,80,0,0
100205,-102.412444302617,4,1,0,80,0,0
100235,-102.573126289278,4,1,0,80,0,0
100325,-103.056686462741,4,1,0,80,0,0
100355,-103.218379245609,4,1,0,80,0,0
100445,-103.704981333098,4,1,0,80,0,0
100475,-103.86769127075,4,1,0,80,0,0
100565,-104.357354407919,4,1,0,80,0,0
100595,-104.521087898934,4,1,0,80,0,0
100685,-105.013831341816,4,1,0,80,0,0
100715,-105.178594825022,4,1,0,80,0,0
100805,-105.674437950781,4,1,0,80,0,0
100865,-106.006297995291,4,1,0,80,0,0
100925,-106.339200213209,4,1,0,80,0,0
100985,-106.673147877376,4,1,0,80,0,0
101045,-107.008144270913,4,1,0,80,0,0
101105,-107.34419268725,4,1,0,80,0,0
101165,-107.68129643016,4,1,0,80,0,0
101225,-108.01945881379,4,1,0,80,0,0
101285,-108.358683162696,4,1,0,80,0,0
101315,-108.528694615905,4,1,0,80,0,0
101405,-109.040331106794,4,1,0,80,0,0
101525,-109.7262670683,4,1,0,80,0,0
101555,-109.898424218747,4,1,0,80,0,0
101645,-110.416518021686,4,1,0,80,0,0
101765,-111.111111111111,4,1,0,80,0,0
102005,-109.7262670683,4,1,0,80,0,0
102035,-109.554379604017,4,1,0,80,0,0
102125,-109.040331106794,4,1,0,80,0,0
102155,-108.869518169114,4,1,0,80,0,0
102245,-108.358683162696,4,1,0,80,0,0
102275,-108.188938034391,4,1,0,80,0,0
102365,-107.68129643016,4,1,0,80,0,0
102395,-107.512612435993,4,1,0,80,0,0
102485,-107.008144270913,4,1,0,80,0,0
102515,-106.840514777376,4,1,0,80,0,0
102605,-106.339200213209,4,1,0,80,0,0
102635,-106.172618628262,4,1,0,80,0,0
102725,-105.674437950781,4,1,0,80,0,0
102845,-105.013831341816,4,1,0,80,0,0
102965,-104.357354407919,4,1,0,80,0,0
103025,-104.030656495308,4,1,0,80,0,0
103085,-103.704981333098,4,1,0,80,0,0
103145,-103.380325719498,4,1,0,80,0,0
103205,-103.056686462741,4,1,0,80,0,0
103325,-102.412444302617,4,1,0,80,0,0
103385,-102.09183506555,4,1,0,80,0,0
103445,-101.772229517864,4,1,0,80,0,0
103565,-101.136016931998,4,1,0,80,0,0
103685,-100.503781525921,4,1,0,80,0,0
103745,-100.18914748963,4,1,0,80,0,0
103805,-99.8754984369404,4,1,0,80,0,0
103925,-99.251142957786,4,1,0,80,0,0
104045,-98.630690535642,4,1,0,80,0,0
104165,-98.0141167711807,4,1,0,80,0,0
104225,-97.7072768025241,4,1,0,80,0,0
104285,-97.4013974176026,4,1,0,80,0,0
104345,-97.0964756092421,4,1,0,80,0,0
104405,-96.7925083796832,4,1,0,80,0,0
104525,-96.1874257128256,4,1,0,80,0,0
104645,-95.5861256221183,4,1,0,80,0,0
104765,-94.9885844614001,4,1,0,80,0,0
104825,-94.6912161308064,4,1,0,80,0,0
104885,-94.3947787323299,4,1,0,80,0,0
105005,-93.8046850834625,4,1,0,80,0,0
105125,-93.2182803093306,4,1,0,80,0,0
105185,-92.9264540382731,4,1,0,80,0,0
105245,-92.6355413495322,4,1,0,80,0,0
105305,-92.3455393830754,4,1,0,80,0,0
105365,-92.0564452878236,4,1,0,80,0,0
105485,-91.4809693512181,4,1,0,80,0,0
105605,-90.9090909090909,4,1,0,80,0,0
105725,-91.4809693512181,4,1,0,80,0,0
105845,-92.0564452878236,4,1,0,80,0,0
105875,-92.2008790293923,4,1,0,80,0,0
105965,-92.6355413495322,4,1,0,80,0,0
106085,-93.2182803093306,4,1,0,80,0,0
106115,-93.3645369344434,4,1,0,80,0,0
106205,-93.8046850834624,4,1,0,80,0,0
106325,-94.3947787323299,4,1,0,80,0,0
106355,-94.5428812474144,4,1,0,80,0,0
106445,-94.9885844614001,4,1,0,80,0,0
106505,-95.2868866476106,4,1,0,80,0,0
106565,-95.5861256221183,4,1,0,80,0,0
106625,-95.8863043268136,4,1,0,80,0,0
106685,-96.1874257128256,4,1,0,80,0,0
106745,-96.4894927405509,4,1,0,80,0,0
106805,-96.7925083796832,4,1,0,80,0,0
106865,-97.0964756092421,4,1,0,80,0,0
106925,-97.4013974176026,4,1,0,80,0,0
106985,-97.7072768025241,4,1,0,80,0,0
107045,-98.0141167711807,4,1,0,80,0,0
107165,-98.630690535642,4,1,0,80,0,0
107285,-99.251142957786,4,1,0,80,0,0
107345,-99.5628312842946,4,1,0,80,0,0
107405,-99.8754984369404,4,1,0,80,0,0
107525,-100.503781525921,4,1,0,80,0,0
107585,-100.819403639058,4,1,0,80,0,0
107645,-101.136016931998,4,1,0,80,0,0
107765,-101.772229517864,4,1,0,80,0,0
107885,-102.412444302617,4,1,0,80,0,0
108005,-103.056686462741,4,1,0,80,0,0
108035,-103.218379245609,4,1,0,80,0,0
108125,-103.704981333098,4,1,0,80,0,0
108245,-104.357354407919,4,1,0,80,0,0
108275,-104.521087898934,4,1,0,80,0,0
108365,-105.013831341816,4,1,0,80,0,0
108485,-105.674437950781,4,1,0,80,0,0
108515,-105.840237905512,4,1,0,80,0,0
108725,-107.008144270913,4,1,0,80,0,0
108755,-107.176036769989,4,1,0,80,0,0
108845,-107.68129643016,4,1,0,80,0,0
108875,-107.850245084344,4,1,0,80,0,0
108965,-108.358683162696,4,1,0,80,0,0
108995,-108.528694615905,4,1,0,80,0,0
109085,-109.040331106794,4,1,0,80,0,0
109115,-109.211412044738,4,1,0,80,0,0
109205,-109.7262670683,4,1,0,80,0,0
109235,-109.898424218747,4,1,0,80,0,0
109325,-110.416518021686,4,1,0,80,0,0
109355,-110.589758154726,4,1,0,80,0,0
109445,-111.111111111111,4,1,0,80,0,0
109565,-110.416518021686,4,1,0,80,0,0
109685,-109.7262670683,4,1,0,80,0,0
109715,-109.554379604017,4,1,0,80,0,0
109805,-109.040331106794,4,1,0,80,0,0
109925,-108.358683162696,4,1,0,80,0,0
109955,-108.188938034391,4,1,0,80,0,0
110045,-107.68129643016,4,1,0,80,0,0
110165,-107.008144270913,4,1,0,80,0,0
110195,-106.840514777376,4,1,0,80,0,0
110405,-105.674437950781,4,1,0,80,0,0
110465,-105.343616817083,4,1,0,80,0,0
110525,-105.013831341816,4,1,0,80,0,0
110585,-104.685078282778,4,1,0,80,0,0
110645,-104.357354407919,4,1,0,80,0,0
110765,-103.704981333098,4,1,0,80,0,0
110885,-103.056686462741,4,1,0,80,0,0
110915,-102.895246973485,4,1,0,80,0,0
111125,-101.772229517864,4,1,0,80,0,0
111245,-101.136016931998,4,1,0,80,0,0
111365,-100.503781525921,4,1,0,80,0,0
111485,-99.8754984369404,4,1,0,80,0,0
111545,-99.5628312842946,4,1,0,80,0,0
111605,-99.251142957786,4,1,0,80,0,0
111725,-98.630690535642,4,1,0,80,0,0
111845,-98.0141167711807,4,1,0,80,0,0
111905,-97.7072768025241,4,1,0,80,0,0
111965,-97.4013974176026,4,1,0,80,0,0
112025,-97.0964756092421,4,1,0,80,0,0
112085,-96.7925083796832,4,1,0,80,0,0
112205,-96.1874257128256,4,1,0,80,0,0
112325,-95.5861256221183,4,1,0,80,0,0
112385,-95.2868866476106,4,1,0,80,0,0
112445,-94.9885844614001,4,1,0,80,0,0
112565,-94.3947787323299,4,1,0,80,0,0
112625,-94.0992693516231,4,1,0,80,0,0
112685,-93.8046850834625,4,1,0,80,0,0
112745,-93.511023031719,4,1,0,80,0,0
112805,-93.2182803093306,4,1,0,80,0,0
112925,-92.6355413495322,4,1,0,80,0,0
112985,-92.3455393830754,4,1,0,80,0,0
113105,-91.7682562216231,4,1,0,80,0,0
113165,-91.4809693512181,4,1,0,80,0,0
113285,-90.9090909090909,4,1,0,80,0,0
113405,-91.4809693512181,4,1,0,80,0,0
113525,-92.0564452878236,4,1,0,80,0,0
113765,-93.2182803093306,4,1,0,80,0,0
113805,-93.4133401188605,4,1,0,80,0,0
113845,-93.6088080922093,4,1,0,80,0,0
113885,-93.8046850834624,4,1,0,80,0,0
114005,-94.3947787323299,4,1,0,80,0,0
114245,-95.5861256221183,4,1,0,80,0,0
114275,-95.7360973239638,4,1,0,80,0,0
114365,-96.1874257128256,4,1,0,80,0,0
114395,-96.3383408360865,4,1,0,80,0,0
114485,-96.7925083796832,4,1,0,80,0,0
114515,-96.9443728591055,4,1,0,80,0,0
114725,-98.0141167711807,4,1,0,80,0,0
114785,-98.3219203401896,4,1,0,80,0,0
114845,-98.630690535642,4,1,0,80,0,0
114905,-98.9404303931318,4,1,0,80,0,0
114965,-99.251142957786,4,1,0,80,0,0
115085,-99.8754984369404,4,1,0,80,0,0
115205,-100.503781525921,4,1,0,80,0,0
115325,-101.136016931998,4,1,0,80,0,0
115445,-101.772229517864,4,1,0,80,0,0
115505,-102.09183506555,4,1,0,80,0,0
115565,-102.412444302617,4,1,0,80,0,0
115625,-102.734060381053,4,1,0,80,0,0
115685,-103.056686462741,4,1,0,80,0,0
115805,-103.704981333098,4,1,0,80,0,0
115925,-104.357354407919,4,1,0,80,0,0
116045,-105.013831341816,4,1,0,80,0,0
116105,-105.343616817083,4,1,0,80,0,0
116165,-105.674437950781,4,1,0,80,0,0
116285,-106.339200213209,4,1,0,80,0,0
116405,-107.008144270913,4,1,0,80,0,0
116525,-107.68129643016,4,1,0,80,0,0
116645,-108.358683162696,4,1,0,80,0,0
116705,-108.698972811874,4,1,0,80,0,0
116765,-109.040331106794,4,1,0,80,0,0
116825,-109.382761403431,4,1,0,80,0,0
116885,-109.7262670683,4,1,0,80,0,0
117005,-110.416518021686,4,1,0,80,0,0
117125,-111.111111111111,4,1,0,80,0,0
117365,-109.7262670683,4,1,0,80,0,0
117395,-109.554379604017,4,1,0,80,0,0
117485,-109.040331106794,4,1,0,80,0,0
117605,-108.358683162696,4,1,0,80,0,0
117635,-108.188938034391,4,1,0,80,0,0
117725,-107.68129643016,4,1,0,80,0,0
117755,-107.512612435993,4,1,0,80,0,0
117845,-107.008144270913,4,1,0,80,0,0
118085,-105.674437950781,4,1,0,80,0,0
118115,-105.508897723594,4,1,0,80,0,0
118205,-105.013831341816,4,1,0,80,0,0
118235,-104.849325962509,4,1,0,80,0,0
118325,-104.357354407919,4,1,0,80,0,0
118355,-104.193877407309,4,1,0,80,0,0
118445,-103.704981333098,4,1,0,80,0,0
118475,-103.542526282442,4,1,0,80,0,0
118565,-103.056686462741,4,1,0,80,0,0
118685,-102.412444302617,4,1,0,80,0,0
118805,-101.772229517864,4,1,0,80,0,0
118865,-101.453624517441,4,1,0,80,0,0
118925,-101.136016931998,4,1,0,80,0,0
118985,-100.819403639058,4,1,0,80,0,0
119045,-100.503781525921,4,1,0,80,0,0
119165,-99.8754984369404,4,1,0,80,0,0
119285,-99.251142957786,4,1,0,80,0,0
119405,-98.630690535642,4,1,0,80,0,0
119525,-98.0141167711807,4,1,0,80,0,0
119645,-97.4013974176026,4,1,0,80,0,0
119765,-96.7925083796832,4,1,0,80,0,0
119885,-96.1874257128256,4,1,0,80,0,0
120005,-95.5861256221183,4,1,0,80,0,0
120125,-94.9885844614001,4,1,0,80,0,0
120245,-94.3947787323299,4,1,0,80,0,0
120365,-93.8046850834625,4,1,0,80,0,0
120485,-93.2182803093306,4,1,0,80,0,0
120605,-92.6355413495322,4,1,0,80,0,0
120725,-92.0564452878236,4,1,0,80,0,0
120845,-91.4809693512181,4,1,0,80,0,0
120965,-80,4,1,0,80,0,0
121205,-95.2380952380952,4,1,0,80,0,0
126725,-95.2380952380952,4,1,0,80,0,0
126965,-97.6510965312105,4,1,0,80,0,0
127205,-100.125234864352,4,1,0,80,0,0
127445,-102.662059236964,4,1,0,80,0,0
127685,-105.263157894737,4,1,0,80,0,0
127925,-102.662059236964,4,1,0,80,0,0
128165,-100.125234864352,4,1,0,80,0,0
128405,-97.6510965312105,4,1,0,80,0,0
128465,-97.0421742698274,4,1,0,80,0,0
128525,-96.4370490607415,4,1,0,80,0,0
128585,-95.8356972267002,4,1,0,80,0,0
128645,-95.2380952380952,4,1,0,80,0,0
128765,-95.6979838236249,4,1,0,80,0,0
128885,-96.1600931330211,4,1,0,80,0,0
129005,-96.6244338897823,4,1,0,80,0,0
129125,-97.0910168691886,4,1,0,80,0,0
129365,-98.0309528574695,4,1,0,80,0,0
129395,-98.1490828661426,4,1,0,80,0,0
129485,-98.5043276780709,4,1,0,80,0,0
129515,-98.6230281164912,4,1,0,80,0,0
129605,-98.9799883452773,4,1,0,80,0,0
129725,-99.4579458970538,4,1,0,80,0,0
129845,-99.9382114246658,4,1,0,80,0,0
129965,-100.420796072936,4,1,0,80,0,0
130085,-100.905711040506,4,1,0,80,0,0
130145,-101.149045908382,4,1,0,80,0,0
130205,-101.39296758009,4,1,0,80,0,0
130325,-101.882576998742,4,1,0,80,0,0
130445,-102.374550658116,4,1,0,80,0,0
130565,-102.868899974728,4,1,0,80,0,0
130805,-103.864771521643,4,1,0,80,0,0
130865,-104.115242185737,4,1,0,80,0,0
130925,-104.366316861689,4,1,0,80,0,0
130985,-104.617997006076,4,1,0,80,0,0
131045,-104.870284078992,4,1,0,80,0,0
131165,-105.376684868389,4,1,0,80,0,0
131285,-105.885530981184,4,1,0,80,0,0
131405,-106.39683422543,4,1,0,80,0,0
131525,-106.910606466196,4,1,0,80,0,0
131645,-107.426859625847,4,1,0,80,0,0
131765,-107.94560568432,4,1,0,80,0,0
131885,-108.466856679399,4,1,0,80,0,0
132005,-108.990624706998,4,1,0,80,0,0
132245,-110.045760535737,4,1,0,80,0,0
132485,-111.111111111111,4,1,0,80,0,0
132605,-110.416518021686,4,1,0,80,0,0
132725,-109.7262670683,4,1,0,80,0,0
132845,-109.040331106794,4,1,0,80,0,0
132965,-108.358683162696,4,1,0,80,0,0
133025,-108.01945881379,4,1,0,80,0,0
133085,-107.68129643016,4,1,0,80,0,0
133145,-107.34419268725,4,1,0,80,0,0
133205,-107.008144270913,4,1,0,80,0,0
133325,-106.339200213209,4,1,0,80,0,0
133445,-105.674437950781,4,1,0,80,0,0
133565,-105.013831341816,4,1,0,80,0,0
133685,-104.357354407919,4,1,0,80,0,0
133805,-103.704981333098,4,1,0,80,0,0
133925,-103.056686462741,4,1,0,80,0,0
133985,-102.734060381053,4,1,0,80,0,0
134045,-102.412444302617,4,1,0,80,0,0
134165,-101.772229517864,4,1,0,80,0,0
134285,-101.136016931998,4,1,0,80,0,0
134405,-100.503781525921,4,1,0,80,0,0
134525,-99.8754984369404,4,1,0,80,0,0
134645,-99.251142957786,4,1,0,80,0,0
134765,-98.630690535642,4,1,0,80,0,0
134885,-98.0141167711807,4,1,0,80,0,0
135005,-97.4013974176026,4,1,0,80,0,0
135125,-96.7925083796832,4,1,0,80,0,0
135185,-96.4894927405509,4,1,0,80,0,0
135245,-96.1874257128256,4,1,0,80,0,0
135305,-95.8863043268136,4,1,0,80,0,0
135365,-95.5861256221183,4,1,0,80,0,0
135605,-94.3947787323299,4,1,0,80,0,0
135725,-93.8046850834625,4,1,0,80,0,0
135845,-93.2182803093306,4,1,0,80,0,0
135965,-92.6355413495322,4,1,0,80,0,0
136085,-81.051067390467,4,1,0,80,0,0
136325,-80.1603206412826,4,1,0,80,0,0
136565,-90.9090909090909,4,1,0,80,0,0
136625,-91.1314889772385,4,1,0,80,0,0
136685,-91.3544311152941,4,1,0,80,0,0
136745,-91.5779186542586,4,1,0,80,0,0
136805,-91.8019529283891,4,1,0,80,0,0
136925,-92.251667035506,4,1,0,80,0,0
136985,-92.477349553359,4,1,0,80,0,0
137105,-92.9303722544704,4,1,0,80,0,0
137165,-93.1577151423484,4,1,0,80,0,0
137225,-93.3856141970362,4,1,0,80,0,0
137285,-93.6140707791285,4,1,0,80,0,0
137345,-93.8430862525483,4,1,0,80,0,0
137465,-94.3027993457553,4,1,0,80,0,0
137525,-94.5334997101048,4,1,0,80,0,0
137645,-94.9965949608989,4,1,0,80,0,0
137705,-95.2289926120979,4,1,0,80,0,0
137765,-95.4619587959723,4,1,0,80,0,0
137825,-95.6954949033683,4,1,0,80,0,0
137885,-95.9296023285346,4,1,0,80,0,0
137945,-96.1642824691311,4,1,0,80,0,0
138005,-96.3995367262364,4,1,0,80,0,0
138125,-96.8717732114355,4,1,0,80,0,0
138245,-97.3463230614652,4,1,0,80,0,0
138305,-97.5844690375569,4,1,0,80,0,0
138425,-98.0625102007544,4,1,0,80,0,0
138485,-98.3024082418443,4,1,0,80,0,0
138545,-98.5428931644041,4,1,0,80,0,0
138605,-98.783966404168,4,1,0,80,0,0
138665,-99.0256294003827,4,1,0,80,0,0
138725,-99.267883595816,4,1,0,80,0,0
138845,-99.754171373065,4,1,0,80,0,0
138905,-99.9982078580985,4,1,0,80,0,0
138965,-100.242841348803,4,1,0,80,0,0
139045,-100.569950536736,4,1,0,80,0,0
139125,-100.89812713676,4,1,0,80,0,0
139205,-101.227374632019,4,1,0,80,0,0
139265,-101.475015130199,4,1,0,80,0,0
139325,-101.723261450831,4,1,0,80,0,0
139385,-101.972115075987,4,1,0,80,0,0
139445,-102.221577491363,4,1,0,80,0,0
139505,-102.471650186291,4,1,0,80,0,0
139565,-102.722334653746,4,1,0,80,0,0
139605,-102.889798244599,4,1,0,80,0,0
139645,-103.057534843795,4,1,0,80,0,0
139685,-103.225544896406,4,1,0,80,0,0
139805,-103.731220236351,4,1,0,80,0,0
139925,-104.239372749459,4,1,0,80,0,0
139985,-104.494381735827,4,1,0,80,0,0
140045,-104.750014570761,4,1,0,80,0,0
140105,-105.00627278043,4,1,0,80,0,0
140165,-80,4,1,0,80,0,0
140285,-104.78201261545,4,1,0,80,0,0
140345,-104.542265326697,4,1,0,80,0,0
140405,-104.30306659357,4,1,0,80,0,0
140465,-104.064415160942,4,1,0,80,0,0
140525,-103.826309776557,4,1,0,80,0,0
140585,-103.588749191025,4,1,0,80,0,0
140645,-103.351732157816,4,1,0,80,0,0
140725,-103.036552823546,4,1,0,80,0,0
140805,-102.722334653746,4,1,0,80,0,0
140885,-102.409074717266,4,1,0,80,0,0
140965,-102.0967700919,4,1,0,80,0,0
141045,-101.785417864348,4,1,0,80,0,0
141125,-101.475015130199,4,1,0,80,0,0
141245,-101.011184997491,4,1,0,80,0,0
141305,-100.780065579833,4,1,0,80,0,0
141365,-100.549474976732,4,1,0,80,0,0
141425,-100.319411978233,4,1,0,80,0,0
141485,-100.089875377144,4,1,0,80,0,0
141545,-99.8608639690376,4,1,0,80,0,0
141605,-99.6323765522429,4,1,0,80,0,0
141725,-99.1769688996412,4,1,0,80,0,0
141785,-98.9500462742128,4,1,0,80,0,0
141905,-98.4977574715369,4,1,0,80,0,0
141965,-98.2723889210333,4,1,0,80,0,0
142025,-98.0475360267726,4,1,0,80,0,0
142085,-97.8231976089037,4,1,0,80,0,0
142205,-97.3760594964277,4,1,0,80,0,0
142265,-97.1532574555914,4,1,0,80,0,0
142385,-96.709181559266,4,1,0,80,0,0
142445,-96.4879053736158,4,1,0,80,0,0
142565,-96.0468707219169,4,1,0,80,0,0
142625,-95.827109941665,4,1,0,80,0,0
142685,-95.6078519867543,4,1,0,80,0,0
142745,-95.3890957066914,4,1,0,80,0,0
142805,-95.1708399536152,4,1,0,80,0,0
142865,-94.9530835822911,4,1,0,80,0,0
142925,-94.735825450105,4,1,0,80,0,0
142985,-94.5190644170569,4,1,0,80,0,0
143045,-94.3027993457553,4,1,0,80,0,0
143165,-93.8717525518318,4,1,0,80,0,0
143225,-93.6569685674152,4,1,0,80,0,0
143285,-93.4426760211438,4,1,0,80,0,0
143405,-93.0155607478541,4,1,0,80,0,0
143525,-92.5903977672903,4,1,0,80,0,0
143585,-92.37854559653,4,1,0,80,0,0
143645,-92.1671781557561,4,1,0,80,0,0
143765,-80,4,1,0,80,0,0
143885,-91.3265335487521,4,1,0,80,0,0
143945,-91.1175731722243,4,1,0,80,0,0
144005,-90.9090909090909,4,1,0,80,0,0
144185,-91.7682562216231,4,1,0,80,0,0
144305,-92.3455393830754,4,1,0,80,0,0
144365,-92.6355413495322,4,1,0,80,0,0
144485,-93.2182803093306,4,1,0,80,0,0
144545,-93.511023031719,4,1,0,80,0,0
144605,-93.8046850834624,4,1,0,80,0,0
144665,-94.0992693516231,4,1,0,80,0,0
144725,-94.3947787323299,4,1,0,80,0,0
144845,-94.9885844614001,4,1,0,80,0,0
144965,-95.5861256221183,4,1,0,80,0,0
145025,-95.8863043268136,4,1,0,80,0,0
145085,-96.1874257128256,4,1,0,80,0,0
145205,-96.7925083796832,4,1,0,80,0,0
145265,-97.0964756092421,4,1,0,80,0,0
145325,-97.4013974176026,4,1,0,80,0,0
145385,-97.7072768025241,4,1,0,80,0,0
145445,-98.0141167711807,4,1,0,80,0,0
145565,-98.630690535642,4,1,0,80,0,0
145605,-98.8370758459678,4,1,0,80,0,0
145645,-99.0438930187909,4,1,0,80,0,0
145685,-99.251142957786,4,1,0,80,0,0
145805,-99.8754984369404,4,1,0,80,0,0
145925,-100.503781525921,4,1,0,80,0,0
145985,-100.819403639058,4,1,0,80,0,0
146045,-101.136016931998,4,1,0,80,0,0
146105,-101.453624517441,4,1,0,80,0,0
146165,-101.772229517864,4,1,0,80,0,0
146225,-102.09183506555,4,1,0,80,0,0
146285,-102.412444302617,4,1,0,80,0,0
146405,-103.056686462741,4,1,0,80,0,0
146465,-103.380325719498,4,1,0,80,0,0
146525,-103.704981333098,4,1,0,80,0,0
146645,-104.357354407919,4,1,0,80,0,0
146705,-104.685078282778,4,1,0,80,0,0
146765,-105.013831341816,4,1,0,80,0,0
146825,-105.343616817083,4,1,0,80,0,0
146885,-105.674437950781,4,1,0,80,0,0
146945,-106.006297995291,4,1,0,80,0,0
147005,-106.339200213209,4,1,0,80,0,0
147065,-106.673147877376,4,1,0,80,0,0
147125,-107.008144270913,4,1,0,80,0,0
147245,-107.68129643016,4,1,0,80,0,0
147365,-108.358683162696,4,1,0,80,0,0
147425,-108.698972811874,4,1,0,80,0,0
147485,-109.040331106794,4,1,0,80,0,0
147605,-109.7262670683,4,1,0,80,0,0
147725,-110.416518021686,4,1,0,80,0,0
147845,-111.111111111111,4,1,0,80,0,0
147875,-110.937054272645,4,1,0,80,0,0
147965,-110.416518021686,4,1,0,80,0,0
147995,-110.243549271315,4,1,0,80,0,0
148085,-109.7262670683,4,1,0,80,0,0
148115,-109.554379604017,4,1,0,80,0,0
148205,-109.040331106794,4,1,0,80,0,0
148235,-108.869518169114,4,1,0,80,0,0
148325,-108.358683162696,4,1,0,80,0,0
148385,-108.01945881379,4,1,0,80,0,0
148445,-107.68129643016,4,1,0,80,0,0
148505,-107.34419268725,4,1,0,80,0,0
148565,-107.008144270913,4,1,0,80,0,0
148685,-106.339200213209,4,1,0,80,0,0
148745,-106.006297995291,4,1,0,80,0,0
148805,-105.674437950781,4,1,0,80,0,0
148925,-105.013831341816,4,1,0,80,0,0
148955,-104.849325962509,4,1,0,80,0,0
149045,-104.357354407919,4,1,0,80,0,0
149105,-104.030656495308,4,1,0,80,0,0
149165,-103.704981333098,4,1,0,80,0,0
149285,-103.056686462741,4,1,0,80,0,0
149345,-102.734060381053,4,1,0,80,0,0
149405,-102.412444302617,4,1,0,80,0,0
149465,-102.09183506555,4,1,0,80,0,0
149525,-101.772229517864,4,1,0,80,0,0
149585,-101.453624517441,4,1,0,80,0,0
149645,-101.136016931998,4,1,0,80,0,0
149705,-100.819403639058,4,1,0,80,0,0
149765,-100.503781525921,4,1,0,80,0,0
149885,-99.8754984369404,4,1,0,80,0,0
150005,-99.251142957786,4,1,0,80,0,0
150125,-98.630690535642,4,1,0,80,0,0
150245,-80,4,1,0,80,0,0
150485,-96.7925083796832,4,1,0,80,0,0
150605,-96.1874257128256,4,1,0,80,0,0
150725,-95.5861256221183,4,1,0,80,0,0
150845,-94.9885844614001,4,1,0,80,0,0
150905,-94.6912161308064,4,1,0,80,0,0
150965,-94.3947787323299,4,1,0,80,0,0
151025,-94.0992693516231,4,1,0,80,0,0
151085,-93.8046850834625,4,1,0,80,0,0
151145,-93.511023031719,4,1,0,80,0,0
151205,-93.2182803093306,4,1,0,80,0,0
151325,-92.6355413495322,4,1,0,80,0,0
151385,-92.3455393830754,4,1,0,80,0,0
151445,-92.0564452878236,4,1,0,80,0,0
151565,-91.4809693512181,4,1,0,80,0,0
151685,-80,4,1,0,80,0,0
151925,-95.2380952380952,4,1,0,80,0,0
167045,-80,4,1,0,80,0,0
167285,-96.5042298640949,4,1,0,60,0,0
167525,-97.7871970074517,4,1,0,60,0,0
167765,-99.0872204466128,4,1,0,60,0,0
168005,-100.404526935029,4,1,0,60,0,0
168245,-101.739346240704,4,1,0,60,0,0
168485,-103.091911186274,4,1,0,60,0,0
168725,-104.462457689615,4,1,0,60,0,0
168965,-80,4,1,0,60,0,0
169205,-107.258454764758,4,1,0,60,0,0
169445,-108.684393021602,4,1,0,60,0,0
169685,-110.129288291361,4,1,0,60,0,0
169925,-111.593392596406,4,1,0,60,0,0
170165,-113.076961309596,4,1,0,60,0,0
170405,-114.580253198824,4,1,0,60,0,0
170645,-116.103530472148,4,1,0,60,0,0
170885,-117.647058823529,4,1,0,60,0,0
171005,-116.389955187266,4,1,0,60,0,0
171125,-115.146284182198,4,1,0,60,0,0
171245,-113.915902275543,4,1,0,60,0,0
171365,-112.698667468223,4,1,0,60,0,0
171485,-111.494439278475,4,1,0,60,0,0
171605,-110.303078725634,4,1,0,60,0,0
171725,-109.124448314099,4,1,0,60,0,0
171845,-107.958412017462,4,1,0,60,0,0
171965,-106.804835262807,4,1,0,60,0,0
172085,-105.663584915182,4,1,0,60,0,0
172205,-104.534529262234,4,1,0,60,0,0
172325,-103.417537999004,4,1,0,60,0,0
172445,-102.312482212892,4,1,0,60,0,0
172565,-101.219234368781,4,1,0,60,0,0
172685,-100.13766829431,4,1,0,60,0,0
172805,-99.0676591653227,4,1,0,60,0,0
172865,-98.5369498129357,4,1,0,60,0,0
172925,-98.0090834914539,4,1,0,60,0,0
172985,-97.4840449706487,4,1,0,60,0,0
173045,-96.9618191018805,4,1,0,60,0,0
173105,-96.4423908176616,4,1,0,60,0,0
173165,-95.9257451312214,4,1,0,60,0,0
173225,-95.4118671360739,4,1,0,60,0,0
173285,-94.9007420055879,4,1,0,60,0,0
173345,-94.3923549925589,4,1,0,60,0,0
173405,-93.8866914287839,4,1,0,60,0,0
173465,-93.3837367246379,4,1,0,60,0,0
173525,-92.8834763686533,4,1,0,60,0,0
173585,-92.3858959271007,4,1,0,60,0,0
173645,-91.890981043573,4,1,0,60,0,0
173705,-91.3987174385709,4,1,0,60,0,0
173765,-90.9090909090909,4,1,0,60,0,0
174005,-68.9655172413793,4,1,0,60,0,0
174725,-133.333333333333,4,1,0,60,0,0
174845,-130.621462234365,4,1,0,60,0,0
174905,-129.286281153617,4,1,0,60,0,0
175085,-125.36206870899,4,1,0,60,0,0
175145,-124.08064788028,4,1,0,60,0,0
175205,-122.812325426199,4,1,0,60,0,0
175295,-120.934108691179,4,1,0,60,0,0
175385,-119.084616256358,4,1,0,60,0,0
175445,-117.867362032482,4,1,0,60,0,0
175565,-115.470053837925,4,1,0,60,0,0
175625,-114.289746799249,4,1,0,60,0,0
175685,-113.12150457443,4,1,0,60,0,0
175745,-111.965203839849,4,1,0,60,0,0
175805,-110.820722532475,4,1,0,60,0,0
175865,-109.687939836974,4,1,0,60,0,0
175925,-108.566736172956,4,1,0,60,0,0
176045,-106.35859371693,4,1,0,60,0,0
176105,-105.271421825905,4,1,0,60,0,0
176165,-104.195362743721,4,1,0,60,0,0
176225,-103.130302877927,4,1,0,60,0,0
176345,-101.032732219408,4,1,0,60,0,0
176405,-100,4,1,0,80,0,0
176645,-80,4,1,0,80,0,0
176885,-95.2380952380952,4,1,0,80,0,0
215120,-95.2380952380952,4,1,0,40,0,0
216005,-133.333333333333,4,1,0,40,0,0
216725,-122.576362029989,4,1,0,80,0,0
216905,-120.025555726487,4,1,0,80,0,0
216965,-119.187138012876,4,1,0,80,0,0
217205,-115.89162569717,4,1,0,80,0,0
217325,-114.278198880549,4,1,0,80,0,0
217565,-111.118418235537,4,1,0,80,0,0
217805,-108.046005205891,4,1,0,80,0,0
217925,-106.541804007752,4,1,0,80,0,0
218045,-105.05854408588,4,1,0,80,0,0
218165,-103.595933898788,4,1,0,80,0,0
218285,-102.153685963792,4,1,0,80,0,0
218405,-100.731516800497,4,1,0,80,0,0
218645,-97.9463005453677,4,1,0,80,0,0
218765,-96.5827060066078,4,1,0,80,0,0
218885,-95.2380952380952,4,1,0,80,0,0
257285,-80,4,1,0,80,0,0
257360,-133.333333333333,4,1,0,60,0,0
261125,-100,4,1,0,60,0,0
261155,-133.333333333333,4,1,0,60,0,0
263045,-100,4,1,0,60,0,0
263075,-133.333333333333,4,1,0,60,0,0
264005,-100,4,1,0,60,0,0
264245,-130.970461028981,4,1,0,60,0,0
264365,-128.649462466078,4,1,0,60,0,0
264485,-126.369595577345,4,1,0,60,0,0
264605,-124.130131446081,4,1,0,60,0,0
264665,-123.025326166453,4,1,0,60,0,0
264725,-121.930354073108,4,1,0,60,0,0
264845,-119.769560147864,4,1,0,60,0,0
264965,-86.9565217391304,4,1,0,80,0,0
264995,-117.647058823529,4,1,0,80,0,0
266885,-86.9565217391304,4,1,0,80,0,0
266915,-117.647058823529,4,1,0,80,0,0
268805,-86.9565217391304,4,1,0,80,0,0
268835,-117.647058823529,4,1,0,80,0,0
270725,-86.9565217391304,4,1,0,80,0,0
270755,-117.647058823529,4,1,0,80,0,0
272645,-80,4,1,0,80,0,0
272675,-117.647058823529,4,1,0,80,0,0
272885,-116.615776580831,4,1,0,80,0,0
273125,-115.593534454177,4,1,0,80,0,0
273365,-114.580253198824,4,1,0,80,0,0
273605,-113.575854264677,4,1,0,80,0,0
273845,-112.580259790206,4,1,0,80,0,0
274085,-111.593392596406,4,1,0,80,0,0
274325,-110.615176180815,4,1,0,80,0,0
274565,-80,4,1,0,80,0,0
274595,-109.645534711585,4,1,0,80,0,0
274805,-108.684393021602,4,1,0,80,0,0
275045,-107.731676602658,4,1,0,80,0,0
275285,-106.787311599678,4,1,0,80,0,0
275525,-105.851224804993,4,1,0,80,0,0
275765,-104.923343652664,4,1,0,80,0,0
276005,-104.003596212859,4,1,0,80,0,0
276245,-103.091911186274,4,1,0,80,0,0
276365,-102.639069967957,4,1,0,80,0,0
276485,-102.186797465767,4,1,0,80,0,0
276605,-101.442646647803,4,1,0,80,0,0
276725,-100.703914929504,4,1,0,80,0,0
276845,-99.9705628475771,4,1,0,80,0,0
276965,-99.2425512261123,4,1,0,80,0,0
277085,-98.5198411744886,4,1,0,80,0,0
277205,-97.8023940852965,4,1,0,80,0,0
277325,-97.0901716322757,4,1,0,80,0,0
277445,-96.3831357682676,4,1,0,80,0,0
277565,-95.6812487231831,4,1,0,80,0,0
277685,-94.9844730019847,4,1,0,80,0,0
277805,-94.2927713826832,4,1,0,80,0,0
277925,-93.6061069143498,4,1,0,80,0,0
278045,-92.9244429151422,4,1,0,80,0,0
278165,-92.2477429703443,4,1,0,80,0,0
278285,-91.5759709304219,4,1,0,80,0,0
278405,-90.9090909090909,4,1,0,85,0,0
278465,-90.3683222929541,4,1,0,85,0,0
278525,-89.8307704144754,4,1,0,85,0,0
278585,-89.2964161390365,4,1,0,85,0,0
278645,-88.7652404458401,4,1,0,85,0,0
278705,-88.2372244272337,4,1,0,85,0,0
278765,-87.7123492880357,4,1,0,85,0,0
278825,-87.1905963448671,4,1,0,85,0,0
278885,-86.6719470254859,4,1,0,85,0,0
278945,-86.1563828681265,4,1,0,85,0,0
279005,-85.6438855208421,4,1,0,85,0,0
279065,-85.1344367408515,4,1,0,85,0,0
279125,-84.6280183938902,4,1,0,85,0,0
279185,-84.1246124535643,4,1,0,85,0,0
279245,-83.6242010007091,4,1,0,85,0,0
279305,-83.1267662227514,4,1,0,85,0,0
279365,-82.6322904130751,4,1,0,85,0,0
279485,-81.6521453981113,4,1,0,85,0,0
279545,-81.1664413037243,4,1,0,85,0,0
279665,-80.2036834952634,4,1,0,85,0,0
279725,-79.7265955110025,4,1,0,85,0,0
279845,-78.7809164700428,4,1,0,85,0,0
279905,-78.3122917510903,4,1,0,85,0,0
279965,-77.8464546250862,4,1,0,85,0,0
280025,-77.3395204949729,4,1,0,85,0,0
280085,-66.6666666666667,4,1,0,85,0,0
280325,-80,4,1,0,90,0,0
280340,-80,4,1,0,90,0,1
280355,-90.9090909090909,4,1,0,90,0,1
289925,-90.9090909090909,4,1,0,90,0,1
290045,-89.9256829360612,4,1,0,90,0,1
290165,-88.952912966687,4,1,0,90,0,1
290285,-87.9906659244947,4,1,0,90,0,1
290405,-87.0388279778489,4,1,0,90,0,1
290465,-86.5667771800385,4,1,0,90,0,1
290525,-86.0972865264865,4,1,0,90,0,1
290585,-85.6303421323767,4,1,0,90,0,1
290645,-85.1659301881964,4,1,0,90,0,1
290705,-84.704036959328,4,1,0,90,0,1
290765,-84.2446487856432,4,1,0,90,0,1
290825,-83.7877520810983,4,1,0,90,0,1
290885,-71.4285714285714,4,1,0,90,0,1
290900,-71.4285714285714,4,1,0,90,0,0
290960,-71.4285714285714,4,1,0,80,0,0
291605,-105.263157894737,4,1,0,80,0,0
291725,-100.125234864352,4,1,0,80,0,0
291845,-80,4,1,0,80,0,0
291875,-95.2380952380952,4,1,0,80,0,0
295685,-80,4,1,0,80,0,0
295715,-95.2380952380952,4,1,0,80,0,0
297605,-80,4,1,0,80,0,0
297635,-95.2380952380952,4,1,0,80,0,0
298085,-80,4,1,0,80,0,0
298115,-95.2380952380952,4,1,0,80,0,0
298565,-80,4,1,0,80,0,0
298745,-83.4825608969293,4,1,0,80,0,0
298925,-87.1167246738688,4,1,0,80,0,0
299105,-90.9090909090909,4,1,0,80,0,0
299135,-95.2380952380952,4,1,0,80,0,0
299525,-80,4,1,0,80,0,0
299555,-95.2380952380952,4,1,0,80,0,0
303365,-80,4,1,0,80,0,0
303395,-95.2380952380952,4,1,0,80,0,0
304325,-80,4,1,0,80,0,0
304355,-95.2380952380952,4,1,0,80,0,0
305285,-95.2380952380952,4,1,0,80,0,0
305345,-94.8415084044431,4,1,0,80,0,0
305405,-94.4465730225155,4,1,0,80,0,0
305465,-94.0532822154004,4,1,0,80,0,0
305525,-93.6616291348222,4,1,0,80,0,0
305585,-93.2716069610227,4,1,0,80,0,0
305645,-92.8832089026424,4,1,0,80,0,0
305705,-92.4964281966018,4,1,0,80,0,0
305765,-92.1112581079842,4,1,0,80,0,0
305825,-91.7276919299183,4,1,0,80,0,0
305885,-91.3457229834608,4,1,0,80,0,0
305945,-90.9653446174812,4,1,0,80,0,0
306005,-90.586550208545,4,1,0,80,0,0
306065,-90.2093331607989,4,1,0,80,0,0
306125,-89.8336869058557,4,1,0,80,0,0
306185,-89.4596049026801,4,1,0,80,0,0
306245,-89.0870806374748,4,1,0,80,0,0
306305,-88.7161076235668,4,1,0,80,0,0
306365,-88.3466794012949,4,1,0,80,0,0
306425,-87.9787895378968,4,1,0,80,0,0
306485,-87.6124316273972,4,1,0,80,0,0
306605,-86.8842861744597,4,1,0,80,0,0
306725,-86.1621923261951,4,1,0,80,0,0
306785,-85.8033990203258,4,1,0,80,0,0
306845,-85.4460997878181,4,1,0,80,0,0
306965,-84.7359586825427,4,1,0,80,0,0
307085,-84.0317195481081,4,1,0,80,0,0
307205,-71.4285714285714,4,1,0,80,0,0
307280,-71.4285714285714,4,1,0,60,0,0
307925,-117.647058823529,4,1,0,60,0,0
308165,-118.36815903875,4,1,0,60,0,0
308885,-120.558087475923,4,1,0,60,0,0
309125,-121.297030409939,4,1,0,60,0,0
309605,-122.788531762958,4,1,0,60,0,0
310085,-124.298373023215,4,1,0,60,0,0
310565,-125.82677970321,4,1,0,60,0,0
310685,-126.211808910831,4,1,0,60,0,0
310805,-126.598016305568,4,1,0,60,0,0
311045,-127.373980088406,4,1,0,60,0,0
311525,-128.940205271324,4,1,0,60,0,0
311645,-129.334761542915,4,1,0,60,0,0
311765,-129.730525154383,4,1,0,60,0,0
312005,-130.525689186063,4,1,0,60,0,0
312485,-132.130668643242,4,1,0,60,0,0
312605,-132.534987714032,4,1,0,60,0,0
312725,-132.940543998806,4,1,0,60,0,0
312965,-133.755383365363,4,1,0,60,0,0
313925,-137.064992269165,4,1,0,60,0,0
314525,-139.174956130838,4,1,0,60,0,0
314645,-139.600830680008,4,1,0,60,0,0
314765,-140.028008402801,4,1,0,60,0,0
314885,-140.456493286919,4,1,0,60,0,0
315605,-143.055077833072,4,1,0,60,0,0
315845,-143.931912736089,4,1,0,60,0,0
316565,-146.594795991834,4,1,0,60,0,0
316805,-147.493327072822,4,1,0,60,0,0
317285,-149.306945231048,4,1,0,60,0,0
317765,-151.142864132562,4,1,0,60,0,0
318245,-153.001357993384,4,1,0,60,0,0
318365,-153.46954125113,4,1,0,60,0,0
318485,-153.939157146898,4,1,0,60,0,0
318725,-154.882704401368,4,1,0,60,0,0
319205,-156.787184357663,4,1,0,60,0,0
319445,-157.748188172928,4,1,0,60,0,0
319685,-158.715082318685,4,1,0,60,0,0
319925,-159.687902898844,4,1,0,60,0,0
320165,-160.666686238606,4,1,0,60,0,0
320405,-161.651468885822,4,1,0,60,0,0
320645,-162.642287612358,4,1,0,60,0,0
321125,-164.642181519175,4,1,0,60,0,0
321605,-166.666666666667,4,1,0,60,0,0

[HitObjects]
346,210,980,5,0,0:0:0:0:
397,251,1220,1,8,0:0:0:0:
397,251,1340,1,8,0:0:0:0:
448,254,1460,1,0,0:0:0:0:
447,240,1700,1,12,0:0:0:0:
366,255,1940,1,0,0:0:0:0:
366,255,2060,1,0,0:0:0:0:
366,255,2120,1,0,0:0:0:0:
410,239,2180,1,8,0:0:0:0:
410,239,2300,1,8,0:0:0:0:
410,239,2360,1,8,0:0:0:0:
422,264,2420,1,0,0:0:0:0:
422,264,2480,1,0,0:0:0:0:
410,239,2540,1,8,0:0:0:0:
469,245,2600,1,0,0:0:0:0:
410,239,2660,1,8,0:0:0:0:
425,230,2780,1,0,0:0:0:0:
426,230,2840,1,0,0:0:0:0:
396,246,2900,1,8,0:0:0:0:
395,239,3020,1,8,0:0:0:0:
425,230,3080,1,0,0:0:0:0:
395,239,3140,1,8,0:0:0:0:
379,246,3260,1,0,0:0:0:0:
388,239,3320,1,8,0:0:0:0:
379,246,3380,1,0,0:0:0:0:
379,246,3440,1,0,0:0:0:0:
388,239,3500,1,8,0:0:0:0:
387,241,3560,1,0,0:0:0:0:
338,241,3620,1,8,0:0:0:0:
412,230,3740,1,0,0:0:0:0:
437,232,3860,1,8,0:0:0:0:
460,240,3980,1,0,0:0:0:0:
460,240,4040,1,0,0:0:0:0:
412,230,4100,1,8,0:0:0:0:
460,240,4220,1,0,0:0:0:0:
439,212,4340,1,8,0:0:0:0:
329,233,4400,1,0,0:0:0:0:
439,212,4460,1,8,0:0:0:0:
439,212,4520,1,8,0:0:0:0:
308,233,4580,1,0,0:0:0:0:
437,222,4700,1,0,0:0:0:0:
437,222,4760,1,0,0:0:0:0:
384,247,4820,1,8,0:0:0:0:
378,248,4940,1,8,0:0:0:0:
378,248,5000,1,8,0:0:0:0:
373,271,5060,1,0,0:0:0:0:
441,253,5120,1,8,0:0:0:0:
360,269,5180,1,0,0:0:0:0:
360,269,5240,1,0,0:0:0:0:
469,226,5300,1,8,0:0:0:0:
388,258,5420,1,0,0:0:0:0:
424,252,5540,1,8,0:0:0:0:
424,252,5660,1,8,0:0:0:0:
388,258,5780,1,0,0:0:0:0:
365,244,5840,1,8,0:0:0:0:
388,258,5900,1,0,0:0:0:0:
388,258,5960,1,0,0:0:0:0:
400,267,6020,1,8,0:0:0:0:
395,267,6140,1,8,0:0:0:0:
388,258,6200,1,0,0:0:0:0:
394,267,6260,1,8,0:0:0:0:
394,267,6320,1,8,0:0:0:0:
392,260,6380,1,0,0:0:0:0:
394,260,6440,1,0,0:0:0:0:
394,267,6500,1,8,0:0:0:0:
394,267,6620,1,8,0:0:0:0:
383,260,6740,1,0,0:0:0:0:
383,260,6800,1,0,0:0:0:0:
365,244,6860,1,8,0:0:0:0:
364,244,6920,1,8,0:0:0:0:
383,260,6980,1,0,0:0:0:0:
365,244,7100,1,8,0:0:0:0:
361,235,7160,1,0,0:0:0:0:
353,244,7220,1,8,0:0:0:0:
497,195,7280,1,8,0:0:0:0:
443,229,7340,1,0,0:0:0:0:
353,244,7460,1,8,0:0:0:0:
499,230,7580,1,8,0:0:0:0:
488,230,7640,1,8,0:0:0:0:
391,220,7700,1,0,0:0:0:0:
439,216,7820,1,0,0:0:0:0:
439,216,7880,1,0,0:0:0:0:
469,254,7940,1,8,0:0:0:0:
420,215,8060,1,0,0:0:0:0:
391,220,8120,1,8,0:0:0:0:
391,220,8180,1,8,0:0:0:0:
420,215,8240,1,0,0:0:0:0:
391,220,8300,1,8,0:0:0:0:
373,226,8420,1,0,0:0:0:0:
418,223,8540,1,8,0:0:0:0:
377,221,8780,1,8,0:0:0:0:
377,221,8840,1,8,0:0:0:0:
374,220,8900,1,0,0:0:0:0:
409,221,9020,1,0,0:0:0:0:
452,225,9140,1,8,0:0:0:0:
418,223,9260,1,0,0:0:0:0:
418,223,9320,1,0,0:0:0:0:
425,226,9380,1,12,0:0:0:0:
423,249,9620,1,0,0:0:0:0:
422,249,9740,1,0,0:0:0:0:
421,249,9800,1,0,0:0:0:0:
379,246,9860,1,8,0:0:0:0:
428,240,9980,1,8,0:0:0:0:
388,231,10100,1,0,0:0:0:0:
414,224,10220,1,8,0:0:0:0:
388,231,10280,1,0,0:0:0:0:
410,227,10340,1,8,0:0:0:0:
413,246,10460,1,0,0:0:0:0:
391,246,10580,1,8,0:0:0:0:
391,246,10640,1,8,0:0:0:0:
367,226,10700,1,0,0:0:0:0:
367,226,10760,1,0,0:0:0:0:
386,246,10820,1,8,0:0:0:0:
367,227,10940,1,0,0:0:0:0:
374,243,11060,1,8,0:0:0:0:
372,243,11120,1,8,0:0:0:0:
370,244,11180,1,8,0:0:0:0:
369,244,11240,1,8,0:0:0:0:
350,234,11300,1,0,0:0:0:0:
349,234,11420,1,0,0:0:0:0:
423,214,11540,1,8,0:0:0:0:
412,216,11600,1,8,0:0:0:0:
439,239,11660,1,0,0:0:0:0:
390,229,11720,1,8,0:0:0:0:
439,239,11780,1,0,0:0:0:0:
448,238,11840,1,0,0:0:0:0:
388,229,11900,1,8,0:0:0:0:
396,242,12020,1,0,0:0:0:0:
395,242,12080,1,0,0:0:0:0:
409,227,12140,1,8,0:0:0:0:
394,242,12200,1,0,0:0:0:0:
409,227,12260,1,8,0:0:0:0:
411,227,12320,1,8,0:0:0:0:
392,242,12380,1,0,0:0:0:0:
407,227,12500,1,8,0:0:0:0:
407,227,12560,1,8,0:0:0:0:
409,233,12620,1,0,0:0:0:0:
409,233,12680,1,0,0:0:0:0:
407,227,12740,1,8,0:0:0:0:
390,234,12860,1,8,0:0:0:0:
418,216,12980,1,0,0:0:0:0:
418,216,13100,1,0,0:0:0:0:
422,216,13160,1,0,0:0:0:0:
371,227,13220,1,8,0:0:0:0:
405,215,13340,1,0,0:0:0:0:
424,231,13460,1,8,0:0:0:0:
420,231,13580,1,8,0:0:0:0:
420,231,13640,1,8,0:0:0:0:
485,209,13700,1,0,0:0:0:0:
461,211,13820,1,8,0:0:0:0:
402,241,13940,1,0,0:0:0:0:
416,241,14060,1,8,0:0:0:0:
405,241,14120,1,0,0:0:0:0:
418,240,14180,1,8,0:0:0:0:
377,210,14300,1,0,0:0:0:0:
420,231,14420,1,8,0:0:0:0:
378,254,14480,1,0,0:0:0:0:
378,254,14540,1,0,0:0:0:0:
378,254,14600,1,0,0:0:0:0:
420,234,14660,1,8,0:0:0:0:
408,232,14780,1,0,0:0:0:0:
434,232,14900,1,8,0:0:0:0:
434,232,14960,1,8,0:0:0:0:
434,232,15020,1,8,0:0:0:0:
434,232,15080,1,8,0:0:0:0:
431,235,15140,1,0,0:0:0:0:
430,235,15260,1,0,0:0:0:0:
391,244,15380,1,8,0:0:0:0:
420,234,15440,1,8,0:0:0:0:
357,219,15500,1,0,0:0:0:0:
357,219,15560,1,0,0:0:0:0:
411,201,15620,1,8,0:0:0:0:
359,199,15680,1,0,0:0:0:0:
359,207,15740,1,8,0:0:0:0:
406,228,15860,1,0,0:0:0:0:
401,211,15920,1,0,0:0:0:0:
379,232,15980,1,8,0:0:0:0:
417,202,16040,1,8,0:0:0:0:
368,235,16100,1,0,0:0:0:0:
379,230,16160,1,8,0:0:0:0:
403,245,16220,1,0,0:0:0:0:
384,263,16340,1,8,0:0:0:0:
384,263,16400,1,8,0:0:0:0:
498,186,16460,1,0,0:0:0:0:
443,204,16520,1,0,0:0:0:0:
385,263,16580,1,8,0:0:0:0:
418,210,16700,1,0,0:0:0:0:
386,231,16820,1,8,0:0:0:0:
387,231,16880,1,8,0:0:0:0:
447,232,16940,1,8,0:0:0:0:
447,232,17000,1,8,0:0:0:0:
424,228,17060,1,0,0:0:0:0:
418,232,17180,1,0,0:0:0:0:
449,227,17300,1,8,0:0:0:0:
371,246,17420,1,0,0:0:0:0:
372,246,17480,1,0,0:0:0:0:
447,232,17540,1,8,0:0:0:0:
396,258,17660,1,0,0:0:0:0:
406,250,17780,1,8,0:0:0:0:
406,250,17840,1,8,0:0:0:0:
429,256,17900,1,0,0:0:0:0:
448,256,18020,1,8,0:0:0:0:
414,266,18140,1,0,0:0:0:0:
428,247,18260,1,8,0:0:0:0:
426,247,18320,1,8,0:0:0:0:
426,247,18380,1,8,0:0:0:0:
471,234,18500,1,0,0:0:0:0:
417,252,18620,1,8,0:0:0:0:
448,256,18740,1,0,0:0:0:0:
448,256,18800,1,0,0:0:0:0:
436,239,18860,1,0,0:0:0:0:
436,239,18920,1,0,0:0:0:0:
410,234,18980,1,8,0:0:0:0:
438,232,19100,1,0,0:0:0:0:
440,235,19220,1,8,0:0:0:0:
423,248,19340,1,8,0:0:0:0:
387,241,19400,1,0,0:0:0:0:
426,248,19460,1,8,0:0:0:0:
386,241,19580,1,0,0:0:0:0:
325,240,19700,1,8,0:0:0:0:
325,240,19760,1,8,0:0:0:0:
387,241,19820,1,0,0:0:0:0:
387,241,19880,1,0,0:0:0:0:
282,239,19940,1,8,0:0:0:0:
309,254,20060,1,0,0:0:0:0:
401,244,20180,1,8,0:0:0:0:
401,244,20240,1,8,0:0:0:0:
377,253,20300,1,0,0:0:0:0:
374,253,20420,1,8,0:0:0:0:
405,252,20540,1,0,0:0:0:0:
405,252,20600,1,0,0:0:0:0:
347,274,20660,1,8,0:0:0:0:
418,268,20780,1,0,0:0:0:0:
414,241,20900,1,8,0:0:0:0:
414,241,21020,1,8,0:0:0:0:
414,241,21080,1,8,0:0:0:0:
405,252,21140,1,0,0:0:0:0:
385,261,21260,1,0,0:0:0:0:
385,261,21320,1,0,0:0:0:0:
373,257,21380,1,8,0:0:0:0:
363,266,21500,1,0,0:0:0:0:
385,232,21620,1,8,0:0:0:0:
369,224,21680,1,0,0:0:0:0:
369,224,21740,1,0,0:0:0:0:
339,235,21860,1,8,0:0:0:0:
316,246,21980,1,0,0:0:0:0:
345,224,22100,1,8,0:0:0:0:
255,248,22160,1,0,0:0:0:0:
345,224,22220,1,8,0:0:0:0:
351,232,22340,1,0,0:0:0:0:
342,245,22460,1,8,0:0:0:0:
316,246,22580,1,0,0:0:0:0:
316,246,22640,1,0,0:0:0:0:
275,220,22700,1,8,0:0:0:0:
281,246,22760,1,8,0:0:0:0:
374,260,22820,1,0,0:0:0:0:
312,241,22940,1,0,0:0:0:0:
360,261,23060,1,8,0:0:0:0:
316,246,23180,1,8,0:0:0:0:
390,253,23240,1,0,0:0:0:0:
331,250,23300,1,8,0:0:0:0:
378,254,23420,1,0,0:0:0:0:
329,251,23540,1,8,0:0:0:0:
374,260,23600,1,0,0:0:0:0:
377,260,23660,1,0,0:0:0:0:
377,260,23720,1,0,0:0:0:0:
330,250,23780,1,8,0:0:0:0:
359,251,23900,1,0,0:0:0:0:
354,239,24020,1,8,0:0:0:0:
354,239,24080,1,8,0:0:0:0:
361,250,24140,1,0,0:0:0:0:
359,243,24260,1,8,0:0:0:0:
337,251,24380,1,8,0:0:0:0:
340,231,24500,1,0,0:0:0:0:
340,231,24560,1,0,0:0:0:0:
340,231,24620,1,0,0:0:0:0:
340,231,24680,1,0,0:0:0:0:
384,232,24740,1,12,0:0:0:0:
328,223,24980,1,0,0:0:0:0:
328,223,25040,1,0,0:0:0:0:
373,220,25100,1,8,0:0:0:0:
394,223,25160,1,8,0:0:0:0:
373,234,25220,1,0,0:0:0:0:
394,223,25280,1,8,0:0:0:0:
373,234,25340,1,0,0:0:0:0:
371,234,25400,1,0,0:0:0:0:
372,224,25460,1,8,0:0:0:0:
350,245,25580,1,0,0:0:0:0:
358,230,25700,1,8,0:0:0:0:
350,245,25760,1,0,0:0:0:0:
364,232,25820,1,8,0:0:0:0:
367,232,25880,1,8,0:0:0:0:
350,245,25940,1,0,0:0:0:0:
403,260,26060,1,0,0:0:0:0:
403,260,26120,1,0,0:0:0:0:
448,228,26180,1,8,0:0:0:0:
403,249,26300,1,0,0:0:0:0:
409,234,26420,1,8,0:0:0:0:
408,234,26480,1,8,0:0:0:0:
436,232,26540,1,0,0:0:0:0:
436,232,26600,1,0,0:0:0:0:
434,252,26660,1,8,0:0:0:0:
468,187,26720,1,0,0:0:0:0:
437,252,26780,1,8,0:0:0:0:
478,199,26900,1,0,0:0:0:0:
420,243,26960,1,8,0:0:0:0:
462,220,27020,1,0,0:0:0:0:
432,204,27080,1,0,0:0:0:0:
416,220,27140,1,8,0:0:0:0:
409,221,27200,1,8,0:0:0:0:
432,204,27260,1,0,0:0:0:0:
432,204,27320,1,0,0:0:0:0:
413,221,27380,1,8,0:0:0:0:
430,233,27500,1,0,0:0:0:0:
431,243,27560,1,8,0:0:0:0:
430,233,27620,1,0,0:0:0:0:
441,226,27740,1,8,0:0:0:0:
457,217,27800,1,0,0:0:0:0:
440,226,27860,1,8,0:0:0:0:
484,209,27920,1,0,0:0:0:0:
440,226,27980,1,8,0:0:0:0:
445,212,28100,1,0,0:0:0:0:
445,212,28160,1,0,0:0:0:0:
445,212,28220,1,0,0:0:0:0:
443,227,28340,1,12,0:0:0:0:
432,246,28580,1,8,0:0:0:0:
413,218,28640,1,8,0:0:0:0:
413,218,28700,1,8,0:0:0:0:
411,240,28820,1,0,0:0:0:0:
409,240,28940,1,0,0:0:0:0:
409,240,29000,1,0,0:0:0:0:
400,226,29060,1,8,0:0:0:0:
409,240,29120,1,0,0:0:0:0:
400,226,29180,1,8,0:0:0:0:
400,226,29240,1,8,0:0:0:0:
409,240,29300,1,0,0:0:0:0:
346,244,29420,1,0,0:0:0:0:
418,220,29540,1,8,0:0:0:0:
388,243,29600,1,8,0:0:0:0:
408,219,29660,1,0,0:0:0:0:
407,219,29720,1,0,0:0:0:0:
393,245,29780,1,8,0:0:0:0:
393,245,29840,1,8,0:0:0:0:
393,245,29900,1,8,0:0:0:0:
381,226,29960,1,8,0:0:0:0:
412,212,30020,1,0,0:0:0:0:
394,219,30140,1,0,0:0:0:0:
379,221,30260,1,8,0:0:0:0:
381,221,30320,1,8,0:0:0:0:
408,219,30380,1,0,0:0:0:0:
397,226,30500,1,8,0:0:0:0:
388,219,30620,1,0,0:0:0:0:
319,237,30680,1,8,0:0:0:0:
408,193,30740,1,0,0:0:0:0:
422,205,30860,1,0,0:0:0:0:
416,205,30980,1,8,0:0:0:0:
340,233,31040,1,8,0:0:0:0:
360,233,31100,1,0,0:0:0:0:
358,211,31160,1,0,0:0:0:0:
294,243,31220,1,8,0:0:0:0:
425,216,31340,1,0,0:0:0:0:
323,220,31460,1,8,0:0:0:0:
379,218,31520,1,0,0:0:0:0:
323,220,31580,1,8,0:0:0:0:
323,220,31640,1,8,0:0:0:0:
379,218,31700,1,0,0:0:0:0:
375,217,31820,1,0,0:0:0:0:
420,219,31940,1,8,0:0:0:0:
365,234,32060,1,0,0:0:0:0:
420,219,32120,1,8,0:0:0:0:
365,234,32180,1,0,0:0:0:0:
368,234,32240,1,0,0:0:0:0:
420,219,32300,1,8,0:0:0:0:
369,234,32360,1,0,0:0:0:0:
420,219,32420,1,8,0:0:0:0:
361,234,32540,1,0,0:0:0:0:
429,203,32660,1,8,0:0:0:0:
366,216,32780,1,0,0:0:0:0:
366,216,32840,1,0,0:0:0:0:
386,235,32900,1,8,0:0:0:0:
366,216,33020,1,0,0:0:0:0:
348,154,33140,1,8,0:0:0:0:
422,181,33200,1,8,0:0:0:0:
364,216,33260,1,0,0:0:0:0:
460,182,33380,1,8,0:0:0:0:
366,216,33500,1,0,0:0:0:0:
428,207,33620,1,8,0:0:0:0:
428,207,33680,1,8,0:0:0:0:
349,243,33740,1,0,0:0:0:0:
349,243,33800,1,0,0:0:0:0:
428,207,33860,1,8,0:0:0:0:
354,246,33980,1,0,0:0:0:0:
415,208,34100,1,8,0:0:0:0:
415,208,34160,1,8,0:0:0:0:
354,246,34220,1,0,0:0:0:0:
415,208,34340,1,8,0:0:0:0:
422,217,34460,1,8,0:0:0:0:
361,226,34580,1,0,0:0:0:0:
361,226,34700,1,0,0:0:0:0:
403,218,34820,1,8,0:0:0:0:
308,253,34940,1,0,0:0:0:0:
385,240,35060,1,8,0:0:0:0:
340,244,35120,1,8,0:0:0:0:
308,253,35180,1,0,0:0:0:0:
383,230,35300,1,8,0:0:0:0:
394,227,35420,1,0,0:0:0:0:
474,215,35540,1,8,0:0:0:0:
416,271,35600,1,0,0:0:0:0:
416,271,35660,1,0,0:0:0:0:
416,271,35720,1,0,0:0:0:0:
447,238,35780,1,8,0:0:0:0:
468,191,35900,1,0,0:0:0:0:
424,246,36020,1,8,0:0:0:0:
424,246,36080,1,8,0:0:0:0:
456,198,36140,1,0,0:0:0:0:
479,221,36260,1,8,0:0:0:0:
447,216,36380,1,8,0:0:0:0:
483,176,36500,1,0,0:0:0:0:
405,203,36620,1,0,0:0:0:0:
405,203,36680,1,0,0:0:0:0:
446,207,36740,1,8,0:0:0:0:
474,204,36860,1,0,0:0:0:0:
454,189,36980,1,8,0:0:0:0:
475,206,37040,1,0,0:0:0:0:
376,197,37100,1,0,0:0:0:0:
405,208,37220,1,8,0:0:0:0:
419,222,37340,1,0,0:0:0:0:
422,214,37460,1,8,0:0:0:0:
420,214,37520,1,8,0:0:0:0:
418,222,37580,1,0,0:0:0:0:
376,197,37640,1,0,0:0:0:0:
373,205,37700,1,8,0:0:0:0:
433,182,37820,1,0,0:0:0:0:
389,227,37940,1,8,0:0:0:0:
369,209,38000,1,8,0:0:0:0:
398,206,38060,1,0,0:0:0:0:
403,207,38180,1,8,0:0:0:0:
397,190,38300,1,8,0:0:0:0:
483,180,38420,1,0,0:0:0:0:
447,198,38540,1,0,0:0:0:0:
462,200,38660,1,8,0:0:0:0:
441,205,38780,1,0,0:0:0:0:
417,204,38900,1,8,0:0:0:0:
397,204,38960,1,0,0:0:0:0:
478,195,39020,1,0,0:0:0:0:
396,206,39140,1,8,0:0:0:0:
367,174,39260,1,0,0:0:0:0:
467,211,39380,1,8,0:0:0:0:
466,211,39440,1,0,0:0:0:0:
466,211,39500,1,8,0:0:0:0:
466,211,39560,1,8,0:0:0:0:
371,218,39620,1,0,0:0:0:0:
397,204,39740,1,0,0:0:0:0:
429,187,39860,1,8,0:0:0:0:
395,189,39920,1,8,0:0:0:0:
400,195,39980,1,0,0:0:0:0:
395,189,40100,1,8,0:0:0:0:
482,182,40220,1,0,0:0:0:0:
397,204,40340,1,8,0:0:0:0:
397,204,40400,1,8,0:0:0:0:
454,181,40460,1,0,0:0:0:0:
451,181,40520,1,0,0:0:0:0:
392,203,40580,1,8,0:0:0:0:
454,181,40700,1,0,0:0:0:0:
451,191,40820,1,8,0:0:0:0:
451,191,40880,1,8,0:0:0:0:
396,192,40940,1,0,0:0:0:0:
414,198,41060,1,8,0:0:0:0:
489,182,41180,1,0,0:0:0:0:
489,182,41240,1,0,0:0:0:0:
413,199,41300,1,8,0:0:0:0:
429,199,41420,1,0,0:0:0:0:
390,198,41480,1,8,0:0:0:0:
427,199,41540,1,0,0:0:0:0:
426,199,41600,1,0,0:0:0:0:
336,195,41660,1,8,0:0:0:0:
405,202,41780,1,0,0:0:0:0:
407,223,41900,1,8,0:0:0:0:
407,223,41960,1,8,0:0:0:0:
413,199,42020,1,0,0:0:0:0:
368,220,42140,1,0,0:0:0:0:
411,205,42260,1,8,0:0:0:0:
368,220,42320,1,0,0:0:0:0:
422,204,42380,1,8,0:0:0:0:
368,220,42440,1,0,0:0:0:0:
414,205,42500,1,8,0:0:0:0:
427,205,42620,1,0,0:0:0:0:
344,226,42740,1,8,0:0:0:0:
402,218,42800,1,0,0:0:0:0:
402,218,42860,1,0,0:0:0:0:
411,205,42980,1,8,0:0:0:0:
452,205,43100,1,0,0:0:0:0:
452,205,43160,1,0,0:0:0:0:
412,220,43220,1,8,0:0:0:0:
452,206,43340,1,0,0:0:0:0:
436,193,43400,1,8,0:0:0:0:
437,193,43460,1,8,0:0:0:0:
442,193,43520,1,8,0:0:0:0:
454,213,43580,1,0,0:0:0:0:
439,231,43700,1,8,0:0:0:0:
359,226,43760,1,0,0:0:0:0:
439,231,43820,1,8,0:0:0:0:
383,226,43940,1,0,0:0:0:0:
383,226,44060,1,0,0:0:0:0:
446,256,44180,1,8,0:0:0:0:
446,256,44240,1,8,0:0:0:0:
319,239,44300,1,0,0:0:0:0:
403,226,44420,1,8,0:0:0:0:
382,228,44540,1,0,0:0:0:0:
365,243,44600,1,8,0:0:0:0:
410,246,44660,1,0,0:0:0:0:
423,229,44780,1,8,0:0:0:0:
319,239,44900,1,0,0:0:0:0:
319,239,44960,1,0,0:0:0:0:
425,220,45020,1,8,0:0:0:0:
344,240,45140,1,0,0:0:0:0:
376,252,45260,1,8,0:0:0:0:
376,252,45320,1,8,0:0:0:0:
425,255,45380,1,0,0:0:0:0:
424,255,45440,1,0,0:0:0:0:
378,252,45500,1,8,0:0:0:0:
426,222,45560,1,0,0:0:0:0:
412,240,45620,1,8,0:0:0:0:
425,220,45740,1,0,0:0:0:0:
356,234,45800,1,8,0:0:0:0:
426,222,45860,1,0,0:0:0:0:
414,226,45980,1,0,0:0:0:0:
394,223,46100,1,8,0:0:0:0:
392,223,46160,1,8,0:0:0:0:
389,214,46220,1,0,0:0:0:0:
392,223,46280,1,8,0:0:0:0:
390,214,46340,1,0,0:0:0:0:
390,214,46400,1,0,0:0:0:0:
407,223,46460,1,8,0:0:0:0:
416,219,46580,1,0,0:0:0:0:
381,204,46700,1,0,0:0:0:0:
379,204,46760,1,0,0:0:0:0:
314,224,46820,1,8,0:0:0:0:
379,204,46880,1,0,0:0:0:0:
314,224,46940,1,8,0:0:0:0:
379,224,47060,1,0,0:0:0:0:
399,233,47180,1,8,0:0:0:0:
400,233,47240,1,8,0:0:0:0:
381,224,47300,1,0,0:0:0:0:
379,224,47420,1,0,0:0:0:0:
385,213,47540,1,8,0:0:0:0:
384,237,47660,1,0,0:0:0:0:
384,237,47720,1,0,0:0:0:0:
385,223,47780,1,8,0:0:0:0:
396,239,47900,1,0,0:0:0:0:
338,250,48020,1,8,0:0:0:0:
411,232,48140,1,8,0:0:0:0:
428,199,48260,1,0,0:0:0:0:
444,214,48500,1,8,0:0:0:0:
454,199,48680,1,0,0:0:0:0:
454,199,48860,1,0,0:0:0:0:
372,218,48980,1,8,0:0:0:0:
422,234,49100,1,8,0:0:0:0:
432,210,49220,1,0,0:0:0:0:
350,222,49460,1,8,0:0:0:0:
339,226,49490,1,8,0:0:0:0:
383,228,49700,1,12,0:0:0:0:
391,248,49940,1,8,0:0:0:0:
440,213,50060,1,0,0:0:0:0:
440,213,50120,1,0,0:0:0:0:
388,249,50180,1,8,0:0:0:0:
401,215,50300,1,0,0:0:0:0:
423,273,50420,1,8,0:0:0:0:
391,256,50480,1,8,0:0:0:0:
392,209,50540,1,0,0:0:0:0:
372,249,50600,1,8,0:0:0:0:
406,207,50660,1,0,0:0:0:0:
407,207,50720,1,0,0:0:0:0:
350,246,50780,1,8,0:0:0:0:
362,219,50900,1,0,0:0:0:0:
354,213,51020,1,8,0:0:0:0:
354,213,51080,1,8,0:0:0:0:
427,221,51140,1,0,0:0:0:0:
396,209,51260,1,8,0:0:0:0:
369,208,51380,1,0,0:0:0:0:
369,208,51440,1,0,0:0:0:0:
440,190,51500,1,8,0:0:0:0:
369,208,51560,1,0,0:0:0:0:
429,203,51620,1,8,0:0:0:0:
429,206,51680,1,8,0:0:0:0:
376,207,51740,1,0,0:0:0:0:
405,220,51860,1,8,0:0:0:0:
425,191,51980,1,0,0:0:0:0:
355,191,52040,1,0,0:0:0:0:
390,187,52100,1,8,0:0:0:0:
405,187,52220,1,0,0:0:0:0:
353,181,52340,1,8,0:0:0:0:
382,215,52400,1,0,0:0:0:0:
393,211,52460,1,8,0:0:0:0:
392,211,52520,1,8,0:0:0:0:
345,194,52580,1,0,0:0:0:0:
350,194,52640,1,0,0:0:0:0:
392,211,52700,1,8,0:0:0:0:
343,194,52820,1,0,0:0:0:0:
347,224,52940,1,8,0:0:0:0:
347,224,53000,1,8,0:0:0:0:
348,243,53060,1,0,0:0:0:0:
365,222,53180,1,8,0:0:0:0:
347,200,53300,1,0,0:0:0:0:
321,238,53420,1,8,0:0:0:0:
348,215,53480,1,0,0:0:0:0:
300,232,53540,1,8,0:0:0:0:
382,197,53660,1,0,0:0:0:0:
403,192,53720,1,0,0:0:0:0:
333,184,53780,1,8,0:0:0:0:
409,188,53900,1,0,0:0:0:0:
397,207,54020,1,8,0:0:0:0:
397,207,54140,1,8,0:0:0:0:
437,207,54200,1,8,0:0:0:0:
410,188,54260,1,0,0:0:0:0:
408,193,54380,1,0,0:0:0:0:
413,186,54440,1,8,0:0:0:0:
408,193,54500,1,0,0:0:0:0:
408,193,54560,1,0,0:0:0:0:
409,188,54620,1,8,0:0:0:0:
493,194,54740,1,0,0:0:0:0:
489,201,54860,1,0,0:0:0:0:
489,201,54920,1,0,0:0:0:0:
376,191,54980,1,8,0:0:0:0:
407,172,55100,1,0,0:0:0:0:
407,192,55220,1,8,0:0:0:0:
413,191,55280,1,0,0:0:0:0:
436,199,55340,1,8,0:0:0:0:
414,191,55400,1,0,0:0:0:0:
435,200,55460,1,8,0:0:0:0:
435,200,55520,1,8,0:0:0:0:
376,191,55580,1,0,0:0:0:0:
353,174,55700,1,8,0:0:0:0:
323,187,55820,1,0,0:0:0:0:
323,187,55880,1,0,0:0:0:0:
354,167,55940,1,8,0:0:0:0:
316,200,56060,1,8,0:0:0:0:
293,179,56180,1,0,0:0:0:0:
271,177,56240,1,0,0:0:0:0:
203,175,56300,1,8,0:0:0:0:
319,200,56360,1,8,0:0:0:0:
253,169,56420,1,0,0:0:0:0:
407,216,56540,1,8,0:0:0:0:
421,200,56660,1,0,0:0:0:0:
421,200,56780,1,0,0:0:0:0:
423,200,56840,1,0,0:0:0:0:
444,214,56900,1,8,0:0:0:0:
418,211,57020,1,0,0:0:0:0:
437,199,57140,1,8,0:0:0:0:
411,207,57200,1,0,0:0:0:0:
437,199,57260,1,8,0:0:0:0:
437,199,57320,1,8,0:0:0:0:
386,186,57380,1,0,0:0:0:0:
427,203,57500,1,8,0:0:0:0:
386,186,57620,1,0,0:0:0:0:
355,222,57740,1,8,0:0:0:0:
353,192,57800,1,0,0:0:0:0:
370,220,57860,1,8,0:0:0:0:
386,205,57980,1,0,0:0:0:0:
395,206,58040,1,0,0:0:0:0:
319,201,58100,1,8,0:0:0:0:
288,206,58220,1,0,0:0:0:0:
332,233,58340,1,8,0:0:0:0:
334,210,58400,1,8,0:0:0:0:
463,173,58460,1,0,0:0:0:0:
477,176,58520,1,0,0:0:0:0:
278,205,58580,1,8,0:0:0:0:
485,181,58700,1,0,0:0:0:0:
456,187,58820,1,8,0:0:0:0:
453,188,58880,1,8,0:0:0:0:
459,181,58940,1,0,0:0:0:0:
409,200,59060,1,8,0:0:0:0:
350,193,59180,1,0,0:0:0:0:
352,193,59240,1,0,0:0:0:0:
409,200,59300,1,8,0:0:0:0:
409,200,59420,1,8,0:0:0:0:
359,199,59480,1,8,0:0:0:0:
398,203,59540,1,0,0:0:0:0:
398,203,59600,1,0,0:0:0:0:
359,199,59660,1,8,0:0:0:0:
398,203,59720,1,0,0:0:0:0:
327,197,59780,1,8,0:0:0:0:
417,208,59900,1,0,0:0:0:0:
430,212,60020,1,8,0:0:0:0:
418,208,60080,1,0,0:0:0:0:
441,212,60140,1,8,0:0:0:0:
441,212,60200,1,8,0:0:0:0:
418,208,60260,1,0,0:0:0:0:
419,207,60380,1,0,0:0:0:0:
430,212,60500,1,8,0:0:0:0:
402,207,60560,1,8,0:0:0:0:
428,221,60620,1,0,0:0:0:0:
338,212,60740,1,0,0:0:0:0:
418,208,60860,1,8,0:0:0:0:
365,178,60920,1,0,0:0:0:0:
474,213,60980,1,0,0:0:0:0:
485,209,61100,1,8,0:0:0:0:
485,209,61160,1,8,0:0:0:0:
352,227,61220,1,0,0:0:0:0:
352,227,61280,1,0,0:0:0:0:
416,221,61340,1,8,0:0:0:0:
404,238,61460,1,0,0:0:0:0:
404,238,61580,1,0,0:0:0:0:
404,238,61640,1,0,0:0:0:0:
461,213,61700,1,8,0:0:0:0:
413,198,61820,1,0,0:0:0:0:
440,234,61940,1,8,0:0:0:0:
420,210,62000,1,8,0:0:0:0:
331,241,62060,1,0,0:0:0:0:
437,219,62180,1,8,0:0:0:0:
439,219,62300,1,8,0:0:0:0:
373,223,62360,1,8,0:0:0:0:
295,208,62420,1,0,0:0:0:0:
409,227,62480,1,8,0:0:0:0:
295,208,62540,1,0,0:0:0:0:
295,208,62600,1,0,0:0:0:0:
408,227,62660,1,8,0:0:0:0:
373,223,62780,1,8,0:0:0:0:
373,223,62840,1,8,0:0:0:0:
459,216,62900,1,0,0:0:0:0:
414,219,63020,1,8,0:0:0:0:
349,220,63140,1,0,0:0:0:0:
349,220,63200,1,0,0:0:0:0:
360,221,63260,1,8,0:0:0:0:
349,220,63380,1,0,0:0:0:0:
349,220,63500,1,0,0:0:0:0:
405,220,63620,1,8,0:0:0:0:
422,216,63740,1,0,0:0:0:0:
353,227,63860,1,8,0:0:0:0:
437,206,63920,1,8,0:0:0:0:
488,208,63980,1,0,0:0:0:0:
488,208,64040,1,0,0:0:0:0:
436,206,64100,1,8,0:0:0:0:
420,225,64220,1,0,0:0:0:0:
456,210,64340,1,8,0:0:0:0:
454,210,64460,1,8,0:0:0:0:
454,210,64520,1,8,0:0:0:0:
406,228,64580,1,0,0:0:0:0:
434,194,64700,1,8,0:0:0:0:
362,224,64820,1,0,0:0:0:0:
362,224,64880,1,0,0:0:0:0:
362,224,64940,1,0,0:0:0:0:
362,224,65000,1,0,0:0:0:0:
426,194,65060,1,8,0:0:0:0:
391,224,65180,1,0,0:0:0:0:
380,237,65300,1,8,0:0:0:0:
380,237,65360,1,8,0:0:0:0:
441,248,65420,1,0,0:0:0:0:
441,248,65480,1,0,0:0:0:0:
430,232,65540,1,8,0:0:0:0:
420,218,65660,1,0,0:0:0:0:
425,232,65780,1,8,0:0:0:0:
425,232,65840,1,8,0:0:0:0:
445,215,65900,1,0,0:0:0:0:
445,232,66020,1,8,0:0:0:0:
407,235,66140,1,0,0:0:0:0:
405,237,66260,1,8,0:0:0:0:
476,228,66320,1,0,0:0:0:0:
476,228,66380,1,0,0:0:0:0:
454,227,66500,1,8,0:0:0:0:
373,256,66620,1,0,0:0:0:0:
399,206,66740,1,8,0:0:0:0:
399,206,66800,1,8,0:0:0:0:
350,227,66860,1,0,0:0:0:0:
366,217,66920,1,8,0:0:0:0:
351,227,66980,1,0,0:0:0:0:
352,227,67040,1,0,0:0:0:0:
366,217,67100,1,8,0:0:0:0:
408,212,67160,1,0,0:0:0:0:
366,217,67220,1,8,0:0:0:0:
344,227,67340,1,0,0:0:0:0:
390,230,67460,1,0,0:0:0:0:
340,220,67520,1,0,0:0:0:0:
369,219,67580,1,8,0:0:0:0:
404,207,67700,1,0,0:0:0:0:
360,226,67820,1,8,0:0:0:0:
365,226,67880,1,8,0:0:0:0:
358,234,67940,1,0,0:0:0:0:
449,203,68060,1,8,0:0:0:0:
403,211,68180,1,0,0:0:0:0:
313,234,68300,1,0,0:0:0:0:
381,232,68420,1,8,0:0:0:0:
313,234,68540,1,0,0:0:0:0:
376,226,68660,1,8,0:0:0:0:
359,257,68720,1,0,0:0:0:0:
460,196,68780,1,0,0:0:0:0:
457,195,68840,1,0,0:0:0:0:
385,227,68900,1,8,0:0:0:0:
377,256,69020,1,0,0:0:0:0:
363,195,69140,1,8,0:0:0:0:
363,195,69200,1,8,0:0:0:0:
454,212,69260,1,0,0:0:0:0:
434,203,69380,1,0,0:0:0:0:
302,200,69500,1,8,0:0:0:0:
433,224,69560,1,8,0:0:0:0:
368,197,69620,1,0,0:0:0:0:
374,197,69680,1,0,0:0:0:0:
327,217,69740,1,8,0:0:0:0:
363,195,69860,1,0,0:0:0:0:
327,217,69980,1,8,0:0:0:0:
372,228,70100,1,0,0:0:0:0:
384,290,70220,1,0,0:0:0:0:
372,228,70280,1,0,0:0:0:0:
438,216,70340,1,8,0:0:0:0:
384,290,70460,1,0,0:0:0:0:
406,212,70580,1,8,0:0:0:0:
401,255,70640,1,0,0:0:0:0:
406,212,70700,1,8,0:0:0:0:
406,212,70760,1,8,0:0:0:0:
401,255,70820,1,0,0:0:0:0:
406,212,70940,1,8,0:0:0:0:
339,204,71060,1,0,0:0:0:0:
339,204,71180,1,0,0:0:0:0:
401,225,71300,1,8,0:0:0:0:
456,207,71360,1,8,0:0:0:0:
339,204,71420,1,0,0:0:0:0:
411,211,71540,1,8,0:0:0:0:
323,207,71660,1,0,0:0:0:0:
323,207,71720,1,0,0:0:0:0:
411,211,71780,1,8,0:0:0:0:
281,206,71900,1,8,0:0:0:0:
325,224,72020,1,0,0:0:0:0:
294,199,72140,1,0,0:0:0:0:
251,236,72260,1,8,0:0:0:0:
310,210,72380,1,0,0:0:0:0:
300,210,72500,1,8,0:0:0:0:
299,210,72560,1,8,0:0:0:0:
396,218,72620,1,0,0:0:0:0:
298,210,72740,1,8,0:0:0:0:
396,218,72860,1,0,0:0:0:0:
354,237,72980,1,8,0:0:0:0:
354,237,73040,1,8,0:0:0:0:
435,210,73100,1,0,0:0:0:0:
435,210,73160,1,0,0:0:0:0:
354,237,73220,1,8,0:0:0:0:
425,213,73340,1,0,0:0:0:0:
384,217,73460,1,8,0:0:0:0:
384,233,73520,1,0,0:0:0:0:
384,233,73580,1,0,0:0:0:0:
384,217,73700,1,8,0:0:0:0:
409,220,73820,1,0,0:0:0:0:
358,283,73940,1,0,0:0:0:0:
349,228,74000,1,8,0:0:0:0:
358,283,74060,1,0,0:0:0:0:
392,256,74180,1,8,0:0:0:0:
345,242,74300,1,0,0:0:0:0:
397,254,74420,1,8,0:0:0:0:
434,215,74480,1,0,0:0:0:0:
391,221,74540,1,8,0:0:0:0:
389,221,74600,1,8,0:0:0:0:
375,216,74660,1,0,0:0:0:0:
417,218,74720,1,0,0:0:0:0:
397,254,74780,1,8,0:0:0:0:
417,218,74840,1,0,0:0:0:0:
397,254,74900,1,8,0:0:0:0:
401,227,75020,1,0,0:0:0:0:
425,232,75140,1,0,0:0:0:0:
405,231,75200,1,0,0:0:0:0:
314,216,75260,1,8,0:0:0:0:
309,241,75380,1,0,0:0:0:0:
344,227,75500,1,8,0:0:0:0:
311,241,75560,1,0,0:0:0:0:
311,241,75620,1,0,0:0:0:0:
369,228,75740,1,8,0:0:0:0:
391,232,75860,1,0,0:0:0:0:
392,228,75980,1,0,0:0:0:0:
405,230,76100,1,8,0:0:0:0:
430,209,76220,1,0,0:0:0:0:
396,209,76340,1,8,0:0:0:0:
397,209,76400,1,8,0:0:0:0:
397,209,76460,1,8,0:0:0:0:
424,194,76520,1,0,0:0:0:0:
407,209,76580,1,8,0:0:0:0:
424,228,76700,1,0,0:0:0:0:
392,202,76820,1,8,0:0:0:0:
392,202,76880,1,8,0:0:0:0:
438,223,76940,1,0,0:0:0:0:
403,165,77060,1,0,0:0:0:0:
398,232,77180,1,8,0:0:0:0:
398,232,77240,1,8,0:0:0:0:
400,222,77300,1,0,0:0:0:0:
400,222,77360,1,0,0:0:0:0:
406,232,77420,1,8,0:0:0:0:
372,235,77540,1,0,0:0:0:0:
398,232,77660,1,8,0:0:0:0:
372,235,77780,1,0,0:0:0:0:
376,228,77900,1,0,0:0:0:0:
378,228,77960,1,0,0:0:0:0:
426,239,78020,1,8,0:0:0:0:
442,225,78140,1,0,0:0:0:0:
383,234,78260,1,8,0:0:0:0:
342,250,78320,1,8,0:0:0:0:
416,240,78380,1,0,0:0:0:0:
342,250,78440,1,8,0:0:0:0:
416,240,78500,1,0,0:0:0:0:
411,216,78620,1,0,0:0:0:0:
452,216,78740,1,8,0:0:0:0:
434,223,78860,1,0,0:0:0:0:
400,217,78920,1,0,0:0:0:0:
344,230,78980,1,8,0:0:0:0:
476,204,79100,1,0,0:0:0:0:
384,214,79220,1,8,0:0:0:0:
416,204,79280,1,0,0:0:0:0:
469,184,79340,1,0,0:0:0:0:
436,194,79400,1,0,0:0:0:0:
426,197,79460,1,8,0:0:0:0:
414,204,79580,1,0,0:0:0:0:
499,203,79700,1,8,0:0:0:0:
413,207,79760,1,8,0:0:0:0:
404,198,79820,1,0,0:0:0:0:
302,193,79940,1,8,0:0:0:0:
424,212,80060,1,0,0:0:0:0:
390,174,80180,1,8,0:0:0:0:
409,200,80240,1,0,0:0:0:0:
390,174,80300,1,8,0:0:0:0:
414,200,80420,1,0,0:0:0:0:
390,174,80540,1,8,0:0:0:0:
424,201,80660,1,0,0:0:0:0:
416,198,81380,1,8,0:0:0:0:
364,218,81500,1,8,0:0:0:0:
283,222,81620,1,4,0:0:0:0:
387,194,81860,1,8,0:0:0:0:
373,193,82100,1,0,0:0:0:0:
436,214,82340,1,12,0:0:0:0:
389,214,82580,1,4,0:0:0:0:
413,257,82820,1,8,0:0:0:0:
413,257,82850,1,8,0:0:0:0:
422,257,82940,1,8,0:0:0:0:
422,257,82970,1,8,0:0:0:0:
445,230,83060,1,0,0:0:0:0:
370,250,83300,1,8,0:0:0:0:
370,250,83360,1,8,0:0:0:0:
370,250,83420,1,8,0:0:0:0:
370,250,83480,1,8,0:0:0:0:
455,232,83540,1,0,0:0:0:0:
454,232,83570,1,0,0:0:0:0:
454,232,83660,1,0,0:0:0:0:
454,232,83690,1,0,0:0:0:0:
383,244,83780,1,8,0:0:0:0:
385,244,83810,1,8,0:0:0:0:
479,235,83900,1,8,0:0:0:0:
479,235,83930,1,8,0:0:0:0:
346,237,84020,1,0,0:0:0:0:
421,240,84260,1,8,0:0:0:0:
421,240,84380,1,8,0:0:0:0:
468,239,84500,1,4,0:0:0:0:
482,282,84740,1,8,0:0:0:0:
482,282,84770,1,8,0:0:0:0:
444,238,84860,1,8,0:0:0:0:
443,238,84890,1,8,0:0:0:0:
459,244,84980,1,0,0:0:0:0:
456,257,85100,1,8,0:0:0:0:
388,218,85160,1,0,0:0:0:0:
430,193,85220,1,8,0:0:0:0:
429,210,85340,1,0,0:0:0:0:
382,209,85460,1,8,0:0:0:0:
401,222,85700,1,0,0:0:0:0:
402,222,85760,1,0,0:0:0:0:
402,222,85820,1,0,0:0:0:0:
403,222,85880,1,0,0:0:0:0:
424,230,85940,1,8,0:0:0:0:
469,225,86060,1,0,0:0:0:0:
424,230,86180,1,8,0:0:0:0:
424,230,86300,1,8,0:0:0:0:
488,212,86420,1,4,0:0:0:0:
466,200,86660,1,8,0:0:0:0:
466,200,86690,1,8,0:0:0:0:
466,200,86780,1,8,0:0:0:0:
466,200,86810,1,8,0:0:0:0:
283,232,86900,1,0,0:0:0:0:
481,207,87140,1,8,0:0:0:0:
480,207,87200,1,8,0:0:0:0:
421,214,87260,1,0,0:0:0:0:
421,214,87320,1,0,0:0:0:0:
478,207,87380,1,8,0:0:0:0:
482,206,87410,1,8,0:0:0:0:
368,236,87500,1,8,0:0:0:0:
419,232,87530,1,8,0:0:0:0:
363,208,87620,1,0,0:0:0:0:
363,208,87650,1,0,0:0:0:0:
363,208,87740,1,0,0:0:0:0:
363,208,87770,1,0,0:0:0:0:
393,199,87860,1,8,0:0:0:0:
393,199,87920,1,8,0:0:0:0:
388,229,87980,1,0,0:0:0:0:
299,217,88100,1,8,0:0:0:0:
449,207,88220,1,8,0:0:0:0:
440,192,88340,1,4,0:0:0:0:
420,216,88580,1,0,0:0:0:0:
421,216,88640,1,0,0:0:0:0:
421,216,88700,1,0,0:0:0:0:
425,217,88760,1,0,0:0:0:0:
430,235,88820,1,8,0:0:0:0:
424,233,89060,1,8,0:0:0:0:
424,233,89090,1,8,0:0:0:0:
425,233,89180,1,8,0:0:0:0:
425,233,89210,1,8,0:0:0:0:
275,259,89300,1,0,0:0:0:0:
406,225,89540,1,0,0:0:0:0:
408,225,89570,1,0,0:0:0:0:
433,224,89660,1,0,0:0:0:0:
436,224,89690,1,0,0:0:0:0:
435,235,89780,1,8,0:0:0:0:
435,238,89820,1,8,0:0:0:0:
435,240,89860,1,8,0:0:0:0:
437,241,89900,1,8,0:0:0:0:
448,228,90020,1,0,0:0:0:0:
393,218,90140,1,8,0:0:0:0:
428,186,90260,1,4,0:0:0:0:
401,214,90500,1,8,0:0:0:0:
401,214,90560,1,8,0:0:0:0:
475,187,90620,1,0,0:0:0:0:
481,187,90680,1,0,0:0:0:0:
439,214,90740,1,8,0:0:0:0:
393,224,90860,1,0,0:0:0:0:
452,205,90980,1,8,0:0:0:0:
415,229,91220,1,0,0:0:0:0:
415,229,91260,1,0,0:0:0:0:
415,229,91300,1,0,0:0:0:0:
415,229,91340,1,0,0:0:0:0:
411,218,91460,1,8,0:0:0:0:
395,231,91700,1,8,0:0:0:0:
395,231,91730,1,8,0:0:0:0:
395,231,91820,1,8,0:0:0:0:
395,231,91850,1,8,0:0:0:0:
412,204,91940,1,0,0:0:0:0:
408,204,91970,1,0,0:0:0:0:
408,204,92060,1,0,0:0:0:0:
408,204,92090,1,0,0:0:0:0:
404,225,92180,1,8,0:0:0:0:
428,203,92420,1,8,0:0:0:0:
423,222,92480,1,0,0:0:0:0:
428,203,92540,1,8,0:0:0:0:
363,255,92660,1,8,0:0:0:0:
363,255,92720,1,8,0:0:0:0:
282,257,92780,1,0,0:0:0:0:
282,257,92840,1,0,0:0:0:0:
374,249,92900,1,8,0:0:0:0:
383,249,93020,1,0,0:0:0:0:
269,263,93140,1,8,0:0:0:0:
377,250,93260,1,8,0:0:0:0:
378,250,93320,1,8,0:0:0:0:
329,266,93380,1,0,0:0:0:0:
356,270,93500,1,0,0:0:0:0:
449,288,93620,1,8,0:0:0:0:
401,257,93860,1,0,0:0:0:0:
362,286,93980,1,0,0:0:0:0:
382,277,94100,1,8,0:0:0:0:
379,277,94140,1,8,0:0:0:0:
363,277,94180,1,8,0:0:0:0:
359,277,94220,1,8,0:0:0:0:
411,248,94340,1,0,0:0:0:0:
439,233,94460,1,0,0:0:0:0:
416,247,94580,1,8,0:0:0:0:
432,246,94820,1,8,0:0:0:0:
454,242,94940,1,8,0:0:0:0:
418,241,95060,1,0,0:0:0:0:
371,252,95090,1,0,0:0:0:0:
371,252,95180,1,0,0:0:0:0:
371,252,95210,1,0,0:0:0:0:
414,212,95300,1,8,0:0:0:0:
392,256,95540,1,0,0:0:0:0:
392,256,95600,1,0,0:0:0:0:
402,229,95660,1,8,0:0:0:0:
422,223,95720,1,8,0:0:0:0:
392,256,95780,1,0,0:0:0:0:
424,245,95900,1,0,0:0:0:0:
443,236,96020,1,8,0:0:0:0:
443,236,96080,1,8,0:0:0:0:
437,234,96140,1,0,0:0:0:0:
436,252,96260,1,8,0:0:0:0:
396,261,96380,1,0,0:0:0:0:
439,238,96500,1,8,0:0:0:0:
430,211,96560,1,0,0:0:0:0:
442,238,96620,1,8,0:0:0:0:
430,212,96740,1,0,0:0:0:0:
408,238,96860,1,8,0:0:0:0:
435,211,96980,1,0,0:0:0:0:
366,256,97100,1,8,0:0:0:0:
436,212,97160,1,0,0:0:0:0:
366,256,97280,1,8,0:0:0:0:
406,192,97340,1,0,0:0:0:0:
401,231,97460,1,8,0:0:0:0:
402,231,97520,1,8,0:0:0:0:
339,214,97580,1,0,0:0:0:0:
402,221,97700,1,8,0:0:0:0:
419,232,97940,1,0,0:0:0:0:
416,240,98180,1,8,0:0:0:0:
416,240,98210,1,8,0:0:0:0:
402,231,98300,1,0,0:0:0:0:
402,228,98330,1,0,0:0:0:0:
416,240,98420,1,8,0:0:0:0:
416,240,98450,1,8,0:0:0:0:
383,243,98660,1,8,0:0:0:0:
384,243,98690,1,8,0:0:0:0:
397,226,98780,1,0,0:0:0:0:
397,226,98810,1,0,0:0:0:0:
449,223,98900,1,8,0:0:0:0:
387,244,98930,1,8,0:0:0:0:
389,240,99140,1,8,0:0:0:0:
389,240,99170,1,8,0:0:0:0:
449,223,99260,1,0,0:0:0:0:
449,223,99290,1,0,0:0:0:0:
400,203,99380,1,8,0:0:0:0:
399,203,99440,1,8,0:0:0:0:
417,207,99500,1,0,0:0:0:0:
420,207,99560,1,0,0:0:0:0:
400,203,99620,1,8,0:0:0:0:
417,207,99740,1,0,0:0:0:0:
360,231,99860,1,8,0:0:0:0:
360,231,100100,1,8,0:0:0:0:
360,231,100130,1,8,0:0:0:0:
418,237,100220,1,0,0:0:0:0:
418,237,100250,1,0,0:0:0:0:
373,232,100340,1,8,0:0:0:0:
373,232,100370,1,8,0:0:0:0:
416,241,100460,1,8,0:0:0:0:
415,241,100490,1,8,0:0:0:0:
425,231,100580,1,0,0:0:0:0:
425,231,100610,1,0,0:0:0:0:
425,231,100700,1,0,0:0:0:0:
425,231,100730,1,0,0:0:0:0:
467,238,100820,1,8,0:0:0:0:
363,251,100880,1,8,0:0:0:0:
411,256,100940,1,0,0:0:0:0:
409,256,101000,1,0,0:0:0:0:
363,251,101060,1,8,0:0:0:0:
385,226,101120,1,0,0:0:0:0:
433,206,101180,1,8,0:0:0:0:
445,243,101240,1,0,0:0:0:0:
422,245,101300,1,8,0:0:0:0:
434,228,101330,1,8,0:0:0:0:
391,251,101420,1,0,0:0:0:0:
380,233,101540,1,8,0:0:0:0:
380,233,101570,1,8,0:0:0:0:
391,252,101660,1,0,0:0:0:0:
420,225,101780,1,8,0:0:0:0:
417,218,102020,1,0,0:0:0:0:
417,218,102050,1,0,0:0:0:0:
417,218,102140,1,0,0:0:0:0:
417,218,102170,1,0,0:0:0:0:
418,232,102260,1,8,0:0:0:0:
415,232,102290,1,8,0:0:0:0:
414,232,102380,1,8,0:0:0:0:
414,232,102410,1,8,0:0:0:0:
373,229,102500,1,0,0:0:0:0:
373,229,102530,1,0,0:0:0:0:
373,229,102620,1,0,0:0:0:0:
373,229,102650,1,0,0:0:0:0:
339,232,102740,1,8,0:0:0:0:
431,214,102860,1,0,0:0:0:0:
373,220,102980,1,8,0:0:0:0:
373,220,103040,1,8,0:0:0:0:
396,218,103100,1,0,0:0:0:0:
397,218,103160,1,0,0:0:0:0:
386,245,103220,1,8,0:0:0:0:
403,207,103340,1,0,0:0:0:0:
415,205,103400,1,0,0:0:0:0:
391,220,103460,1,8,0:0:0:0:
407,233,103580,1,0,0:0:0:0:
411,236,103700,1,8,0:0:0:0:
411,234,103760,1,8,0:0:0:0:
460,218,103820,1,0,0:0:0:0:
462,226,103940,1,8,0:0:0:0:
448,243,104060,1,0,0:0:0:0:
456,225,104180,1,8,0:0:0:0:
335,262,104240,1,0,0:0:0:0:
391,256,104300,1,0,0:0:0:0:
391,256,104360,1,0,0:0:0:0:
460,226,104420,1,8,0:0:0:0:
391,256,104540,1,0,0:0:0:0:
469,244,104660,1,8,0:0:0:0:
447,224,104780,1,0,0:0:0:0:
449,224,104840,1,0,0:0:0:0:
469,244,104900,1,8,0:0:0:0:
446,224,105020,1,0,0:0:0:0:
437,233,105140,1,8,0:0:0:0:
381,247,105200,1,0,0:0:0:0:
435,233,105260,1,8,0:0:0:0:
435,233,105320,1,8,0:0:0:0:
385,249,105380,1,0,0:0:0:0:
432,227,105500,1,8,0:0:0:0:
381,247,105620,1,0,0:0:0:0:
459,217,105740,1,0,0:0:0:0:
383,238,105860,1,8,0:0:0:0:
383,238,105890,1,8,0:0:0:0:
401,231,105980,1,0,0:0:0:0:
418,236,106100,1,8,0:0:0:0:
416,236,106130,1,8,0:0:0:0:
416,240,106220,1,0,0:0:0:0:
415,236,106340,1,8,0:0:0:0:
415,236,106370,1,8,0:0:0:0:
395,252,106460,1,0,0:0:0:0:
395,252,106520,1,0,0:0:0:0:
398,236,106580,1,8,0:0:0:0:
394,236,106640,1,8,0:0:0:0:
414,233,106700,1,0,0:0:0:0:
414,233,106760,1,0,0:0:0:0:
394,236,106820,1,8,0:0:0:0:
418,236,106880,1,0,0:0:0:0:
455,228,106940,1,8,0:0:0:0:
417,233,107000,1,0,0:0:0:0:
447,232,107060,1,8,0:0:0:0:
444,246,107180,1,0,0:0:0:0:
476,230,107300,1,8,0:0:0:0:
448,246,107360,1,0,0:0:0:0:
476,230,107420,1,8,0:0:0:0:
437,234,107540,1,0,0:0:0:0:
382,258,107600,1,8,0:0:0:0:
436,234,107660,1,0,0:0:0:0:
436,255,107780,1,8,0:0:0:0:
435,252,107900,1,0,0:0:0:0:
461,255,108020,1,8,0:0:0:0:
461,255,108050,1,8,0:0:0:0:
434,249,108140,1,0,0:0:0:0:
503,227,108260,1,8,0:0:0:0:
503,227,108290,1,8,0:0:0:0:
434,252,108380,1,0,0:0:0:0:
459,215,108500,1,8,0:0:0:0:
459,215,108530,1,8,0:0:0:0:
445,203,108740,1,0,0:0:0:0:
444,203,108770,1,0,0:0:0:0:
443,203,108860,1,0,0:0:0:0:
443,203,108890,1,0,0:0:0:0:
460,227,108980,1,8,0:0:0:0:
458,227,109010,1,8,0:0:0:0:
457,227,109100,1,8,0:0:0:0:
457,227,109130,1,8,0:0:0:0:
452,210,109220,1,0,0:0:0:0:
451,209,109250,1,0,0:0:0:0:
450,209,109340,1,0,0:0:0:0:
450,209,109370,1,0,0:0:0:0:
476,223,109460,1,8,0:0:0:0:
350,211,109580,1,0,0:0:0:0:
427,238,109700,1,8,0:0:0:0:
427,238,109730,1,8,0:0:0:0:
407,253,109820,1,0,0:0:0:0:
427,238,109940,1,8,0:0:0:0:
427,238,109970,1,8,0:0:0:0:
336,245,110060,1,0,0:0:0:0:
427,238,110180,1,8,0:0:0:0:
427,238,110210,1,8,0:0:0:0:
455,256,110420,1,8,0:0:0:0:
455,256,110480,1,8,0:0:0:0:
407,253,110540,1,0,0:0:0:0:
407,253,110600,1,0,0:0:0:0:
455,256,110660,1,8,0:0:0:0:
407,253,110780,1,0,0:0:0:0:
446,248,110900,1,8,0:0:0:0:
446,248,110930,1,8,0:0:0:0:
419,254,111140,1,0,0:0:0:0:
422,254,111260,1,0,0:0:0:0:
440,249,111380,1,8,0:0:0:0:
432,254,111500,1,8,0:0:0:0:
432,254,111560,1,8,0:0:0:0:
463,254,111620,1,0,0:0:0:0:
446,226,111740,1,8,0:0:0:0:
475,228,111860,1,0,0:0:0:0:
475,228,111920,1,0,0:0:0:0:
446,226,111980,1,8,0:0:0:0:
446,226,112040,1,8,0:0:0:0:
475,228,112100,1,0,0:0:0:0:
468,224,112220,1,0,0:0:0:0:
464,233,112340,1,8,0:0:0:0:
446,226,112400,1,0,0:0:0:0:
464,233,112460,1,8,0:0:0:0:
446,226,112580,1,0,0:0:0:0:
494,266,112640,1,8,0:0:0:0:
446,226,112700,1,0,0:0:0:0:
446,226,112760,1,0,0:0:0:0:
494,266,112820,1,8,0:0:0:0:
472,263,112940,1,0,0:0:0:0:
457,217,113000,1,8,0:0:0:0:
456,218,113120,1,8,0:0:0:0:
300,268,113180,1,0,0:0:0:0:
502,236,113300,1,8,0:0:0:0:
437,237,113420,1,8,0:0:0:0:
481,204,113540,1,0,0:0:0:0:
453,195,113780,1,8,0:0:0:0:
453,195,113820,1,8,0:0:0:0:
453,195,113860,1,8,0:0:0:0:
453,195,113900,1,8,0:0:0:0:
498,208,114020,1,0,0:0:0:0:
491,213,114260,1,8,0:0:0:0:
435,216,114290,1,8,0:0:0:0:
434,231,114380,1,0,0:0:0:0:
424,236,114410,1,0,0:0:0:0:
490,212,114500,1,8,0:0:0:0:
435,216,114530,1,8,0:0:0:0:
462,233,114740,1,8,0:0:0:0:
479,222,114800,1,0,0:0:0:0:
462,233,114860,1,8,0:0:0:0:
462,233,114920,1,8,0:0:0:0:
469,226,114980,1,0,0:0:0:0:
469,226,115100,1,0,0:0:0:0:
474,207,115220,1,8,0:0:0:0:
480,202,115340,1,8,0:0:0:0:
386,214,115460,1,0,0:0:0:0:
444,214,115520,1,0,0:0:0:0:
444,214,115580,1,0,0:0:0:0:
444,214,115640,1,0,0:0:0:0:
465,209,115700,1,8,0:0:0:0:
460,210,115820,1,8,0:0:0:0:
449,209,115940,1,0,0:0:0:0:
474,211,116060,1,0,0:0:0:0:
471,211,116120,1,0,0:0:0:0:
351,216,116180,1,8,0:0:0:0:
404,201,116300,1,8,0:0:0:0:
372,217,116420,1,0,0:0:0:0:
369,217,116540,1,0,0:0:0:0:
429,192,116660,1,8,0:0:0:0:
429,192,116720,1,8,0:0:0:0:
429,192,116780,1,8,0:0:0:0:
427,223,116840,1,8,0:0:0:0:
390,226,116900,1,0,0:0:0:0:
435,239,117020,1,0,0:0:0:0:
443,233,117140,1,8,0:0:0:0:
469,216,117380,1,8,0:0:0:0:
469,216,117410,1,8,0:0:0:0:
418,220,117500,1,0,0:0:0:0:
469,216,117620,1,8,0:0:0:0:
469,216,117650,1,8,0:0:0:0:
469,216,117740,1,8,0:0:0:0:
469,216,117770,1,8,0:0:0:0:
423,219,117860,1,0,0:0:0:0:
429,227,118100,1,8,0:0:0:0:
429,227,118130,1,8,0:0:0:0:
428,227,118220,1,8,0:0:0:0:
428,227,118250,1,8,0:0:0:0:
411,241,118340,1,0,0:0:0:0:
411,241,118370,1,0,0:0:0:0:
411,241,118460,1,0,0:0:0:0:
411,241,118490,1,0,0:0:0:0:
389,241,118580,1,8,0:0:0:0:
358,228,118700,1,0,0:0:0:0:
351,239,118820,1,8,0:0:0:0:
351,239,118880,1,8,0:0:0:0:
418,243,118940,1,0,0:0:0:0:
423,243,119000,1,0,0:0:0:0:
373,224,119060,1,8,0:0:0:0:
432,222,119180,1,0,0:0:0:0:
458,234,119300,1,8,0:0:0:0:
443,238,119420,1,8,0:0:0:0:
378,240,119540,1,0,0:0:0:0:
443,238,119660,1,8,0:0:0:0:
379,240,119780,1,0,0:0:0:0:
381,240,119900,1,0,0:0:0:0:
442,238,120020,1,8,0:0:0:0:
443,238,120140,1,8,0:0:0:0:
378,240,120260,1,0,0:0:0:0:
379,240,120380,1,0,0:0:0:0:
397,226,120500,1,8,0:0:0:0:
392,223,120620,1,0,0:0:0:0:
394,226,120740,1,8,0:0:0:0:
392,226,120860,1,8,0:0:0:0:
346,197,120980,1,4,0:0:0:0:
386,231,121220,1,0,0:0:0:0:
385,231,121340,1,0,0:0:0:0:
345,254,121460,1,8,0:0:0:0:
314,244,121700,1,0,0:0:0:0:
314,244,121820,1,0,0:0:0:0:
332,255,121940,1,8,0:0:0:0:
332,255,122060,1,8,0:0:0:0:
348,203,122180,1,0,0:0:0:0:
358,201,122300,1,0,0:0:0:0:
369,211,122420,1,8,0:0:0:0:
423,201,122660,1,0,0:0:0:0:
362,198,122780,1,8,0:0:0:0:
423,201,122900,1,0,0:0:0:0:
429,201,123020,1,0,0:0:0:0:
362,198,123140,1,8,0:0:0:0:
429,201,123260,1,0,0:0:0:0:
362,198,123380,1,8,0:0:0:0:
428,214,123620,1,0,0:0:0:0:
377,247,123740,1,8,0:0:0:0:
377,247,123860,1,8,0:0:0:0:
428,214,123980,1,0,0:0:0:0:
377,247,124100,1,8,0:0:0:0:
428,214,124220,1,0,0:0:0:0:
377,247,124340,1,8,0:0:0:0:
409,244,124580,1,8,0:0:0:0:
409,244,124700,1,8,0:0:0:0:
418,206,124820,1,0,0:0:0:0:
379,223,124940,1,8,0:0:0:0:
400,203,125060,1,0,0:0:0:0:
400,203,125180,1,0,0:0:0:0:
376,223,125300,1,8,0:0:0:0:
350,231,125540,1,0,0:0:0:0:
350,231,125660,1,0,0:0:0:0:
376,223,125780,1,8,0:0:0:0:
357,232,125900,1,0,0:0:0:0:
357,232,126020,1,0,0:0:0:0:
376,223,126140,1,8,0:0:0:0:
376,223,126260,1,8,0:0:0:0:
343,227,126500,1,0,0:0:0:0:
420,223,126620,1,0,0:0:0:0:
404,210,126740,1,8,0:0:0:0:
460,200,126980,1,0,0:0:0:0:
460,200,127220,1,0,0:0:0:0:
460,200,127460,1,0,0:0:0:0:
470,199,127700,1,8,0:0:0:0:
444,207,127940,1,0,0:0:0:0:
466,197,128180,1,8,0:0:0:0:
444,207,128420,1,0,0:0:0:0:
438,205,128480,1,0,0:0:0:0:
437,204,128540,1,0,0:0:0:0:
436,204,128600,1,0,0:0:0:0:
470,213,128660,1,8,0:0:0:0:
507,194,128780,1,8,0:0:0:0:
462,205,128900,1,0,0:0:0:0:
401,211,129020,1,0,0:0:0:0:
482,203,129140,1,8,0:0:0:0:
426,208,129380,1,8,0:0:0:0:
426,208,129410,1,8,0:0:0:0:
455,228,129500,1,0,0:0:0:0:
462,217,129530,1,0,0:0:0:0:
465,164,129620,1,8,0:0:0:0:
493,203,129740,1,8,0:0:0:0:
458,192,129860,1,0,0:0:0:0:
458,192,129980,1,0,0:0:0:0:
444,199,130100,1,8,0:0:0:0:
435,216,130160,1,8,0:0:0:0:
466,195,130220,1,0,0:0:0:0:
444,199,130340,1,8,0:0:0:0:
444,199,130460,1,8,0:0:0:0:
460,187,130580,1,0,0:0:0:0:
436,194,130820,1,8,0:0:0:0:
422,230,130880,1,8,0:0:0:0:
475,198,130940,1,0,0:0:0:0:
425,207,131000,1,0,0:0:0:0:
437,194,131060,1,8,0:0:0:0:
411,211,131180,1,0,0:0:0:0:
437,221,131300,1,8,0:0:0:0:
510,199,131420,1,8,0:0:0:0:
428,205,131540,1,0,0:0:0:0:
430,235,131660,1,8,0:0:0:0:
370,240,131780,1,0,0:0:0:0:
492,196,131900,1,0,0:0:0:0:
413,214,132020,1,8,0:0:0:0:
448,206,132260,1,8,0:0:0:0:
437,218,132500,1,0,0:0:0:0:
428,217,132620,1,0,0:0:0:0:
431,213,132740,1,8,0:0:0:0:
472,209,132860,1,0,0:0:0:0:
427,213,132980,1,8,0:0:0:0:
472,209,133040,1,8,0:0:0:0:
423,222,133100,1,0,0:0:0:0:
462,227,133160,1,8,0:0:0:0:
398,214,133220,1,0,0:0:0:0:
499,189,133340,1,8,0:0:0:0:
463,201,133460,1,0,0:0:0:0:
463,201,133580,1,0,0:0:0:0:
506,200,133700,1,8,0:0:0:0:
444,207,133820,1,0,0:0:0:0:
503,199,133940,1,8,0:0:0:0:
503,199,134000,1,8,0:0:0:0:
502,196,134060,1,0,0:0:0:0:
506,200,134180,1,8,0:0:0:0:
506,200,134300,1,8,0:0:0:0:
467,205,134420,1,0,0:0:0:0:
470,211,134540,1,8,0:0:0:0:
467,205,134660,1,0,0:0:0:0:
467,205,134780,1,0,0:0:0:0:
503,204,134900,1,8,0:0:0:0:
467,217,135020,1,8,0:0:0:0:
465,217,135140,1,8,0:0:0:0:
465,217,135200,1,8,0:0:0:0:
466,217,135260,1,8,0:0:0:0:
467,217,135320,1,8,0:0:0:0:
416,232,135380,1,0,0:0:0:0:
359,239,135620,1,8,0:0:0:0:
359,239,135740,1,8,0:0:0:0:
428,212,135860,1,0,0:0:0:0:
430,212,135980,1,0,0:0:0:0:
441,229,136100,1,12,0:0:0:0:
374,221,136340,1,4,0:0:0:0:
401,220,136580,1,8,0:0:0:0:
425,265,136640,1,8,0:0:0:0:
422,256,136700,1,0,0:0:0:0:
356,248,136760,1,0,0:0:0:0:
420,243,136820,1,8,0:0:0:0:
336,274,136940,1,0,0:0:0:0:
420,243,137000,1,8,0:0:0:0:
432,244,137120,1,8,0:0:0:0:
445,269,137180,1,0,0:0:0:0:
433,228,137240,1,0,0:0:0:0:
431,246,137300,1,8,0:0:0:0:
422,227,137360,1,0,0:0:0:0:
422,227,137480,1,0,0:0:0:0:
456,236,137540,1,8,0:0:0:0:
456,236,137660,1,0,0:0:0:0:
461,235,137720,1,0,0:0:0:0:
452,249,137780,1,8,0:0:0:0:
423,230,137840,1,0,0:0:0:0:
434,255,137900,1,8,0:0:0:0:
433,255,137960,1,8,0:0:0:0:
449,233,138020,1,0,0:0:0:0:
429,270,138140,1,8,0:0:0:0:
457,268,138260,1,0,0:0:0:0:
444,233,138320,1,8,0:0:0:0:
439,252,138440,1,8,0:0:0:0:
421,257,138500,1,0,0:0:0:0:
419,257,138560,1,0,0:0:0:0:
477,241,138620,1,8,0:0:0:0:
448,260,138680,1,0,0:0:0:0:
433,255,138740,1,8,0:0:0:0:
469,262,138860,1,0,0:0:0:0:
435,267,138920,1,0,0:0:0:0:
402,242,138980,1,8,0:0:0:0:
416,221,139060,1,0,0:0:0:0:
417,221,139140,1,0,0:0:0:0:
420,266,139220,1,8,0:0:0:0:
447,245,139280,1,0,0:0:0:0:
420,266,139340,1,8,0:0:0:0:
420,266,139400,1,8,0:0:0:0:
447,245,139460,1,0,0:0:0:0:
420,266,139520,1,8,0:0:0:0:
472,227,139580,1,0,0:0:0:0:
472,227,139620,1,0,0:0:0:0:
483,263,139660,1,0,0:0:0:0:
420,266,139700,1,8,0:0:0:0:
468,248,139820,1,0,0:0:0:0:
430,247,139940,1,8,0:0:0:0:
430,247,140000,1,8,0:0:0:0:
404,268,140060,1,0,0:0:0:0:
405,268,140120,1,0,0:0:0:0:
376,248,140180,1,12,0:0:0:0:
389,219,140300,1,0,0:0:0:0:
389,219,140360,1,0,0:0:0:0:
417,234,140420,1,8,0:0:0:0:
416,234,140480,1,8,0:0:0:0:
489,223,140540,1,0,0:0:0:0:
489,223,140600,1,0,0:0:0:0:
416,234,140660,1,8,0:0:0:0:
413,245,140740,1,0,0:0:0:0:
413,245,140820,1,0,0:0:0:0:
440,241,140900,1,8,0:0:0:0:
426,221,140980,1,8,0:0:0:0:
481,228,141060,1,0,0:0:0:0:
332,273,141140,1,8,0:0:0:0:
416,234,141260,1,8,0:0:0:0:
416,234,141320,1,8,0:0:0:0:
401,255,141380,1,0,0:0:0:0:
414,239,141440,1,8,0:0:0:0:
401,255,141500,1,0,0:0:0:0:
401,255,141560,1,0,0:0:0:0:
414,239,141620,1,8,0:0:0:0:
411,240,141740,1,0,0:0:0:0:
457,252,141800,1,8,0:0:0:0:
457,252,141920,1,0,0:0:0:0:
417,248,141980,1,8,0:0:0:0:
416,249,142040,1,8,0:0:0:0:
509,254,142100,1,0,0:0:0:0:
392,254,142220,1,8,0:0:0:0:
388,283,142280,1,0,0:0:0:0:
407,255,142400,1,8,0:0:0:0:
352,316,142460,1,0,0:0:0:0:
428,219,142580,1,8,0:0:0:0:
428,219,142640,1,8,0:0:0:0:
397,219,142700,1,0,0:0:0:0:
397,219,142760,1,0,0:0:0:0:
428,219,142820,1,8,0:0:0:0:
397,219,142880,1,0,0:0:0:0:
428,219,142940,1,8,0:0:0:0:
428,219,143000,1,8,0:0:0:0:
391,214,143060,1,0,0:0:0:0:
460,237,143180,1,0,0:0:0:0:
460,237,143240,1,0,0:0:0:0:
457,211,143300,1,8,0:0:0:0:
475,208,143420,1,0,0:0:0:0:
414,224,143540,1,8,0:0:0:0:
414,224,143600,1,8,0:0:0:0:
450,219,143660,1,0,0:0:0:0:
411,256,143780,1,12,0:0:0:0:
426,247,143900,1,0,0:0:0:0:
426,247,143960,1,0,0:0:0:0:
424,247,144020,1,0,0:0:0:0:
431,236,144200,1,0,0:0:0:0:
380,238,144320,1,8,0:0:0:0:
431,236,144380,1,0,0:0:0:0:
453,253,144500,1,8,0:0:0:0:
453,253,144560,1,8,0:0:0:0:
453,253,144620,1,8,0:0:0:0:
453,253,144680,1,8,0:0:0:0:
426,247,144740,1,0,0:0:0:0:
406,231,144860,1,0,0:0:0:0:
400,238,144980,1,8,0:0:0:0:
450,244,145040,1,0,0:0:0:0:
417,245,145100,1,8,0:0:0:0:
416,245,145220,1,8,0:0:0:0:
415,245,145280,1,8,0:0:0:0:
412,244,145340,1,0,0:0:0:0:
426,226,145400,1,0,0:0:0:0:
314,274,145460,1,8,0:0:0:0:
406,231,145580,1,0,0:0:0:0:
406,231,145620,1,0,0:0:0:0:
406,231,145660,1,0,0:0:0:0:
457,231,145700,1,8,0:0:0:0:
417,232,145820,1,8,0:0:0:0:
411,237,145940,1,0,0:0:0:0:
411,237,146000,1,0,0:0:0:0:
433,244,146060,1,8,0:0:0:0:
434,244,146120,1,8,0:0:0:0:
408,235,146180,1,0,0:0:0:0:
426,233,146240,1,8,0:0:0:0:
508,222,146300,1,0,0:0:0:0:
445,206,146420,1,8,0:0:0:0:
395,229,146480,1,0,0:0:0:0:
445,206,146540,1,8,0:0:0:0:
399,218,146660,1,8,0:0:0:0:
477,198,146720,1,0,0:0:0:0:
477,198,146780,1,0,0:0:0:0:
477,198,146840,1,0,0:0:0:0:
400,218,146900,1,8,0:0:0:0:
420,222,146960,1,8,0:0:0:0:
397,243,147020,1,0,0:0:0:0:
400,243,147080,1,0,0:0:0:0:
418,220,147140,1,8,0:0:0:0:
382,252,147260,1,0,0:0:0:0:
429,217,147380,1,8,0:0:0:0:
412,227,147440,1,8,0:0:0:0:
432,217,147500,1,8,0:0:0:0:
405,227,147620,1,0,0:0:0:0:
407,227,147740,1,0,0:0:0:0:
413,237,147860,1,8,0:0:0:0:
413,237,147890,1,8,0:0:0:0:
413,237,147980,1,8,0:0:0:0:
413,237,148010,1,8,0:0:0:0:
357,238,148100,1,0,0:0:0:0:
363,235,148130,1,0,0:0:0:0:
366,234,148220,1,0,0:0:0:0:
366,234,148250,1,0,0:0:0:0:
405,227,148340,1,8,0:0:0:0:
405,227,148400,1,8,0:0:0:0:
431,233,148460,1,0,0:0:0:0:
433,233,148520,1,0,0:0:0:0:
400,226,148580,1,8,0:0:0:0:
431,233,148700,1,0,0:0:0:0:
431,233,148760,1,0,0:0:0:0:
431,210,148820,1,8,0:0:0:0:
415,221,148940,1,8,0:0:0:0:
439,248,148970,1,8,0:0:0:0:
436,234,149060,1,0,0:0:0:0:
422,234,149120,1,0,0:0:0:0:
422,234,149180,1,0,0:0:0:0:
464,216,149300,1,8,0:0:0:0:
401,214,149360,1,0,0:0:0:0:
437,225,149420,1,8,0:0:0:0:
437,225,149480,1,8,0:0:0:0:
401,211,149540,1,0,0:0:0:0:
401,214,149600,1,0,0:0:0:0:
445,223,149660,1,8,0:0:0:0:
461,229,149720,1,0,0:0:0:0:
445,223,149780,1,8,0:0:0:0:
391,215,149900,1,0,0:0:0:0:
391,215,150020,1,0,0:0:0:0:
391,215,150140,1,0,0:0:0:0:
439,175,150260,1,12,0:0:0:0:
376,206,150500,1,0,0:0:0:0:
375,205,150620,1,0,0:0:0:0:
413,192,150740,1,8,0:0:0:0:
388,224,150860,1,0,0:0:0:0:
413,192,150920,1,8,0:0:0:0:
388,224,150980,1,0,0:0:0:0:
388,224,151040,1,0,0:0:0:0:
406,190,151100,1,8,0:0:0:0:
455,224,151160,1,0,0:0:0:0:
406,190,151220,1,8,0:0:0:0:
425,209,151340,1,0,0:0:0:0:
425,209,151400,1,0,0:0:0:0:
408,206,151460,1,8,0:0:0:0:
408,206,151580,1,8,0:0:0:0:
416,203,151700,1,4,0:0:0:0:
440,210,151940,1,8,0:0:0:0:
447,210,152060,1,8,0:0:0:0:
373,192,152180,1,0,0:0:0:0:
395,205,152240,1,0,0:0:0:0:
436,215,152300,1,8,0:0:0:0:
446,215,152360,1,8,0:0:0:0:
451,203,152420,1,0,0:0:0:0:
449,214,152600,1,8,0:0:0:0:
463,214,152660,1,0,0:0:0:0:
446,220,152780,1,0,0:0:0:0:
446,220,152840,1,0,0:0:0:0:
421,227,152900,1,8,0:0:0:0:
436,215,153020,1,8,0:0:0:0:
506,223,153140,1,0,0:0:0:0:
455,214,153200,1,0,0:0:0:0:
391,217,153260,1,8,0:0:0:0:
440,227,153320,1,0,0:0:0:0:
423,256,153380,1,8,0:0:0:0:
445,232,153500,1,8,0:0:0:0:
448,232,153560,1,8,0:0:0:0:
451,244,153620,1,0,0:0:0:0:
476,244,153740,1,0,0:0:0:0:
458,226,153860,1,8,0:0:0:0:
445,222,153980,1,0,0:0:0:0:
455,248,154100,1,8,0:0:0:0:
453,248,154160,1,8,0:0:0:0:
449,225,154220,1,0,0:0:0:0:
449,225,154280,1,0,0:0:0:0:
452,247,154340,1,8,0:0:0:0:
452,247,154460,1,8,0:0:0:0:
451,247,154520,1,8,0:0:0:0:
450,225,154580,1,0,0:0:0:0:
491,221,154700,1,0,0:0:0:0:
464,245,154820,1,8,0:0:0:0:
486,221,154940,1,0,0:0:0:0:
482,220,155060,1,0,0:0:0:0:
468,209,155180,1,8,0:0:0:0:
443,212,155300,1,8,0:0:0:0:
486,217,155420,1,0,0:0:0:0:
437,216,155540,1,8,0:0:0:0:
402,227,155600,1,8,0:0:0:0:
454,221,155660,1,0,0:0:0:0:
402,227,155780,1,8,0:0:0:0:
435,221,155840,1,0,0:0:0:0:
402,227,155900,1,8,0:0:0:0:
435,221,156020,1,0,0:0:0:0:
408,240,156080,1,8,0:0:0:0:
435,221,156140,1,0,0:0:0:0:
403,245,156260,1,8,0:0:0:0:
394,231,156320,1,0,0:0:0:0:
403,245,156380,1,8,0:0:0:0:
462,215,156440,1,0,0:0:0:0:
403,245,156500,1,8,0:0:0:0:
425,220,156620,1,0,0:0:0:0:
450,217,156740,1,8,0:0:0:0:
389,235,156800,1,0,0:0:0:0:
451,217,156860,1,8,0:0:0:0:
402,228,156980,1,8,0:0:0:0:
401,228,157040,1,8,0:0:0:0:
345,237,157100,1,0,0:0:0:0:
397,240,157220,1,8,0:0:0:0:
345,237,157340,1,0,0:0:0:0:
395,264,157460,1,8,0:0:0:0:
395,256,157520,1,8,0:0:0:0:
395,256,157580,1,8,0:0:0:0:
394,256,157640,1,8,0:0:0:0:
501,217,157700,1,0,0:0:0:0:
401,228,157820,1,0,0:0:0:0:
363,232,157940,1,8,0:0:0:0:
362,231,158000,1,8,0:0:0:0:
467,196,158060,1,0,0:0:0:0:
467,196,158120,1,0,0:0:0:0:
363,232,158180,1,8,0:0:0:0:
374,209,158300,1,0,0:0:0:0:
372,209,158360,1,0,0:0:0:0:
414,219,158420,1,8,0:0:0:0:
401,228,158480,1,0,0:0:0:0:
401,228,158600,1,0,0:0:0:0:
414,219,158660,1,8,0:0:0:0:
347,247,158780,1,8,0:0:0:0:
348,247,158840,1,8,0:0:0:0:
420,226,158900,1,0,0:0:0:0:
358,256,159020,1,8,0:0:0:0:
408,216,159140,1,0,0:0:0:0:
347,247,159200,1,8,0:0:0:0:
370,229,159320,1,8,0:0:0:0:
361,211,159380,1,0,0:0:0:0:
449,241,159500,1,8,0:0:0:0:
439,251,159620,1,0,0:0:0:0:
442,244,159680,1,8,0:0:0:0:
466,250,159740,1,0,0:0:0:0:
479,240,159860,1,8,0:0:0:0:
476,240,159980,1,8,0:0:0:0:
476,240,160040,1,8,0:0:0:0:
434,234,160100,1,0,0:0:0:0:
435,233,160160,1,0,0:0:0:0:
474,240,160220,1,8,0:0:0:0:
435,230,160340,1,8,0:0:0:0:
480,221,160400,1,0,0:0:0:0:
455,232,160460,1,8,0:0:0:0:
384,234,160580,1,0,0:0:0:0:
384,234,160640,1,0,0:0:0:0:
447,228,160700,1,8,0:0:0:0:
447,228,160760,1,8,0:0:0:0:
437,226,160820,1,0,0:0:0:0:
485,232,160880,1,8,0:0:0:0:
437,226,160940,1,0,0:0:0:0:
498,231,161060,1,8,0:0:0:0:
408,235,161180,1,0,0:0:0:0:
459,234,161300,1,8,0:0:0:0:
457,237,161420,1,0,0:0:0:0:
455,237,161480,1,0,0:0:0:0:
401,240,161540,1,8,0:0:0:0:
454,237,161600,1,0,0:0:0:0:
402,240,161660,1,8,0:0:0:0:
447,220,161780,1,0,0:0:0:0:
391,227,161840,1,8,0:0:0:0:
451,220,161900,1,0,0:0:0:0:
508,227,162020,1,8,0:0:0:0:
508,227,162080,1,8,0:0:0:0:
483,222,162140,1,0,0:0:0:0:
483,222,162200,1,0,0:0:0:0:
508,227,162260,1,8,0:0:0:0:
508,227,162320,1,8,0:0:0:0:
493,222,162380,1,0,0:0:0:0:
477,217,162500,1,8,0:0:0:0:
461,221,162560,1,8,0:0:0:0:
476,216,162620,1,8,0:0:0:0:
418,238,162740,1,0,0:0:0:0:
424,239,162800,1,0,0:0:0:0:
424,239,162860,1,0,0:0:0:0:
424,239,162920,1,0,0:0:0:0:
506,227,162980,1,8,0:0:0:0:
392,201,163100,1,0,0:0:0:0:
392,201,163220,1,0,0:0:0:0:
487,244,163280,1,8,0:0:0:0:
392,201,163340,1,0,0:0:0:0:
426,231,163460,1,8,0:0:0:0:
487,227,163520,1,0,0:0:0:0:
488,228,163580,1,0,0:0:0:0:
489,228,163640,1,0,0:0:0:0:
424,229,163700,1,8,0:0:0:0:
479,230,163820,1,0,0:0:0:0:
382,228,163940,1,8,0:0:0:0:
466,229,164000,1,0,0:0:0:0:
343,231,164060,1,8,0:0:0:0:
382,228,164180,1,8,0:0:0:0:
382,228,164240,1,8,0:0:0:0:
448,211,164300,1,0,0:0:0:0:
414,222,164420,1,8,0:0:0:0:
466,241,164600,1,0,0:0:0:0:
414,222,164660,1,8,0:0:0:0:
447,266,164780,1,0,0:0:0:0:
447,266,164840,1,0,0:0:0:0:
349,257,164900,1,8,0:0:0:0:
455,227,165020,1,0,0:0:0:0:
456,239,165140,1,8,0:0:0:0:
429,232,165260,1,0,0:0:0:0:
452,238,165320,1,8,0:0:0:0:
429,232,165380,1,0,0:0:0:0:
431,232,165440,1,0,0:0:0:0:
452,238,165500,1,8,0:0:0:0:
408,241,165620,1,8,0:0:0:0:
429,232,165680,1,0,0:0:0:0:
408,241,165740,1,8,0:0:0:0:
441,212,165860,1,0,0:0:0:0:
458,210,165920,1,0,0:0:0:0:
421,240,165980,1,8,0:0:0:0:
435,212,166100,1,0,0:0:0:0:
437,212,166220,1,0,0:0:0:0:
390,234,166340,1,8,0:0:0:0:
426,218,166460,1,0,0:0:0:0:
384,238,166580,1,8,0:0:0:0:
435,229,166700,1,0,0:0:0:0:
435,229,166760,1,0,0:0:0:0:
382,238,166820,1,8,0:0:0:0:
426,224,166940,1,8,0:0:0:0:
426,218,167060,1,4,0:0:0:0:
428,214,167300,1,8,0:0:0:0:
426,214,167540,1,8,0:0:0:0:
426,218,167780,1,8,0:0:0:0:
418,208,168020,1,8,0:0:0:0:
418,207,168260,1,8,0:0:0:0:
418,207,168500,1,8,0:0:0:0:
418,208,168740,1,8,0:0:0:0:
412,213,168980,1,4,0:0:0:0:
440,229,169220,1,8,0:0:0:0:
440,229,169460,1,8,0:0:0:0:
440,229,169700,1,8,0:0:0:0:
440,229,169940,1,8,0:0:0:0:
440,229,170180,1,8,0:0:0:0:
440,229,170420,1,8,0:0:0:0:
440,229,170660,1,8,0:0:0:0:
442,201,170900,1,4,0:0:0:0:
431,234,171020,1,8,0:0:0:0:
382,211,171140,1,0,0:0:0:0:
424,232,171260,1,8,0:0:0:0:
382,211,171380,1,0,0:0:0:0:
423,232,171500,1,8,0:0:0:0:
382,211,171620,1,0,0:0:0:0:
423,233,171740,1,8,0:0:0:0:
409,206,171860,1,4,0:0:0:0:
424,232,171980,1,8,0:0:0:0:
438,211,172100,1,0,0:0:0:0:
423,232,172220,1,8,0:0:0:0:
438,211,172340,1,0,0:0:0:0:
423,233,172460,1,8,0:0:0:0:
437,211,172580,1,0,0:0:0:0:
424,232,172700,1,8,0:0:0:0:
476,229,172820,1,0,0:0:0:0:
464,273,172880,1,0,0:0:0:0:
418,207,172940,1,8,0:0:0:0:
354,244,173000,1,8,0:0:0:0:
497,231,173060,1,0,0:0:0:0:
495,231,173120,1,0,0:0:0:0:
494,231,173180,1,0,0:0:0:0:
494,231,173240,1,0,0:0:0:0:
486,234,173300,1,8,0:0:0:0:
486,234,173360,1,8,0:0:0:0:
476,234,173420,1,0,0:0:0:0:
471,233,173480,1,0,0:0:0:0:
452,258,173540,1,8,0:0:0:0:
451,258,173600,1,8,0:0:0:0:
449,258,173660,1,8,0:0:0:0:
452,258,173720,1,8,0:0:0:0:
469,210,173780,1,0,0:0:0:0:
256,192,174020,12,0,174620,0:0:0:0:
375,218,174740,5,0,0:0:0:0:
404,191,174860,1,8,0:0:0:0:
457,207,174920,1,0,0:0:0:0:
387,254,175100,1,0,0:0:0:0:
368,256,175160,1,0,0:0:0:0:
377,272,175220,1,8,0:0:0:0:
455,235,175310,1,8,0:0:0:0:
441,246,175400,1,0,0:0:0:0:
487,237,175460,1,8,0:0:0:0:
463,227,175580,1,0,0:0:0:0:
466,226,175640,1,0,0:0:0:0:
433,230,175700,1,8,0:0:0:0:
368,246,175760,1,0,0:0:0:0:
433,230,175820,1,8,0:0:0:0:
370,246,175880,1,0,0:0:0:0:
433,230,175940,1,8,0:0:0:0:
384,250,176060,1,8,0:0:0:0:
384,250,176120,1,8,0:0:0:0:
441,246,176180,1,0,0:0:0:0:
463,227,176240,1,8,0:0:0:0:
405,235,176360,1,0,0:0:0:0:
460,225,176420,1,8,0:0:0:0:
376,247,176660,1,4,0:0:0:0:
365,251,176900,1,8,0:0:0:0:
365,251,176960,1,8,0:0:0:0:
367,246,177020,1,0,0:0:0:0:
369,247,177080,1,0,0:0:0:0:
256,244,177140,1,8,0:0:0:0:
376,247,177260,1,0,0:0:0:0:
365,251,177380,1,8,0:0:0:0:
365,251,177440,1,8,0:0:0:0:
377,246,177500,1,0,0:0:0:0:
366,236,177620,1,8,0:0:0:0:
374,258,177740,1,0,0:0:0:0:
374,258,177800,1,0,0:0:0:0:
366,236,177860,1,8,0:0:0:0:
366,236,177920,1,8,0:0:0:0:
374,258,177980,1,0,0:0:0:0:
374,258,178040,1,0,0:0:0:0:
366,236,178100,1,8,0:0:0:0:
374,258,178220,1,0,0:0:0:0:
307,260,178340,1,8,0:0:0:0:
374,258,178400,1,0,0:0:0:0:
307,260,178460,1,8,0:0:0:0:
307,260,178520,1,8,0:0:0:0:
367,241,178580,1,0,0:0:0:0:
399,231,178700,1,0,0:0:0:0:
307,260,178820,1,8,0:0:0:0:
307,260,178880,1,8,0:0:0:0:
399,231,178940,1,0,0:0:0:0:
399,231,179000,1,0,0:0:0:0:
307,260,179060,1,8,0:0:0:0:
439,217,179180,1,0,0:0:0:0:
382,232,179300,1,8,0:0:0:0:
394,237,179360,1,0,0:0:0:0:
383,232,179420,1,8,0:0:0:0:
451,202,179540,1,0,0:0:0:0:
429,204,179600,1,0,0:0:0:0:
429,204,179660,1,0,0:0:0:0:
432,204,179720,1,0,0:0:0:0:
371,250,179780,1,8,0:0:0:0:
447,214,179900,1,0,0:0:0:0:
396,246,180020,1,8,0:0:0:0:
479,217,180140,1,0,0:0:0:0:
368,198,180200,1,0,0:0:0:0:
425,216,180260,1,8,0:0:0:0:
457,209,180320,1,0,0:0:0:0:
469,201,180380,1,8,0:0:0:0:
465,201,180440,1,8,0:0:0:0:
429,216,180500,1,0,0:0:0:0:
282,264,180620,1,0,0:0:0:0:
502,198,180740,1,8,0:0:0:0:
470,209,180800,1,8,0:0:0:0:
314,224,180860,1,0,0:0:0:0:
314,224,180920,1,0,0:0:0:0:
442,216,180980,1,8,0:0:0:0:
398,239,181100,1,0,0:0:0:0:
390,212,181220,1,8,0:0:0:0:
390,212,181280,1,8,0:0:0:0:
398,239,181340,1,0,0:0:0:0:
371,209,181460,1,8,0:0:0:0:
374,223,181580,1,0,0:0:0:0:
376,223,181640,1,0,0:0:0:0:
369,207,181700,1,8,0:0:0:0:
379,223,181760,1,0,0:0:0:0:
369,207,181820,1,8,0:0:0:0:
425,212,181880,1,0,0:0:0:0:
369,207,181940,1,8,0:0:0:0:
372,221,182060,1,0,0:0:0:0:
378,229,182180,1,8,0:0:0:0:
372,230,182240,1,8,0:0:0:0:
374,231,182300,1,8,0:0:0:0:
374,223,182360,1,0,0:0:0:0:
382,229,182420,1,8,0:0:0:0:
393,223,182540,1,0,0:0:0:0:
372,230,182660,1,8,0:0:0:0:
372,230,182720,1,8,0:0:0:0:
406,263,182780,1,0,0:0:0:0:
406,263,182840,1,0,0:0:0:0:
399,231,182900,1,8,0:0:0:0:
447,240,183020,1,0,0:0:0:0:
389,236,183140,1,8,0:0:0:0:
422,241,183200,1,0,0:0:0:0:
353,251,183260,1,8,0:0:0:0:
458,236,183380,1,0,0:0:0:0:
333,250,183440,1,8,0:0:0:0:
384,252,183500,1,0,0:0:0:0:
382,252,183560,1,0,0:0:0:0:
333,250,183620,1,8,0:0:0:0:
410,261,183740,1,0,0:0:0:0:
402,245,183860,1,8,0:0:0:0:
402,245,183980,1,8,0:0:0:0:
403,245,184040,1,8,0:0:0:0:
409,244,184100,1,0,0:0:0:0:
373,252,184220,1,8,0:0:0:0:
384,223,184340,1,0,0:0:0:0:
384,223,184400,1,0,0:0:0:0:
387,245,184460,1,8,0:0:0:0:
354,233,184580,1,8,0:0:0:0:
384,223,184700,1,0,0:0:0:0:
384,223,184760,1,0,0:0:0:0:
359,234,184820,1,8,0:0:0:0:
359,234,184940,1,8,0:0:0:0:
366,204,185060,1,0,0:0:0:0:
366,204,185180,1,0,0:0:0:0:
351,218,185300,1,8,0:0:0:0:
350,218,185360,1,8,0:0:0:0:
333,232,185420,1,0,0:0:0:0:
334,232,185480,1,0,0:0:0:0:
350,218,185540,1,8,0:0:0:0:
350,218,185600,1,8,0:0:0:0:
332,232,185660,1,0,0:0:0:0:
350,218,185780,1,8,0:0:0:0:
333,232,185840,1,0,0:0:0:0:
350,218,185900,1,8,0:0:0:0:
349,218,185960,1,8,0:0:0:0:
334,232,186020,1,0,0:0:0:0:
369,197,186140,1,8,0:0:0:0:
442,226,186260,1,0,0:0:0:0:
442,226,186320,1,0,0:0:0:0:
389,214,186380,1,8,0:0:0:0:
377,244,186500,1,8,0:0:0:0:
426,223,186620,1,0,0:0:0:0:
428,223,186680,1,0,0:0:0:0:
377,244,186740,1,8,0:0:0:0:
421,224,186860,1,0,0:0:0:0:
360,231,186980,1,8,0:0:0:0:
359,231,187040,1,8,0:0:0:0:
342,245,187100,1,0,0:0:0:0:
320,241,187160,1,0,0:0:0:0:
352,234,187220,1,8,0:0:0:0:
342,245,187340,1,0,0:0:0:0:
342,245,187400,1,0,0:0:0:0:
343,246,187460,1,8,0:0:0:0:
406,242,187520,1,0,0:0:0:0:
376,247,187580,1,8,0:0:0:0:
376,247,187640,1,8,0:0:0:0:
344,246,187700,1,0,0:0:0:0:
332,242,187820,1,0,0:0:0:0:
320,241,187940,1,8,0:0:0:0:
320,240,188000,1,8,0:0:0:0:
321,240,188060,1,8,0:0:0:0:
321,240,188120,1,8,0:0:0:0:
425,240,188180,1,0,0:0:0:0:
425,240,188300,1,0,0:0:0:0:
416,232,188420,1,8,0:0:0:0:
417,232,188480,1,8,0:0:0:0:
425,240,188540,1,0,0:0:0:0:
416,232,188660,1,8,0:0:0:0:
414,224,188720,1,0,0:0:0:0:
416,232,188780,1,8,0:0:0:0:
416,232,188840,1,8,0:0:0:0:
414,224,188900,1,0,0:0:0:0:
407,227,189020,1,0,0:0:0:0:
412,226,189080,1,0,0:0:0:0:
374,210,189140,1,8,0:0:0:0:
344,216,189260,1,0,0:0:0:0:
339,250,189380,1,8,0:0:0:0:
335,255,189440,1,8,0:0:0:0:
414,224,189500,1,0,0:0:0:0:
432,215,189560,1,0,0:0:0:0:
349,237,189620,1,8,0:0:0:0:
448,195,189740,1,0,0:0:0:0:
333,197,189860,1,8,0:0:0:0:
403,191,189980,1,8,0:0:0:0:
403,191,190040,1,8,0:0:0:0:
365,194,190100,1,0,0:0:0:0:
378,197,190220,1,0,0:0:0:0:
395,192,190340,1,8,0:0:0:0:
366,200,190460,1,0,0:0:0:0:
366,200,190520,1,0,0:0:0:0:
368,188,190580,1,8,0:0:0:0:
365,200,190640,1,0,0:0:0:0:
368,188,190700,1,8,0:0:0:0:
376,235,190820,1,0,0:0:0:0:
376,235,190940,1,0,0:0:0:0:
406,229,191060,1,8,0:0:0:0:
406,229,191120,1,8,0:0:0:0:
341,226,191180,1,0,0:0:0:0:
341,226,191240,1,0,0:0:0:0:
406,229,191300,1,8,0:0:0:0:
336,214,191420,1,0,0:0:0:0:
416,232,191480,1,8,0:0:0:0:
336,214,191540,1,0,0:0:0:0:
359,239,191660,1,8,0:0:0:0:
362,239,191720,1,8,0:0:0:0:
360,214,191780,1,0,0:0:0:0:
376,210,191900,1,0,0:0:0:0:
448,222,192020,1,8,0:0:0:0:
412,216,192140,1,0,0:1:0:0:
411,216,192200,1,0,0:1:0:0:
250,220,192260,1,8,0:1:0:0:
400,183,192380,1,0,0:1:0:0:
412,216,192500,1,8,0:1:0:0:
419,217,192560,1,8,0:1:0:0:
424,235,192620,1,0,0:1:0:0:
418,256,192680,1,0,0:1:0:0:
427,204,192740,1,8,0:1:0:0:
447,210,192860,1,0,0:1:0:0:
378,223,192980,1,8,0:1:0:0:
386,223,193040,1,8,0:1:0:0:
431,187,193100,1,0,0:1:0:0:
386,223,193220,1,8,0:1:0:0:
425,217,193340,1,0,0:1:0:0:
425,217,193400,1,0,0:1:0:0:
434,199,193460,1,8,0:1:0:0:
443,219,193520,1,0,0:1:0:0:
438,194,193580,1,8,0:1:0:0:
442,193,193640,1,8,0:1:0:0:
429,220,193700,1,0,0:1:0:0:
433,200,193820,1,8,0:1:0:0:
459,198,193940,1,0,0:1:0:0:
457,198,194060,1,0,0:1:0:0:
456,198,194120,1,0,0:1:0:0:
362,237,194180,1,8,0:1:0:0:
454,208,194300,1,0,0:1:0:0:
424,219,194420,1,8,0:1:0:0:
451,217,194480,1,0,0:1:0:0:
451,217,194540,1,0,0:1:0:0:
451,217,194600,1,0,0:1:0:0:
441,206,194660,1,8,0:1:0:0:
418,222,194780,1,0,0:1:0:0:
434,249,194900,1,8,0:1:0:0:
411,220,194960,1,8,0:1:0:0:
444,217,195020,1,0,0:1:0:0:
434,249,195140,1,8,0:1:0:0:
477,211,195260,1,0,0:1:0:0:
451,217,195380,1,8,0:1:0:0:
476,197,195440,1,8,0:1:0:0:
472,197,195500,1,8,0:1:0:0:
470,199,195560,1,8,0:1:0:0:
384,217,195620,1,0,0:1:0:0:
509,198,195740,1,0,0:1:0:0:
389,189,195860,1,8,0:1:0:0:
399,199,195980,1,0,0:1:0:0:
399,199,196040,1,0,0:1:0:0:
398,199,196100,1,8,0:1:0:0:
392,218,196220,1,0,0:1:0:0:
397,199,196340,1,8,0:1:0:0:
399,199,196400,1,8,0:1:0:0:
395,216,196460,1,0,0:1:0:0:
399,199,196520,1,8,0:1:0:0:
395,216,196580,1,0,0:1:0:0:
309,227,196700,1,8,0:1:0:0:
408,226,196820,1,0,0:1:0:0:
408,243,196940,1,8,0:1:0:0:
355,232,197000,1,0,0:1:0:0:
403,243,197060,1,8,0:1:0:0:
346,232,197180,1,0,0:1:0:0:
417,240,197300,1,8,0:1:0:0:
400,240,197360,1,8,0:1:0:0:
353,215,197420,1,0,0:1:0:0:
354,215,197480,1,0,0:1:0:0:
400,240,197540,1,8,0:1:0:0:
332,233,197660,1,0,0:1:0:0:
417,240,197780,1,8,0:1:0:0:
358,239,197900,1,0,0:1:0:0:
352,215,197960,1,0,0:1:0:0:
125,228,198020,1,8,0:1:0:0:
367,218,198140,1,0,0:1:0:0:
408,210,198260,1,8,0:1:0:0:
408,210,198320,1,8,0:1:0:0:
421,206,198380,1,0,0:1:0:0:
421,233,198500,1,8,0:1:0:0:
366,218,198620,1,0,0:1:0:0:
384,238,198740,1,8,0:1:0:0:
406,218,198800,1,0,0:1:0:0:
394,232,198860,1,0,0:1:0:0:
394,232,198920,1,0,0:1:0:0:
463,214,198980,1,8,0:1:0:0:
397,221,199100,1,0,0:1:0:0:
397,221,199160,1,0,0:1:0:0:
266,213,199220,1,8,0:1:0:0:
469,247,199340,1,8,0:1:0:0:
469,247,199400,1,8,0:1:0:0:
474,211,199460,1,0,0:1:0:0:
450,221,199580,1,0,0:1:0:0:
463,214,199700,1,8,0:1:0:0:
450,234,199820,1,0,0:1:0:0:
358,210,199940,1,8,0:1:0:0:
450,234,200000,1,0,0:1:0:0:
452,268,200060,1,8,0:1:0:0:
418,222,200180,1,0,0:1:0:0:
376,215,200300,1,8,0:1:0:0:
378,218,200360,1,8,0:1:0:0:
418,222,200420,1,0,0:1:0:0:
388,231,200540,1,8,0:1:0:0:
380,238,200660,1,0,0:1:0:0:
380,238,200780,1,0,0:1:0:0:
373,231,200840,1,0,0:1:0:0:
269,264,200900,1,8,0:1:0:0:
320,239,201020,1,0,0:1:0:0:
320,261,201140,1,8,0:1:0:0:
414,216,201260,1,8,0:0:0:0:
320,239,201320,1,0,0:1:0:0:
264,232,201380,1,8,0:1:0:0:
417,220,201440,1,8,0:0:0:0:
469,200,201500,1,0,0:0:0:0:
357,229,201560,1,8,0:1:0:0:
396,277,201620,1,0,0:1:0:0:
395,224,201740,1,0,0:1:0:0:
443,206,201860,1,8,0:1:0:0:
454,205,201920,1,8,0:1:0:0:
463,200,201980,1,0,0:1:0:0:
363,243,202100,1,0,0:1:0:0:
348,240,202220,1,8,0:1:0:0:
351,231,202280,1,8,0:1:0:0:
363,243,202340,1,0,0:1:0:0:
418,245,202400,1,0,0:1:0:0:
351,231,202460,1,8,0:1:0:0:
435,218,202580,1,0,0:1:0:0:
437,218,202700,1,0,0:1:0:0:
443,218,202760,1,0,0:1:0:0:
407,235,202820,1,8,0:1:0:0:
435,218,202940,1,0,0:1:0:0:
411,190,203060,1,8,0:1:0:0:
411,190,203120,1,8,0:1:0:0:
411,190,203180,1,8,0:1:0:0:
411,190,203240,1,8,0:1:0:0:
446,220,203300,1,0,0:1:0:0:
437,218,203420,1,0,0:1:0:0:
377,230,203540,1,8,0:1:0:0:
377,230,203600,1,8,0:1:0:0:
421,218,203660,1,0,0:1:0:0:
413,218,203780,1,0,0:1:0:0:
448,235,203900,1,8,0:1:0:0:
437,235,203960,1,8,0:1:0:0:
363,246,204020,1,0,0:1:0:0:
362,246,204080,1,0,0:1:0:0:
448,235,204140,1,8,0:1:0:0:
361,246,204260,1,0,0:1:0:0:
366,244,204380,1,8,0:0:0:0:
363,246,204440,1,8,0:0:0:0:
436,214,204500,1,0,0:0:0:0:
459,219,204620,1,8,0:0:0:0:
416,228,204740,1,0,0:0:0:0:
431,225,204800,1,0,0:0:0:0:
369,239,204860,1,8,0:1:0:0:
369,239,204920,1,8,0:1:0:0:
386,234,204980,1,0,0:1:0:0:
369,239,205100,1,8,0:1:0:0:
460,246,205220,1,0,0:1:0:0:
458,246,205280,1,0,0:1:0:0:
347,283,205340,1,8,0:1:0:0:
386,264,205460,1,0,0:1:0:0:
380,279,205580,1,0,0:1:0:0:
425,237,205700,1,8,0:1:0:0:
436,210,205760,1,8,0:1:0:0:
420,220,205820,1,0,0:1:0:0:
417,231,205940,1,8,0:1:0:0:
390,235,206060,1,0,0:1:0:0:
390,235,206120,1,0,0:1:0:0:
412,236,206180,1,8,0:1:0:0:
391,235,206240,1,0,0:1:0:0:
412,236,206300,1,8,0:1:0:0:
390,235,206420,1,0,0:1:0:0:
390,235,206540,1,0,0:1:0:0:
424,234,206660,1,8,0:1:0:0:
454,218,206780,1,0,0:1:0:0:
448,217,206840,1,0,0:1:0:0:
429,234,206900,1,8,0:1:0:0:
446,217,207020,1,0,0:1:0:0:
439,212,207140,1,8,0:1:0:0:
441,212,207200,1,8,0:1:0:0:
446,217,207260,1,0,0:1:0:0:
446,217,207320,1,0,0:1:0:0:
442,212,207380,1,8,0:1:0:0:
442,223,207500,1,0,0:1:0:0:
437,212,207620,1,8,0:1:0:0:
390,237,207680,1,8,0:1:0:0:
445,223,207740,1,0,0:1:0:0:
390,237,207860,1,8,0:1:0:0:
360,262,207980,1,0,0:1:0:0:
291,272,208040,1,0,0:1:0:0:
390,237,208100,1,8,0:1:0:0:
509,233,208220,1,8,0:1:0:0:
476,232,208280,1,8,0:1:0:0:
360,262,208340,1,0,0:1:0:0:
422,228,208460,1,0,0:1:0:0:
413,270,208580,1,8,0:1:0:0:
422,228,208700,1,0,0:1:0:0:
413,251,208820,1,8,0:1:0:0:
443,252,208880,1,0,0:1:0:0:
410,251,208940,1,8,0:1:0:0:
476,232,209000,1,8,0:1:0:0:
443,252,209060,1,0,0:1:0:0:
365,200,209180,1,0,0:1:0:0:
443,222,209240,1,0,0:1:0:0:
362,255,209300,1,8,0:1:0:0:
464,291,209420,1,0,0:1:0:0:
362,255,209540,1,8,0:1:0:0:
494,242,209600,1,0,0:0:0:0:
468,230,209660,1,8,0:0:0:0:
491,243,209780,1,0,0:0:0:0:
472,204,209900,1,8,0:0:0:0:
480,216,209960,1,8,0:0:0:0:
463,247,210020,1,0,0:1:0:0:
478,217,210080,1,0,0:0:0:0:
505,212,210140,1,8,0:0:0:0:
469,216,210260,1,0,0:0:0:0:
490,215,210380,1,0,0:1:0:0:
466,215,210440,1,0,0:0:0:0:
435,233,210500,1,8,0:1:0:0:
490,215,210620,1,0,0:1:0:0:
437,232,210740,1,8,0:1:0:0:
419,213,210800,1,8,0:0:0:0:
428,223,210860,1,0,0:0:0:0:
489,228,210980,1,8,0:1:0:0:
471,222,211100,1,0,0:1:0:0:
472,222,211160,1,0,0:1:0:0:
489,228,211220,1,8,0:1:0:0:
505,228,211340,1,0,0:1:0:0:
456,234,211460,1,8,0:1:0:0:
471,222,211520,1,0,0:1:0:0:
453,234,211580,1,8,0:1:0:0:
461,215,211700,1,0,0:1:0:0:
453,234,211820,1,8,0:1:0:0:
453,234,211880,1,8,0:1:0:0:
461,215,211940,1,0,0:1:0:0:
461,215,212000,1,0,0:1:0:0:
456,234,212060,1,8,0:1:0:0:
461,215,212180,1,0,0:1:0:0:
497,202,212300,1,8,0:1:0:0:
497,202,212360,1,8,0:1:0:0:
461,215,212420,1,0,0:1:0:0:
482,222,212540,1,0,0:1:0:0:
423,244,212660,1,8,0:1:0:0:
423,244,212720,1,8,0:1:0:0:
423,244,212780,1,8,0:1:0:0:
423,244,212840,1,8,0:1:0:0:
508,220,212900,1,0,0:1:0:0:
443,241,213020,1,0,0:1:0:0:
418,243,213140,1,8,0:1:0:0:
451,188,213200,1,8,0:0:0:0:
420,222,213260,1,0,0:0:0:0:
494,222,213380,1,8,0:1:0:0:
417,248,213500,1,0,0:1:0:0:
417,248,213560,1,0,0:1:0:0:
423,244,213620,1,8,0:1:0:0:
455,240,213740,1,0,0:1:0:0:
422,243,213800,1,8,0:1:0:0:
456,238,213860,1,0,0:1:0:0:
456,238,213920,1,0,0:1:0:0:
423,244,213980,1,8,0:1:0:0:
455,240,214100,1,0,0:1:0:0:
384,270,214220,1,8,0:1:0:0:
384,270,214280,1,8,0:1:0:0:
455,240,214340,1,0,0:1:0:0:
439,236,214460,1,0,0:1:0:0:
384,270,214580,1,8,0:1:0:0:
445,235,214640,1,0,0:1:0:0:
384,270,214700,1,8,0:1:0:0:
440,240,214820,1,0,0:1:0:0:
440,240,214880,1,0,0:1:0:0:
468,258,214940,1,8,0:1:0:0:
470,258,215000,1,8,0:1:0:0:
440,240,215060,1,0,0:1:0:0:
343,255,216740,1,8,0:0:0:0:
431,251,216920,1,8,0:0:0:0:
343,255,216980,1,0,0:0:0:0:
411,230,217220,1,0,0:0:0:0:
411,230,217340,1,0,0:0:0:0:
418,230,217580,1,0,0:0:0:0:
390,258,217820,1,8,0:0:0:0:
382,254,218060,1,0,0:0:0:0:
382,254,218180,1,0,0:0:0:0:
382,254,218300,1,0,0:0:0:0:
390,258,218420,1,8,0:0:0:0:
376,252,218660,1,0,0:0:0:0:
376,252,218780,1,0,0:0:0:0:
403,243,218900,1,8,0:0:0:0:
403,243,218960,1,8,0:0:0:0:
428,220,219020,1,0,0:0:0:0:
453,213,219140,1,0,0:0:0:0:
367,240,219260,1,8,0:0:0:0:
378,240,219320,1,8,0:0:0:0:
350,203,219380,1,0,0:0:0:0:
399,191,219500,1,8,0:0:0:0:
399,191,219560,1,8,0:0:0:0:
369,229,219620,1,0,0:0:0:0:
378,184,219680,1,0,0:0:0:0:
399,191,219740,1,8,0:0:0:0:
367,232,219860,1,8,0:0:0:0:
375,211,219920,1,0,0:0:0:0:
376,234,219980,1,0,0:0:0:0:
378,234,220100,1,0,0:0:0:0:
365,232,220220,1,8,0:0:0:0:
372,211,220280,1,0,0:0:0:0:
383,234,220340,1,0,0:0:0:0:
432,223,220460,1,8,0:0:0:0:
431,213,220520,1,0,0:0:0:0:
433,223,220580,1,8,0:0:0:0:
437,222,220640,1,8,0:0:0:0:
406,220,220700,1,0,0:0:0:0:
432,223,220820,1,8,0:0:0:0:
432,197,220880,1,8,0:0:0:0:
453,226,220940,1,0,0:0:0:0:
476,200,221060,1,8,0:0:0:0:
454,200,221180,1,8,0:0:0:0:
456,201,221240,1,8,0:0:0:0:
419,193,221300,1,0,0:0:0:0:
402,203,221420,1,8,0:0:0:0:
311,205,221540,1,0,0:0:0:0:
291,204,221600,1,0,0:0:0:0:
414,200,221660,1,8,0:0:0:0:
311,205,221780,1,0,0:0:0:0:
397,208,221900,1,8,0:0:0:0:
357,228,221960,1,0,0:0:0:0:
395,208,222020,1,8,0:0:0:0:
395,208,222080,1,8,0:0:0:0:
357,228,222140,1,0,0:0:0:0:
357,228,222200,1,0,0:0:0:0:
395,208,222260,1,8,0:0:0:0:
391,231,222380,1,8,0:0:0:0:
357,228,222500,1,0,0:0:0:0:
389,193,222620,1,0,0:0:0:0:
391,198,222740,1,8,0:0:0:0:
395,198,222800,1,8,0:0:0:0:
403,207,222860,1,0,0:0:0:0:
405,207,222980,1,0,0:0:0:0:
415,217,223100,1,8,0:0:0:0:
418,217,223160,1,8,0:0:0:0:
428,203,223220,1,0,0:0:0:0:
414,216,223340,1,8,0:0:0:0:
403,220,223400,1,8,0:0:0:0:
403,220,223460,1,8,0:0:0:0:
396,225,223520,1,0,0:0:0:0:
414,216,223580,1,8,0:0:0:0:
460,210,223700,1,8,0:0:0:0:
389,225,223760,1,0,0:0:0:0:
389,225,223820,1,0,0:0:0:0:
425,211,223940,1,0,0:0:0:0:
414,216,224060,1,8,0:0:0:0:
425,211,224120,1,0,0:0:0:0:
425,211,224180,1,0,0:0:0:0:
397,214,224300,1,8,0:0:0:0:
454,205,224360,1,0,0:0:0:0:
397,214,224420,1,8,0:0:0:0:
419,220,224480,1,8,0:0:0:0:
456,205,224540,1,0,0:0:0:0:
442,224,224660,1,8,0:0:0:0:
442,224,224720,1,8,0:0:0:0:
395,219,224780,1,0,0:0:0:0:
442,224,224900,1,8,0:0:0:0:
465,207,225020,1,8,0:0:0:0:
463,207,225080,1,8,0:0:0:0:
327,218,225140,1,0,0:0:0:0:
463,207,225260,1,8,0:0:0:0:
418,220,225380,1,0,0:0:0:0:
449,221,225440,1,0,0:0:0:0:
472,207,225500,1,8,0:0:0:0:
446,201,225620,1,0,0:0:0:0:
475,212,225740,1,8,0:0:0:0:
475,212,225800,1,8,0:0:0:0:
441,229,225860,1,0,0:0:0:0:
475,212,225920,1,8,0:0:0:0:
442,229,225980,1,0,0:0:0:0:
444,229,226040,1,0,0:0:0:0:
475,212,226100,1,8,0:0:0:0:
406,232,226220,1,8,0:0:0:0:
360,247,226340,1,0,0:0:0:0:
360,247,226400,1,0,0:0:0:0:
406,232,226460,1,8,0:0:0:0:
312,248,226520,1,0,0:0:0:0:
406,232,226580,1,8,0:0:0:0:
360,247,226700,1,0,0:0:0:0:
411,235,226820,1,8,0:0:0:0:
411,235,226880,1,8,0:0:0:0:
365,246,226940,1,0,0:0:0:0:
360,247,227000,1,0,0:0:0:0:
416,235,227060,1,8,0:0:0:0:
336,244,227180,1,0,0:0:0:0:
409,235,227300,1,8,0:0:0:0:
336,244,227360,1,0,0:0:0:0:
411,235,227420,1,8,0:0:0:0:
336,244,227540,1,0,0:0:0:0:
336,244,227600,1,0,0:0:0:0:
411,235,227660,1,8,0:0:0:0:
311,244,227720,1,0,0:0:0:0:
406,235,227780,1,8,0:0:0:0:
334,214,227840,1,8,0:0:0:0:
382,196,227900,1,0,0:0:0:0:
334,214,228020,1,8,0:0:0:0:
424,213,228080,1,8,0:0:0:0:
328,242,228140,1,0,0:0:0:0:
357,214,228260,1,8,0:0:0:0:
327,242,228380,1,0,0:0:0:0:
340,214,228440,1,0,0:0:0:0:
414,219,228500,1,8,0:0:0:0:
339,233,228620,1,0,0:0:0:0:
404,229,228740,1,8,0:0:0:0:
356,205,228800,1,0,0:0:0:0:
356,205,228860,1,0,0:0:0:0:
356,205,228920,1,0,0:0:0:0:
441,231,228980,1,8,0:0:0:0:
401,207,229100,1,0,0:0:0:0:
329,255,229220,1,8,0:0:0:0:
389,205,229280,1,0,0:0:0:0:
333,277,229340,1,8,0:0:0:0:
363,242,229460,1,0,0:0:0:0:
363,242,229520,1,0,0:0:0:0:
329,249,229580,1,8,0:0:0:0:
329,249,229640,1,8,0:0:0:0:
363,242,229700,1,0,0:0:0:0:
329,249,229760,1,8,0:0:0:0:
363,242,229820,1,0,0:0:0:0:
342,249,229940,1,8,0:0:0:0:
368,229,230000,1,8,0:0:0:0:
471,179,230060,1,0,0:0:0:0:
510,207,230180,1,8,0:0:0:0:
441,216,230300,1,8,0:0:0:0:
407,220,230360,1,0,0:0:0:0:
441,216,230420,1,8,0:0:0:0:
390,218,230540,1,0,0:0:0:0:
399,255,230660,1,8,0:0:0:0:
399,255,230720,1,8,0:0:0:0:
425,210,230780,1,0,0:0:0:0:
426,210,230840,1,0,0:0:0:0:
390,252,230900,1,8,0:0:0:0:
386,223,231020,1,0,0:0:0:0:
390,247,231140,1,8,0:0:0:0:
469,218,231200,1,0,0:0:0:0:
438,221,231260,1,8,0:0:0:0:
397,241,231380,1,0,0:0:0:0:
397,241,231440,1,0,0:0:0:0:
470,229,231500,1,8,0:0:0:0:
432,224,231560,1,8,0:0:0:0:
386,243,231620,1,0,0:0:0:0:
385,243,231680,1,0,0:0:0:0:
431,224,231740,1,8,0:0:0:0:
430,223,231860,1,8,0:0:0:0:
417,207,231920,1,8,0:0:0:0:
402,224,231980,1,0,0:0:0:0:
405,210,232100,1,8,0:0:0:0:
448,211,232220,1,0,0:0:0:0:
452,211,232280,1,0,0:0:0:0:
402,210,232340,1,8,0:0:0:0:
437,204,232460,1,0,0:0:0:0:
328,240,232580,1,8,0:0:0:0:
502,220,232640,1,0,0:0:0:0:
502,220,232700,1,0,0:0:0:0:
502,220,232760,1,0,0:0:0:0:
328,240,232820,1,8,0:0:0:0:
502,220,232940,1,0,0:0:0:0:
446,227,233060,1,8,0:0:0:0:
472,219,233120,1,0,0:0:0:0:
448,227,233180,1,8,0:0:0:0:
418,221,233300,1,0,0:0:0:0:
446,227,233360,1,8,0:0:0:0:
423,221,233420,1,0,0:0:0:0:
423,221,233480,1,0,0:0:0:0:
446,227,233540,1,8,0:0:0:0:
423,221,233600,1,0,0:0:0:0:
446,227,233660,1,8,0:0:0:0:
446,227,233780,1,8,0:0:0:0:
446,227,233840,1,8,0:0:0:0:
423,221,233900,1,0,0:0:0:0:
360,239,234020,1,8,0:0:0:0:
404,220,234140,1,8,0:0:0:0:
414,221,234200,1,0,0:0:0:0:
360,239,234260,1,8,0:0:0:0:
437,230,234380,1,0,0:0:0:0:
379,242,234440,1,0,0:0:0:0:
407,243,234500,1,8,0:0:0:0:
407,243,234560,1,8,0:0:0:0:
378,242,234620,1,0,0:0:0:0:
378,242,234680,1,0,0:0:0:0:
447,227,234740,1,8,0:0:0:0:
408,257,234860,1,0,0:0:0:0:
403,243,234980,1,8,0:0:0:0:
412,257,235040,1,0,0:0:0:0:
403,243,235100,1,8,0:0:0:0:
460,247,235220,1,0,0:0:0:0:
459,247,235280,1,0,0:0:0:0:
449,238,235340,1,8,0:0:0:0:
459,247,235400,1,0,0:0:0:0:
465,234,235460,1,8,0:0:0:0:
466,233,235520,1,8,0:0:0:0:
460,247,235580,1,0,0:0:0:0:
431,245,235700,1,8,0:0:0:0:
424,244,235760,1,8,0:0:0:0:
357,239,235820,1,0,0:0:0:0:
69,227,235940,1,8,0:0:0:0:
357,239,236060,1,0,0:0:0:0:
357,239,236120,1,0,0:0:0:0:
417,241,236180,1,8,0:0:0:0:
415,238,236300,1,0,0:0:0:0:
415,238,236360,1,0,0:0:0:0:
397,222,236420,1,8,0:0:0:0:
399,222,236480,1,8,0:0:0:0:
399,222,236540,1,8,0:0:0:0:
417,241,236600,1,0,0:0:0:0:
396,222,236660,1,8,0:0:0:0:
345,266,236780,1,0,0:0:0:0:
443,221,236900,1,8,0:0:0:0:
405,194,236960,1,0,0:0:0:0:
443,221,237020,1,8,0:0:0:0:
346,250,237140,1,0,0:0:0:0:
346,250,237200,1,0,0:0:0:0:
408,247,237260,1,8,0:0:0:0:
408,247,237320,1,8,0:0:0:0:
347,250,237380,1,0,0:0:0:0:
408,247,237440,1,8,0:0:0:0:
341,249,237500,1,0,0:0:0:0:
350,267,237620,1,8,0:0:0:0:
348,267,237680,1,8,0:0:0:0:
417,226,237740,1,0,0:0:0:0:
347,267,237860,1,8,0:0:0:0:
453,221,237980,1,0,0:0:0:0:
453,221,238040,1,0,0:0:0:0:
348,267,238100,1,8,0:0:0:0:
376,215,238220,1,0,0:0:0:0:
376,215,238280,1,0,0:0:0:0:
463,226,238340,1,8,0:0:0:0:
376,215,238400,1,0,0:0:0:0:
376,215,238460,1,0,0:0:0:0:
376,215,238520,1,0,0:0:0:0:
475,222,238580,1,8,0:0:0:0:
385,275,238700,1,0,0:0:0:0:
463,226,238820,1,8,0:0:0:0:
493,233,238880,1,0,0:0:0:0:
463,226,238940,1,8,0:0:0:0:
343,252,239060,1,0,0:0:0:0:
343,252,239120,1,0,0:0:0:0:
398,228,239180,1,8,0:0:0:0:
398,228,239240,1,8,0:0:0:0:
382,256,239300,1,0,0:0:0:0:
343,252,239360,1,0,0:0:0:0:
398,228,239420,1,8,0:0:0:0:
398,228,239540,1,8,0:0:0:0:
398,228,239600,1,8,0:0:0:0:
343,252,239660,1,0,0:0:0:0:
398,228,239780,1,8,0:0:0:0:
343,252,239900,1,0,0:0:0:0:
343,252,239960,1,0,0:0:0:0:
398,228,240020,1,8,0:0:0:0:
362,249,240140,1,0,0:0:0:0:
343,252,240200,1,0,0:0:0:0:
406,229,240260,1,8,0:0:0:0:
351,243,240320,1,0,0:0:0:0:
407,229,240380,1,8,0:0:0:0:
351,243,240440,1,0,0:0:0:0:
409,229,240500,1,8,0:0:0:0:
431,251,240620,1,0,0:0:0:0:
398,228,240740,1,8,0:0:0:0:
431,251,240800,1,0,0:0:0:0:
397,228,240860,1,8,0:0:0:0:
393,253,240980,1,0,0:0:0:0:
329,267,241040,1,8,0:0:0:0:
393,253,241100,1,0,0:0:0:0:
393,253,241160,1,0,0:0:0:0:
339,268,241220,1,8,0:0:0:0:
393,253,241280,1,0,0:0:0:0:
323,272,241340,1,8,0:0:0:0:
462,237,241460,1,8,0:0:0:0:
462,237,241520,1,8,0:0:0:0:
363,241,241580,1,0,0:0:0:0:
363,241,241640,1,0,0:0:0:0:
462,237,241700,1,8,0:0:0:0:
363,241,241820,1,0,0:0:0:0:
418,257,241940,1,8,0:0:0:0:
419,257,242000,1,8,0:0:0:0:
404,245,242060,1,0,0:0:0:0:
445,251,242180,1,8,0:0:0:0:
486,234,242300,1,0,0:0:0:0:
419,271,242420,1,8,0:0:0:0:
401,250,242480,1,0,0:0:0:0:
419,271,242540,1,8,0:0:0:0:
419,271,242600,1,8,0:0:0:0:
355,252,242660,1,0,0:0:0:0:
451,238,242780,1,8,0:0:0:0:
388,261,242900,1,0,0:0:0:0:
385,261,242960,1,0,0:0:0:0:
384,261,243020,1,0,0:0:0:0:
442,234,243140,1,8,0:0:0:0:
383,261,243260,1,0,0:0:0:0:
425,237,243380,1,8,0:0:0:0:
425,237,243440,1,8,0:0:0:0:
488,234,243500,1,0,0:0:0:0:
476,236,243560,1,0,0:0:0:0:
425,237,243620,1,8,0:0:0:0:
464,226,243740,1,8,0:0:0:0:
466,226,243800,1,8,0:0:0:0:
443,238,243860,1,0,0:0:0:0:
445,238,243980,1,0,0:0:0:0:
462,226,244100,1,8,0:0:0:0:
454,238,244220,1,0,0:0:0:0:
456,238,244280,1,0,0:0:0:0:
457,226,244340,1,8,0:0:0:0:
458,238,244400,1,0,0:0:0:0:
457,226,244460,1,8,0:0:0:0:
457,226,244520,1,8,0:0:0:0:
465,238,244580,1,0,0:0:0:0:
395,255,244700,1,8,0:0:0:0:
383,239,244820,1,0,0:0:0:0:
438,226,244940,1,8,0:0:0:0:
415,266,245000,1,8,0:0:0:0:
384,240,245060,1,0,0:0:0:0:
392,241,245180,1,0,0:0:0:0:
332,246,245300,1,8,0:0:0:0:
332,246,245360,1,8,0:0:0:0:
346,250,245420,1,8,0:0:0:0:
357,252,245480,1,8,0:0:0:0:
390,241,245540,1,0,0:0:0:0:
369,221,245660,1,0,0:0:0:0:
419,232,245780,1,8,0:0:0:0:
419,232,245840,1,8,0:0:0:0:
379,249,245900,1,0,0:0:0:0:
419,232,246020,1,8,0:0:0:0:
489,208,246140,1,0,0:0:0:0:
436,227,246260,1,8,0:0:0:0:
439,227,246320,1,8,0:0:0:0:
441,234,246380,1,0,0:0:0:0:
443,226,246440,1,8,0:0:0:0:
439,234,246500,1,0,0:0:0:0:
419,232,246620,1,8,0:0:0:0:
481,221,246740,1,0,0:0:0:0:
481,221,246800,1,0,0:0:0:0:
485,220,246860,1,0,0:0:0:0:
498,223,246980,1,8,0:0:0:0:
420,240,247100,1,0,0:0:0:0:
434,263,247220,1,8,0:0:0:0:
464,218,247280,1,0,0:0:0:0:
465,218,247340,1,0,0:0:0:0:
466,218,247400,1,0,0:0:0:0:
434,263,247460,1,8,0:0:0:0:
457,214,247580,1,8,0:0:0:0:
459,214,247640,1,8,0:0:0:0:
464,218,247700,1,0,0:0:0:0:
394,231,247820,1,0,0:0:0:0:
447,212,247940,1,8,0:0:0:0:
416,233,248060,1,0,0:0:0:0:
440,221,248120,1,8,0:0:0:0:
441,237,248180,1,0,0:0:0:0:
438,237,248240,1,0,0:0:0:0:
440,221,248300,1,8,0:0:0:0:
438,237,248360,1,0,0:0:0:0:
441,221,248420,1,8,0:0:0:0:
296,250,248540,1,0,0:0:0:0:
451,217,248660,1,8,0:0:0:0:
383,245,248720,1,8,0:0:0:0:
383,245,248780,1,8,0:0:0:0:
383,245,248840,1,8,0:0:0:0:
395,261,248900,1,0,0:0:0:0:
387,257,249020,1,0,0:0:0:0:
361,252,249140,1,8,0:0:0:0:
418,266,249260,1,0,0:0:0:0:
419,266,249320,1,0,0:0:0:0:
361,252,249380,1,8,0:0:0:0:
470,240,249500,1,0,0:0:0:0:
450,250,249620,1,8,0:0:0:0:
468,247,249680,1,8,0:0:0:0:
401,274,249740,1,0,0:0:0:0:
287,260,249860,1,8,0:0:0:0:
485,225,249980,1,0,0:0:0:0:
476,253,250100,1,8,0:0:0:0:
437,225,250160,1,0,0:0:0:0:
496,179,250220,1,8,0:0:0:0:
389,245,250280,1,8,0:0:0:0:
434,215,250340,1,0,0:0:0:0:
404,264,250460,1,8,0:0:0:0:
458,230,250580,1,0,0:0:0:0:
404,264,250640,1,8,0:0:0:0:
468,232,250700,1,0,0:0:0:0:
433,246,250820,1,8,0:0:0:0:
474,218,250940,1,0,0:0:0:0:
439,232,251060,1,8,0:0:0:0:
437,232,251120,1,8,0:0:0:0:
486,204,251180,1,0,0:0:0:0:
487,204,251240,1,0,0:0:0:0:
437,232,251300,1,8,0:0:0:0:
389,245,251420,1,8,0:0:0:0:
300,172,251480,1,0,0:0:0:0:
474,218,251540,1,0,0:0:0:0:
436,220,251660,1,0,0:0:0:0:
406,227,251780,1,8,0:0:0:0:
386,198,251900,1,0,0:0:0:0:
386,198,251960,1,0,0:0:0:0:
447,214,252020,1,8,0:0:0:0:
451,212,252080,1,8,0:0:0:0:
386,198,252140,1,0,0:0:0:0:
414,210,252200,1,8,0:0:0:0:
386,198,252260,1,0,0:0:0:0:
403,210,252380,1,8,0:0:0:0:
431,211,252500,1,0,0:0:0:0:
453,220,252620,1,8,0:0:0:0:
506,207,252680,1,8,0:0:0:0:
435,211,252740,1,0,0:0:0:0:
462,224,252860,1,0,0:0:0:0:
476,214,252980,1,8,0:0:0:0:
463,225,253040,1,0,0:0:0:0:
463,225,253100,1,0,0:0:0:0:
463,225,253160,1,0,0:0:0:0:
477,214,253220,1,8,0:0:0:0:
451,228,253340,1,0,0:0:0:0:
477,205,253460,1,8,0:0:0:0:
488,210,253520,1,8,0:0:0:0:
390,215,253580,1,0,0:0:0:0:
457,224,253700,1,8,0:0:0:0:
396,192,253820,1,0,0:0:0:0:
457,215,253940,1,8,0:0:0:0:
398,224,254000,1,0,0:0:0:0:
445,214,254060,1,8,0:0:0:0:
399,224,254120,1,0,0:0:0:0:
444,214,254180,1,8,0:0:0:0:
407,223,254300,1,0,0:0:0:0:
412,220,254420,1,0,0:0:0:0:
215,267,254480,1,8,0:0:0:0:
411,220,254540,1,0,0:0:0:0:
390,232,254660,1,8,0:0:0:0:
398,212,254780,1,0,0:0:0:0:
406,233,254900,1,8,0:0:0:0:
403,233,254960,1,8,0:0:0:0:
471,218,255020,1,0,0:0:0:0:
479,217,255080,1,0,0:0:0:0:
402,232,255140,1,8,0:0:0:0:
495,213,255260,1,8,0:0:0:0:
476,232,255320,1,0,0:0:0:0:
442,227,255380,1,0,0:0:0:0:
475,232,255500,1,0,0:0:0:0:
452,198,255620,1,8,0:0:0:0:
316,235,255740,1,0,0:0:0:0:
322,237,255800,1,0,0:0:0:0:
392,223,255860,1,8,0:0:0:0:
392,223,255920,1,8,0:0:0:0:
322,237,255980,1,0,0:0:0:0:
322,237,256040,1,0,0:0:0:0:
392,223,256100,1,8,0:0:0:0:
471,236,256220,1,0,0:0:0:0:
418,233,256340,1,8,0:0:0:0:
418,233,256400,1,8,0:0:0:0:
418,233,256460,1,8,0:0:0:0:
418,233,256520,1,8,0:0:0:0:
454,229,256580,1,0,0:0:0:0:
383,239,256700,1,0,0:0:0:0:
407,205,256820,1,8,0:0:0:0:
366,210,256940,1,0,0:0:0:0:
366,210,257000,1,0,0:0:0:0:
377,223,257060,1,8,0:0:0:0:
377,223,257180,1,8,0:0:0:0:
377,205,257300,1,4,0:0:0:0:
395,211,258020,1,0,0:0:0:0:
390,195,258260,1,8,0:0:0:0:
395,211,258500,1,0,0:0:0:0:
395,211,258620,1,0,0:0:0:0:
403,184,258860,1,8,0:0:0:0:
361,223,259100,1,0,0:0:0:0:
421,186,259940,1,0,0:0:0:0:
405,188,260180,1,8,0:0:0:0:
448,188,260420,1,0,0:0:0:0:
405,188,260540,1,8,0:0:0:0:
448,188,260780,1,0,0:0:0:0:
380,207,261020,1,8,0:0:0:0:
410,192,261140,1,4,0:0:0:0:
350,209,262580,1,0,0:0:0:0:
350,209,262820,1,0,0:0:0:0:
402,211,263060,1,12,0:0:0:0:
394,223,263540,1,0,0:0:0:0:
320,220,263900,1,8,0:0:0:0:
386,226,264020,1,4,0:0:0:0:
394,223,264260,1,8,0:0:0:0:
427,212,264380,1,0,0:0:0:0:
395,222,264500,1,8,0:0:0:0:
398,226,264620,1,8,0:0:0:0:
396,226,264680,1,8,0:0:0:0:
461,222,264740,1,0,0:0:0:0:
406,222,264860,1,8,0:0:0:0:
411,223,264980,1,4,0:0:0:0:
420,232,265700,1,0,0:0:0:0:
467,210,265940,1,8,0:0:0:0:
420,232,266180,1,0,0:0:0:0:
420,232,266300,1,0,0:0:0:0:
416,226,266540,1,8,0:0:0:0:
452,221,266780,1,0,0:0:0:0:
394,212,266900,1,12,0:0:0:0:
369,241,267620,1,0,0:0:0:0:
320,231,267860,1,8,0:0:0:0:
361,223,268100,1,8,0:0:0:0:
297,247,268220,1,0,0:0:0:0:
297,247,268460,1,0,0:0:0:0:
396,233,268700,1,8,0:0:0:0:
242,271,268820,1,4,0:0:0:0:
371,234,269540,1,0,0:0:0:0:
356,228,269780,1,8,0:0:0:0:
373,201,270020,1,0,0:0:0:0:
390,219,270140,1,8,0:0:0:0:
366,218,270380,1,0,0:0:0:0:
355,219,270620,1,0,0:0:0:0:
396,207,270740,1,12,0:0:0:0:
353,209,271460,1,0,0:0:0:0:
259,215,271700,1,8,0:0:0:0:
304,204,271940,1,0,0:0:0:0:
304,204,272060,1,0,0:0:0:0:
351,215,272300,1,8,0:0:0:0:
369,215,272540,1,8,0:0:0:0:
367,202,272660,1,4,0:0:0:0:
402,208,272900,1,8,0:0:0:0:
402,208,273140,1,8,0:0:0:0:
363,206,273380,1,0,0:0:0:0:
392,211,273620,1,0,0:0:0:0:
323,221,273860,1,8,0:0:0:0:
323,221,274100,1,8,0:0:0:0:
373,200,274340,1,0,0:0:0:0:
361,212,274580,1,4,0:0:0:0:
355,209,274820,1,8,0:0:0:0:
355,209,275060,1,8,0:0:0:0:
384,188,275300,1,0,0:0:0:0:
373,193,275540,1,0,0:0:0:0:
399,192,275780,1,8,0:0:0:0:
395,195,276020,1,8,0:0:0:0:
396,220,276260,1,8,0:0:0:0:
400,219,276380,1,8,0:0:0:0:
410,196,276500,1,0,0:0:0:0:
410,196,276620,1,0,0:0:0:0:
410,196,276740,1,0,0:0:0:0:
410,196,276860,1,0,0:0:0:0:
410,196,276980,1,0,0:0:0:0:
410,196,277100,1,0,0:0:0:0:
410,196,277220,1,0,0:0:0:0:
410,196,277340,1,0,0:0:0:0:
355,218,277460,1,8,0:0:0:0:
355,218,277580,1,8,0:0:0:0:
355,218,277700,1,8,0:0:0:0:
355,218,277820,1,8,0:0:0:0:
355,218,277940,1,8,0:0:0:0:
355,218,278060,1,8,0:0:0:0:
355,218,278180,1,8,0:0:0:0:
355,218,278300,1,8,0:0:0:0:
337,188,278420,1,0,0:0:0:0:
337,188,278480,1,0,0:0:0:0:
374,183,278540,1,8,0:0:0:0:
374,183,278600,1,8,0:0:0:0:
327,183,278660,1,0,0:0:0:0:
360,182,278720,1,8,0:0:0:0:
327,183,278780,1,0,0:0:0:0:
327,183,278840,1,0,0:0:0:0:
360,182,278900,1,8,0:0:0:0:
358,182,278960,1,8,0:0:0:0:
328,183,279020,1,0,0:0:0:0:
331,183,279080,1,0,0:0:0:0:
358,182,279140,1,8,0:0:0:0:
331,183,279200,1,0,0:0:0:0:
331,183,279260,1,0,0:0:0:0:
333,183,279320,1,0,0:0:0:0:
321,182,279380,1,8,0:0:0:0:
328,193,279500,1,0,0:0:0:0:
320,183,279560,1,8,0:0:0:0:
400,198,279680,1,0,0:0:0:0:
320,183,279740,1,8,0:0:0:0:
371,210,279860,1,0,0:0:0:0:
371,210,279920,1,0,0:0:0:0:
371,210,279980,1,0,0:0:0:0:
322,188,280040,1,0,0:0:0:0:
401,219,280100,1,12,0:0:0:0:
371,210,280340,1,4,0:0:0:0:
386,215,280580,1,8,0:0:0:0:
422,209,280700,1,0,0:0:0:0:
423,209,280760,1,0,0:0:0:0:
386,215,280820,1,8,0:0:0:0:
332,208,280940,1,0,0:0:0:0:
340,209,281060,1,8,0:0:0:0:
409,195,281120,1,0,0:0:0:0:
340,209,281180,1,8,0:0:0:0:
340,209,281240,1,8,0:0:0:0:
440,210,281300,1,0,0:0:0:0:
446,204,281420,1,0,0:0:0:0:
453,188,281540,1,8,0:0:0:0:
452,188,281600,1,8,0:0:0:0:
493,192,281660,1,0,0:0:0:0:
452,180,281780,1,8,0:0:0:0:
487,186,281900,1,0,0:0:0:0:
489,186,281960,1,0,0:0:0:0:
448,181,282020,1,8,0:0:0:0:
458,194,282080,1,0,0:0:0:0:
477,170,282140,1,8,0:0:0:0:
469,183,282200,1,8,0:0:0:0:
469,199,282260,1,0,0:0:0:0:
476,199,282380,1,0,0:0:0:0:
430,183,282500,1,8,0:0:0:0:
464,230,282620,1,0,0:0:0:0:
331,198,282740,1,8,0:0:0:0:
331,198,282800,1,8,0:0:0:0:
483,186,282860,1,0,0:0:0:0:
485,186,282920,1,0,0:0:0:0:
331,198,282980,1,8,0:0:0:0:
419,206,283040,1,0,0:0:0:0:
385,199,283100,1,8,0:0:0:0:
385,199,283160,1,8,0:0:0:0:
467,198,283220,1,0,0:0:0:0:
425,177,283340,1,0,0:0:0:0:
449,198,283460,1,8,0:0:0:0:
369,212,283520,1,8,0:0:0:0:
425,177,283580,1,0,0:0:0:0:
452,233,283700,1,8,0:0:0:0:
426,192,283820,1,0,0:0:0:0:
425,192,283880,1,0,0:0:0:0:
322,155,283940,1,8,0:0:0:0:
371,186,284060,1,8,0:0:0:0:
399,176,284180,1,0,0:0:0:0:
386,177,284300,1,0,0:0:0:0:
369,177,284420,1,8,0:0:0:0:
291,187,284540,1,0,0:0:0:0:
406,229,284600,1,8,0:0:0:0:
366,223,284660,1,0,0:0:0:0:
411,187,284720,1,0,0:0:0:0:
369,177,284780,1,8,0:0:0:0:
400,201,284840,1,8,0:0:0:0:
291,187,284900,1,0,0:0:0:0:
335,175,285020,1,8,0:0:0:0:
291,187,285080,1,0,0:0:0:0:
356,191,285140,1,8,0:0:0:0:
309,159,285260,1,0,0:0:0:0:
336,159,285380,1,8,0:0:0:0:
336,159,285440,1,8,0:0:0:0:
344,204,285500,1,0,0:0:0:0:
336,159,285620,1,8,0:0:0:0:
346,204,285740,1,0,0:0:0:0:
348,204,285800,1,0,0:0:0:0:
339,193,285860,1,8,0:0:0:0:
407,187,285920,1,8,0:0:0:0:
371,206,285980,1,0,0:0:0:0:
339,193,286040,1,8,0:0:0:0:
407,187,286100,1,0,0:0:0:0:
367,180,286220,1,0,0:0:0:0:
240,200,286340,1,8,0:0:0:0:
437,227,286460,1,0,0:0:0:0:
437,227,286520,1,0,0:0:0:0:
434,209,286580,1,8,0:0:0:0:
378,205,286700,1,0,0:0:0:0:
413,206,286820,1,8,0:0:0:0:
423,213,286880,1,8,0:0:0:0:
383,199,286940,1,0,0:0:0:0:
383,199,287000,1,0,0:0:0:0:
430,212,287060,1,8,0:0:0:0:
389,221,287180,1,0,0:0:0:0:
410,212,287300,1,8,0:0:0:0:
410,212,287360,1,8,0:0:0:0:
463,198,287420,1,0,0:0:0:0:
413,212,287540,1,8,0:0:0:0:
417,209,287660,1,0,0:0:0:0:
390,221,287720,1,0,0:0:0:0:
404,209,287780,1,8,0:0:0:0:
453,210,287840,1,0,0:0:0:0:
378,210,287900,1,8,0:0:0:0:
390,221,288020,1,0,0:0:0:0:
364,216,288260,1,8,0:0:0:0:
392,210,288380,1,0,0:0:0:0:
359,216,288500,1,8,0:0:0:0:
390,210,288620,1,0,0:0:0:0:
432,201,288740,1,8,0:0:0:0:
423,200,288860,1,0,0:0:0:0:
423,200,288920,1,0,0:0:0:0:
419,203,288980,1,8,0:0:0:0:
467,214,289100,1,0,0:0:0:0:
487,188,289220,1,8,0:0:0:0:
443,223,289340,1,0,0:0:0:0:
415,207,289460,1,8,0:0:0:0:
416,232,289640,1,0,0:0:0:0:
387,212,289700,1,8,0:0:0:0:
411,232,289820,1,0,0:0:0:0:
415,261,289940,1,8,0:0:0:0:
406,251,290060,1,8,0:0:0:0:
405,251,290180,1,8,0:0:0:0:
405,251,290300,1,8,0:0:0:0:
453,228,290420,1,0,0:0:0:0:
453,228,290480,1,0,0:0:0:0:
453,228,290540,1,0,0:0:0:0:
453,228,290600,1,0,0:0:0:0:
414,211,290660,1,8,0:0:0:0:
414,211,290720,1,8,0:0:0:0:
414,211,290780,1,8,0:0:0:0:
414,211,290840,1,8,0:0:0:0:
414,211,290900,1,4,0:0:0:0:
410,221,291620,1,0,0:0:0:0:
410,221,291740,1,0,0:0:0:0:
420,215,291860,1,12,0:0:0:0:
432,228,292100,1,8,0:0:0:0:
448,200,292160,1,0,0:0:0:0:
462,214,292220,1,0,0:0:0:0:
471,211,292280,1,0,0:0:0:0:
414,230,292340,1,8,0:0:0:0:
423,224,292460,1,0,0:0:0:0:
455,193,292580,1,8,0:0:0:0:
434,207,292640,1,8,0:0:0:0:
432,209,292700,1,0,0:0:0:0:
435,210,292760,1,0,0:0:0:0:
434,207,292820,1,8,0:0:0:0:
395,195,292940,1,0,0:0:0:0:
431,204,293060,1,8,0:0:0:0:
416,220,293120,1,0,0:0:0:0:
428,204,293180,1,8,0:0:0:0:
428,204,293240,1,8,0:0:0:0:
416,219,293300,1,0,0:0:0:0:
427,207,293420,1,8,0:0:0:0:
396,210,293540,1,0,0:0:0:0:
396,210,293600,1,0,0:0:0:0:
416,204,293660,1,8,0:0:0:0:
416,205,293720,1,8,0:0:0:0:
395,210,293780,1,0,0:0:0:0:
437,206,293900,1,0,0:0:0:0:
399,210,294020,1,8,0:0:0:0:
398,210,294080,1,8,0:0:0:0:
419,214,294140,1,0,0:0:0:0:
416,214,294200,1,0,0:0:0:0:
396,210,294260,1,8,0:0:0:0:
382,206,294380,1,8,0:0:0:0:
396,211,294500,1,0,0:0:0:0:
395,210,294560,1,0,0:0:0:0:
382,206,294620,1,8,0:0:0:0:
391,203,294680,1,8,0:0:0:0:
320,219,294740,1,0,0:0:0:0:
398,210,294860,1,0,0:0:0:0:
327,227,294980,1,8,0:0:0:0:
338,226,295040,1,8,0:0:0:0:
367,218,295100,1,0,0:0:0:0:
367,218,295160,1,0,0:0:0:0:
339,226,295220,1,8,0:0:0:0:
420,215,295460,1,0,0:0:0:0:
420,215,295580,1,0,0:0:0:0:
414,211,295700,1,12,0:0:0:0:
393,211,295940,1,8,0:0:0:0:
401,224,296000,1,8,0:0:0:0:
384,229,296060,1,0,0:0:0:0:
452,219,296120,1,0,0:0:0:0:
393,211,296180,1,8,0:0:0:0:
422,212,296300,1,0,0:0:0:0:
444,219,296420,1,8,0:0:0:0:
443,219,296480,1,8,0:0:0:0:
443,219,296540,1,8,0:0:0:0:
457,216,296600,1,0,0:0:0:0:
442,219,296660,1,8,0:0:0:0:
444,229,296780,1,0,0:0:0:0:
408,223,296900,1,8,0:0:0:0:
374,233,296960,1,0,0:0:0:0:
407,223,297020,1,8,0:0:0:0:
407,223,297080,1,8,0:0:0:0:
362,239,297140,1,0,0:0:0:0:
394,211,297260,1,8,0:0:0:0:
472,244,297380,1,0,0:0:0:0:
472,244,297440,1,0,0:0:0:0:
413,238,297500,1,0,0:0:0:0:
443,240,297620,1,12,0:0:0:0:
372,236,297860,1,0,0:0:0:0:
349,241,297980,1,0,0:0:0:0:
443,240,298100,1,12,0:0:0:0:
372,236,298340,1,0,0:0:0:0:
372,236,298460,1,0,0:0:0:0:
455,232,298580,1,12,0:0:0:0:
437,229,298760,1,12,0:0:0:0:
434,229,298940,1,12,0:0:0:0:
448,243,299120,1,12,0:0:0:0:
449,247,299300,1,0,0:0:0:0:
451,247,299420,1,0,0:0:0:0:
474,223,299540,1,12,0:0:0:0:
453,231,299780,1,8,0:0:0:0:
462,231,299840,1,8,0:0:0:0:
460,216,299900,1,0,0:0:0:0:
459,217,299960,1,0,0:0:0:0:
446,237,300020,1,8,0:0:0:0:
446,237,300140,1,8,0:0:0:0:
480,205,300200,1,0,0:0:0:0:
443,237,300260,1,8,0:0:0:0:
455,226,300380,1,0,0:0:0:0:
474,210,300500,1,8,0:0:0:0:
474,210,300560,1,8,0:0:0:0:
476,220,300620,1,0,0:0:0:0:
491,224,300740,1,8,0:0:0:0:
446,237,300800,1,0,0:0:0:0:
488,224,300860,1,8,0:0:0:0:
488,224,300920,1,8,0:0:0:0:
443,237,300980,1,0,0:0:0:0:
416,241,301100,1,8,0:0:0:0:
442,235,301160,1,0,0:0:0:0:
416,241,301220,1,8,0:0:0:0:
441,222,301340,1,0,0:0:0:0:
406,227,301460,1,8,0:0:0:0:
431,231,301580,1,0,0:0:0:0:
431,231,301640,1,0,0:0:0:0:
403,229,301700,1,8,0:0:0:0:
431,231,301820,1,0,0:0:0:0:
433,241,301940,1,8,0:0:0:0:
429,241,302060,1,8,0:0:0:0:
464,238,302120,1,0,0:0:0:0:
429,241,302180,1,8,0:0:0:0:
452,233,302300,1,0,0:0:0:0:
403,245,302420,1,8,0:0:0:0:
402,245,302480,1,8,0:0:0:0:
448,227,302540,1,0,0:0:0:0:
448,227,302600,1,0,0:0:0:0:
403,245,302660,1,8,0:0:0:0:
449,227,302720,1,0,0:0:0:0:
449,227,302780,1,0,0:0:0:0:
406,241,302900,1,8,0:0:0:0:
435,231,302960,1,0,0:0:0:0:
406,241,303020,1,8,0:0:0:0:
416,239,303140,1,8,0:0:0:0:
414,239,303200,1,8,0:0:0:0:
448,227,303260,1,0,0:0:0:0:
380,230,303320,1,0,0:0:0:0:
346,247,303380,1,12,0:0:0:0:
429,228,303620,1,8,0:0:0:0:
468,229,303680,1,0,0:0:0:0:
474,217,303740,1,0,0:0:0:0:
474,217,303800,1,0,0:0:0:0:
427,227,303860,1,8,0:0:0:0:
429,217,303980,1,8,0:0:0:0:
496,228,304040,1,0,0:0:0:0:
428,217,304100,1,8,0:0:0:0:
448,258,304220,1,0,0:0:0:0:
493,217,304340,1,12,0:0:0:0:
456,230,304460,1,0,0:0:0:0:
464,181,304580,1,8,0:0:0:0:
425,212,304640,1,8,0:0:0:0:
426,235,304700,1,0,0:0:0:0:
444,222,304760,1,0,0:0:0:0:
423,208,304820,1,8,0:0:0:0:
458,219,304940,1,8,0:0:0:0:
428,233,305000,1,0,0:0:0:0:
458,219,305060,1,8,0:0:0:0:
420,250,305180,1,0,0:0:0:0:
422,203,305300,1,8,0:0:0:0:
418,203,305360,1,8,0:0:0:0:
470,214,305420,1,0,0:0:0:0:
419,203,305480,1,8,0:0:0:0:
470,214,305540,1,0,0:0:0:0:
470,213,305600,1,0,0:0:0:0:
410,226,305660,1,8,0:0:0:0:
425,223,305720,1,0,0:0:0:0:
408,225,305780,1,8,0:0:0:0:
456,214,305840,1,8,0:0:0:0:
419,232,305900,1,0,0:0:0:0:
419,232,305960,1,0,0:0:0:0:
510,216,306020,1,8,0:0:0:0:
365,234,306080,1,0,0:0:0:0:
452,220,306140,1,8,0:0:0:0:
389,224,306200,1,0,0:0:0:0:
480,222,306260,1,8,0:0:0:0:
424,209,306320,1,8,0:0:0:0:
439,233,306380,1,0,0:0:0:0:
285,157,306440,1,0,0:0:0:0:
360,199,306500,1,8,0:0:0:0:
436,234,306620,1,0,0:0:0:0:
443,226,306740,1,8,0:0:0:0:
442,226,306800,1,8,0:0:0:0:
452,220,306860,1,0,0:0:0:0:
470,231,306980,1,8,0:0:0:0:
482,241,307100,1,0,0:0:0:0:
434,249,307220,1,12,0:0:0:0:
386,236,307940,1,0,0:0:0:0:
446,226,308180,1,8,0:0:0:0:
407,218,308900,1,8,0:0:0:0:
384,241,309140,1,0,0:0:0:0:
441,215,309620,1,0,0:0:0:0:
406,218,310100,1,8,0:0:0:0:
397,229,310580,1,8,0:0:0:0:
396,229,310700,1,8,0:0:0:0:
398,244,310820,1,0,0:0:0:0:
401,254,311060,1,0,0:0:0:0:
407,257,311540,1,8,0:0:0:0:
363,242,311660,1,0,0:0:0:0:
244,261,311780,1,0,0:0:0:0:
405,268,312020,1,0,0:0:0:0:
390,227,312500,1,8,0:0:0:0:
390,227,312620,1,8,0:0:0:0:
413,235,312740,1,0,0:0:0:0:
390,227,312980,1,8,0:0:0:0:
356,241,313940,1,0,0:0:0:0:
356,241,314540,1,0,0:0:0:0:
384,245,314660,1,8,0:0:0:0:
384,245,314780,1,8,0:0:0:0:
356,241,314900,1,0,0:0:0:0:
349,227,315620,1,0,0:0:0:0:
373,245,315860,1,8,0:0:0:0:
373,211,316580,1,8,0:0:0:0:
371,216,316820,1,0,0:0:0:0:
387,230,317300,1,0,0:0:0:0:
387,212,317780,1,8,0:0:0:0:
351,217,318260,1,8,0:0:0:0:
351,217,318380,1,8,0:0:0:0:
400,201,318500,1,0,0:0:0:0:
469,216,318740,1,0,0:0:0:0:
441,198,319220,1,8,0:0:0:0:
406,216,319460,1,0,0:0:0:0:
457,202,319700,1,8,0:0:0:0:
452,201,319940,1,8,0:0:0:0:
400,215,320180,1,0,0:0:0:0:
378,230,320420,1,8,0:0:0:0:
400,215,320660,1,0,0:0:0:0:
378,230,321140,1,8,0:0:0:0:
390,231,321620,1,0,0:0:0:0:
