osu file format v14

[General]
AudioFilename: audio.mp3
AudioLeadIn: 0
PreviewTime: 277110
Countdown: 0
SampleSet: Soft
StackLeniency: 0.2
Mode: 0
LetterboxInBreaks: 0
WidescreenStoryboard: 0

[Editor]
Bookmarks: 17310,24990,32670,40350,49950,57630,65310,72990,90270,97950,98310,105630,113310,120990,128670,136350,151710,169230,170250,184350,192030,199710,218910,226590,241950,291870,299550
DistanceSpacing: 0.36
BeatDivisor: 3
GridSize: 8
TimelineZoom: 5.899997

[Metadata]
Title:katagiri wa Denki Kitsune no Yume o Miru ka?
TitleUnicode:かたぎりは電気狐の夢を見るか?
Artist:katagiri
ArtistUnicode:かたぎり
Creator:Breaking Bad
Version:DAYBREAK
Source:
Tags:tin frog xiqingwa ilay electronic mashup mashcore japanese miso-nicomi records Breakcore does dream of electric foxes jcore j-core M3 Autumn 2021 E-09 featured artist fa
BeatmapID:3921649
BeatmapSetID:1902178

[Difficulty]
HPDrainRate:4
CircleSize:4
OverallDifficulty:10
ApproachRate:10
SliderMultiplier:2.5
SliderTickRate:1

[Events]
//Background and Video events
0,0,"BG.jpg",0,0
//Break Periods
2,215260,216290
2,265240,266450
2,267160,268370
2,269080,270290
//Storyboard Layer 0 (Background)
//Storyboard Layer 1 (Fail)
//Storyboard Layer 2 (Pass)
//Storyboard Layer 3 (Foreground)
//Storyboard Layer 4 (Overlay)
//Storyboard Sound Samples

[TimingPoints]
980,240,4,2,11,70,1,0
980,-200,4,2,11,70,0,0
1220,-133.333333333333,4,2,22,70,0,0
1460,-400,4,2,33,70,0,0
1700,-66.6666666666667,4,2,1,90,0,0
2420,-100,4,2,1,90,0,0
2540,-80,4,2,1,90,0,0
2660,-66.6666666666667,4,2,1,90,0,0
2900,-133.333333333333,4,2,1,90,0,0
3140,-66.6666666666667,4,2,1,90,0,0
3380,-60.6060606060606,4,2,1,90,0,0
3620,-133.333333333333,4,2,1,90,0,0
4100,-50,4,2,1,90,0,0
4340,-66.6666666666667,4,2,1,90,0,0
4460,-100,4,2,1,90,0,0
4580,-66.6666666666667,4,2,1,90,0,0
4940,-100,4,2,1,90,0,0
5300,-200,4,2,1,90,0,0
5540,-133.333333333333,4,2,1,90,0,0
5780,-100,4,2,1,90,0,0
6020,-80,4,2,1,90,0,0
6140,-100,4,2,1,90,0,0
6260,-66.6666666666667,4,2,1,90,0,0
7340,-60.6060606060606,4,2,1,90,0,0
7580,-66.6666666666667,4,2,1,90,0,0
7700,-57.1428571428571,4,2,1,90,0,0
8300,-80,4,2,1,90,0,0
8420,-66.6666666666667,4,2,1,90,0,0
8540,-100,4,2,1,90,0,0
8780,-133.333333333333,4,2,1,90,0,0
8900,-100,4,2,1,90,0,0
9020,-80,4,2,1,90,0,0
9140,-66.6666666666667,4,2,1,90,0,0
9380,-50,4,2,1,90,0,0
9620,-100,4,2,1,90,0,0
9860,-80,4,2,1,90,0,0
10580,-133.333333333333,4,2,1,90,0,0
10820,-100,4,2,1,90,0,0
10940,-133.333333333333,4,2,1,90,0,0
11540,-80,4,2,1,90,0,0
11780,-57.1428571428571,4,2,1,90,0,0
12020,-66.6666666666667,4,2,1,90,0,0
12500,-57.1428571428571,4,2,1,90,0,0
12740,-66.6666666666667,4,2,1,90,0,0
12980,-57.1428571428571,4,2,1,90,0,0
13220,-66.6666666666667,4,2,1,90,0,0
13820,-80,4,2,1,90,0,0
13940,-57.1428571428571,4,2,1,90,0,0
14180,-80,4,2,1,90,0,0
14300,-66.6666666666667,4,2,1,90,0,0
14900,-57.1428571428571,4,2,1,90,0,0
15140,-80,4,2,1,90,0,0
15620,-400,4,2,1,90,0,0
15860,-100,4,2,1,90,0,0
16100,-200,4,2,1,90,0,0
16340,-133.333333333333,4,2,1,90,0,0
16460,-100,4,2,1,90,0,0
16580,-80,4,2,1,90,0,0
16700,-66.6666666666667,4,2,1,90,0,0
16940,-133.333333333333,4,2,1,90,0,0
17060,-57.1428571428571,4,2,1,90,0,0
17540,-66.6666666666667,4,2,1,90,0,0
17780,-57.1428571428571,4,2,1,90,0,0
18020,-50,4,2,1,90,0,0
18260,-100,4,2,1,90,0,0
18500,-66.6666666666667,4,2,1,90,0,0
18740,-57.1428571428571,4,2,1,90,0,0
18980,-133.333333333333,4,2,1,90,0,0
19220,-66.6666666666667,4,2,1,90,0,0
19460,-66.6666666666667,4,2,1,90,0,0
19820,-133.333333333333,4,2,1,90,0,0
20300,-80,4,2,1,90,0,0
20900,-57.1428571428571,4,2,1,90,0,0
21260,-66.6666666666667,4,2,1,90,0,0
21620,-57.1428571428571,4,2,1,90,0,0
21860,-50,4,2,1,90,0,0
22100,-100,4,2,1,90,0,0
22340,-66.6666666666667,4,2,1,90,0,0
22580,-57.1428571428571,4,2,1,90,0,0
22820,-133.333333333333,4,2,1,90,0,0
23060,-66.6666666666667,4,2,1,90,0,0
23300,-50,4,2,1,90,0,0
23660,-100,4,2,1,90,0,0
24020,-80,4,2,1,90,0,0
24260,-66.6666666666667,4,2,1,90,0,0
24740,-44.4444444444445,4,2,1,90,0,0
24980,-23.8095238095238,4,2,1,90,0,0
25340,-66.6666666666667,4,2,1,90,0,0
25460,-52.6315789473684,4,2,1,90,0,0
25700,-133.333333333333,4,2,1,90,0,0
25820,-66.6666666666667,4,2,1,90,0,0
26060,-200,4,2,1,90,0,0
26300,-80,4,2,1,90,0,0
26420,-51.2820512820513,4,2,1,90,0,0
26900,-50,4,2,1,90,0,0
27140,-66.6666666666667,4,2,1,90,0,0
27260,-100,4,2,1,90,0,0
27380,-57.1428571428571,4,2,1,90,0,0
27740,-100,4,2,1,90,0,0
27860,-66.6666666666667,4,2,1,90,0,0
28220,-100,4,2,1,90,0,0
28340,-66.6666666666667,4,2,1,90,0,0
28580,-57.1428571428571,4,2,1,90,0,0
29060,-66.6666666666667,4,2,1,90,0,0
29540,-54.054054054054,4,2,1,90,0,0
30020,-66.6666666666667,4,2,1,90,0,0
30260,-133.333333333333,4,2,1,90,0,0
30500,-80,4,2,1,90,0,0
30740,-50,4,2,1,90,0,0
30980,-133.333333333333,4,2,1,90,0,0
31100,-57.1428571428571,4,2,1,90,0,0
31220,-66.6666666666667,4,2,1,90,0,0
31460,-100,4,2,1,90,0,0
31700,-57.1428571428571,4,2,1,90,0,0
32180,-66.6666666666667,4,2,1,90,0,0
32300,-100,4,2,1,90,0,0
32420,-50,4,2,1,90,0,0
32660,-57.1428571428571,4,2,1,90,0,0
33140,-50,4,2,1,90,0,0
33620,-66.6666666666667,4,2,1,90,0,0
33980,-100,4,2,1,90,0,0
34100,-57.1428571428571,4,2,1,90,0,0
34340,-66.6666666666667,4,2,1,90,0,0
34580,-50,4,2,1,90,0,0
34820,-54.054054054054,4,2,1,90,0,0
35300,-66.6666666666667,4,2,1,90,0,0
35540,-100,4,2,1,90,0,0
35660,-66.6666666666667,4,2,1,90,0,0
36500,-57.1428571428571,4,2,1,90,0,0
36980,-200,4,2,1,90,0,0
37220,-57.1428571428571,4,2,1,90,0,0
37700,-66.6666666666667,4,2,1,90,0,0
37940,-57.1428571428571,4,2,1,90,0,0
38180,-80,4,2,1,90,0,0
38420,-66.6666666666667,4,2,1,90,0,0
38660,-80,4,2,1,90,0,0
38900,-57.1428571428571,4,2,1,90,0,0
39140,-50,4,2,1,90,0,0
39380,-66.6666666666667,4,2,1,90,0,0
39860,-57.1428571428571,4,2,1,90,0,0
40220,-133.333333333333,4,2,1,90,0,0
40340,-66.6666666666667,4,2,1,90,0,0
40580,-57.1428571428571,4,2,1,90,0,0
40820,-66.6666666666667,4,2,1,90,0,0
41420,-133.333333333333,4,2,1,90,0,0
41540,-80,4,2,1,90,0,0
41660,-66.6666666666667,4,2,1,90,0,0
41780,-50,4,2,1,90,0,0
42020,-66.6666666666667,4,2,1,90,0,0
42260,-71.4285714285714,4,2,1,90,0,0
42380,-57.1428571428571,4,2,1,90,0,0
42500,-66.6666666666667,4,2,1,90,0,0
42620,-100,4,2,1,90,0,0
42860,-50,4,2,1,90,0,0
43100,-57.1428571428571,4,2,1,90,0,0
43340,-133.333333333333,4,2,1,90,0,0
43460,-88.4955752212389,4,2,1,90,0,0
43580,-66.6666666666667,4,2,1,90,0,0
43940,-57.1428571428571,4,2,1,90,0,0
44300,-50,4,2,1,90,0,0
44540,-66.6666666666667,4,2,1,90,0,0
44660,-57.1428571428571,4,2,1,90,0,0
45020,-133.333333333333,4,2,1,90,0,0
45380,-66.6666666666667,4,2,1,90,0,0
45620,-80,4,2,1,90,0,0
45860,-100,4,2,1,90,0,0
46100,-66.6666666666667,4,2,1,90,0,0
46460,-50,4,2,1,90,0,0
46700,-66.6666666666667,4,2,1,90,0,0
46940,-57.1428571428571,4,2,1,90,0,0
47060,-100,4,2,1,90,0,0
47300,-57.1428571428571,4,2,1,90,0,0
47780,-66.6666666666667,4,2,1,90,0,0
48260,-100,4,2,1,90,0,0
48500,-133.333333333333,4,2,1,90,0,0
48860,-166.666666666667,4,2,1,90,0,0
49460,-79.9999999999999,4,2,1,90,0,0
49700,-57.1428571428571,4,2,1,90,0,0
50180,-80,4,2,1,90,0,0
50660,-100,4,2,1,90,0,0
50780,-66.6666666666667,4,2,1,90,0,0
51020,-57.1428571428571,4,2,1,90,0,0
51260,-66.6666666666667,4,2,1,90,0,0
51380,-55.5555555555556,4,2,1,90,0,0
51620,-80,4,2,1,90,0,0
51740,-66.6666666666667,4,2,1,90,0,0
51980,-133.333333333333,4,2,1,90,0,0
52100,-50,4,2,1,90,0,0
52580,-100,4,2,1,90,0,0
52940,-80,4,2,1,90,0,0
53180,-66.6666666666667,4,2,1,90,0,0
53300,-100,4,2,1,90,0,0
53540,-66.6666666666667,4,2,1,90,0,0
53780,-50,4,2,1,90,0,0
54020,-80,4,2,1,90,0,0
54140,-66.6666666666667,4,2,1,90,0,0
54380,-100,4,2,1,90,0,0
54620,-66.6666666666667,4,2,1,90,0,0
54740,-57.1428571428571,4,2,1,90,0,0
55460,-80,4,2,1,90,0,0
55700,-66.6666666666667,4,2,1,90,0,0
55940,-100,4,2,1,90,0,0
56420,-80,4,2,1,90,0,0
56660,-57.1428571428571,4,2,1,90,0,0
57020,-133.333333333333,4,2,1,90,0,0
57140,-80,4,2,1,90,0,0
57260,-57.1428571428571,4,2,1,90,0,0
57620,-80,4,2,1,90,0,0
57860,-54.054054054054,4,2,1,90,0,0
58100,-80,4,2,1,90,0,0
58340,-66.6666666666667,4,2,1,90,0,0
58460,-133.333333333333,4,2,1,90,0,0
58580,-57.1428571428571,4,2,1,90,0,0
58820,-50,4,2,1,90,0,0
59300,-133.333333333333,4,2,1,90,0,0
59540,-66.6666666666667,4,2,1,90,0,0
59780,-57.1428571428571,4,2,1,90,0,0
60020,-66.6666666666667,4,2,1,90,0,0
60260,-57.1428571428571,4,2,1,90,0,0
60380,-133.333333333333,4,2,1,90,0,0
60500,-57.1428571428571,4,2,1,90,0,0
60740,-66.6666666666667,4,2,1,90,0,0
61460,-55.5555555555556,4,2,1,90,0,0
61700,-80,4,2,1,90,0,0
61940,-50,4,2,1,90,0,0
62180,-66.6666666666667,4,2,1,90,0,0
62420,-80,4,2,1,90,0,0
62660,-100,4,2,1,90,0,0
62900,-62.5,4,2,1,90,0,0
63140,-100,4,2,1,90,0,0
63380,-66.6666666666667,4,2,1,90,0,0
63620,-50,4,2,1,90,0,0
63860,-66.6666666666667,4,2,1,90,0,0
64220,-133.333333333333,4,2,1,90,0,0
64340,-87.719298245614,4,2,1,90,0,0
64460,-66.6666666666667,4,2,1,90,0,0
64580,-57.1428571428571,4,2,1,90,0,0
64820,-37.037037037037,4,2,1,90,0,0
65060,-66.6666666666667,4,2,1,90,0,0
65180,-50,4,2,1,90,0,0
65300,-57.1428571428571,4,2,1,90,0,0
65780,-133.333333333333,4,2,1,90,0,0
66020,-66.6666666666667,4,2,1,90,0,0
66260,-57.1428571428571,4,2,1,90,0,0
66500,-66.6666666666667,4,2,1,90,0,0
66980,-100,4,2,1,90,0,0
67220,-66.6666666666667,4,2,1,90,0,0
67700,-57.1428571428571,4,2,1,90,0,0
67940,-133.333333333333,4,2,1,90,0,0
68060,-57.1428571428571,4,2,1,90,0,0
68420,-58.8235294117647,4,2,1,90,0,0
68660,-66.6666666666667,4,2,1,90,0,0
69140,-57.1428571428571,4,2,1,90,0,0
69500,-100,4,2,1,90,0,0
69740,-80,4,2,1,90,0,0
69980,-66.6666666666667,4,2,1,90,0,0
70100,-57.1428571428571,4,2,1,90,0,0
70340,-50,4,2,1,90,0,0
70580,-66.6666666666667,4,2,1,90,0,0
70820,-100,4,2,1,90,0,0
71060,-66.6666666666667,4,2,1,90,0,0
71300,-133.333333333333,4,2,1,90,0,0
71420,-57.1428571428571,4,2,1,90,0,0
71660,-66.6666666666667,4,2,1,90,0,0
71780,-133.333333333333,4,2,1,90,0,0
72020,-80,4,2,1,90,0,0
72260,-50,4,2,1,90,0,0
72740,-57.1428571428571,4,2,1,90,0,0
72860,-50,4,2,1,90,0,0
72980,-57.1428571428571,4,2,1,90,0,0
73460,-133.333333333333,4,2,1,90,0,0
73700,-66.6666666666667,4,2,1,90,0,0
73940,-57.1428571428571,4,2,1,90,0,0
74180,-66.6666666666667,4,2,1,90,0,0
74660,-100,4,2,1,90,0,0
74900,-66.6666666666667,4,2,1,90,0,0
75380,-57.1428571428571,4,2,1,90,0,0
75620,-133.333333333333,4,2,1,90,0,0
75740,-57.1428571428571,4,2,1,90,0,0
76100,-58.8235294117647,4,2,1,90,0,0
76340,-42.5531914893617,4,2,1,90,0,0
76580,-66.6666666666667,4,2,1,90,0,0
76820,-57.1428571428571,4,2,1,90,0,0
77180,-133.333333333333,4,2,1,90,0,0
77420,-88.4955752212389,4,2,1,90,0,0
77660,-66.6666666666667,4,2,1,90,0,0
77780,-57.1428571428571,4,2,1,90,0,0
78020,-47.6190476190476,4,2,1,90,0,0
78260,-62.5,4,2,1,90,0,0
78500,-100,4,2,1,90,0,0
78860,-66.6666666666667,4,2,1,90,0,0
78980,-50,4,2,1,90,0,0
79220,-66.6666666666667,4,2,1,90,0,0
79460,-57.1428571428571,4,2,1,90,0,0
79820,-80,4,2,1,90,0,0
79940,-66.6666666666667,4,2,1,90,0,0
80180,-133.333333333333,4,2,1,90,0,0
80420,-57.1428571428571,4,2,1,90,0,0
80660,-200,4,2,1,90,0,0
81620,-400,4,2,1,90,0,0
82340,-40,4,2,1,90,0,0
82580,-52.6315789473684,4,2,1,90,0,0
82820,-66.6666666666667,4,2,1,90,0,0
83060,-57.1428571428571,4,2,1,90,0,0
83540,-66.6666666666667,4,2,1,90,0,0
83780,-100,4,2,1,90,0,0
83900,-80,4,2,1,90,0,0
84020,-44.4444444444445,4,2,1,90,0,0
84260,-57.1428571428571,4,2,1,90,0,0
84500,-44.4444444444445,4,2,1,90,0,0
84740,-66.6666666666667,4,2,1,90,0,0
84860,-100,4,2,1,90,0,0
84980,-80,4,2,1,90,0,0
85220,-57.1428571428571,4,2,1,90,0,0
85340,-80,4,2,1,90,0,0
85460,-44.4444444444445,4,2,1,90,0,0
85700,-66.6666666666667,4,2,1,90,0,0
85940,-400,4,2,1,90,0,0
86180,-66.6666666666667,4,2,1,90,0,0
86420,-50,4,2,1,90,0,0
86660,-57.1428571428571,4,2,1,90,0,0
86780,-100,4,2,1,90,0,0
86900,-50,4,2,1,90,0,0
87380,-66.6666666666667,4,2,1,90,0,0
87980,-57.1428571428571,4,2,1,90,0,0
88340,-42.5531914893617,4,2,1,90,0,0
88580,-66.6666666666667,4,2,1,90,0,0
88820,-57.1428571428571,4,2,1,90,0,0
89060,-80,4,2,1,90,0,0
89300,-100,4,2,1,90,0,0
89540,-79.8722044728435,4,2,1,90,0,0
89780,-66.6666666666667,4,2,1,90,0,0
90020,-80,4,2,1,90,0,0
90500,-66.6666666666667,4,2,1,90,0,0
90980,-47.6190476190476,4,2,1,90,0,0
91220,-44.4444444444445,4,2,1,90,0,0
91460,-66.6666666666667,4,2,1,90,0,0
91700,-200,4,2,1,90,0,0
91820,-133.333333333333,4,2,1,90,0,0
91940,-100,4,2,1,90,0,0
92180,-50,4,2,1,90,0,0
92420,-200,4,2,1,90,0,0
92660,-66.6666666666667,4,2,1,90,0,0
93140,-57.1428571428571,4,2,1,90,0,0
93380,-100,4,2,1,90,0,0
93620,-80,4,2,1,90,0,0
93860,-66.6666666666667,4,2,1,90,0,0
94100,-50,4,2,1,90,0,0
94340,-80,4,2,1,90,0,0
94460,-66.6666666666667,4,2,1,90,0,0
94580,-80,4,2,1,90,0,0
94820,-57.1428571428571,4,2,1,90,0,0
95060,-66.6666666666667,4,2,1,90,0,0
95300,-40,4,2,1,90,0,0
95540,-80,4,2,1,90,0,0
96020,-66.6666666666667,4,2,1,90,0,0
96260,-80,4,2,1,90,0,0
96500,-66.6666666666667,4,2,1,90,0,0
96860,-50,4,2,1,90,0,0
97040,-66.6666666666667,4,2,1,90,0,0
97220,-50,4,2,1,90,0,0
97340,-40,4,2,1,90,0,0
98180,-200,4,2,1,90,0,0
98300,-100,4,2,1,90,0,0
98420,-74.0740740740741,4,2,1,90,0,0
98660,-133.333333333333,4,2,1,90,0,0
98780,-80,4,2,1,90,0,0
98900,-74.0740740740741,4,2,1,90,0,0
99260,-57.1428571428571,4,2,1,90,0,0
99620,-133.333333333333,4,2,1,90,0,0
99860,-50,4,2,1,90,0,0
100100,-133.333333333333,4,2,1,90,0,0
100700,-66.6666666666667,4,2,1,90,0,0
101300,-50,4,2,1,90,0,0
101540,-57.1428571428571,4,2,1,90,0,0
101900,-100,4,2,1,90,0,0
102020,-200,4,2,1,90,0,0
102140,-133.333333333333,4,2,1,90,0,0
102260,-100,4,2,1,90,0,0
102380,-80,4,2,1,90,0,0
102500,-133.333333333333,4,2,1,90,0,0
102740,-66.6666666666667,4,2,1,90,0,0
103100,-50,4,2,1,90,0,0
103580,-133.333333333333,4,2,1,90,0,0
103700,-43.4782608695652,4,2,1,90,0,0
103940,-45.4545454545455,4,2,1,90,0,0
104180,-66.6666666666667,4,2,1,90,0,0
104300,-57.1428571428571,4,2,1,90,0,0
104900,-50,4,2,1,90,0,0
105020,-80,4,2,1,90,0,0
105140,-50,4,2,1,90,0,0
105620,-80,4,2,1,90,0,0
105740,-66.6666666666667,4,2,1,90,0,0
105860,-41.6666666666667,4,2,1,90,0,0
106100,-66.6666666666667,4,2,1,90,0,0
106340,-50,4,2,1,90,0,0
106460,-66.6666666666667,4,2,1,90,0,0
106700,-100,4,2,1,90,0,0
106940,-80,4,2,1,90,0,0
107180,-66.6666666666667,4,2,1,90,0,0
107300,-57.1428571428571,4,2,1,90,0,0
107540,-40,4,2,1,90,0,0
107900,-79.8722044728435,4,2,1,90,0,0
108140,-100,4,2,1,90,0,0
108380,-80,4,2,1,90,0,0
108500,-66.6666666666667,4,2,1,90,0,0
108620,-133.333333333333,4,2,1,90,0,0
108740,-80,4,2,1,90,0,0
108860,-157.48031496063,4,2,1,90,0,0
108980,-100,4,2,1,90,0,0
109100,-200,4,2,1,90,0,0
109220,-40,4,2,1,90,0,0
109580,-50,4,2,1,90,0,0
109700,-40,4,2,1,90,0,0
109940,-66.6666666666667,4,2,1,90,0,0
110180,-44.4444444444445,4,2,1,90,0,0
110300,-57.1428571428571,4,2,1,90,0,0
110660,-80,4,2,1,90,0,0
111020,-50,4,2,1,90,0,0
111140,-57.1428571428571,4,2,1,90,0,0
111260,-50,4,2,1,90,0,0
111380,-100,4,2,1,90,0,0
111620,-66.6666666666667,4,2,1,90,0,0
112100,-80,4,2,1,90,0,0
112340,-133.333333333333,4,2,1,90,0,0
112460,-66.6666666666667,4,2,1,90,0,0
112580,-133.333333333333,4,2,1,90,0,0
112700,-66.6666666666667,4,2,1,90,0,0
112820,-44.4444444444445,4,2,1,90,0,0
113300,-57.1428571428571,4,2,1,90,0,0
113540,-44.4444444444445,4,2,1,90,0,0
113780,-100,4,2,1,90,0,0
114020,-57.1428571428571,4,2,1,90,0,0
114260,-200,4,2,1,90,0,0
114500,-50,4,2,1,90,0,0
114740,-44.4444444444445,4,2,1,90,0,0
114980,-57.1428571428571,4,2,1,90,0,0
115220,-44.4444444444445,4,2,1,90,0,0
115700,-57.1428571428571,4,2,1,90,0,0
115940,-66.6666666666667,4,2,1,90,0,0
116180,-50,4,2,1,90,0,0
116300,-200,4,2,1,90,0,0
116780,-100,4,2,1,90,0,0
116900,-66.6666666666667,4,2,1,90,0,0
117140,-42.5531914893617,4,2,1,90,0,0
117380,-80,4,2,1,90,0,0
117620,-66.6666666666667,4,2,1,90,0,0
117860,-133.333333333333,4,2,1,90,0,0
118100,-80,4,2,1,90,0,0
118340,-57.1428571428571,4,2,1,90,0,0
118580,-133.333333333333,4,2,1,90,0,0
118820,-66.6666666666667,4,2,1,90,0,0
119300,-133.333333333333,4,2,1,90,0,0
120740,-66.6666666666667,4,2,1,90,0,0
121220,-44.4444444444445,4,2,1,90,0,0
121460,-57.1428571428571,4,2,1,90,0,0
121580,-133.333333333333,4,2,1,90,0,0
122060,-66.6666666666667,4,2,1,90,0,0
122180,-44.4444444444444,4,2,1,90,0,0
122420,-50,4,2,1,90,0,0
122540,-80,4,2,1,90,0,0
122900,-50,4,2,1,90,0,0
123140,-57.1428571428571,4,2,1,90,0,0
123380,-44.4444444444445,4,2,1,90,0,0
123620,-66.6666666666667,4,2,1,90,0,0
123860,-133.333333333333,4,2,1,90,0,0
124340,-50,4,2,1,90,0,0
124580,-66.6666666666667,4,2,1,90,0,0
124820,-57.1428571428571,4,2,1,90,0,0
125060,-44.4444444444445,4,2,1,90,0,0
125420,-79.9999999999999,4,2,1,90,0,0
125780,-66.6666666666667,4,2,1,90,0,0
126020,-44.4444444444445,4,2,1,90,0,0
126260,-66.6666666666667,4,2,1,90,0,0
126500,-200,4,2,1,90,0,0
126740,-66.6666666666667,4,2,1,90,0,0
127220,-57.1428571428571,4,2,1,90,0,0
127460,-80,4,2,1,90,0,0
127700,-66.6666666666667,4,2,1,90,0,0
127940,-133.333333333333,4,2,1,90,0,0
128180,-50,4,2,1,90,0,0
128900,-62.5,4,2,1,90,0,0
129140,-44.4444444444445,4,2,1,90,0,0
129380,-66.6666666666667,4,2,1,90,0,0
129500,-133.333333333333,4,2,1,90,0,0
129620,-42.5531914893617,4,2,1,90,0,0
129860,-80,4,2,1,90,0,0
129980,-133.333333333333,4,2,1,90,0,0
130100,-66.6666666666667,4,2,1,90,0,0
130340,-200,4,2,1,90,0,0
130700,-100,4,2,1,90,0,0
130820,-44.4444444444445,4,2,1,90,0,0
131300,-133.333333333333,4,2,1,90,0,0
131540,-114.285714285714,4,2,1,90,0,0
131780,-100,4,2,1,90,0,0
132260,-50,4,2,1,90,0,0
132380,-80,4,2,1,90,0,0
132500,-42.5531914893617,4,2,1,90,0,0
132740,-66.6666666666667,4,2,1,90,0,0
132980,-43.4782608695652,4,2,1,90,0,0
133220,-100,4,2,1,90,0,0
133340,-66.6666666666667,4,2,1,90,0,0
133460,-44.4444444444445,4,2,1,90,0,0
133700,-66.6666666666667,4,2,1,90,0,0
133820,-100,4,2,1,90,0,0
133940,-57.1428571428571,4,2,1,90,0,0
134180,-200,4,2,1,90,0,0
134420,-66.6666666666667,4,2,1,90,0,0
135620,-133.333333333333,4,2,1,90,0,0
135860,-66.6666666666667,4,2,1,90,0,0
136340,-50,4,2,1,90,0,0
136820,-80,4,2,1,90,0,0
137360,-66.6666666666667,4,2,1,90,0,0
137540,-100,4,2,1,90,0,0
137660,-80,4,2,1,90,0,0
137900,-200,4,2,1,90,0,0
138260,-66.6666666666667,4,2,1,90,0,0
138440,-80,4,2,1,90,0,0
138740,-66.6666666666667,4,2,1,90,0,0
138980,-57.1428571428571,4,2,1,90,0,0
139220,-66.6666666666667,4,2,1,90,0,0
139460,-80,4,2,1,90,0,0
139700,-50,4,2,1,90,0,0
139940,-66.6666666666667,4,2,1,90,0,0
140060,-57.1428571428571,4,2,1,90,0,0
140180,-44.4444444444445,4,2,1,90,0,0
140540,-80,4,2,1,90,0,0
140660,-66.6666666666667,4,2,1,90,0,0
140900,-100,4,2,1,90,0,0
141020,-200,4,2,1,90,0,0
141140,-57.1428571428571,4,2,1,90,0,0
141380,-66.6666666666667,4,2,1,90,0,0
141500,-133.333333333333,4,2,1,90,0,0
141620,-66.6666666666667,4,2,1,90,0,0
142580,-200,4,2,1,90,0,0
142700,-133.333333333333,4,2,1,90,0,0
143180,-80,4,2,1,90,0,0
143660,-57.1428571428571,4,2,1,90,0,0
143780,-50,4,2,1,90,0,0
144020,-40,4,2,1,90,0,0
144200,-57.1428571428571,4,2,1,90,0,0
144500,-33.3333333333333,4,2,1,90,0,0
144740,-100,4,2,1,90,0,0
144860,-153.846153846154,4,2,1,90,0,0
144980,-66.6666666666667,4,2,1,90,0,0
145100,-200,4,2,1,90,0,0
145340,-57.1428571428571,4,2,1,90,0,0
145460,-200,4,2,1,90,0,0
145700,-80,4,2,1,90,0,0
146420,-200,4,2,1,90,0,0
146600,-100,4,2,1,90,0,0
146780,-66.6666666666667,4,2,1,90,0,0
146900,-100,4,2,1,90,0,0
147140,-66.6666666666667,4,2,1,90,0,0
147620,-133.333333333333,4,2,1,90,0,0
148340,-66.6666666666667,4,2,1,90,0,0
148580,-57.1428571428571,4,2,1,90,0,0
148700,-133.333333333333,4,2,1,90,0,0
148820,-100,4,2,1,90,0,0
149300,-133.333333333333,4,2,1,90,0,0
149420,-88.4955752212389,4,2,1,90,0,0
149540,-66.6666666666667,4,2,1,90,0,0
149780,-35.7142857142857,4,2,1,90,0,0
150020,-57.1428571428571,4,2,1,90,0,0
150500,-66.6666666666667,4,2,1,90,0,0
150740,-200,4,2,1,90,0,0
150980,-133.333333333333,4,2,1,90,0,0
151220,-57.1428571428571,4,2,1,90,0,0
151460,-50,4,2,1,90,0,0
151700,-44.4444444444445,4,2,1,90,0,0
151940,-133.333333333333,4,2,1,90,0,0
152180,-66.6666666666667,4,2,1,90,0,0
152420,-50,4,2,1,90,0,0
152660,-133.333333333333,4,2,1,90,0,0
152900,-66.6666666666667,4,2,1,90,0,0
153380,-57.1428571428571,4,2,1,90,0,0
153620,-50,4,2,1,90,0,0
153860,-133.333333333333,4,2,1,90,0,0
153980,-66.6666666666667,4,2,1,90,0,0
154100,-50,4,2,1,90,0,0
154340,-66.6666666666667,4,2,1,90,0,0
154580,-45.4545454545455,4,2,1,90,0,0
154820,-66.6666666666667,4,2,1,90,0,0
155060,-200,4,2,1,90,0,0
155300,-133.333333333333,4,2,1,90,0,0
155420,-100,4,2,1,90,0,0
155540,-50,4,2,1,90,0,0
155780,-57.1428571428571,4,2,1,90,0,0
155900,-66.6666666666667,4,2,1,90,0,0
156020,-200,4,2,1,90,0,0
156260,-50,4,2,1,90,0,0
156500,-133.333333333333,4,2,1,90,0,0
156740,-80,4,2,1,90,0,0
156860,-100,4,2,1,90,0,0
156980,-66.6666666666667,4,2,1,90,0,0
157100,-80,4,2,1,90,0,0
157220,-57.1428571428571,4,2,1,90,0,0
157460,-50,4,2,1,90,0,0
157700,-66.6666666666667,4,2,1,90,0,0
157940,-80,4,2,1,90,0,0
158060,-50,4,2,1,90,0,0
158540,-66.6666666666667,4,2,1,90,0,0
158660,-80,4,2,1,90,0,0
158780,-133.333333333333,4,2,1,90,0,0
159020,-57.1428571428571,4,2,1,90,0,0
159260,-66.6666666666667,4,2,1,90,0,0
159380,-50,4,2,1,90,0,0
159620,-133.333333333333,4,2,1,90,0,0
159860,-50,4,2,1,90,0,0
159980,-80,4,2,1,90,0,0
160340,-100,4,2,1,90,0,0
160460,-80,4,2,1,90,0,0
160580,-66.6666666666667,4,2,1,90,0,0
160820,-50,4,2,1,90,0,0
160940,-66.6666666666667,4,2,1,90,0,0
161060,-79.8722044728435,4,2,1,90,0,0
161180,-45.4545454545455,4,2,1,90,0,0
161300,-80,4,2,1,90,0,0
161420,-200,4,2,1,90,0,0
161540,-57.1428571428571,4,2,1,90,0,0
161660,-100,4,2,1,90,0,0
162020,-66.6666666666667,4,2,1,90,0,0
162260,-50,4,2,1,90,0,0
162380,-80,4,2,1,90,0,0
162620,-57.1428571428571,4,2,1,90,0,0
162740,-400,4,2,1,90,0,0
162860,-266.666666666667,4,2,1,90,0,0
162980,-200,4,2,1,90,0,0
163100,-44.4444444444445,4,2,1,90,0,0
163220,-57.1428571428571,4,2,1,90,0,0
163460,-80,4,2,1,90,0,0
163700,-57.1428571428571,4,2,1,90,0,0
163940,-66.6666666666667,4,2,1,90,0,0
164060,-57.1428571428571,4,2,1,90,0,0
164180,-50,4,2,1,90,0,0
164300,-80,4,2,1,90,0,0
164420,-50,4,2,1,90,0,0
164660,-66.6666666666667,4,2,1,90,0,0
164900,-80,4,2,1,90,0,0
165020,-66.6666666666667,4,2,1,90,0,0
165380,-50,4,2,1,90,0,0
165620,-66.6666666666667,4,2,1,90,0,0
165740,-133.333333333333,4,2,1,90,0,0
165860,-66.6666666666667,4,2,1,90,0,0
166100,-100,4,2,1,90,0,0
166940,-66.6666666666667,4,2,1,90,0,0
167060,-66.6666666666667,4,2,1,90,0,0
168980,-66.6666666666667,4,2,1,90,0,0
170900,-133.333333333333,4,2,1,90,0,0
171860,-100,4,2,1,90,0,0
172820,-100,4,2,1,90,0,0
173300,-100,4,2,1,90,0,0
174020,-666.666666666667,4,2,1,90,0,0
174740,-133.333333333333,4,2,1,90,0,0
175340,-133.333333333333,4,2,1,90,0,0
175700,-100,4,2,1,90,0,0
176060,-66.6666666666667,4,2,1,90,0,0
176420,-200,4,2,1,90,0,0
176660,-50,4,2,1,90,0,0
176900,-57.1428571428571,4,2,1,90,0,0
177140,-46.5116279069767,4,2,1,90,0,0
177380,-66.6666666666667,4,2,1,90,0,0
177860,-50,4,2,1,90,0,0
178340,-57.1428571428571,4,2,1,90,0,0
178460,-80,4,2,1,90,0,0
178580,-133.333333333333,4,2,1,90,0,0
179180,-80,4,2,1,90,0,0
179300,-57.1428571428571,4,2,1,90,0,0
179540,-80,4,2,1,90,0,0
179780,-66.6666666666667,4,2,1,90,0,0
180260,-57.1428571428571,4,2,1,90,0,0
180500,-50,4,2,1,90,0,0
180740,-57.1428571428571,4,2,1,90,0,0
180980,-50,4,2,1,90,0,0
181220,-66.6666666666667,4,2,1,90,0,0
181700,-50,4,2,1,90,0,0
182180,-57.1428571428571,4,2,1,90,0,0
182300,-80,4,2,1,90,0,0
182420,-133.333333333333,4,2,1,90,0,0
183020,-80,4,2,1,90,0,0
183380,-66.6666666666667,4,2,1,90,0,0
183620,-50,4,2,1,90,0,0
183860,-66.6666666666667,4,2,1,90,0,0
184100,-57.1428571428571,4,2,1,90,0,0
184820,-44.4444444444445,4,2,1,90,0,0
185060,-66.6666666666667,4,2,1,90,0,0
185420,-50,4,2,1,90,0,0
186020,-133.333333333333,4,2,1,90,0,0
186260,-80,4,2,1,90,0,0
186500,-57.1428571428571,4,2,1,90,0,0
186980,-50,4,2,1,90,0,0
187220,-66.6666666666667,4,2,1,90,0,0
187700,-100,4,2,1,90,0,0
188180,-57.1428571428571,4,2,1,90,0,0
188420,-50,4,2,1,90,0,0
188660,-66.6666666666667,4,2,1,90,0,0
188900,-100,4,2,1,90,0,0
189020,-66.6666666666667,4,2,1,90,0,0
189380,-57.1428571428571,4,2,1,90,0,0
189620,-66.6666666666667,4,2,1,90,0,0
189860,-133.333333333333,4,2,1,90,0,0
190100,-66.6666666666667,4,2,1,90,0,0
190340,-50,4,2,1,90,0,0
190460,-80,4,2,1,90,0,0
190820,-50,4,2,1,90,0,0
191060,-80,4,2,1,90,0,0
191180,-133.333333333333,4,2,1,90,0,0
191300,-47.6190476190476,4,2,1,90,0,0
191540,-74.0740740740741,4,2,1,90,0,0
191660,-133.333333333333,4,2,1,90,0,0
191780,-57.1428571428571,4,2,1,90,0,0
192020,-66.6666666666667,4,2,1,90,0,0
192260,-50,4,2,1,90,0,0
192500,-200,4,2,1,90,0,0
192740,-80,4,2,1,90,0,0
192980,-57.1428571428571,4,2,1,90,0,0
193340,-133.333333333333,4,2,1,90,0,0
193700,-100,4,2,1,90,0,0
193940,-80,4,2,1,90,0,0
194060,-66.6666666666667,4,2,1,90,0,0
194180,-55.5555555555556,4,2,1,90,0,0
194420,-50,4,2,1,90,0,0
194660,-66.6666666666667,4,2,1,90,0,0
194900,-57.1428571428571,4,2,1,90,0,0
195500,-66.6666666666667,4,2,1,90,0,0
195620,-57.1428571428571,4,2,1,90,0,0
196100,-50,4,2,1,90,0,0
196340,-66.6666666666667,4,2,1,90,0,0
196580,-54.054054054054,4,2,1,90,0,0
197060,-50,4,2,1,90,0,0
197300,-57.1428571428571,4,2,1,90,0,0
197540,-100,4,2,1,90,0,0
197660,-80,4,2,1,90,0,0
197780,-66.6666666666667,4,2,1,90,0,0
198020,-86.9565217391304,4,2,1,90,0,0
198260,-47.6190476190476,4,2,1,90,0,0
198500,-50,4,2,1,90,0,0
198740,-66.6666666666667,4,2,1,90,0,0
198860,-133.333333333333,4,2,1,90,0,0
198980,-80,4,2,1,90,0,0
199460,-57.1428571428571,4,2,1,90,0,0
199940,-66.6666666666667,4,2,1,90,0,0
200060,-50,4,2,1,90,0,0
200300,-66.6666666666667,4,2,1,90,0,0
200420,-80,4,2,1,90,0,0
200660,-57.1428571428571,4,2,1,90,0,0
200900,-44.4444444444445,4,2,1,90,0,0
201260,-100,4,2,1,90,0,0
201620,-66.6666666666667,4,2,1,90,0,0
201980,-80,4,2,1,90,0,0
202220,-66.6666666666667,4,2,1,90,0,0
202580,-57.1428571428571,4,2,1,90,0,0
202940,-133.333333333333,4,2,1,90,0,0
203060,-50,4,2,1,90,0,0
203300,-57.1428571428571,4,2,1,90,0,0
203420,-100,4,2,1,90,0,0
203540,-80,4,2,1,90,0,0
203900,-47.6190476190476,4,2,1,90,0,0
204140,-66.6666666666667,4,2,1,90,0,0
204260,-133.333333333333,4,2,1,90,0,0
204380,-57.1428571428571,4,2,1,90,0,0
204740,-80,4,2,1,90,0,0
204860,-133.333333333333,4,2,1,90,0,0
205220,-66.6666666666667,4,2,1,90,0,0
205700,-80,4,2,1,90,0,0
205940,-133.333333333333,4,2,1,90,0,0
206180,-66.6666666666667,4,2,1,90,0,0
206420,-80,4,2,1,90,0,0
206540,-200,4,2,1,90,0,0
206660,-100,4,2,1,90,0,0
206780,-200,4,2,1,90,0,0
206900,-100,4,2,1,90,0,0
207140,-57.1428571428571,4,2,1,90,0,0
207260,-100,4,2,1,90,0,0
207380,-45.4545454545455,4,2,1,90,0,0
207620,-57.1428571428571,4,2,1,90,0,0
207740,-54.054054054054,4,2,1,90,0,0
207980,-80,4,2,1,90,0,0
208100,-100,4,2,1,90,0,0
208340,-80,4,2,1,90,0,0
208580,-66.6666666666667,4,2,1,90,0,0
208940,-133.333333333333,4,2,1,90,0,0
209060,-79.9999999999999,4,2,1,90,0,0
209420,-57.1428571428571,4,2,1,90,0,0
209540,-133.333333333333,4,2,1,90,0,0
209660,-80,4,2,1,90,0,0
209900,-66.6666666666667,4,2,1,90,0,0
210020,-57.1428571428571,4,2,1,90,0,0
210260,-133.333333333333,4,2,1,90,0,0
210500,-57.1428571428571,4,2,1,90,0,0
210740,-50,4,2,1,90,0,0
210980,-66.6666666666667,4,2,1,90,0,0
211100,-133.333333333333,4,2,1,90,0,0
211220,-80,4,2,1,90,0,0
211460,-66.6666666666667,4,2,1,90,0,0
211580,-50,4,2,1,90,0,0
211820,-66.6666666666667,4,2,1,90,0,0
211940,-133.333333333333,4,2,1,90,0,0
212060,-66.6666666666667,4,2,1,90,0,0
212180,-50,4,2,1,90,0,0
212420,-54.054054054054,4,2,1,90,0,0
212660,-66.6666666666667,4,2,1,90,0,0
212780,-200,4,2,1,90,0,0
212900,-66.6666666666667,4,2,1,90,0,0
213500,-50,4,2,1,90,0,0
213740,-57.1428571428571,4,2,1,90,0,0
213860,-133.333333333333,4,2,1,90,0,0
214100,-79.9999999999999,4,2,1,90,0,0
214220,-200,4,2,1,90,0,0
214340,-100,4,2,1,90,0,0
214460,-200,4,2,1,90,0,0
214580,-66.6666666666667,4,2,1,90,0,0
214820,-80,4,2,1,90,0,0
214940,-66.6666666666667,4,2,1,90,0,0
216740,-50,4,2,1,90,0,0
216980,-66.6666666666667,4,2,1,90,0,0
217220,-57.1428571428571,4,2,1,90,0,0
217340,-80,4,2,1,90,0,0
217580,-66.6666666666667,4,2,1,90,0,0
217820,-57.1428571428571,4,2,1,90,0,0
218060,-133.333333333333,4,2,1,90,0,0
218180,-80,4,2,1,90,0,0
218300,-57.1428571428571,4,2,1,90,0,0
218660,-44.4444444444445,4,2,1,90,0,0
218900,-57.1428571428571,4,2,1,90,0,0
219140,-80,4,2,1,90,0,0
219260,-50,4,2,1,90,0,0
219500,-66.6666666666667,4,2,1,90,0,0
219620,-80,4,2,1,90,0,0
219860,-50,4,2,1,90,0,0
220100,-57.1428571428571,4,2,1,90,0,0
220340,-80,4,2,1,90,0,0
220580,-66.6666666666667,4,2,1,90,0,0
220820,-133.333333333333,4,2,1,90,0,0
221300,-79.9999999999999,4,2,1,90,0,0
221540,-54.054054054054,4,2,1,90,0,0
221780,-66.6666666666667,4,2,1,90,0,0
222500,-200,4,2,1,90,0,0
222740,-57.1428571428571,4,2,1,90,0,0
222980,-66.6666666666667,4,2,1,90,0,0
223100,-44.4444444444445,4,2,1,90,0,0
223340,-57.1428571428571,4,2,1,90,0,0
223460,-80,4,2,1,90,0,0
223820,-66.6666666666667,4,2,1,90,0,0
223940,-200,4,2,1,90,0,0
224180,-50,4,2,1,90,0,0
224300,-133.333333333333,4,2,1,90,0,0
224420,-66.6666666666667,4,2,1,90,0,0
224780,-80,4,2,1,90,0,0
225020,-66.6666666666667,4,2,1,90,0,0
225620,-133.333333333333,4,2,1,90,0,0
225860,-80,4,2,1,90,0,0
226340,-200,4,2,1,90,0,0
226580,-57.1428571428571,4,2,1,90,0,0
226820,-66.6666666666667,4,2,1,90,0,0
226940,-200,4,2,1,90,0,0
227180,-57.1428571428571,4,2,1,90,0,0
227300,-133.333333333333,4,2,1,90,0,0
227540,-80,4,2,1,90,0,0
227780,-66.6666666666667,4,2,1,90,0,0
228020,-44.4444444444445,4,2,1,90,0,0
228260,-66.6666666666667,4,2,1,90,0,0
228740,-55.5555555555556,4,2,1,90,0,0
228980,-57.1428571428571,4,2,1,90,0,0
229100,-133.333333333333,4,2,1,90,0,0
229220,-66.6666666666667,4,2,1,90,0,0
229940,-52.6315789473684,4,2,1,90,0,0
230180,-66.6666666666667,4,2,1,90,0,0
230420,-47.6190476190476,4,2,1,90,0,0
230660,-57.1428571428571,4,2,1,90,0,0
230780,-133.333333333333,4,2,1,90,0,0
231020,-66.6666666666667,4,2,1,90,0,0
231140,-133.333333333333,4,2,1,90,0,0
231500,-66.6666666666667,4,2,1,90,0,0
231620,-80,4,2,1,90,0,0
231980,-57.1428571428571,4,2,1,90,0,0
232460,-66.6666666666667,4,2,1,90,0,0
232580,-57.1428571428571,4,2,1,90,0,0
233060,-66.6666666666667,4,2,1,90,0,0
233780,-50,4,2,1,90,0,0
234020,-57.1428571428571,4,2,1,90,0,0
234260,-54.054054054054,4,2,1,90,0,0
234500,-66.6666666666667,4,2,1,90,0,0
234620,-90.9090909090909,4,2,1,90,0,0
234860,-66.6666666666667,4,2,1,90,0,0
234980,-133.333333333333,4,2,1,90,0,0
235220,-79.8722044728435,4,2,1,90,0,0
235460,-66.6666666666667,4,2,1,90,0,0
235700,-50,4,2,1,90,0,0
235940,-133.333333333333,4,2,1,90,0,0
236180,-66.6666666666667,4,2,1,90,0,0
237140,-200,4,2,1,90,0,0
237380,-133.333333333333,4,2,1,90,0,0
237620,-50,4,2,1,90,0,0
237860,-57.1428571428571,4,2,1,90,0,0
238340,-66.6666666666667,4,2,1,90,0,0
238580,-50,4,2,1,90,0,0
238820,-57.1428571428571,4,2,1,90,0,0
239060,-133.333333333333,4,2,1,90,0,0
239780,-100,4,2,1,90,0,0
240020,-66.6666666666667,4,2,1,90,0,0
240260,-50,4,2,1,90,0,0
240500,-66.6666666666667,4,2,1,90,0,0
241460,-46.5116279069767,4,2,1,90,0,0
241700,-57.1428571428571,4,2,1,90,0,0
241940,-50,4,2,1,90,0,0
242180,-66.6666666666667,4,2,1,90,0,0
242300,-200,4,2,1,90,0,0
242540,-57.1428571428571,4,2,1,90,0,0
242660,-133.333333333333,4,2,1,90,0,0
242900,-76.9230769230769,4,2,1,90,0,0
243140,-62.5,4,2,1,90,0,0
243380,-50,4,2,1,90,0,0
243620,-133.333333333333,4,2,1,90,0,0
243860,-80,4,2,1,90,0,0
244100,-50,4,2,1,90,0,0
244340,-57.1428571428571,4,2,1,90,0,0
244460,-100,4,2,1,90,0,0
244580,-66.6666666666667,4,2,1,90,0,0
244700,-133.333333333333,4,2,1,90,0,0
244820,-50,4,2,1,90,0,0
245540,-66.6666666666667,4,2,1,90,0,0
245780,-57.1428571428571,4,2,1,90,0,0
246020,-66.6666666666667,4,2,1,90,0,0
246140,-200,4,2,1,90,0,0
246260,-47.6190476190476,4,2,1,90,0,0
246500,-100,4,2,1,90,0,0
246740,-62.5,4,2,1,90,0,0
246980,-50,4,2,1,90,0,0
247460,-133.333333333333,4,2,1,90,0,0
247700,-66.6666666666667,4,2,1,90,0,0
248180,-50,4,2,1,90,0,0
248420,-100,4,2,1,90,0,0
248660,-80,4,2,1,90,0,0
249140,-57.1428571428571,4,2,1,90,0,0
249380,-66.6666666666667,4,2,1,90,0,0
249500,-50,4,2,1,90,0,0
249860,-57.1428571428571,4,2,1,90,0,0
249980,-200,4,2,1,90,0,0
250100,-50,4,2,1,90,0,0
250340,-57.1428571428571,4,2,1,90,0,0
250820,-80,4,2,1,90,0,0
251300,-133.333333333333,4,2,1,90,0,0
251540,-66.6666666666667,4,2,1,90,0,0
251660,-57.1428571428571,4,2,1,90,0,0
251780,-50,4,2,1,90,0,0
252020,-66.6666666666667,4,2,1,90,0,0
252140,-133.333333333333,4,2,1,90,0,0
252260,-80,4,2,1,90,0,0
252380,-200,4,2,1,90,0,0
252500,-50,4,2,1,90,0,0
253220,-57.1428571428571,4,2,1,90,0,0
253460,-50,4,2,1,90,0,0
253700,-47.6190476190476,4,2,1,90,0,0
253940,-80,4,2,1,90,0,0
254420,-66.6666666666667,4,2,1,90,0,0
254660,-50,4,2,1,90,0,0
254900,-66.6666666666667,4,2,1,90,0,0
255140,-200,4,2,1,90,0,0
255380,-100,4,2,1,90,0,0
255500,-114.285714285714,4,2,1,90,0,0
255620,-156.862745098039,4,2,1,90,0,0
255740,-200,4,2,1,90,0,0
255860,-80,4,2,1,90,0,0
256100,-50,4,2,1,90,0,0
256340,-62.5,4,2,1,90,0,0
257540,-62.5,4,2,1,90,0,0
257780,-200,4,2,1,90,0,0
266900,-133.333333333333,4,2,1,90,0,0
268820,-100,4,2,1,90,0,0
270740,-80,4,2,1,90,0,0
271460,-133.333333333333,4,2,1,90,0,0
274580,-133.333333333333,4,2,1,90,0,0
276500,-133.333333333333,4,2,1,90,0,0
277460,-133.333333333333,4,2,1,90,0,0
278420,-133.333333333333,4,2,1,90,0,0
279440,-100,4,2,1,90,0,0
279980,-133.333333333333,4,2,1,90,0,0
280340,-50,4,2,1,90,0,1
280580,-57.1428571428571,4,2,1,90,0,1
281060,-66.6666666666667,4,2,1,90,0,1
281300,-57.1428571428571,4,2,1,90,0,1
282020,-200,4,2,1,90,0,1
282140,-133.333333333333,4,2,1,90,0,1
282260,-100,4,2,1,90,0,1
282380,-80,4,2,1,90,0,1
282500,-66.6666666666667,4,2,1,90,0,1
282740,-57.1428571428571,4,2,1,90,0,1
283100,-133.333333333333,4,2,1,90,0,1
283220,-51.2820512820513,4,2,1,90,0,1
283460,-62.5,4,2,1,90,0,1
283820,-66.6666666666667,4,2,1,90,0,1
284180,-50,4,2,1,90,0,1
284420,-57.1428571428571,4,2,1,90,0,1
284660,-80,4,2,1,90,0,1
284780,-66.6666666666667,4,2,1,90,0,1
284900,-100,4,2,1,90,0,1
285020,-80,4,2,1,90,0,1
285140,-50,4,2,1,90,0,1
285620,-200,4,2,1,90,0,1
285860,-133.333333333333,4,2,1,90,0,1
286100,-100,4,2,1,90,0,1
286340,-80,4,2,1,90,0,1
286820,-50,4,2,1,90,0,1
287060,-66.6666666666667,4,2,1,90,0,1
287660,-80,4,2,1,90,0,1
287780,-57.1428571428571,4,2,1,90,0,1
288020,-100,4,2,1,90,0,1
288260,-66.6666666666667,4,2,1,90,0,1
288500,-100,4,2,1,90,0,1
288740,-66.6666666666667,4,2,1,90,0,1
288980,-100,4,2,1,90,0,1
289220,-66.6666666666667,4,2,1,90,0,1
289700,-200,4,2,1,90,0,1
289820,-100,4,2,1,90,0,1
289940,-156.862745098039,4,2,1,90,0,1
290060,-80,4,2,1,90,0,1
290180,-133.333333333333,4,2,1,90,0,1
290300,-66.6666666666667,4,2,1,90,0,1
290900,-66.6666666666667,4,2,1,90,0,0
291860,-57.1428571428571,4,2,3,90,0,1
292040,-57.1428571428571,4,2,1,90,0,1
292340,-66.6666666666667,4,2,1,90,0,1
292580,-57.1428571428571,4,2,1,90,0,1
292820,-52.6315789473684,4,2,1,90,0,1
293060,-57.1428571428571,4,2,1,90,0,1
293180,-80,4,2,1,90,0,1
293300,-57.1428571428571,4,2,1,90,0,1
293540,-66.6666666666667,4,2,1,90,0,1
293780,-57.1428571428571,4,2,1,90,0,1
294020,-66.6666666666667,4,2,1,90,0,1
294260,-57.1428571428571,4,2,1,90,0,1
294500,-133.333333333333,4,2,1,90,0,1
294740,-50,4,2,1,90,0,1
294980,-66.6666666666667,4,2,1,90,0,1
295220,-57.1428571428571,4,2,1,90,0,1
295580,-133.333333333333,4,2,1,90,0,1
295700,-50,4,2,1,90,0,1
295940,-71.4285714285714,4,2,1,90,0,1
296060,-62.5,4,2,1,90,0,1
296180,-50,4,2,1,90,0,1
296900,-100,4,2,1,90,0,1
297020,-57.1428571428571,4,2,1,90,0,1
297200,-50,4,2,1,90,0,1
297620,-57.1428571428571,4,2,1,90,0,1
297860,-66.6666666666667,4,2,1,90,0,1
298100,-50,4,2,1,90,0,1
298340,-57.1428571428571,4,2,1,90,0,1
298580,-50,4,2,1,90,0,1
298820,-66.6666666666667,4,2,1,90,0,1
298940,-57.1428571428571,4,2,1,90,0,1
299120,-48.780487804878,4,2,1,90,0,1
299300,-45.4545454545455,4,2,1,90,0,1
299420,-133.333333333333,4,2,1,90,0,1
299540,-57.1428571428571,4,2,1,90,0,1
300260,-66.6666666666667,4,2,1,90,0,1
300500,-55.5555555555556,4,2,1,90,0,1
300740,-50,4,2,1,90,0,1
300980,-66.6666666666667,4,2,1,90,0,1
301220,-57.1428571428571,4,2,1,90,0,1
301340,-50,4,2,1,90,0,1
301460,-66.6666666666667,4,2,1,90,0,1
301940,-80,4,2,1,90,0,1
302420,-57.1428571428571,4,2,1,90,0,1
302900,-200,4,2,1,90,0,1
303140,-80,4,2,1,90,0,1
303380,-66.6666666666667,4,2,1,90,0,1
306020,-80,4,2,1,90,0,1
306260,-66.6666666666667,4,2,1,90,0,1
306500,-133.333333333333,4,2,1,90,0,1
307220,-133.333333333333,4,2,1,90,0,0
307940,-400,4,2,1,50,0,0
308180,-400,4,2,18,50,0,0
308240,-400,4,2,1,50,0,0
321140,-800,4,2,1,50,0,0
321620,-250,4,2,1,50,0,0

[Colours]
Combo1 : 254,205,221
Combo2 : 254,239,206
Combo3 : 243,249,175
Combo4 : 181,255,184
Combo5 : 190,255,245
Combo6 : 174,234,249
Combo7 : 206,206,254
Combo8 : 254,206,254

[HitObjects]
472,200,980,6,0,P|481:180|478:202,1,62.5,2|0,2:0|2:0,2:0:0:0:
376,164,1220,6,0,P|370:131|384:160,1,93.7500000000002,2|0,2:0|2:0,2:0:0:0:
284,207,1460,6,0,P|286:195|280:205,1,31.25,2|0,2:0|2:0,2:0:0:0:
197,79,1700,6,0,B|178:61|134:45|88:67|65:113|84:159|84:159|97:171|97:171|144:158|144:158|150:135,1,281.25,2|0,2:0|2:0,2:0:0:0:
156,144,1940,6,0,B|166:161|166:161|147:233,1,93.75,2|0,1:2|2:0,2:0:0:0:
132,306,2060,1,2,2:0:0:0:
123,304,2120,1,2,2:0:0:0:
125,312,2180,2,0,L|110:365,2,46.875,10|0|0,1:2|2:0|2:0,2:0:0:0:
93,39,2300,5,2,2:0:0:0:
99,35,2360,1,2,2:0:0:0:
91,30,2420,2,0,B|92:20|92:20|74:8|74:8|81:28|81:28|91:30,1,62.5,2|0,1:2|2:0,2:0:0:0:
34,103,2540,2,0,B|26:93|26:93|0:98|0:98|24:110|24:110|34:103,1,78.125,2|0,2:0|2:0,2:0:0:0:
44,191,2660,2,0,B|29:188|29:188|10:216|10:216|41:205|41:205|44:191,1,93.75,8|0,1:2|2:0,2:0:0:0:
197,79,2780,5,2,2:0:0:0:
197,79,2840,1,2,2:0:0:0:
197,79,2900,2,0,B|202:59|202:59|206:56|206:56|211:36,1,46.8750000000001,2|0,1:2|2:0,2:0:0:0:
311,35,3020,5,2,2:0:0:0:
311,35,3080,1,2,2:0:0:0:
311,35,3140,2,0,B|300:75|300:75|291:80|291:80|280:120,1,93.75,10|0,1:2|2:0,2:0:0:0:
465,114,3260,5,2,1:2:0:0:
465,114,3320,1,2,1:2:0:0:
465,114,3380,2,0,L|358:141,1,103.125,2|0,1:2|2:0,2:0:0:0:
206,183,3500,1,2,2:0:0:0:
427,218,3620,6,0,L|374:231,1,46.8750000000001,10|0,1:2|2:0,2:0:0:0:
284,253,3740,1,2,2:0:0:0:
426,357,3860,6,0,B|447:340|434:336|434:336|396:326|396:326|383:323|369:341|382:345|382:345|420:355|420:355,1,140.625,2|0,1:2|2:0,2:0:0:0:
510,368,4100,2,0,B|378:332|378:332|350:325|329:340|329:340|308:356|280:349|280:349|148:313,1,375,8|0,1:2|2:0,2:0:0:0:
0,256,4340,6,0,P|35:285|42:330,1,93.75,2|0,1:2|2:0,2:0:0:0:
106,249,4460,2,0,P|126:226|129:195,1,62.5,2|0,2:0|2:0,2:0:0:0:
8,29,4580,2,0,P|-4:-1|0:31,1,93.75,8|0,1:2|2:0,2:0:0:0:
53,193,4700,5,2,1:2:0:0:
53,193,4760,1,2,1:2:0:0:
53,193,4820,2,0,B|47:173|47:173|42:170|42:170|46:153|46:153|41:150|41:150|29:104,1,93.75,2|0,1:2|2:0,2:0:0:0:
96,0,4940,2,0,B|106:40|106:40|91:58,1,62.5,2|0,2:0|2:0,2:0:0:0:
202,87,5060,5,10,1:2:0:0:
223,93,5120,1,2,1:2:0:0:
244,98,5180,1,2,1:2:0:0:
266,104,5240,1,2,1:2:0:0:
288,110,5300,6,0,L|320:118,1,31.25,2|0,1:2|2:0,2:0:0:0:
361,188,5420,2,0,L|391:196,1,31.25,2|0,2:0|2:0,2:0:0:0:
473,104,5540,6,0,L|428:117,1,46.8750000000001,10|0,1:2|2:0,2:0:0:0:
174,183,5660,2,0,L|128:195,1,46.8750000000001,2|0,1:2|2:0,2:0:0:0:
378,0,5780,6,0,B|390:9|390:9|378:54,1,62.5,2|0,1:2|2:0,2:0:0:0:
361,188,5900,1,2,2:0:0:0:
350,194,5960,1,2,2:0:0:0:
339,200,6020,2,0,L|317:278,1,78.125,10|0,1:2|2:0,2:0:0:0:
308,348,6140,2,0,L|324:287,1,62.5,2|0,2:0|2:0,2:0:0:0:
111,282,6260,6,0,B|122:289|122:289|199:268,1,93.75,2|0,1:2|2:0,2:0:0:0:
491,182,6380,5,2,1:2:0:0:
484,188,6440,1,2,2:0:0:0:
478,228,6500,5,10,1:2:0:0:
471,234,6560,1,2,2:0:0:0:
466,274,6620,6,0,B|461:291|461:291|456:294|456:294|460:306|460:306|456:309|456:309|443:359,1,93.75,2|0,2:0|2:0,2:0:0:0:
287,117,6740,6,0,B|297:78|297:78|308:89|308:89|298:126,1,93.75,2|0,1:2|2:0,2:0:0:0:
332,207,6860,5,2,2:0:0:0:
329,199,6920,1,2,2:0:0:0:
339,200,6980,2,0,B|367:192|367:192|383:130,1,93.75,10|0,1:2|2:0,2:0:0:0:
254,6,7100,2,0,B|225:13|225:13|209:75,1,93.75,2|0,1:2|1:0,2:0:0:0:
117,175,7220,5,2,1:2:0:0:
115,180,7280,1,2,2:0:0:0:
112,185,7340,2,0,L|211:159,1,103.125,2|0,2:0|2:0,2:0:0:0:
460,94,7460,1,8,1:2:0:0:
280,347,7580,6,0,B|266:356|266:356|269:386|269:386|286:362|286:362|280:347,1,93.75,2|0,2:0|2:0,2:0:0:0:
256,276,7700,2,0,B|235:212|332:159|390:254|341:298,1,218.75,0|2,1:2|2:0,2:0:0:0:
98,271,7880,5,2,2:0:0:0:
98,271,7940,2,0,B|64:305|91:351|91:351|108:273|176:253,1,218.75,10|2,1:2|2:0,2:0:0:0:
209,75,8120,5,2,2:0:0:0:
209,75,8180,2,0,P|262:82|289:127,1,109.375,2|0,1:2|2:0,2:0:0:0:
367,117,8300,2,0,P|373:154|348:182,1,78.125,2|0,2:0|2:0,2:0:0:0:
35,125,8420,6,0,B|52:129|52:129|55:134|55:134|67:129|67:129|70:134|70:134|119:147,1,93.75,10|0,1:2|2:0,2:0:0:0:
199,165,8540,2,0,P|219:171|198:169,1,62.5,2|0,2:0|2:0,2:0:0:0:
125,48,8660,5,0,1:2:0:0:
125,48,8720,1,0,1:0:0:0:
125,48,8780,2,0,P|119:25|102:9,1,46.8750000000001,2|0,2:0|2:0,2:0:0:0:
367,117,8900,6,0,P|378:87|402:68,1,62.5,10|0,1:2|2:0,2:0:0:0:
97,270,9020,6,0,P|80:236|48:215,1,78.125,2|0,1:2|2:0,2:0:0:0:
355,363,9140,6,0,P|385:327|425:303,1,93.75,2|0,1:2|2:0,2:0:0:0:
259,7,9260,5,2,1:2:0:0:
259,7,9320,1,2,1:2:0:0:
259,7,9380,2,0,B|281:249|199:103|223:375,1,375,10|0,1:0|2:0,2:0:0:0:
273,315,9620,6,0,B|279:300|279:300|267:255,1,62.5,6|0,1:2|2:0,2:0:0:0:
236,139,9740,1,2,2:0:0:0:
97,270,9860,6,0,L|172:290,1,78.125,10|0,1:2|2:0,2:0:0:0:
355,363,9980,1,2,2:0:0:0:
371,343,10040,1,2,2:3:0:0:
368,318,10100,1,2,1:3:0:0:
367,117,10220,5,2,2:0:0:0:
389,201,10340,1,10,1:2:0:0:
451,140,10460,1,2,2:0:0:0:
236,139,10580,6,0,L|286:152,1,46.8750000000001,2|0,1:2|2:0,2:0:0:0:
512,213,10700,1,2,2:0:0:0:
264,0,10820,6,0,B|279:4|279:4|291:49,1,62.5,10|0,1:2|2:0,2:0:0:0:
264,20,10940,2,0,B|275:23|275:23|284:56,1,46.8750000000001,2|0,2:0|2:0,2:0:0:0:
369,306,11060,1,2,1:2:0:0:
369,288,11120,1,2,1:3:0:0:
383,297,11180,1,2,1:3:0:0:
286,271,11300,6,0,L|240:258,1,46.8750000000001,8|0,1:2|2:0,2:0:0:0:
466,320,11420,2,0,L|512:333,1,46.8750000000001,2|0,1:2|2:0,2:0:0:0:
233,382,11540,6,0,B|292:365|292:365|297:350,1,78.125,2|0,1:2|2:0,2:0:0:0:
512,213,11660,2,0,B|452:229|452:229|447:244,1,78.125,2|0,1:2|2:0,2:0:0:0:
161,296,11780,6,0,B|153:232|96:217|96:217|153:232|191:181,1,218.75,10|2,1:2|2:0,2:0:0:0:
240,258,11960,1,2,2:3:0:0:
240,258,12020,2,0,B|259:230|321:279|243:292|240:258,1,93.75,0|0,1:2|2:0,2:0:0:0:
72,297,12140,1,2,2:0:0:0:
273,169,12260,1,10,1:2:0:0:
119,62,12380,5,2,1:2:0:0:
119,62,12440,1,0,1:3:0:0:
119,62,12500,2,0,B|92:21|42:38|42:38|114:71|120:142,1,218.75,2|2,1:2|2:0,2:0:0:0:
100,212,12680,1,2,2:3:0:0:
100,212,12740,2,0,P|57:199|47:155,1,93.75,10|0,1:2|2:0,2:0:0:0:
188,11,12860,1,2,2:0:0:0:
365,172,12980,6,0,B|365:99|307:58|234:79|234:79|233:91|224:105,1,218.75,0|0,1:2|2:0,2:0:0:0:
191,180,13160,1,2,2:3:0:0:
191,180,13220,2,0,B|234:196|234:196|273:169,1,93.75,8|0,1:2|2:0,2:0:0:0:
429,53,13340,2,0,B|419:70|419:70|443:97|443:138,1,93.75,0|0,1:2|2:0,2:0:0:0:
411,307,13460,5,2,1:2:0:0:
433,223,13580,1,2,2:0:0:0:
495,284,13700,1,10,1:2:0:0:
238,324,13820,6,0,P|212:333|239:329,1,78.125,2|0,2:0|2:0,2:0:0:0:
312,363,13940,2,0,B|350:297|290:250|295:278|235:231|273:166,1,218.75,0|2,1:2|2:0,2:0:0:0:
345,134,14120,1,2,2:3:0:0:
345,134,14180,2,0,B|358:139|358:139|370:169|348:199,1,78.125,10|0,1:2|2:0,2:0:0:0:
271,85,14300,2,0,B|297:64|244:5|236:84|271:85,1,93.75,2|0,2:0|2:0,2:0:0:0:
241,242,14420,5,2,1:2:0:0:
355,45,14540,1,2,2:0:0:0:
220,249,14660,5,10,1:2:0:0:
351,21,14780,1,2,2:0:0:0:
34,93,14900,6,0,B|3:95|-13:123|-13:123|54:101|96:142|96:142|92:164|107:182,1,218.75,2|0,1:2|2:0,2:0:0:0:
193,172,15080,1,2,2:3:0:0:
193,172,15140,2,0,B|200:133|200:133|174:105,1,78.125,8|0,1:2|2:0,2:0:0:0:
41,230,15260,2,0,P|63:260|101:262,1,78.125,2|0,1:2|2:0,2:0:0:0:
111,49,15380,6,0,B|105:39|105:39|120:12|120:12|120:43|120:43|111:49,1,78.125,2|0,1:2|2:0,2:0:0:0:
34,333,15500,2,0,B|24:338|24:338|24:369|24:369|39:342|39:342|34:333,1,78.125,2|0,1:2|2:0,2:0:0:0:
94,136,15620,6,0,L|106:181,1,46.875,10|0,1:2|2:0,2:0:0:0:
306,276,15860,6,0,B|301:283|301:283|313:303|313:303|313:280|313:280|306:276,1,62.5,2|0,1:2|2:0,2:0:0:0:
248,59,15980,2,0,B|240:54|240:54|240:31|240:31|252:51|252:51|248:59,1,62.5,2|0,2:0|2:0,2:0:0:0:
287,161,16100,6,0,L|278:191,1,31.25,10|0,1:2|2:0,2:0:0:0:
279,158,16220,2,0,L|266:203,1,31.25,2|0,1:2|2:0,2:0:0:0:
473,235,16340,6,0,P|475:212|462:193,1,46.8750000000001,0|0,1:2|2:0,2:0:0:0:
504,128,16460,2,0,P|479:110|448:111,1,62.5,2|0,2:0|2:0,2:0:0:0:
422,37,16580,2,0,P|387:52|370:86,1,78.125,10|0,1:2|2:0,2:0:0:0:
377,186,16700,6,0,P|380:169|371:184,2,46.875,2|0|0,2:0|2:0|2:0,2:0:0:0:
198,145,16820,1,2,1:2:0:0:
200,136,16880,1,2,1:3:0:0:
189,138,16940,2,0,L|166:131,2,23.4375000000001,2|0|0,2:3|2:0|2:0,2:0:0:0:
310,293,17060,6,0,B|300:304|300:304|322:338|322:338|325:298|325:298|310:293,1,109.375,10|0,1:2|2:0,2:0:0:0:
243,40,17180,2,0,B|253:29|253:29|231:-3|231:-3|229:36|229:36|243:40,1,109.375,2|0,1:2|2:0,2:0:0:0:
85,195,17300,6,0,B|81:173|64:161|64:161|162:142|202:233|202:233|134:239|119:305,1,328.125,6|0,1:2|2:0,2:0:0:0:
222,338,17540,2,0,B|226:358|210:370|210:370|218:340|197:314,1,93.75,10|0,1:2|2:0,2:0:0:0:
5,246,17660,5,2,1:2:0:0:
7,254,17720,1,0,1:2:0:0:
2,252,17780,2,0,B|147:212|147:212|161:189|161:189|307:150,1,328.125,2|0,1:2|2:0,2:0:0:0:
459,94,18020,6,0,B|479:50|523:47|523:47|452:4|388:29|367:97|367:97|403:138|377:186,1,375,10|0,1:2|2:0,2:0:0:0:
297,206,18260,2,0,P|291:176|306:150,1,62.5,2|0,1:2|2:0,2:0:0:0:
279,74,18380,1,2,2:0:0:0:
467,180,18500,6,0,B|445:185|445:185|432:189|422:183|422:183|411:177|398:181|398:181|377:186,1,93.75,10|0,1:2|2:0,2:0:0:0:
129,237,18620,1,2,2:0:0:0:
472,286,18740,2,0,B|398:266|398:266|351:253|334:211|334:211|316:169|269:157|269:157|196:137,1,328.125,2|0,1:2|2:0,2:0:0:0:
129,237,18980,6,0,B|132:228|132:228|172:215,1,46.8750017881394,8|0,1:2|2:0,2:0:0:0:
285,42,19100,2,0,B|281:52|281:52|241:65,1,46.8750017881394,0|0,1:2|2:0,2:0:0:0:
91,0,19220,6,0,B|151:16|151:16|160:46,1,93.7500035762788,2|0,1:2|2:0,2:0:0:0:
324,283,19340,2,0,B|263:266|263:266|253:235,1,93.7500035762788,2|0,1:2|2:0,2:0:0:0:
119,116,19460,6,0,B|-18:78|-18:78|-25:83|-25:83|45:100|60:172,1,281.250010728836,10|2,1:2|2:0,2:0:0:0:
43,248,19700,1,2,1:2:0:0:
34,245,19760,1,0,2:3:0:0:
36,255,19820,2,0,L|23:300,1,46.8750000000001,2|0,2:0|2:0,2:0:0:0:
1,384,19940,2,0,L|46:371,1,46.8750000000001,10|0,1:2|2:0,2:0:0:0:
131,350,20060,2,0,L|97:316,1,46.8750000000001,2|0,2:0|2:0,2:0:0:0:
272,112,20180,5,2,1:2:0:0:
274,121,20240,1,0,2:3:0:0:
268,118,20300,2,0,L|183:140,1,78.125,2|0,2:0|2:0,2:0:0:0:
61,171,20420,2,0,L|122:232,1,78.125,10|0,1:2|2:0,2:0:0:0:
213,323,20540,2,0,L|235:238,1,78.125,2|0,2:0|2:0,2:0:0:0:
384,65,20660,5,2,1:2:0:0:
357,81,20720,1,0,1:2:0:0:
368,95,20780,1,0,1:0:0:0:
358,108,20840,1,0,1:0:0:0:
358,120,20900,2,0,B|363:129|363:129|353:168|353:168|333:179|333:179|327:202|327:202|333:212,1,109.375,10|0,1:2|2:0,2:0:0:0:
418,237,21020,5,2,1:3:0:0:
418,237,21080,1,2,1:3:0:0:
418,237,21140,2,0,B|406:280|406:280|396:282,2,54.6875,2|0|0,1:2|2:0|2:0,2:0:0:0:
291,384,21260,2,0,L|314:293,1,93.75,0|0,2:0|2:0,2:0:0:0:
187,65,21380,6,0,B|167:42|175:18|175:18|179:42|199:56,1,93.75,10|0,1:2|2:0,2:0:0:0:
272,92,21500,1,2,2:0:0:0:
267,99,21560,1,2,2:3:0:0:
275,99,21620,2,0,B|211:71|164:120|164:120|170:124|170:124|290:118|333:212,1,328.125,2|0,1:2|2:0,2:0:0:0:
162,307,21860,6,0,B|162:352|127:376|76:367|60:326|54:273|95:217|177:215|177:215|203:250|248:246,1,375,10|0,1:2|2:0,2:0:0:0:
244,234,22100,2,0,P|214:233|190:213,1,62.5,2|0,1:2|2:0,2:0:0:0:
167,137,22220,1,2,2:0:0:0:
8,190,22340,6,0,B|29:196|29:196|42:199|48:209|48:209|54:220|67:223|67:223|89:229,1,93.75,10|0,1:2|2:0,2:0:0:0:
319,293,22460,1,2,2:0:0:0:
26,332,22580,2,0,B|108:309|108:309|149:298|169:264|169:264|190:228|231:217|231:217|313:195,1,328.125,2|0,1:2|2:0,2:0:0:0:
425,157,22820,6,0,L|412:203,1,46.8750000000001,10|0,1:2|2:0,2:0:0:0:
418,155,22940,2,0,L|405:201,1,46.8750000000001,0|0,1:2|2:0,2:0:0:0:
485,326,23060,6,0,B|424:309|424:309|416:279,1,93.75,2|0,1:2|2:0,2:0:0:0:
345,31,23180,2,0,B|406:48|406:48|414:78,1,93.75,2|0,1:2|2:0,2:0:0:0:
511,64,23300,6,0,B|539:129|491:189|419:182|419:182|416:179|416:179|413:176|413:176|340:170|299:226|319:293,1,375,10|0,1:2|2:0,2:0:0:0:
268,63,23540,5,2,1:2:0:0:
274,71,23600,1,0,2:3:0:0:
265,72,23660,2,0,P|237:84|224:112,1,62.5,2|0,2:0|2:0,2:0:0:0:
318,207,23780,2,0,P|320:176|303:151,1,62.5,10|0,1:2|2:0,2:0:0:0:
179,181,23900,2,0,P|203:198|234:195,1,62.5,2|0,2:0|2:0,2:0:0:0:
418,196,24020,6,0,P|405:232|397:271,1,78.125,2|0,1:2|2:0,2:0:0:0:
239,384,24140,2,0,P|207:360|200:323,1,78.125,2|0,1:2|2:0,2:0:0:0:
432,191,24260,6,0,P|416:235|407:281,1,93.75,10|0,1:2|2:0,2:0:0:0:
79,301,24380,2,0,P|72:255|97:217,1,93.7500035762788,2|0,1:2|2:0,2:0:0:0:
283,50,24500,5,10,0:0:0:0:
259,83,24560,5,8,0:0:0:0:
260,42,24620,5,8,0:0:0:0:
282,75,24680,5,8,0:0:0:0:
243,64,24740,6,0,B|381:24|381:24|275:117|256:265,1,421.874999999999,10|0,1:0|2:0,2:0:0:0:
132,89,24980,6,2,B|154:88|172:102|172:102|159:82|164:60|164:60|153:80|131:88,10,131.25,6|2|2|2|2|2|2|2|2|2|2,1:2|2:0|2:0|2:0|2:0|2:0|2:0|2:0|2:0|2:0|2:0,2:0:0:0:
60,39,25340,2,0,B|39:52|29:72|29:72|32:96|48:115,1,93.75,2|0,2:0|2:0,2:0:0:0:
0,242,25460,6,0,B|39:229|39:229|48:234|48:234|122:211|122:211|126:188|126:188|91:199|91:199|87:219|87:219|237:173,1,356.249990487099,8|0,1:2|2:0,2:0:0:0:
403,125,25700,2,0,B|423:123|423:123|425:130|425:130|408:139,1,46.8750000000001,2|0,2:0|2:0,2:0:0:0:
322,96,25820,2,0,B|305:159|305:159|319:183,1,93.7500035762788,0|0,2:0|2:0,2:0:0:0:
339,298,25940,6,0,B|355:247|377:283|395:227,1,93.7500035762788,2|0,1:2|2:0,2:0:0:0:
275,26,26060,2,0,B|296:3|296:3|326:13,1,62.5,2|2,2:0|2:0,2:0:0:0:
471,249,26300,6,0,L|395:228,1,78.125,2|0,1:2|2:0,2:0:0:0:
143,164,26420,2,0,B|174:133|174:133|274:160|274:160|278:173|278:173|277:206|253:245|206:246|216:233|178:233|150:259|156:310,1,365.625,8|0,1:2|2:0,2:0:0:0:
215,369,26660,5,2,1:2:0:0:
224,359,26720,1,2,2:0:0:0:
233,349,26780,1,2,2:0:0:0:
240,335,26840,1,2,2:0:0:0:
242,321,26900,6,0,B|221:152|190:267|166:87,1,250,0|0,1:2|2:0,2:0:0:0:
110,27,27080,1,2,2:0:0:0:
110,27,27140,2,0,P|79:60|85:105,1,93.75,0|0,2:0|2:0,2:0:0:0:
143,164,27260,2,0,P|177:170|207:155,1,62.5,0|0,2:0|2:0,2:0:0:0:
245,15,27380,6,0,B|222:1|189:5|189:5|243:11|256:66|252:67|248:69|249:105|290:117,1,218.75,8|0,1:2|2:0,2:0:0:0:
303,196,27560,1,2,2:0:0:0:
303,196,27620,2,0,P|354:175|368:125,1,109.375,2|0,2:0|2:0,2:0:0:0:
338,53,27740,2,0,P|344:32|333:50,1,62.5,2|0,1:2|2:0,2:0:0:0:
512,251,27860,6,0,P|466:241|421:226,1,93.75,2|0,2:0|2:0,2:0:0:0:
231,280,27980,2,0,P|276:289|321:304,1,93.75,2|0,2:0|2:0,2:0:0:0:
383,362,28100,1,2,1:2:0:0:
388,369,28160,1,2,2:0:0:0:
391,363,28220,2,0,B|410:338|410:338|405:307,1,62.5,2|0,2:0|2:0,2:0:0:0:
201,159,28340,6,0,B|115:159|71:236|105:313|105:313|137:319|165:329,1,281.25,8|0,1:2|2:0,2:0:0:0:
215,384,28580,2,0,B|176:166|136:301|98:84,1,328.125,10|0,1:0|2:0,2:0:0:0:
289,203,28820,6,0,P|432:163|404:17,1,328.125,2|0,1:2|2:0,2:0:0:0:
412,14,29060,2,0,P|328:-15|249:36,1,187.5,8|0,1:2|2:0,2:0:0:0:
343,107,29240,5,2,2:0:0:0:
343,107,29300,2,2,P|345:91|344:107,6,46.875,2|2|2|2|2|2|2,1:2|2:0|2:0|2:0|2:0|2:0|2:0,2:0:0:0:
236,31,29540,2,0,B|180:94|194:170|265:221|267:209|270:195|326:220|342:271|314:329,1,346.875,8|0,1:2|2:0,2:0:0:0:
243,373,29780,5,2,1:2:0:0:
240,362,29840,1,2,2:0:0:0:
250,359,29900,1,2,2:0:0:0:
253,370,29960,1,2,2:0:0:0:
246,366,30020,2,0,B|241:360|233:359|233:359|211:318|239:286,1,93.75,8|0,1:2|2:0,2:0:0:0:
329,200,30140,1,2,2:0:0:0:
107,97,30260,6,0,L|156:110,1,46.8750000000001,2|0,1:2|2:0,2:0:0:0:
185,182,30380,2,0,L|234:195,1,46.8750000000001,2|0,2:0|2:0,2:0:0:0:
335,110,30500,6,0,B|305:118|305:118|294:106|294:106|264:114,1,78.125,10|0,1:2|2:0,2:0:0:0:
1,176,30620,2,0,B|30:169|30:169|41:181|41:181|71:173,1,78.125,2|0,1:2|2:0,2:0:0:0:
207,29,30740,6,0,B|177:138|177:138|157:150|157:150|128:260,1,250,2|0,1:2|1:2,2:0:0:0:
169,335,30920,1,0,1:2:0:0:
169,335,30980,1,8,1:2:0:0:
41,259,31100,2,0,P|40:312|89:336,1,109.375001043081,2|0,2:0|2:0,2:0:0:0:
366,358,31220,6,0,B|332:346|332:346|328:326|328:326|291:314,1,93.7500035762788,2|0,1:2|2:0,2:0:0:0:
128,259,31340,1,2,2:0:0:0:
456,247,31460,6,0,B|433:255|433:255|432:267|432:267|408:276,1,62.5,10|0,1:2|2:0,2:0:0:0:
284,322,31580,1,2,2:0:0:0:
456,247,31700,6,0,B|479:192|447:137|383:133|383:133|380:136|380:136|377:138|377:138|314:134|278:78|306:24,1,328.125,2|0,1:2|2:0,2:0:0:0:
304,19,31940,2,0,B|333:-27|397:-28|428:18|428:18|390:21|373:56,1,218.75,10|0,1:2|2:0,2:0:0:0:
481,81,32120,5,2,2:0:0:0:
481,81,32180,2,0,P|458:120|410:129,1,93.75,0|0,1:2|2:0,2:0:0:0:
387,210,32300,2,0,P|356:202|341:172,1,62.5,0|0,2:0|2:0,2:0:0:0:
178,29,32420,6,0,B|196:26|188:-8|151:1|158:33|178:29|178:29|196:25|189:-8|151:-1|158:33|178:29|178:29,1,125,10|0,1:2|2:0,2:0:0:0:
235,269,32540,2,0,B|217:272|225:306|261:297|255:265|235:269|235:269|217:273|224:306|262:299|255:265|235:268|235:268,1,125,0|0,1:2|2:0,2:0:0:0:
26,143,32660,6,0,B|37:99|96:85|132:124|132:124|111:147|110:176|131:203,1,218.75,6|2,1:2|2:3,2:0:0:0:
147,206,32840,1,2,1:3:0:0:
147,206,32900,2,0,P|242:200|214:109,1,218.75,8|2,1:2|2:3,2:0:0:0:
32,229,33080,5,2,1:3:0:0:
32,229,33140,2,0,B|118:206|73:170|150:149|150:149|393:85,1,375,0|0,1:2|2:0,2:0:0:0:
377,91,33380,2,0,B|390:39|359:-5|297:-9|255:25|255:25|287:33|299:68,1,250,8|0,1:2|2:0,2:0:0:0:
420,183,33560,5,2,1:3:0:0:
420,183,33620,2,0,B|431:157|453:150|453:150|464:106,1,93.75,0|0,1:2|2:0,2:0:0:0:
488,32,33740,1,2,2:3:0:0:
331,182,33860,2,0,P|334:227|371:254,1,93.75,8|0,1:2|2:0,2:0:0:0:
488,251,33980,6,0,P|494:230|492:251,1,62.5,2|0,2:0|2:0,2:0:0:0:
354,345,34100,2,0,B|330:350|310:338|310:338|352:392|424:386|451:325,1,218.75,2|0,1:2|2:0,2:0:0:0:
300,59,34280,5,2,2:3:0:0:
300,59,34340,2,0,B|293:47|293:47|310:16|310:16|310:52|310:52|300:59,1,93.75,10|0,1:2|2:0,2:0:0:0:
244,262,34460,2,0,B|232:268|232:268|231:303|231:303|249:272|249:272|244:262,1,93.75,0|0,1:2|2:0,2:0:0:0:
206,44,34580,6,0,B|172:78|172:78|181:107|181:107|225:119,1,125,2|0,1:2|2:0,2:0:0:0:
244,262,34700,1,2,1:3:0:0:
244,262,34760,1,2,1:3:0:0:
244,262,34820,2,0,B|309:207|309:207|288:151|288:151|94:99,1,346.875,8|0,1:2|2:0,2:0:0:0:
13,59,35060,5,2,1:3:0:0:
1,72,35120,1,2,1:3:0:0:
4,89,35180,1,2,1:3:0:0:
225,119,35300,2,0,B|180:130|180:130|173:157|152:166,1,93.75,8|0,1:2|2:0,2:0:0:0:
85,263,35420,5,2,1:3:0:0:
85,263,35480,1,2,1:3:0:0:
85,263,35540,2,0,L|95:222,2,31.25,2|0|0,1:3|2:0|2:0,2:0:0:0:
20,188,35660,2,0,B|-13:220|-13:220|0:265,1,93.75,0|0,2:0|2:0,2:0:0:0:
176,374,35780,5,8,1:2:0:0:
99,88,35900,2,0,L|86:40,2,46.875,2|0|0,2:0|2:0|2:0,2:0:0:0:
234,306,36020,5,2,1:2:0:0:
256,298,36080,1,2,2:3:0:0:
247,280,36140,1,2,2:3:0:0:
256,274,36200,1,2,2:3:0:0:
255,264,36260,2,0,B|258:251|258:251|256:247|256:247|266:233|266:233|264:229|264:229|278:177,1,93.75,10|0,1:2|2:0,2:0:0:0:
320,48,36380,1,2,1:3:0:0:
312,46,36440,1,2,1:3:0:0:
317,41,36500,6,0,B|327:2|327:2|344:-1,2,54.6875,2|0|0,1:2|2:0|2:0,2:0:0:0:
238,97,36620,1,0,2:0:0:0:
473,236,36740,6,0,B|477:217|477:217|448:187|448:187|367:210|367:210|337:324|337:324|351:336|351:336|396:324,1,328.125,10|0,1:2|2:0,2:0:0:0:
471,331,36980,2,0,B|498:323|498:323|500:311|500:311|479:317,1,62.5,2|0,1:2|2:0,2:0:0:0:
427,109,37160,5,2,2:0:0:0:
427,109,37220,2,0,B|341:131|341:131|303:142|289:183|289:183|275:224|236:234|236:234|151:257,1,328.125,10|0,1:2|2:0,2:0:0:0:
96,192,37460,5,0,1:2:0:0:
265,273,37580,1,0,2:0:0:0:
34,61,37700,2,0,B|49:123|113:116|93:102|158:95|173:158,1,187.5,8|2,1:2|2:0,2:0:0:0:
67,339,37940,6,0,B|127:141|177:264|237:67,1,328.125,2|0,1:2|2:0,2:0:0:0:
308,200,38180,2,0,P|319:162|336:127,1,78.125,10|0,1:2|2:0,2:0:0:0:
113,72,38300,2,0,P|129:36|141:0,1,78.125,0|0,1:2|2:0,2:0:0:0:
378,47,38420,6,0,P|419:63|420:108,1,93.75,2|0,1:2|2:0,2:0:0:0:
495,210,38540,1,0,1:2:0:0:
500,205,38600,1,0,1:0:0:0:
500,212,38660,2,0,P|413:197|386:261,1,156.25,10|0,1:2|2:0,2:0:0:0:
420,326,38840,5,2,2:0:0:0:
420,326,38900,2,0,B|390:257|323:272|337:293|270:309|240:245,1,218.75,2|0,1:2|2:0,2:0:0:0:
333,118,39080,5,2,2:0:0:0:
333,118,39140,2,0,B|263:86|201:127|200:195|215:197|234:199|216:288|154:322|71:274,1,375,10|0,1:2|2:0,2:0:0:0:
32,163,39380,6,0,B|40:146|60:145|60:145|35:165|38:202,1,93.75,0|0,1:2|2:0,2:0:0:0:
124,204,39500,1,0,2:0:0:0:
89,47,39620,6,0,B|104:102|124:69|139:125,1,93.75,10|0,1:2|2:0,2:0:0:0:
24,353,39740,1,2,1:2:0:0:
31,350,39800,1,0,1:3:0:0:
26,345,39860,2,0,P|25:294|72:275,1,109.375,2|0,1:2|2:0,2:0:0:0:
111,348,39980,1,2,2:0:0:0:
32,163,40100,6,0,B|-8:150|-8:150|21:163|37:196,1,109.375001043081,10|0,1:2|2:0,2:0:0:0:
209,356,40220,2,0,B|195:312,1,46.8750017881394,0|0,1:2|2:0,2:0:0:0:
379,71,40340,6,0,B|393:50|425:51|425:51|402:54|391:72,1,93.7500035762788,6|0,1:2|2:0,2:0:0:0:
283,217,40460,1,2,2:3:0:0:
290,220,40520,1,2,2:3:0:0:
286,224,40580,2,0,B|251:254|257:310|313:334|361:305|401:232|351:164|351:164|325:161|310:135,1,328.125,10|0,1:2|2:0,2:0:0:0:
295,42,40820,6,0,P|257:42|226:85,1,93.75,2|0,1:2|2:0,2:0:0:0:
155,125,40940,1,2,2:0:0:0:
390,179,41060,6,0,B|370:170|360:150|360:150|310:136,1,93.75,8|0,1:2|2:0,2:0:0:0:
89,68,41180,1,2,1:2:0:0:
83,74,41240,1,2,1:3:0:0:
84,83,41300,1,2,1:3:0:0:
160,251,41420,6,0,P|170:230|167:207,1,46.8750000000001,2|0,2:0|2:0,2:0:0:0:
93,177,41540,2,0,P|74:210|79:249,1,78.125,10|0,1:2|2:0,2:0:0:0:
282,319,41660,6,0,P|287:288|278:318,1,93.75,2|0,2:0|2:0,2:0:0:0:
170,377,41780,2,0,B|206:362|211:323|211:323|383:276,1,250,0|0,1:2|2:0,2:0:0:0:
167,207,42020,2,0,B|108:185|108:185|124:195|130:212,1,93.7500035762788,8|0,1:2|2:0,2:0:0:0:
372,281,42140,5,0,1:2:0:0:
393,286,42200,5,0,1:0:0:0:
389,261,42260,6,0,B|403:209|403:209|434:200,1,87.5,2|0,1:2|2:0,2:0:0:0:
499,267,42380,2,0,B|481:333|481:333|441:344,1,109.375,2|0,1:2|2:0,2:0:0:0:
307,202,42500,6,0,B|309:179|297:161|297:161|311:109,1,93.75,10|0,1:2|2:0,2:0:0:0:
378,72,42620,2,0,B|381:57|381:57|386:54|386:54|389:44,2,31.25,0|0|0,2:0|2:0|2:0,2:0:0:0:
434,200,42740,5,2,1:2:0:0:
434,200,42800,1,2,2:3:0:0:
434,200,42860,2,0,B|301:164|301:164|241:149|259:189|192:170,1,250,2|8,2:0|1:2,2:0:0:0:
153,31,43040,5,2,0:3:0:0:
153,31,43100,2,0,P|102:41|93:92,1,109.375,2|0,2:0|2:0,2:0:0:0:
192,170,43220,1,8,0:2:0:0:
192,170,43280,1,2,2:0:0:0:
192,170,43340,2,0,L|179:124,1,46.8750000000001,2|0,2:0|2:0,2:0:0:0:
108,236,43460,2,0,L|46:200,1,70.625,10|0,1:2|2:0,2:0:0:0:
104,347,43580,2,0,L|13:371,1,93.75,2|2,2:0|2:0,2:0:0:0:
253,384,43700,5,2,1:3:0:0:
259,358,43760,1,2,2:3:0:0:
266,333,43820,1,2,2:3:0:0:
272,308,43880,1,2,2:3:0:0:
279,281,43940,2,0,B|284:260|284:260|289:257|289:257|285:238|285:238|291:235|291:235|305:180,1,109.375,10|0,1:2|2:0,2:0:0:0:
331,85,44060,2,0,B|345:29,2,54.6875,2|0|0,1:2|2:0|2:0,2:0:0:0:
505,162,44180,5,2,1:2:0:0:
505,162,44240,1,2,1:3:0:0:
505,162,44300,2,0,B|528:208|511:266|464:291|409:274|409:274|405:243|379:223,1,250,0|8,2:0|1:2,2:0:0:0:
451,85,44540,6,0,B|432:89|408:106|408:106|405:132|414:152,1,93.75,2|0,2:0|2:0,2:0:0:0:
403,353,44660,2,0,B|406:234|326:175|220:185|220:185|214:206|196:217,1,328.125,2|0,1:2|2:0,2:0:0:0:
196,216,44900,1,8,1:2:0:0:
221,57,45020,6,0,L|233:104,1,46.8750000000001,2|0,2:0|2:0,2:0:0:0:
279,281,45140,1,2,1:3:0:0:
97,148,45260,6,0,L|142:160,1,46.8750000000001,2|0,2:0|2:0,2:0:0:0:
380,224,45380,2,0,B|356:214|347:195|347:195|300:182,1,93.75,10|0,1:2|2:0,2:0:0:0:
82,127,45500,1,2,2:0:0:0:
331,85,45620,6,0,B|349:79|349:79|351:81|351:81|368:77,2,39.0625,2|2|2,1:2|2:3|2:3,2:0:0:0:
279,281,45740,2,0,B|291:294|291:294|295:294|295:294|307:306,2,39.0625,2|2|0,2:3|2:3|2:0,2:0:0:0:
223,68,45860,6,0,B|216:92|216:92|221:101|221:101|213:127,1,62.5,8|0,1:2|2:0,2:0:0:0:
180,283,45980,2,0,B|186:258|186:258|181:249|181:249|188:224,1,62.5,0|0,1:2|2:0,2:0:0:0:
331,85,46100,6,0,B|344:31|344:31|315:5,1,93.75,2|0,1:2|2:0,2:0:0:0:
72,266,46220,2,0,B|59:320|59:320|88:346,1,93.75,2|0,1:2|2:0,2:0:0:0:
312,197,46340,5,10,1:2:0:0:
312,197,46400,1,2,2:3:0:0:
312,197,46460,2,0,B|241:178|241:178|214:170|190:181|190:181|167:191|140:184|140:184|69:165,1,250,2|2,2:0|1:3,2:0:0:0:
16,110,46640,1,2,1:3:0:0:
16,110,46700,2,0,B|24:90|46:75|46:75|73:80|90:90,1,93.75,2|0,2:0|2:0,2:0:0:0:
188,223,46820,1,10,1:2:0:0:
397,15,46940,6,0,P|347:34|331:85,1,109.375,2|0,2:0|2:0,2:0:0:0:
410,99,47060,2,0,P|426:124|456:127,1,62.5,2|0,1:2|2:0,2:0:0:0:
473,48,47180,1,2,2:0:0:0:
454,235,47300,2,0,B|253:181|397:108|197:55,1,328.125,10|0,1:2|2:0,2:0:0:0:
148,152,47540,6,0,B|107:180|117:221|117:221|156:156|233:163,1,218.75,2|0,1:2|2:0,2:0:0:0:
283,232,47720,1,2,2:3:0:0:
283,232,47780,2,0,P|318:204|313:159,1,93.75,10|0,1:2|2:0,2:0:0:0:
133,3,47900,2,0,B|121:8|109:11|109:11|88:40|118:76,1,93.75,0|0,1:2|2:0,2:0:0:0:
204,250,48020,5,2,1:2:0:0:
280,1,48140,1,0,1:2:0:0:
2,207,48260,6,0,P|45:251|54:312,1,125,2|0,2:0|2:0,2:0:0:0:
204,250,48500,2,0,P|203:296|175:334,1,93.7500000000002,2|0,2:0|2:0,2:0:0:0:
325,365,48740,2,0,P|308:381|285:384,1,46.8750000000001,2|0,2:0|2:0,2:0:0:0:
318,360,48860,2,0,P|305:372|287:375,1,37.4999999999999,2|0,2:0|2:0,2:0:0:0:
176,333,48980,5,0,1:2:0:0:
476,220,49100,1,0,1:2:0:0:
455,212,49220,1,0,2:0:0:0:
459,234,49340,1,0,2:0:0:0:
358,66,49460,6,0,P|366:40|362:67,1,78.1250000000001,2|0,2:1|2:0,2:0:0:0:
303,120,49580,1,2,2:0:0:0:
303,120,49640,1,2,2:0:0:0:
303,120,49700,2,0,B|280:136|283:166|283:166|315:183|325:230|309:263|309:263|311:226|343:190|380:192|380:192|398:167|386:142,1,328.125,8|0,1:2|2:0,2:0:0:0:
282,0,49940,6,0,P|333:141|393:309,1,328.125,6|0,1:2|2:0,2:0:0:0:
184,110,50180,2,0,P|143:221|103:332,1,234.375,10|0,1:2|2:0,2:0:0:0:
225,254,50420,1,2,1:2:0:0:
20,332,50540,1,2,2:0:0:0:
239,251,50660,2,0,P|248:221|259:191,1,62.5,8|0,1:2|2:0,2:0:0:0:
152,21,50780,6,0,P|167:65|183:109,1,93.75,2|0,2:0|2:0,2:0:0:0:
277,361,50900,1,0,1:2:0:0:
440,132,51020,2,0,B|456:175|441:224|400:259|345:261|345:261|335:246|324:238,1,218.75,2|8,2:0|1:2,2:0:0:0:
299,114,51200,5,0,2:0:0:0:
299,114,51260,2,0,B|321:106|344:114|344:114|353:134|351:160,1,93.75,2|0,2:0|2:0,2:0:0:0:
355,338,51380,2,0,P|259:207|97:204,1,337.5,2|0,1:2|2:0,2:0:0:0:
97,204,51620,2,0,P|119:234|157:233,1,78.125,10|0,1:2|2:0,2:0:0:0:
184,309,51740,2,0,P|226:294|239:251,1,93.75,2|0,1:2|2:0,2:0:0:0:
152,21,51860,6,0,B|135:55|135:55|158:119,1,93.75,2|0,1:2|2:0,2:0:0:0:
299,114,51980,2,0,L|255:97,1,46.8750000000001,0|0,1:2|2:0,2:0:0:0:
3,173,52100,6,0,B|53:155|62:111|62:111|335:12,1,375,10|0,1:2|2:0,2:0:0:0:
376,84,52340,1,2,1:2:0:0:
146,0,52460,1,2,2:0:0:0:
395,91,52580,2,0,L|453:70,1,62.5,10|0,1:2|2:0,2:0:0:0:
358,237,52700,6,0,L|373:177,1,62.5,2|0,2:0|2:0,2:0:0:0:
375,168,52820,1,0,1:2:0:0:
251,258,52940,6,0,L|207:183,1,78.125,2|0,2:0|2:0,2:0:0:0:
200,171,53060,1,8,1:2:0:0:
186,342,53180,6,0,L|95:309,1,93.75,2|0,2:0|2:0,2:0:0:0:
29,286,53300,2,0,L|-3:274,2,31.25,0|0|0,1:2|2:0|2:0,2:0:0:0:
272,376,53420,5,2,2:0:0:0:
274,366,53480,1,2,2:3:0:0:
280,375,53540,2,0,B|316:384|316:384|287:335,1,93.75,8|0,1:2|2:0,2:0:0:0:
153,99,53660,2,0,B|138:95|138:95|131:61|131:61|158:84|158:84|153:99,1,93.75,2|0,1:2|2:0,2:0:0:0:
481,212,53780,6,0,B|521:222|521:222|526:329|423:322|423:322|396:275|396:275|364:220|412:230|376:168,1,375,2|0,1:2|2:0,2:0:0:0:
306,140,54020,2,0,B|295:156|295:156|287:168|295:183|295:183|310:209,1,78.125,10|0,1:2|2:0,2:0:0:0:
496,68,54140,6,0,B|436:51|436:51|406:69,1,93.75,2|0,2:0|2:0,2:0:0:0:
446,134,54260,1,0,1:2:0:0:
268,64,54380,6,0,B|267:51|258:35|258:35|267:51|278:58,1,62.5,2|0,2:0|2:0,2:0:0:0:
396,266,54500,2,0,B|396:278|406:295|406:295|396:278|386:272,1,62.5,10|0,1:2|2:0,2:0:0:0:
153,99,54620,6,0,B|110:87|110:87|92:82|82:97|82:97|68:116,1,93.75,2|0,2:0|2:0,2:0:0:0:
137,278,54740,2,0,B|88:286|52:261|50:215|50:215|48:197|56:189|78:192|78:192|103:197|123:175,1,218.75,0|0,1:2|2:0,2:0:0:0:
30,32,54980,5,10,1:2:0:0:
119,186,55100,1,2,2:0:0:0:
18,29,55220,5,2,1:2:0:0:
116,197,55340,1,2,2:0:0:0:
268,64,55460,6,0,B|258:66|258:66|242:71|238:87|238:87|229:124,1,78.125,10|0,1:2|2:0,2:0:0:0:
271,193,55580,2,0,B|280:190|280:190|296:185|300:169|300:169|309:132,1,78.125,2|0,1:2|2:0,2:0:0:0:
153,21,55700,6,0,B|165:32|165:32|167:42|167:42|150:106,1,93.75,0|0,1:2|2:0,2:0:0:0:
386,236,55820,2,0,B|374:225|374:225|371:214|371:214|388:150,1,93.75,2|0,1:2|2:0,2:0:0:0:
114,208,55940,6,0,L|184:189,1,62.5,10|0,1:2|2:0,2:0:0:0:
466,115,56060,1,0,2:0:0:0:
295,339,56180,6,0,L|315:261,1,62.5,2|0,1:2|2:0,2:0:0:0:
370,66,56300,1,2,2:0:0:0:
461,215,56420,6,0,L|382:236,1,78.125,10|0,1:2|2:0,2:0:0:0:
202,281,56540,1,2,1:2:0:0:
202,281,56600,1,2,1:3:0:0:
202,281,56660,2,0,B|278:261|278:261|324:248|357:280|357:280|390:312|436:300|436:300|512:280,1,328.125,2|0,1:3|2:0,2:0:0:0:
512,280,56900,1,8,1:2:0:0:
301,113,57020,6,0,B|285:129|285:129|291:152,1,46.8750000000001,2|0,2:0|2:0,2:0:0:0:
385,235,57140,6,0,B|411:208|411:208|400:169,1,78.125,2|0,1:2|2:0,2:0:0:0:
232,65,57260,6,0,B|194:102|194:102|209:156,1,109.375,2|0,2:0|2:0,2:0:0:0:
258,365,57380,6,0,B|271:342|293:340|293:340|310:278,1,109.375,10|0,1:2|2:0,2:0:0:0:
368,62,57500,2,0,B|373:40|363:21|363:21|392:29|392:29|373:40|368:62,1,109.375,2|0,1:2|2:0,2:0:0:0:
202,281,57620,6,0,B|195:267|192:253|192:253|145:240,1,78.125,6|0,1:2|2:0,2:0:0:0:
128,166,57740,1,2,2:0:0:0:
385,235,57860,2,0,B|334:242|317:289|317:289|58:359,1,346.875,10|0,1:2|2:0,2:0:0:0:
0,219,58100,6,0,B|3:236|3:236|65:253,1,78.125,2|0,1:2|2:0,2:0:0:0:
212,292,58220,1,2,2:0:0:0:
79,73,58340,6,0,B|80:129|47:104|49:158,1,93.75,10|0,1:2|2:0,2:0:0:0:
151,371,58460,2,0,L|137:321,1,46.8750000000001,2|0,2:0|2:0,2:0:0:0:
0,0,58580,6,0,B|-21:65|2:123|79:140|69:104|139:119|173:169|145:240,1,328.125,2|0,1:2|2:0,2:0:0:0:
138,325,58820,2,0,P|80:309|61:252,1,125,10|0,1:2|2:0,2:0:0:0:
154,136,58940,5,2,2:0:0:0:
0,341,59060,1,0,1:2:0:0:
253,206,59180,5,2,2:0:0:0:
255,198,59240,1,2,2:3:0:0:
261,204,59300,2,0,L|315:218,1,46.8750000000001,8|0,1:2|2:0,2:0:0:0:
439,251,59420,2,0,L|384:236,1,46.8750000000001,2|0,1:2|2:0,2:0:0:0:
228,79,59540,6,0,B|289:95|289:95|297:124,1,93.75,0|0,1:2|2:0,2:0:0:0:
472,376,59660,2,0,B|410:359|410:359|402:330,1,93.75,2|0,1:2|2:0,2:0:0:0:
471,149,59780,6,0,B|358:179|358:179|333:273|333:273|222:302,1,328.125,10|0,1:2|2:0,2:0:0:0:
135,225,60020,6,0,B|154:244|153:247|152:251|151:255|134:320,1,93.75,2|0,1:2|2:0,2:0:0:0:
117,384,60140,1,2,2:0:0:0:
58,181,60260,6,0,B|20:141|20:141|34:89,1,109.375,10|0,1:2|2:0,2:0:0:0:
114,99,60380,2,0,B|130:115|130:115|124:138,1,46.8750000000001,2|0,2:0|2:0,2:0:0:0:
7,315,60500,6,0,B|235:253|235:253|265:294|314:291,1,328.125,2|0,1:2|2:0,2:0:0:0:
367,158,60740,2,0,B|356:160|344:152|344:152|306:162|309:207,1,93.75,10|0,1:2|2:0,2:0:0:0:
392,330,60860,1,2,2:0:0:0:
512,207,60980,5,2,1:3:0:0:
504,209,61040,1,2,1:3:0:0:
496,211,61100,1,2,1:2:0:0:
488,213,61160,1,2,1:3:0:0:
481,215,61220,2,0,B|437:226|437:226|434:229|434:229|391:241,1,93.75,10|0,1:2|2:0,2:0:0:0:
461,0,61340,2,0,B|449:43|449:43|446:46|446:46|434:89,1,93.75,2|0,1:2|2:0,2:0:0:0:
324,384,61460,6,0,L|233:48,1,337.5,2|0,1:2|2:0,2:0:0:0:
235,58,61700,6,0,B|276:19|337:32|357:81|335:131|335:131|310:120|285:130,1,234.375,8|0,1:2|2:0,2:0:0:0:
205,130,61940,2,0,B|140:161|131:248|183:314|273:299|273:299|271:263|294:246|290:260|316:241|309:205,1,375,2|0,1:2|2:0,2:0:0:0:
300,207,62180,6,0,B|304:230|287:245|287:245|207:231|151:289,1,187.5,8|0,1:2|2:0,2:0:0:0:
0,280,62420,2,0,B|90:310|25:342|116:374,1,156.25,2|0,1:2|2:0,2:0:0:0:
84,142,62660,6,0,B|64:139|45:131|45:131|28:147,1,62.5,8|0,1:2|2:0,2:0:0:0:
67,218,62780,1,0,2:0:0:0:
167,32,62900,2,0,B|181:88|181:88|175:95|175:95|211:228,1,200,2|0,1:2|2:0,2:0:0:0:
432,292,63140,6,0,B|424:289|424:289|412:285|409:272|409:272|401:243,1,62.5,10|0,1:2|2:0,2:0:0:0:
367,110,63260,2,0,B|374:112|374:112|386:116|389:129|389:129|397:158,1,62.5,2|0,1:2|2:0,2:0:0:0:
512,303,63380,6,0,B|520:298|521:286|521:286|509:244|509:244|493:239|482:229,1,93.75,0|0,1:2|2:0,2:0:0:0:
287,98,63500,2,0,B|279:103|278:115|278:115|289:157|289:157|306:162|317:172,1,93.75,2|0,1:2|2:0,2:0:0:0:
492,151,63620,6,0,B|454:140|454:140|400:194|400:194|400:197|400:197|337:261|337:261|296:249,1,250,10|2,1:2|2:0,2:0:0:0:
214,312,63800,1,2,2:3:0:0:
214,312,63860,2,0,B|228:287|228:287|211:224,1,93.75,2|0,1:2|2:0,2:0:0:0:
188,138,63980,1,0,2:0:0:0:
254,384,64100,1,10,1:2:0:0:
105,209,64220,6,0,P|101:186|114:168,1,46.8750000000001,2|0,2:0|2:0,2:0:0:0:
64,107,64340,2,0,P|88:83|123:86,1,71.25,0|0,1:2|2:0,2:0:0:0:
134,8,64460,2,0,P|178:18|200:55,1,93.75,2|0,2:0|2:0,2:0:0:0:
297,249,64580,6,0,B|290:284|321:322|384:321|426:257|405:174|325:166|327:176|328:184|283:180|271:138|287:98,1,328.125,10|0,1:2|2:0,2:0:0:0:
301,103,64820,2,0,B|377:18|482:86|482:86|329:162|316:324,1,506.25,2|0,1:2|2:0,2:0:0:0:
310,327,65060,6,0,P|307:360|319:330,1,93.75,10|0,1:2|2:0,2:0:0:0:
378,36,65180,2,0,B|395:106|395:106|424:111|437:136,1,125,0|0,1:2|2:0,2:0:0:0:
180,266,65300,6,0,B|15:221|15:221|2:175,1,218.75,6|0,1:2|2:0,2:0:0:0:
403,280,65540,2,0,B|385:267|381:244|381:244|316:209|229:227|185:298|211:382,1,328.125,8|0,1:2|2:0,2:0:0:0:
227,381,65780,6,0,P|217:359|222:336,1,46.8750000000001,2|0,1:3|2:0,2:0:0:0:
262,261,65900,1,2,2:3:0:0:
10,249,66020,6,0,B|22:252|22:252|26:250|26:250|36:259|36:259|40:257|40:257|96:272,1,93.75,8|2,1:2|2:3,2:0:0:0:
310,327,66140,1,2,2:3:0:0:
179,78,66260,6,0,B|126:71|83:101|76:151|100:192|100:192|124:192|138:205,1,218.75,0|0,1:2|2:0,2:0:0:0:
52,384,66500,2,0,B|61:357|80:351|80:351|107:360|128:343,1,93.75,8|0,1:2|2:0,2:0:0:0:
96,272,66620,1,2,2:0:0:0:
53,119,66740,2,0,P|46:88|57:118,1,93.75,2|0,1:2|2:0,2:0:0:0:
216,164,66860,5,2,2:0:0:0:
216,164,66920,1,2,2:3:0:0:
216,164,66980,2,0,L|276:180,1,62.5,10|0,1:2|2:0,2:0:0:0:
399,147,67100,2,0,L|339:131,1,62.5,2|0,1:2|2:0,2:0:0:0:
179,78,67220,6,0,B|202:55|202:55|261:71,1,93.75,2|0,1:2|2:0,2:0:0:0:
436,233,67340,2,0,B|412:255|412:255|353:239,1,93.75,0|0,1:2|2:0,2:0:0:0:
203,269,67460,6,0,B|182:220|164:252|145:199,1,93.75,10|0,1:2|2:0,2:0:0:0:
261,83,67580,1,2,2:0:0:0:
311,385,67700,2,0,B|264:290|152:328|152:328|150:343|137:356,1,218.75,0|2,1:2|2:0,2:0:0:0:
63,372,67880,1,2,2:3:0:0:
63,372,67940,2,0,L|17:384,1,46.8750000000001,8|0,1:2|2:0,2:0:0:0:
108,126,68060,6,0,P|65:157|62:210,1,109.375,2|0,2:0|2:0,2:0:0:0:
216,164,68180,2,0,B|236:98|213:24|126:-15|47:25|47:25|43:51|23:68,1,328.125,2|0,1:3|2:0,2:0:0:0:
3,290,68420,6,0,B|15:282|24:260|24:260|306:185,1,318.75,8|0,1:2|2:0,2:0:0:0:
391,189,68660,2,0,P|399:157|384:187,3,93.75,2|2|2|2,1:2|2:3|2:3|2:3,2:0:0:0:
383,70,68900,6,0,B|394:65|399:56|399:56|442:54|458:95,1,93.75,10|0,1:2|2:0,2:0:0:0:
449,259,69020,2,0,B|468:272|484:289|484:289|473:268|465:246,1,93.75,0|0,1:2|2:0,2:0:0:0:
157,66,69140,6,0,B|155:19|191:-15|252:-22|293:16|298:72|263:105|263:105|219:119|216:164,1,328.125,2|0,1:2|2:0,2:0:0:0:
296,187,69380,1,10,1:2:0:0:
136,168,69500,6,0,P|136:198|156:220,1,62.5,2|0,2:0|2:0,2:0:0:0:
300,181,69620,1,0,1:2:0:0:
102,279,69740,6,0,P|132:301|169:298,1,78.125,2|0,2:0|2:0,2:0:0:0:
302,175,69860,1,10,1:2:0:0:
179,383,69980,6,0,P|223:371|248:333,1,93.75,2|0,2:0|2:0,2:0:0:0:
306,170,70100,2,0,B|264:238|314:282|325:255|367:303|339:367,1,218.75,2|0,1:2|2:0,2:0:0:0:
494,183,70340,6,0,B|523:108|456:79|461:101|412:68|425:6|425:6|391:133|391:133|411:139|421:154,1,375,10|0,1:2|2:0,2:0:0:0:
386,294,70580,2,0,B|352:297|338:331|338:331|371:211,1,187.5,2|0,1:2|2:0,2:0:0:0:
232,48,70820,6,0,B|236:58|236:58|222:107,1,62.5,10|0,1:2|2:0,2:0:0:0:
203,183,70940,2,0,B|199:173|199:173|212:123,1,62.5,0|0,1:2|2:0,2:0:0:0:
310,5,71060,6,0,B|315:23|330:34|330:34|315:91,1,93.75,2|0,1:2|2:0,2:0:0:0:
125,226,71180,2,0,B|120:208|105:197|105:197|120:140,1,93.75,0|0,1:2|2:0,2:0:0:0:
143,58,71300,6,0,P|136:43|138:60,1,46.8750000000001,10|0,1:2|2:0,2:0:0:0:
287,213,71420,2,0,B|211:195|189:268|213:254|191:328|116:310,1,218.75,2|0,2:0|1:2,2:0:0:0:
57,361,71600,1,0,2:3:0:0:
57,361,71660,2,0,P|27:327|41:284,1,93.75,2|0,2:0|2:0,2:0:0:0:
24,206,71780,2,0,P|12:194|18:210,1,46.8750000000001,8|0,1:2|2:0,2:0:0:0:
370,179,71900,5,2,1:2:0:0:
365,173,71960,1,2,1:3:0:0:
362,178,72020,2,0,B|302:214|335:286|335:286|356:289|366:294,1,156.25,0|0,1:2|2:0,2:0:0:0:
446,338,72200,5,0,1:0:0:0:
446,338,72260,2,0,B|480:261|439:193|357:186|369:226|286:210|250:146|278:70,1,375,10|0,1:2|2:0,2:0:0:0:
287,62,72500,2,0,B|309:9|382:12|382:12|301:26|301:107,1,250,2|0,1:2|2:0,2:0:0:0:
493,102,72680,5,0,1:0:0:0:
493,102,72740,2,0,B|469:101|455:116|455:116|390:99,1,109.375,10|0,1:2|2:0,2:0:0:0:
120,25,72860,2,0,B|143:8|143:8|192:35|192:35|184:59|195:82,1,125,0|0,1:2|2:0,2:0:0:0:
38,284,72980,6,0,B|77:188|172:201|172:201|184:225|205:233,1,218.75,2|0,1:2|2:0,2:0:0:0:
117,105,73220,2,0,P|117:259|261:315,1,328.125,8|0,1:2|2:0,2:0:0:0:
324,213,73460,6,0,B|311:204|311:204|279:213,1,46.8750000000001,2|0,1:3|2:0,2:0:0:0:
205,233,73580,1,2,2:3:0:0:
300,384,73700,6,0,B|310:369|327:363|327:363|342:306,1,93.75,8|0,1:2|2:0,2:0:0:0:
396,102,73820,1,2,2:3:0:0:
506,384,73940,6,0,B|526:306|465:279|462:308|408:274|416:205,1,218.75,0|0,1:2|2:0,2:0:0:0:
460,22,74180,2,0,B|457:40|457:40|490:65|481:111,1,93.75,10|0,1:2|2:0,2:0:0:0:
396,102,74300,1,2,2:0:0:0:
509,217,74420,2,0,P|522:188|505:215,1,93.75,2|0,1:2|2:0,2:0:0:0:
308,81,74540,5,2,2:3:0:0:
308,81,74600,1,2,2:3:0:0:
308,81,74660,2,0,L|248:65,1,62.5,10|0,1:2|2:0,2:0:0:0:
185,142,74780,2,0,L|125:126,1,62.5,2|0,1:2|2:0,2:0:0:0:
95,0,74900,6,0,B|108:30|108:30|167:46,1,93.75,2|0,1:2|2:0,2:0:0:0:
338,207,75020,2,0,B|325:177|325:177|266:161,1,93.75,0|0,1:2|2:0,2:0:0:0:
11,90,75140,6,0,B|20:147|41:117|49:179,1,93.75,10|0,1:2|2:0,2:0:0:0:
185,142,75260,1,2,2:0:0:0:
266,340,75380,2,0,B|276:278|223:225|166:242|166:242|157:268|128:275,1,218.75,0|2,1:2|2:0,2:0:0:0:
54,261,75560,1,0,2:0:0:0:
54,261,75620,2,0,L|8:249,1,46.8750000000001,8|0,1:2|2:0,2:0:0:0:
338,207,75740,6,0,P|286:205|263:252,1,109.375,2|0,2:0|2:0,2:0:0:0:
492,311,75860,2,0,B|502:350|502:350|493:359|493:359|422:341|422:341|406:282|406:282|402:280|402:280|400:231|441:216|429:237|473:222|476:180,1,328.125,0|0,1:2|2:0,2:0:0:0:
380,110,76100,2,0,B|353:100|353:100|365:32|365:32|425:17|425:17|446:98|446:98|405:112|399:156,1,318.75,8|0,1:2|2:0,2:0:0:0:
476,178,76340,6,0,B|487:163|511:160|511:160|230:69|230:69|279:103|266:161,1,440.625,2|0,1:2|2:0,2:0:0:0:
189,139,76580,2,0,B|157:142|143:170|143:170|138:148|151:135,1,93.75,10|2,1:2|2:3,2:0:0:0:
442,0,76700,2,0,B|399:11|399:11|396:16|396:16|354:27,1,93.75,2|2,1:3|2:3,2:0:0:0:
93,42,76820,6,0,B|48:75|-8:68|-8:68|-14:71|-14:71|188:138,1,328.125,2|0,1:2|2:0,2:0:0:0:
266,160,77060,1,10,1:2:0:0:
193,0,77180,6,0,P|190:23|182:45,1,46.8750000000001,2|0,2:0|2:0,2:0:0:0:
274,154,77300,1,0,1:2:0:0:
21,86,77420,6,0,P|49:109|70:135,1,70.625,2|0,2:0|2:0,2:0:0:0:
281,149,77540,1,10,1:2:0:0:
0,307,77660,6,0,P|45:290|89:282,1,93.75,2|0,2:0|2:0,2:0:0:0:
289,141,77780,2,0,B|333:133|366:120|366:120|408:162|408:162|441:146|485:141,1,218.75,0|0,1:2|2:0,2:0:0:0:
182,45,78020,6,0,B|244:38|298:13|298:13|210:282,1,393.75,10|0,1:2|2:0,2:0:0:0:
287,306,78260,2,0,B|323:320|353:344|353:344|312:218,1,200,2|0,1:2|2:0,2:0:0:0:
155,370,78500,6,0,P|187:359|215:353,1,62.5,10|0,1:2|2:0,2:0:0:0:
315,226,78620,2,0,P|345:220|375:210,1,62.5,2|0,1:2|2:0,2:0:0:0:
64,142,78740,5,2,1:2:0:0:
61,152,78800,1,2,1:3:0:0:
67,150,78860,2,0,B|121:163|92:186|149:199,1,93.75,2|0,1:3|2:0,2:0:0:0:
374,60,78980,6,0,B|421:53|435:-4|409:-41|344:-56|283:-42|229:18|251:152|342:176|360:138|325:120,1,375,8|0,1:2|2:0,2:0:0:0:
375,210,79220,2,0,P|416:179|412:132,1,93.75,2|2,1:2|2:3,2:0:0:0:
269,58,79340,1,2,2:3:0:0:
312,377,79460,6,0,B|307:267|411:206|520:247|520:247|506:255|495:268,1,328.125,8|0,1:2|2:0,2:0:0:0:
479,343,79700,6,0,P|429:327|421:275,1,109.375,2|0,1:2|2:0,2:0:0:0:
341,265,79820,2,0,P|342:228|375:210,1,78.125,2|2,2:3|2:3,2:0:0:0:
416,140,79940,2,0,P|426:126|421:142,4,46.875,10|0|0|0|2,1:2|2:0|2:0|2:0|2:0,2:0:0:0:
229,250,80120,5,2,2:3:0:0:
229,250,80180,2,0,P|206:253|185:262,1,46.8750000000001,2|0,1:2|2:0,2:0:0:0:
281,132,80300,2,0,P|304:129|326:121,1,46.8750000000001,2|0,2:0|2:0,2:0:0:0:
381,348,80420,6,0,B|381:333|390:323|390:323|386:273|341:265,1,109.375,10|0,1:2|2:0,2:0:0:0:
131,36,80540,2,0,B|131:51|122:61|122:61|126:111|171:119,1,109.375,2|0,1:3|2:0,2:0:0:0:
214,349,80660,6,0,B|182:244|262:169|250:214|331:139|299:35,1,343.75,2|0,1:2|2:0,2:0:0:0:
256,192,81380,5,0,1:0:0:0:
256,192,81500,1,0,1:0:0:0:
297,33,81620,6,0,B|295:30|295:30|301:27|301:27|297:22|297:22|303:19|303:19|299:13|299:13|305:10|305:10|301:5|301:5|304:4,1,46.875,10|0,1:0|2:0,2:0:0:0:
371,307,81860,6,0,B|374:306|374:306|373:313|373:313|380:312|380:312|379:319|379:319|386:318|386:318|385:325|385:325|392:324|392:324|392:328,1,46.875,2|0,1:0|2:0,2:0:0:0:
98,234,82100,6,0,B|96:236|96:236|91:233|91:233|88:239|88:239|82:235|82:235|80:241|80:241|74:237|74:237|71:243|71:243|69:241,1,46.875,2|0,1:0|2:0,2:0:0:0:
255,229,82340,6,0,P|264:152|248:228,2,234.375,10|0|0,1:0|2:0|2:0,2:0:0:0:
89,110,82580,6,0,B|145:128|116:148|162:165|162:165|405:238|405:238|414:234,1,356.249990487099,4|0,1:2|2:0,2:0:0:0:
204,330,82820,2,0,B|217:326|217:326|221:322|221:322|239:323|239:323|243:319|243:319|294:303,1,93.75,10|0,1:2|2:0,2:0:0:0:
436,147,82940,1,2,2:0:0:0:
439,156,83000,1,2,2:0:0:0:
444,149,83060,2,0,B|522:125|522:125|529:132|529:132|490:261,1,218.75,2|0,1:2|2:0,2:0:0:0:
337,2,83300,5,10,1:2:0:0:
299,1,83360,1,2,1:2:0:0:
269,23,83420,1,2,1:2:0:0:
258,59,83480,1,2,1:2:0:0:
272,94,83540,6,0,B|309:105|309:105|315:119|315:119|352:131,1,93.75,2|0,1:2|2:0,2:0:0:0:
490,23,83660,2,0,B|452:33|452:33|446:48|446:48|408:59,1,93.75,2|0,2:0|2:0,2:0:0:0:
194,118,83780,6,0,B|167:133|167:133|198:132,1,62.5,10|0,1:2|2:0,2:0:0:0:
397,62,83900,2,0,P|422:55|398:65,1,78.125,0|0,2:0|2:0,2:0:0:0:
62,33,84020,6,0,B|163:63|163:63|173:92|173:92|165:78|165:78|203:184|203:184|195:169|195:169|205:199|205:199|314:232,1,421.874999999999,0|0,1:2|2:0,2:0:0:0:
358,294,84260,2,0,B|400:260|400:260|384:208,1,109.375,10|0,1:2|2:0,2:0:0:0:
90,254,84380,2,0,B|67:231|67:231|66:226|66:226|137:248,1,109.375,2|0,1:2|2:0,2:0:0:0:
286,378,84500,6,0,B|271:371|271:371|192:115,1,281.25,2|2,1:2|2:0,2:0:0:0:
283,35,84680,1,2,2:0:0:0:
276,43,84740,2,0,B|262:59|262:59|286:139,1,93.75,10|0,1:2|2:0,2:0:0:0:
220,315,84860,2,0,B|228:304|228:304|213:257,1,62.5,2|0,2:0|2:0,2:0:0:0:
168,41,84980,6,0,B|149:31|149:31|159:12|159:12|178:23|178:23|168:41,3,78.125,2|0|0|0,1:2|2:0|2:0|2:0,2:0:0:0:
65,140,85220,6,0,B|41:166|41:166|41:171|41:171|111:150,1,109.375,10|0,1:2|2:0,2:0:0:0:
360,81,85340,2,0,P|383:68|357:75,1,78.125,2|0,2:0|2:0,2:0:0:0:
18,37,85460,6,0,B|244:106|244:106|268:171|268:171|378:205,1,421.874999999999,2|0,1:2|2:0,2:0:0:0:
435,337,85700,6,0,P|481:340|511:306,1,93.75,10|0,1:2|2:0,2:0:0:0:
462,198,85820,1,0,1:2:0:0:
470,201,85880,1,0,1:2:0:0:
463,208,85940,2,0,L|448:255,1,46.875,0|0,1:2|2:0,2:0:0:0:
355,376,86180,6,0,B|338:321|338:321|359:291,1,93.75,10|0,1:2|2:0,2:0:0:0:
512,46,86300,2,0,B|495:100|495:100|461:113,1,93.75,2|0,1:2|2:0,2:0:0:0:
195,69,86420,6,0,B|192:56|192:56|123:-7|123:-7|121:-11|121:-11|354:60|354:60|360:80,1,375,0|0,1:2|2:0,2:0:0:0:
216,204,86660,2,0,B|148:183|148:183|183:167,1,109.375,10|0,1:2|2:0,2:0:0:0:
257,124,86780,2,0,B|282:132|282:132|286:142|286:142|312:150,1,62.5,2|0,2:0|2:0,2:0:0:0:
13,274,86900,6,0,B|68:255|68:255|70:249|70:249|248:303,1,250,2|0,1:2|2:0,2:0:0:0:
468,340,87140,1,10,1:2:0:0:
437,330,87200,1,2,1:2:0:0:
406,321,87260,1,2,1:2:0:0:
376,311,87320,1,2,1:2:0:0:
358,291,87380,6,0,B|326:325|326:325|334:371,1,93.75,2|0,1:2|2:0,2:0:0:0:
476,258,87500,2,0,B|507:223|507:223|499:177,1,93.75,2|0,2:0|2:0,2:0:0:0:
361,72,87620,6,0,B|362:25|362:25|389:63,1,93.75,10|0,1:2|2:0,2:0:0:0:
395,142,87740,2,0,L|408:186,2,46.875,0|0|0,2:0|2:0|2:0,2:0:0:0:
510,0,87860,5,2,1:2:0:0:
510,0,87920,1,2,1:2:0:0:
510,0,87980,2,0,B|495:48|495:48|487:49|487:49|472:98,1,109.375,2|0,2:0|2:0,2:0:0:0:
439,357,88100,6,0,B|378:337|419:310|357:290,1,109.375,8|0,1:2|2:0,2:0:0:0:
316,194,88220,2,0,B|254:213|295:240|234:260,1,109.375,2|0,1:2|2:0,2:0:0:0:
1,333,88340,6,0,P|86:193|81:356,1,440.625,2|0,1:2|2:0,2:0:0:0:
59,280,88580,6,0,P|65:264|62:281,2,46.875,10|0|2,1:2|2:0|2:0,2:0:0:0:
116,115,88700,5,2,1:2:0:0:
108,112,88760,1,2,1:2:0:0:
115,109,88820,2,0,B|169:58|169:58|98:37|98:37|115:109,1,218.75,2|0,1:2|2:0,2:0:0:0:
38,169,89060,6,0,L|21:93,1,78.125,10|0,1:2|2:0,2:0:0:0:
200,150,89180,2,0,L|142:203,1,78.125,2|0,2:0|2:0,2:0:0:0:
1,333,89300,6,0,B|55:301|55:301|83:356,1,125,2|0,1:2|2:0,2:0:0:0:
292,0,89540,6,0,B|256:69|256:69|189:29,1,156.5,10|0,1:2|2:0,2:0:0:0:
512,257,89780,6,0,B|469:173|469:173|387:222,1,187.5,2|0,1:2|2:0,2:0:0:0:
429,301,89960,5,2,1:2:0:0:
433,310,90020,2,0,L|409:384,1,78.125,10|0,1:2|2:0,2:0:0:0:
314,155,90140,2,0,L|290:229,1,78.125,2|0,1:2|2:0,2:0:0:0:
240,384,90260,5,6,1:2:0:0:
240,384,90380,1,0,1:0:0:0:
48,243,90500,6,0,B|90:230|90:230|92:227|92:227|138:213,1,93.75,10|0,1:2|2:0,2:0:0:0:
210,191,90620,1,2,1:2:0:0:
217,193,90680,1,2,1:2:0:0:
216,186,90740,2,0,B|229:141|229:141|192:113,1,93.75,2|0,1:2|2:0,2:0:0:0:
116,308,90860,2,0,B|102:352|102:352|139:380,1,93.75,0|0,2:0|2:0,2:0:0:0:
66,94,90980,6,0,B|45:86|45:86|12:41|12:41|153:-9|153:-9|122:81|122:81|111:86|111:86|92:143,1,393.75,10|0,1:2|2:0,2:0:0:0:
0,308,91220,6,0,B|55:290|55:290|57:282|57:282|399:177,1,421.874999999999,0|0,1:2|2:0,2:0:0:0:
476,191,91460,2,0,B|489:146|489:146|452:118,1,93.75,10|0,1:2|2:0,2:0:0:0:
320,162,91580,2,0,B|306:206|306:206|343:234,1,93.75,2|0,2:0|2:0,2:0:0:0:
427,265,91700,6,0,L|417:294,1,31.25,2|0,1:2|2:0,2:0:0:0:
251,329,91820,6,0,L|237:373,1,46.8750000000001,2|0,2:0|2:0,2:0:0:0:
96,148,91940,6,0,L|76:212,1,62.5,10|0,1:2|2:0,2:0:0:0:
0,307,92060,5,0,1:2:0:0:
0,307,92120,1,0,1:0:0:0:
0,307,92180,2,0,B|30:282|30:282|75:296|75:296|87:332,1,125,0|0,1:2|2:0,2:0:0:0:
9,136,92300,5,2,1:2:0:0:
9,136,92360,1,2,1:2:0:0:
9,136,92420,2,0,L|-4:91,1,31.25,10|0,1:2|2:0,2:0:0:0:
78,354,92540,2,0,L|87:383,1,31.25,2|0,2:0|2:0,2:0:0:0:
184,187,92660,6,0,P|195:157|178:184,3,93.75,2|2|2|2,1:2|2:0|2:0|2:0,2:0:0:0:
146,84,92900,6,0,B|112:90|112:90|95:146,1,93.75,10|0,1:2|2:0,2:0:0:0:
230,259,93020,2,0,B|264:253|264:253|281:197,1,93.75,2|0,2:0|2:0,2:0:0:0:
383,74,93140,6,0,B|344:-23|238:22|238:22|253:72,1,218.75,2|2,1:2|2:0,2:0:0:0:
245,80,93320,1,2,1:2:0:0:
245,80,93380,2,0,B|264:103|264:103|294:94,1,62.5,10|0,1:2|2:0,2:0:0:0:
481,70,93500,2,0,L|462:129,1,62.5,2|0,2:0|2:0,2:0:0:0:
359,164,93620,6,0,B|378:170|378:170|394:230,1,78.125,2|0,1:2|2:0,2:0:0:0:
487,246,93740,2,0,P|463:276|444:310,1,78.125,0|0,2:0|2:0,2:0:0:0:
192,183,93860,6,0,B|211:168|211:168|279:192,1,93.75,8|0,1:2|2:0,2:0:0:0:
508,250,93980,2,0,P|479:284|456:327,1,93.75,0|0,1:2|2:0,2:0:0:0:
230,259,94100,6,0,B|141:375|141:375|368:305,1,375,2|0,1:2|2:0,2:0:0:0:
351,299,94340,2,0,B|314:310|314:310|313:312|313:312|277:323,1,78.125,8|0,1:2|2:0,2:0:0:0:
190,376,94460,2,0,B|149:331|149:331|170:306,1,93.75,2|0,2:0|2:0,2:0:0:0:
298,103,94580,6,0,B|247:87|247:87|240:62,1,78.125,2|0,1:2|2:0,2:0:0:0:
236,57,94700,2,0,B|228:32|228:32|178:16,1,78.125,2|0,2:0|2:0,2:0:0:0:
53,24,94820,6,0,B|-22:1|-22:1|-19:8|-19:8|84:104,1,218.75,10|2,1:2|2:0,2:0:0:0:
63,249,95000,5,2,2:0:0:0:
59,243,95060,2,0,B|77:182|77:182|107:173,1,93.75,2|0,1:2|2:0,2:0:0:0:
163,107,95180,2,0,B|144:167|144:167|114:176,1,93.75,2|0,2:0|2:0,2:0:0:0:
14,331,95300,6,0,B|91:307|91:307|103:267|103:267|299:207,1,312.5,10|2,1:2|2:0,2:0:0:0:
441,215,95480,5,2,2:0:0:0:
439,209,95540,2,0,L|450:171,2,39.0625,0|0|0,1:2|2:0|2:0,2:0:0:0:
377,151,95660,2,0,L|366:189,2,39.0625,2|0|0,2:0|2:0|2:0,2:0:0:0:
459,295,95780,6,0,B|490:295|506:272|506:272|506:261|513:248,1,78.125,10|0,1:2|2:0,2:0:0:0:
357,63,95900,2,0,B|326:63|310:86|310:86|309:96|303:110,1,78.125,2|0,1:2|2:0,2:0:0:0:
356,359,96020,6,0,B|368:316|368:316|365:313|365:313|379:269,1,93.75,0|0,1:2|2:0,2:0:0:0:
437,90,96140,2,0,L|450:43,2,46.875,0|0|0,2:0|2:0|2:0,2:0:0:0:
230,269,96260,6,0,B|190:257|190:257|188:258|188:258|178:225,1,78.125,10|0,1:2|2:0,2:0:0:0:
233,168,96380,2,0,B|272:179|272:179|274:178|274:178|284:211,1,78.125,2|0,2:0|2:0,2:0:0:0:
233,364,96500,6,0,B|250:342|250:342|246:340|246:340|227:280,1,93.75,2|0,1:2|2:0,2:0:0:0:
149,30,96620,6,0,P|136:0|142:32,1,93.75,2|0,2:0|2:0,2:0:0:0:
149,142,96740,5,10,1:2:0:0:
149,142,96800,1,0,1:0:0:0:
149,142,96860,2,0,P|112:118|142:148,1,125,2|0,2:0|2:0,2:0:0:0:
244,62,96980,5,2,1:2:0:0:
244,62,97040,2,0,B|252:47|243:20|243:20|244:46|223:71,1,93.75,0|0,2:0|2:0,2:0:0:0:
47,30,97160,5,0,1:2:0:0:
47,30,97220,2,0,B|33:12|-2:11|-2:11|29:22|47:58,1,125,8|0,1:2|2:0,2:0:0:0:
66,228,97340,6,0,B|40:235|21:276|21:276|48:244|99:240,1,156.25,2|0,1:2|2:0,2:0:0:0:
227,281,97460,6,0,B|204:353|204:353|199:356|199:356|128:334,1,156.25,0|0,1:2|2:0,2:0:0:0:
244,62,97580,6,0,B|315:40|315:40|320:42|320:42|342:115,1,156.25,0|0,1:2|2:0,2:0:0:0:
399,294,97700,6,0,B|507:261|507:261|513:254|513:254|538:165|538:165|527:149|527:149|403:188|403:188|382:249|382:249|394:263|394:263|399:264|399:264|412:279,1,468.75,10|0,1:2|2:0,2:0:0:0:
320,320,97940,5,4,1:2:0:0:
320,320,98060,1,0,2:0:0:0:
102,111,98180,6,0,L|92:140,1,31.25,10|0,1:2|2:0,2:0:0:0:
182,117,98300,2,0,L|163:176,1,62.5,2|0,2:0|2:0,2:0:0:0:
47,30,98420,2,0,B|28:33|28:33|-9:158|-9:158|3:171,1,168.75000064373,2|0,1:2|2:0,2:0:0:0:
83,145,98600,5,2,2:0:0:0:
83,145,98660,2,0,L|96:100,1,46.8750000000001,10|0,1:2|2:0,2:0:0:0:
173,186,98780,2,0,L|195:111,1,78.125,2|0,2:0|2:0,2:0:0:0:
270,59,98900,2,0,B|290:78|290:78|232:267|232:267|204:272,1,253.125000965595,2|0,1:2|2:0,2:0:0:0:
269,373,99140,1,10,1:2:0:0:
269,373,99200,1,0,1:0:0:0:
269,373,99260,2,0,B|237:349|237:349|165:360,1,109.375001043081,2|0,2:0|2:0,2:0:0:0:
9,364,99380,5,2,1:2:0:0:
8,355,99440,1,2,2:0:0:0:
33,341,99500,5,2,1:2:0:0:
38,334,99560,1,2,2:0:0:0:
32,307,99620,6,0,L|47:257,1,46.8750000000001,8|0,1:2|2:0,2:0:0:0:
111,44,99740,2,0,L|124:0,1,46.8750000000001,0|0,1:2|2:0,2:0:0:0:
80,180,99860,6,0,B|72:152|58:168|39:143|48:111|70:105|94:127|91:158|72:152|80:180,3,125,0|0|0|0,1:2|2:0|2:0|2:0,2:0:0:0:
8,60,100100,6,0,P|0:46|10:59,1,46.8750000000001,10|0,1:2|2:0,2:0:0:0:
135,244,100220,2,0,P|146:256|138:241,1,46.8750000000001,2|0,2:0|2:0,2:0:0:0:
176,101,100340,5,2,1:2:0:0:
183,99,100400,1,2,2:0:0:0:
229,112,100460,5,2,1:2:0:0:
237,109,100520,1,2,2:0:0:0:
267,72,100580,5,10,1:2:0:0:
275,71,100640,1,2,2:0:0:0:
322,84,100700,6,0,B|356:73|356:73|364:53|364:53|328:64,1,93.75,2|0,2:0|2:0,2:0:0:0:
428,119,100820,2,0,B|440:77|440:77|443:75|443:75|457:30,3,93.75,0|2|2|2,1:2|2:0|2:0|2:0,2:0:0:0:
307,267,101060,6,0,B|274:300|274:300|315:275,1,93.75,10|0,1:2|2:0,2:0:0:0:
487,286,101180,5,2,2:0:0:0:
484,295,101240,5,2,2:0:0:0:
492,293,101300,6,0,B|405:270|405:270|386:198|386:198|302:176,1,250,2|0,1:2|2:0,2:0:0:0:
236,108,101480,1,2,2:0:0:0:
236,108,101540,2,0,B|192:141|192:141|208:194,1,109.375,10|0,1:2|2:0,2:0:0:0:
143,331,101660,2,0,P|129:275|111:226,1,109.375,0|0,1:2|2:0,2:0:0:0:
5,66,101780,6,0,B|35:23|35:23|38:22|38:22|88:39,1,109.375,2|0,1:2|2:0,2:0:0:0:
69,124,101900,2,0,P|78:144|75:122,1,62.5,2|0,2:0|2:0,2:0:0:0:
171,43,102020,6,0,L|180:13,1,31.25,10|0,1:2|2:0,2:0:0:0:
236,108,102140,2,0,L|250:64,1,46.8750000000001,2|0,2:0|2:0,2:0:0:0:
330,96,102260,2,0,L|348:36,1,62.5,2|0,1:2|2:0,2:0:0:0:
409,176,102380,2,0,L|431:101,1,78.125,2|0,2:0|2:0,2:0:0:0:
499,61,102500,2,0,L|512:16,1,46.8750000000001,10|0,1:2|2:0,2:0:0:0:
476,284,102620,5,2,1:2:0:0:
484,276,102680,5,2,1:2:0:0:
472,275,102740,6,0,B|445:261|445:261|371:284,1,93.75,2|0,1:2|2:0,2:0:0:0:
313,206,102860,5,2,1:2:0:0:
313,206,102920,1,2,2:0:0:0:
313,206,102980,2,0,B|285:179|285:179|304:231,1,93.75,10|0,1:2|2:0,2:0:0:0:
194,379,103100,2,0,B|274:355|274:355|287:313,1,125,0|0,2:0|2:0,2:0:0:0:
136,151,103220,5,2,1:2:0:0:
96,153,103280,1,2,1:2:0:0:
69,180,103340,1,2,1:2:0:0:
67,216,103400,1,0,1:2:0:0:
90,248,103460,2,0,B|110:254|110:254|116:262|116:262|144:258|144:258|151:266|151:266|204:282,1,125,10|0,1:2|2:0,2:0:0:0:
429,351,103580,2,0,L|473:364,1,46.8750000000001,0|0,1:2|2:0,2:0:0:0:
313,206,103700,6,0,B|214:333|214:333|472:253,1,431.25,2|0,1:2|2:0,2:0:0:0:
481,249,103940,2,0,B|493:334|429:389|340:372|340:372|355:321,1,275,10|0,1:2|2:0,2:0:0:0:
392,185,104120,5,2,2:0:0:0:
398,189,104180,2,0,B|450:172|450:172|463:133,1,93.75,2|0,1:2|2:0,2:0:0:0:
319,43,104300,2,0,B|268:4|268:4|291:48,1,109.375,2|0,2:0|2:0,2:0:0:0:
384,101,104420,5,10,1:2:0:0:
503,2,104540,1,2,2:0:0:0:
244,134,104660,2,0,B|143:103|143:103|140:99|140:99|34:66,1,218.75,0|2,1:2|2:0,2:0:0:0:
50,84,104840,5,2,2:0:0:0:
50,84,104900,2,0,B|32:143|32:143|73:190,1,125,10|0,1:2|2:0,2:0:0:0:
145,153,105020,2,0,B|156:115|156:115|130:87,1,78.125,2|0,2:0|2:0,2:0:0:0:
11,253,105140,6,0,B|-3:324|61:368|61:368|100:232|231:218,1,375,2|0,1:2|2:0,2:0:0:0:
244,139,105380,2,0,P|300:157|310:215,1,125,10|0,1:2|2:0,2:0:0:0:
378,293,105500,2,0,B|410:297|430:270|430:270|401:286|366:270,1,125,0|0,1:2|2:0,2:0:0:0:
420,117,105620,6,0,B|408:153|408:153|411:155|411:155|400:190,1,78.125,4|0,1:2|2:0,2:0:0:0:
286,299,105740,2,0,B|303:356|303:356|335:366,1,93.75,0|0,1:0|2:0,2:0:0:0:
457,375,105860,6,0,B|320:333|320:333|314:335|314:335|170:292,1,300,10|0,1:2|2:0,2:0:0:0:
176,305,106100,6,0,B|110:324|110:324|102:348,1,93.75,2|0,1:2|2:0,2:0:0:0:
64,262,106220,2,0,P|20:248|1:207,1,93.75,0|0,2:0|2:0,2:0:0:0:
279,284,106340,6,0,B|248:307|248:307|165:281,1,125,10|0,1:2|2:0,2:0:0:0:
126,213,106460,2,0,P|123:189|132:168,2,46.875,0|0|0,2:0|2:0|2:0,2:0:0:0:
276,180,106580,5,2,1:2:0:0:
276,180,106640,1,2,2:0:0:0:
276,180,106700,2,0,L|216:198,1,62.5,2|0,2:0|2:0,2:0:0:0:
426,131,106820,5,10,1:2:0:0:
426,131,106880,1,2,2:0:0:0:
426,131,106940,2,0,L|351:153,1,78.125,2|0,2:0|2:0,2:0:0:0:
197,13,107060,5,2,1:2:0:0:
196,22,107120,1,0,2:0:0:0:
202,19,107180,2,0,B|222:25|222:25|237:74|237:74|257:80,1,93.75,0|0,2:0|2:0,2:0:0:0:
282,296,107300,6,0,B|321:284|321:284|328:257|328:257|373:243,1,109.375,10|0,1:2|2:0,2:0:0:0:
476,54,107420,2,0,B|489:1|489:1|454:42,1,109.375,0|0,1:2|2:0,2:0:0:0:
76,110,107540,6,0,B|118:122|118:122|119:128|119:128|172:130|172:130|220:165|220:165|259:162|259:162|261:166|261:166|512:243,1,468.75,0|0,1:2|2:0,2:0:0:0:
387,361,107780,1,10,1:2:0:0:
393,365,107840,1,2,2:0:0:0:
391,356,107900,2,0,B|397:331|397:331|459:314,1,78.2499999999999,2|0,2:0|2:0,2:0:0:0:
369,251,108020,5,2,1:2:0:0:
373,246,108080,1,2,2:0:0:0:
366,244,108140,2,0,L|311:212,1,62.5,0|0,2:0|2:0,2:0:0:0:
362,72,108260,5,10,1:2:0:0:
369,70,108320,1,2,2:0:0:0:
367,78,108380,2,0,L|390:154,1,78.125,0|0,2:0|2:0,2:0:0:0:
222,86,108500,6,0,P|207:42|230:3,1,93.75,2|0,1:2|2:0,2:0:0:0:
244,0,108620,2,0,L|288:13,1,46.8750000000001,2|0,2:3|2:0,2:0:0:0:
160,171,108740,6,0,P|122:171|96:143,1,78.125,10|0,1:2|2:0,2:0:0:0:
96,128,108860,2,0,L|118:95,1,39.6875,2|0,2:3|2:0,2:0:0:0:
216,257,108980,6,0,P|207:286|180:298,1,62.5,2|0,1:2|2:0,2:0:0:0:
158,296,109100,2,0,L|139:271,1,31.25,2|0,2:3|2:0,2:0:0:0:
373,82,109220,6,0,B|354:140|354:140|338:149|338:149|341:226|341:226|325:235|325:235|285:367,2,312.5,8|2|0,1:2|1:2|1:2,2:0:0:0:
397,160,109520,1,2,1:2:0:0:
389,152,109580,2,0,B|352:163|352:163|334:210|334:210|299:221,1,125,0|0,2:0|2:0,2:0:0:0:
96,128,109700,6,0,B|158:-6|305:29|305:29|288:85,1,312.5,10|0,1:2|2:0,2:0:0:0:
254,157,109880,5,2,2:0:0:0:
254,157,109940,2,0,B|222:147|222:147|203:82,1,93.75,2|0,1:2|2:0,2:0:0:0:
129,58,110060,2,0,P|149:18|194:8,1,93.75,0|0,2:0|2:0,2:0:0:0:
409,11,110180,6,0,B|397:45|397:45|298:75,1,140.625,10|0,1:2|2:0,2:0:0:0:
88,136,110300,2,0,P|63:124|50:101,2,54.6875,0|0|0,2:0|2:0|2:0,2:0:0:0:
168,334,110420,5,2,1:2:0:0:
168,334,110480,1,2,2:0:0:0:
168,334,110540,2,0,B|211:320|211:320|234:247,1,109.375,0|0,2:0|2:0,2:0:0:0:
161,189,110660,2,0,B|150:223|150:223|150:215|150:215|141:246,3,78.125,10|0|0|0,1:2|2:0|2:0|2:0,2:0:0:0:
19,304,110900,5,2,1:2:0:0:
19,304,110960,1,2,2:0:0:0:
19,304,111020,2,0,B|8:324|-9:337|-9:337|68:312,1,125,0|0,2:0|2:0,2:0:0:0:
258,175,111140,6,0,B|296:186|307:217|307:217|312:192|296:179,1,109.375,10|0,1:2|2:0,2:0:0:0:
139,4,111260,2,0,B|169:76|187:28|218:95,1,125,0|0,1:2|2:0,2:0:0:0:
229,257,111380,6,0,P|223:278|234:259,2,62.5,0|0|2,1:2|2:0|2:0,2:0:0:0:
302,97,111620,6,0,B|314:71|339:66|339:66|313:62|300:80,1,93.75,10|0,1:2|2:0,2:0:0:0:
263,182,111740,1,2,2:0:0:0:
410,300,111860,5,2,1:2:0:0:
418,309,111920,1,2,2:0:0:0:
418,319,111980,1,2,2:0:0:0:
423,328,112040,1,2,2:0:0:0:
423,337,112100,2,0,B|432:368|432:368|432:354|432:354|444:392,3,78.125,10|0|2|0,1:2|2:0|2:0|2:0,2:0:0:0:
473,184,112340,6,0,P|464:205|459:228,1,46.8750000000001,2|0,1:2|2:0,2:0:0:0:
395,133,112460,2,0,P|384:178|367:221,1,93.75,2|0,2:0|2:0,2:0:0:0:
285,346,112580,6,0,P|289:323|298:301,1,46.8750000000001,10|0,1:2|2:0,2:0:0:0:
189,345,112700,2,0,P|206:300|216:254,1,93.75,2|2,2:0|2:0,2:0:0:0:
59,276,112820,6,0,B|322:195|322:195|357:185|351:217|387:206|387:206|467:181,1,421.874999999999,2|0,1:2|2:0,2:0:0:0:
274,113,113060,5,10,1:2:0:0:
244,111,113120,1,2,1:2:0:0:
218,95,113180,1,2,1:2:0:0:
188,94,113240,1,2,1:2:0:0:
164,77,113300,6,0,B|78:50|78:50|73:53|73:53|89:90|89:90|94:93|94:93|127:164,1,218.75,2|0,1:2|2:0,2:0:0:0:
27,186,113480,1,2,2:0:0:0:
34,181,113540,2,0,B|175:224|175:224|197:284|197:284|180:290|180:290|369:347,1,421.874999999999,10|0,1:2|2:0,2:0:0:0:
443,343,113780,6,0,B|450:312|450:312|425:294,1,62.5,2|0,1:2|2:0,2:0:0:0:
279,365,113900,2,0,B|251:378|251:378|281:371,1,62.5,2|0,2:0|2:0,2:0:0:0:
456,357,114020,6,0,B|468:303|468:303|424:271,1,109.375,10|0,1:2|2:0,2:0:0:0:
330,217,114140,2,0,B|303:182|303:182|356:221,1,109.375,2|0,2:0|2:0,2:0:0:0:
364,345,114260,6,0,P|355:354|358:342,1,31.25,2|0,1:2|2:0,2:0:0:0:
479,126,114380,2,0,P|482:114|474:123,1,31.25,2|0,0:2|2:0,2:0:0:0:
186,312,114500,6,0,B|255:290|255:290|248:286|248:286|308:283|308:283|299:277|299:277|512:212,1,375,10|0,1:2|2:0,2:0:0:0:
349,51,114740,6,0,B|280:105|280:105|294:153|294:153|453:201,1,281.250010728836,2|0,1:2|2:0,2:0:0:0:
479,126,114920,1,2,1:2:0:0:
479,126,114980,2,0,B|415:107|415:107|382:132,1,109.375001043081,10|0,1:2|2:0,2:0:0:0:
270,384,115100,5,2,1:2:0:0:
262,380,115160,5,2,1:2:0:0:
270,377,115220,6,0,B|320:310|320:310|275:164|275:164|275:179|275:179|224:13,1,421.875016093255,2|0,1:2|2:0,2:0:0:0:
139,160,115460,5,10,1:2:0:0:
143,175,115520,1,2,1:2:0:0:
148,190,115580,1,2,1:2:0:0:
153,205,115640,1,2,1:2:0:0:
157,221,115700,2,0,B|123:273|123:273|137:227,1,109.375,2|0,1:2|2:0,2:0:0:0:
77,99,115820,5,2,2:0:0:0:
77,99,115880,1,2,1:2:0:0:
77,99,115940,2,0,B|106:63|106:63|151:77,1,93.75,10|0,1:2|2:0,2:0:0:0:
377,121,116060,5,2,2:0:0:0:
365,125,116120,1,0,1:2:0:0:
351,129,116180,2,0,B|338:132|338:132|328:129|328:129|300:150|300:150|290:147|290:147|235:164,1,125,2|0,1:2|2:0,2:0:0:0:
42,183,116300,6,0,L|51:214,1,31.25,2|0,2:0|2:0,2:0:0:0:
114,334,116420,6,0,L|123:304,1,31.25,10|0,1:2|2:0,2:0:0:0:
256,244,116540,6,0,L|231:263,1,31.25,0|0,2:0|2:0,2:0:0:0:
153,220,116660,5,2,1:2:0:0:
145,217,116720,1,2,2:0:0:0:
154,212,116780,2,0,P|158:190|150:210,1,62.5,0|0,2:0|2:0,2:0:0:0:
16,286,116900,6,0,B|-3:292|-3:292|-4:318|-4:318|19:322|19:322|30:304,1,93.75,10|0,1:2|2:0,2:0:0:0:
225,345,117020,2,0,B|237:361|237:361|224:382|224:382|200:372|200:372|201:351,1,93.75,2|0,1:2|2:0,2:0:0:0:
112,125,117140,6,0,B|86:73|124:24|124:24|121:21|121:21|124:24|124:24|175:-34|273:-4|282:73|282:73|286:72|286:72|282:73|282:73|286:134|236:163,1,440.625,2|0,1:2|2:0,2:0:0:0:
186,94,117380,2,0,P|196:69|190:95,3,78.125,8|0|2|2,1:2|2:0|2:0|2:0,2:0:0:0:
111,26,117620,6,0,P|92:68|96:114,1,93.75,2|0,1:2|2:0,2:0:0:0:
290,83,117740,2,0,P|281:128|252:164,1,93.75,2|0,2:0|2:0,2:0:0:0:
154,212,117860,6,0,L|140:256,1,46.8750000000001,10|0,1:2|2:0,2:0:0:0:
145,216,117980,2,0,L|129:270,1,46.8750000000001,0|0,2:0|2:0,2:0:0:0:
232,317,118100,6,0,B|189:330|189:330|216:310,1,78.125,0|0,1:2|2:0,2:0:0:0:
112,353,118220,2,0,B|69:366|69:366|96:346,1,78.125,2|0,2:0|2:0,2:0:0:0:
359,266,118340,6,0,B|294:239|294:239|321:268,1,109.375,10|0,1:2|2:0,2:0:0:0:
500,322,118460,2,0,B|435:295|435:295|462:324,1,109.375,2|0,2:0|2:0,2:0:0:0:
359,356,118580,6,0,B|326:365|326:365|320:388,1,46.8750000000001,2|0,1:2|2:0,2:0:0:0:
357,349,118700,2,0,B|324:358|324:358|318:381,1,46.8750000000001,0|0,2:0|2:0,2:0:0:0:
506,239,118820,6,0,B|503:223|503:223|446:200|446:200|434:209,1,93.75,8|0,1:2|2:0,2:0:0:0:
232,317,118940,2,0,B|219:326|219:326|162:303|162:303|160:287,1,93.75,0|0,1:2|2:0,2:0:0:0:
65,120,119060,5,2,1:2:0:0:
58,121,119120,1,2,2:0:0:0:
54,117,119180,1,2,2:0:0:0:
47,121,119240,1,2,2:0:0:0:
43,116,119300,6,0,P|20:114|0:102,1,46.8750000000001,10|0,1:2|2:0,2:0:0:0:
224,171,119420,2,0,P|247:172|268:184,1,46.8750000000001,0|0,2:0|2:0,2:0:0:0:
113,51,119540,6,0,P|103:29|103:6,1,46.8750000000001,2|0,1:2|2:0,2:0:0:0:
164,280,119660,2,0,P|164:257|155:236,1,46.8750000000001,2|0,2:0|2:0,2:0:0:0:
236,48,119780,6,0,P|216:58|203:78,1,46.8750000000001,10|0,1:2|2:0,2:0:0:0:
31,238,119900,2,0,P|51:227|64:208,1,46.8750000000001,2|0,2:0|2:0,2:0:0:0:
134,145,120020,5,2,1:2:0:0:
0,101,120140,1,2,2:0:0:0:
236,48,120260,1,10,1:2:0:0:
164,281,120380,1,2,2:0:0:0:
397,123,120500,6,0,L|352:136,1,46.8750000000001,2|0,1:2|2:0,2:0:0:0:
221,176,120620,2,0,L|265:162,1,46.8750000000001,2|0,2:0|2:0,2:0:0:0:
461,286,120740,6,0,L|371:257,1,93.75,10|0,1:2|2:0,2:0:0:0:
157,13,120860,2,0,L|246:41,1,93.75,2|0,1:2|2:0,2:0:0:0:
404,4,120980,6,0,B|345:21|345:21|336:54,1,93.75,6|0,1:2|2:0,2:0:0:0:
278,252,121100,2,0,B|265:293|265:293|271:302|271:302|284:262,1,93.75,2|0,1:2|2:0,2:0:0:0:
480,145,121220,6,0,B|417:166|417:166|377:179|344:157|344:157|311:136|271:150|271:150|209:171,1,281.25,10|2,1:2|2:0,2:0:0:0:
153,105,121400,1,2,2:0:0:0:
153,105,121460,2,0,B|143:113|126:114|126:114|97:149|123:188,1,109.375,2|0,1:2|2:0,2:0:0:0:
173,297,121580,2,0,B|186:252,1,46.8750000000001,2|0,2:0|2:0,2:0:0:0:
236,54,121700,5,10,1:2:0:0:
28,238,121820,1,2,2:0:0:0:
246,359,121940,6,0,P|257:371|250:356,1,46.8750000000001,2|0,1:2|2:0,2:0:0:0:
123,188,122060,2,0,B|89:155|89:155|113:197,1,93.75,0|0,2:0|2:0,2:0:0:0:
34,364,122180,6,0,B|107:342|107:342|113:347|113:347|152:271|152:271|177:278|177:278|259:253,1,281.25,10|2,1:2|2:0,2:0:0:0:
338,276,122360,5,2,2:0:0:0:
338,276,122420,2,0,B|366:242|349:204|349:204|325:204|309:181,1,125,2|0,1:2|2:0,2:0:0:0:
361,127,122540,2,0,B|367:103|388:92|388:92|367:95|361:107,1,78.125,0|0,2:0|2:0,2:0:0:0:
355,377,122660,5,10,1:2:0:0:
264,59,122780,1,0,1:2:0:0:
437,223,122900,6,0,B|405:222|382:243|382:243|201:185,1,250,2|0,1:3|2:0,2:0:0:0:
127,211,123080,1,2,1:3:0:0:
127,211,123140,2,0,B|105:255|139:287|139:287|161:275,1,109.375,10|0,1:2|2:0,2:0:0:0:
315,190,123260,1,2,2:3:0:0:
43,72,123380,6,0,B|12:132|53:176|53:176|101:89|192:93,1,281.250010728836,2|0,1:3|2:0,2:0:0:0:
187,12,123560,1,2,1:3:0:0:
187,12,123620,2,0,B|232:6|232:6|258:45,1,93.7500035762788,10|0,1:2|2:0,2:0:0:0:
331,87,123740,2,0,B|360:90|376:75|376:75|363:101|343:101,1,93.7500035762788,2|0,2:3|2:0,2:0:0:0:
187,350,123860,6,0,L|150:390,1,46.8750000000001,2|0,1:3|2:0,2:0:0:0:
233,214,123980,1,2,1:3:0:0:
233,214,124040,1,2,1:3:0:0:
233,214,124100,2,0,L|218:161,1,46.8750000000001,10|0,1:2|2:0,2:0:0:0:
340,304,124220,2,0,L|387:314,1,46.8750000000001,0|0,2:0|2:0,2:0:0:0:
81,277,124340,6,0,B|118:302|118:302|230:200|379:222|379:222|396:180,1,375,0|0,1:2|2:0,2:0:0:0:
78,165,124580,6,0,P|119:186|145:225,1,93.7500035762788,10|0,1:2|2:0,2:0:0:0:
330,86,124700,2,0,P|307:127|308:174,1,93.7500035762788,2|0,1:2|2:0,2:0:0:0:
173,45,124820,6,0,B|157:-3|157:-3|163:-12|163:-12|177:33,1,109.375,2|0,1:2|2:0,2:0:0:0:
245,255,124940,2,0,B|260:303|260:303|254:312|254:312|240:266,1,109.375,0|0,2:0|2:0,2:0:0:0:
63,57,125060,6,0,B|191:96|191:96|217:104|227:128|227:128|236:151|262:159|262:159|308:173,1,281.25,8|0,1:2|2:0,2:0:0:0:
422,164,125240,5,2,2:0:0:0:
422,164,125300,2,0,B|433:155|433:155|481:170|481:170|460:186|460:186|412:172,1,140.625,0|0,1:2|2:0,2:0:0:0:
340,76,125420,2,0,B|306:65|306:65|310:72|310:72|343:82,1,78.1250000000001,0|0,2:0|2:0,2:0:0:0:
353,265,125540,5,8,1:2:0:0:
423,28,125660,1,2,2:0:0:0:
358,348,125780,6,0,B|335:320|335:320|352:264,1,93.75,2|0,1:2|2:0,2:0:0:0:
176,49,125900,2,0,B|198:76|198:76|181:132,1,93.75,0|0,2:0|2:0,2:0:0:0:
66,263,126020,6,0,B|118:245|118:245|127:231|127:231|197:233|197:233|205:219|205:219|325:182,1,281.25,8|2,1:2|2:0,2:0:0:0:
422,164,126200,5,2,2:0:0:0:
422,164,126260,2,0,B|438:127|438:127|392:171,1,93.75,2|0,1:2|2:0,2:0:0:0:
502,294,126380,2,0,B|447:277|447:277|434:234,1,93.75,2|0,2:0|2:0,2:0:0:0:
357,88,126500,6,0,L|345:49,1,31.25,10|0,1:2|2:0,2:0:0:0:
437,355,126620,2,0,L|448:393,1,31.25,2|0,1:2|2:0,2:0:0:0:
66,263,126740,6,0,P|156:264|213:335,1,187.5,0|0,1:2|2:0,2:0:0:0:
342,274,126920,1,2,2:0:0:0:
342,274,126980,2,0,B|297:288|297:288|269:251,1,93.75,10|0,1:2|2:0,2:0:0:0:
326,195,127100,1,2,2:0:0:0:
203,344,127220,6,0,B|196:301|163:283|163:283|117:133,1,218.75,2|2,1:2|2:0,2:0:0:0:
131,152,127460,2,0,B|158:133|158:133|138:184,1,78.125,10|0,1:2|2:0,2:0:0:0:
27,47,127580,2,0,L|101:69,1,78.125,2|0,2:0|2:0,2:0:0:0:
308,114,127700,6,0,P|227:85|241:0,1,187.5,2|0,1:2|2:0,2:0:0:0:
317,33,127880,1,2,2:0:0:0:
317,33,127940,2,0,P|336:24|361:19,1,46.8750000000001,8|0,1:2|2:0,2:0:0:0:
268,250,128060,2,0,P|245:254|223:263,1,46.8750000000001,0|0,2:0|2:0,2:0:0:0:
458,118,128180,6,0,B|490:109|517:99|517:99|545:183|503:254|420:265|420:265|407:217|358:210,1,375,2|0,1:2|2:0,2:0:0:0:
342,384,128420,1,10,1:2:0:0:
343,371,128480,1,0,1:0:0:0:
348,360,128540,1,0,1:2:0:0:
351,349,128600,1,0,1:0:0:0:
352,336,128660,6,0,B|383:227|383:227|391:201|416:188|416:188|441:175|449:149|449:149|459:117,1,250,4|0,1:2|2:0,2:0:0:0:
361,18,128840,1,2,2:0:0:0:
361,18,128900,2,0,B|352:41|352:41|374:113,1,100,2|0,2:0|2:0,2:0:0:0:
512,23,129020,5,0,1:0:0:0:
508,15,129080,5,0,1:0:0:0:
504,21,129140,6,0,B|400:52|400:52|398:58|398:58|238:107,1,281.25,8|0,1:2|2:0,2:0:0:0:
185,35,129320,1,2,2:0:0:0:
184,44,129380,2,0,B|145:70|145:70|159:114,1,93.75,2|0,2:0|2:0,2:0:0:0:
208,181,129500,2,0,L|194:225,1,46.8750000000001,0|0,2:0|2:0,2:0:0:0:
40,355,129620,6,0,B|62:336|68:310|68:310|271:247|271:247|280:218,1,293.75,0|0,1:2|2:0,2:0:0:0:
59,162,129800,1,2,2:0:0:0:
59,162,129860,2,0,B|83:169|83:169|98:219,1,78.125,2|0,2:0|2:0,2:0:0:0:
126,308,129980,2,0,L|139:352,1,46.8750000000001,0|0,1:2|2:0,2:0:0:0:
303,149,130100,6,0,P|309:118|300:148,3,93.75,8|0|0|0,1:2|2:0|2:0|2:0,2:0:0:0:
281,228,130340,6,0,B|272:258,1,31.25,2|0,2:0|2:0,2:0:0:0:
332,45,130460,2,0,B|341:15,1,31.25,0|0,2:0|2:0,2:0:0:0:
387,370,130580,5,2,1:2:0:0:
394,368,130640,5,2,1:2:0:0:
388,361,130700,6,0,B|380:336|380:336|380:346|380:346|372:321,1,62.5,0|0,2:0|2:0,2:0:0:0:
448,186,130820,6,0,B|420:212|420:212|445:296|445:296|338:263|338:263|347:261|347:261|160:203,1,421.874999999999,2|0,2:0|2:0,2:0:0:0:
172,206,131060,2,0,B|151:139|151:139|168:125|168:125|314:170|314:170|183:323,1,421.875016093255,10|0,1:2|2:0,2:0:0:0:
190,302,131300,6,0,B|145:288,1,46.8750000000001,2|0,1:2|2:0,2:0:0:0:
95,225,131420,2,0,B|50:211,1,46.8750000000001,2|0,2:0|2:0,2:0:0:0:
143,369,131540,6,0,L|83:387,1,54.6875000000001,2|0,2:0|2:0,2:0:0:0:
267,137,131660,1,0,2:0:0:0:
282,330,131780,6,0,L|341:348,1,62.5,2|0,1:2|2:0,2:0:0:0:
118,73,131900,1,0,2:0:0:0:
439,256,132020,6,0,B|432:197|369:185|369:185|354:190|354:190|340:220|303:221,1,187.5,10|0,1:2|2:0,2:0:0:0:
267,137,132260,2,0,B|262:110|238:95|238:95|285:105|287:141,1,125,2|0,1:2|2:0,2:0:0:0:
368,83,132380,2,0,B|374:44|374:44|357:80,1,78.125,0|0,2:0|2:0,2:0:0:0:
197,212,132500,6,0,B|301:180|301:180|337:190|337:190|341:180|341:180|473:140,1,293.75,2|0,1:2|2:0,2:0:0:0:
476,153,132680,1,2,2:0:0:0:
488,152,132740,2,0,B|527:126|527:126|513:82,1,93.75,2|0,2:0|2:0,2:0:0:0:
439,256,132860,2,0,B|400:282|400:282|414:326,1,93.75,0|0,2:0|2:0,2:0:0:0:
374,92,132980,6,0,B|429:108|429:108|501:343,1,287.5,8|0,1:2|2:0,2:0:0:0:
492,344,133160,1,2,2:0:0:0:
496,350,133220,2,0,B|521:357|521:357|525:364|525:364|498:356,1,62.5,2|0,2:0|2:0,2:0:0:0:
364,177,133340,2,0,B|323:164|323:164|330:175|330:175|368:186,1,93.75,2|0,2:0|2:0,2:0:0:0:
64,349,133460,6,0,B|116:331|116:331|125:317|125:317|195:319|195:319|203:305|203:305|323:268,1,281.25,0|0,1:2|2:0,2:0:0:0:
324,277,133640,1,2,2:0:0:0:
329,286,133700,2,0,L|237:258,1,93.75,2|0,2:0|2:0,2:0:0:0:
104,156,133820,6,0,B|163:137,1,62.5,0|0,1:2|2:0,2:0:0:0:
213,75,133940,2,0,B|258:105|258:105|242:157,1,109.375,8|0,1:2|2:0,2:0:0:0:
169,234,134060,5,0,1:2:0:0:
169,234,134120,1,2,2:0:0:0:
169,234,134180,2,0,B|157:273,1,31.25,2|0,2:0|2:0,2:0:0:0:
222,64,134300,2,0,B|233:24,1,31.25,0|0,2:0|2:0,2:0:0:0:
48,304,134420,6,0,P|138:310|191:384,1,187.5,2|0,1:2|2:0,2:0:0:0:
262,344,134600,1,2,2:0:0:0:
269,338,134660,2,0,B|314:352|314:352|342:315,1,93.75,2|0,2:0|2:0,2:0:0:0:
287,258,134780,1,0,2:0:0:0:
472,314,134900,5,10,1:2:0:0:
241,157,135020,1,10,1:2:0:0:
436,47,135140,5,0,1:2:0:0:
455,74,135200,1,0,1:2:0:0:
457,107,135260,1,10,1:2:0:0:
440,136,135320,1,8,1:2:0:0:
411,153,135380,6,0,P|330:124|344:39,1,187.5,0|0,1:2|2:0,2:0:0:0:
241,157,135560,1,2,2:0:0:0:
235,163,135620,2,0,P|215:155|188:149,1,46.8750000000001,2|0,2:0|2:0,2:0:0:0:
123,26,135740,2,0,P|142:33|169:39,1,46.8750000000001,2|0,2:0|2:0,2:0:0:0:
343,37,135860,6,0,B|305:49|305:49|301:63|301:63|264:75,1,93.75,2|0,1:2|2:0,2:0:0:0:
98,131,135980,2,0,B|60:142|60:142|56:156|56:156|18:168,1,93.75,2|0,1:2|2:0,2:0:0:0:
20,41,136100,5,10,1:2:0:0:
252,255,136220,1,0,2:0:0:0:
31,365,136340,6,0,B|25:334|25:334|47:312,6,62.5,4|0|0|0|0|0|0,1:2|2:0|2:0|2:0|2:0|2:0|2:0,2:0:0:0:
110,218,136580,2,0,B|131:241|131:241|126:271,6,62.5,0|0|0|0|0|0|0,2:0|2:0|2:0|2:0|2:0|2:0|2:0,2:0:0:0:
191,329,136820,6,0,L|265:351,1,78.125,10|0,1:2|2:0,2:0:0:0:
359,377,136940,1,2,2:0:0:0:
366,381,137000,2,0,L|343:306,1,78.125,2|0,2:0|2:0,2:0:0:0:
405,254,137120,1,2,2:0:0:0:
407,246,137180,1,2,2:0:0:0:
409,238,137240,1,2,2:0:0:0:
434,228,137300,5,2,1:2:0:0:
434,228,137360,2,0,B|447:183|447:183|417:147,1,93.75,2|0,1:2|2:0,2:0:0:0:
337,197,137480,5,2,2:0:0:0:
337,189,137540,2,0,L|296:141,1,62.5,2|0,2:0|2:0,2:0:0:0:
380,3,137660,2,0,B|369:36|369:36|373:40|373:40|362:76,1,78.125,2|2,2:0|2:0,2:0:0:0:
464,56,137780,5,10,1:2:0:0:
457,53,137840,1,2,1:2:0:0:
463,48,137900,2,0,L|472:15,1,31.25,2|0,2:0|2:0,2:0:0:0:
281,59,138020,2,0,L|290:29,1,31.25,2|0,2:0|2:0,2:0:0:0:
99,70,138140,2,0,L|108:37,1,31.25,2|0,2:0|2:0,2:0:0:0:
192,11,138260,6,0,B|201:28|201:28|179:99,1,93.75,2|0,1:2|2:0,2:0:0:0:
141,220,138380,1,2,1:2:0:0:
127,222,138440,2,0,B|99:194|99:194|110:156,1,78.125,2|0,2:0|2:0,2:0:0:0:
224,174,138560,1,2,1:2:0:0:
228,182,138620,1,2,1:2:0:0:
232,190,138680,1,2,1:2:0:0:
236,198,138740,6,0,B|223:238|223:238|228:243|228:243|215:286,1,93.75,10|0,1:2|2:0,2:0:0:0:
128,384,138860,1,2,2:0:0:0:
124,374,138920,1,2,2:0:0:0:
132,377,138980,2,0,B|211:352|211:352|225:307|225:307|309:280,1,218.75,2|0,2:0|2:0,2:0:0:0:
369,331,139160,5,2,2:0:0:0:
388,327,139220,2,0,B|420:294|420:294|412:248,1,93.75,2|0,1:2|2:0,2:0:0:0:
351,196,139340,1,2,2:0:0:0:
334,200,139400,1,2,2:0:0:0:
320,192,139460,2,0,L|304:142,2,39.0625,2|0|0,2:0|2:0|2:0,2:0:0:0:
383,120,139580,2,0,L|398:70,2,39.0625,2|0|0,2:0|2:0|2:0,2:0:0:0:
498,140,139700,6,0,B|513:175|496:224|496:224|448:70|275:72,1,375,8|0,1:2|2:0,2:0:0:0:
207,106,139940,2,0,B|160:112|160:112|201:89,1,93.75,2|0,1:2|2:0,2:0:0:0:
432,0,140060,2,0,P|436:52|394:83,1,109.375,0|0,1:2|2:0,2:0:0:0:
308,154,140180,6,0,B|244:131|232:45|232:45|96:4,1,281.25,2|0,1:2|2:0,2:0:0:0:
0,85,140360,1,2,2:0:0:0:
5,90,140420,1,2,2:0:0:0:
10,95,140480,1,2,2:0:0:0:
15,100,140540,2,0,B|27:108|27:108|95:87,1,78.125,2|0,2:0|2:0,2:0:0:0:
144,160,140660,6,0,B|155:204|155:204|120:236,1,93.75,8|0,1:2|2:0,2:0:0:0:
44,297,140780,1,2,2:0:0:0:
53,295,140840,1,2,2:0:0:0:
47,288,140900,2,0,L|28:228,1,62.5,2|0,2:0|2:0,2:0:0:0:
201,277,141020,2,0,L|234:287,1,31.25,2|0,2:0|2:0,2:0:0:0:
138,360,141140,6,0,B|115:384|115:384|187:361,1,109.375,2|0,1:2|2:0,2:0:0:0:
312,263,141260,1,2,2:0:0:0:
312,263,141320,1,2,2:0:0:0:
312,263,141380,2,0,B|323:307|323:307|288:339,1,93.75,2|0,2:0|2:0,2:0:0:0:
240,194,141500,2,0,L|226:149,1,46.8750000000001,2|0,2:0|2:0,2:0:0:0:
387,0,141620,6,0,B|368:5|368:5|346:76,1,93.75,10|0,1:2|2:0,2:0:0:0:
320,162,141740,1,2,1:2:0:0:
328,173,141800,2,0,B|369:161|369:161|371:154|371:154|412:141,2,93.75,2|0|0,2:0|2:0|2:0,2:0:0:0:
256,66,141980,5,2,2:0:0:0:
252,75,142040,1,2,2:0:0:0:
246,68,142100,2,0,B|201:54|201:54|171:90,1,93.75,2|0,1:2|2:0,2:0:0:0:
63,162,142220,5,2,2:0:0:0:
61,177,142280,2,0,B|91:212|91:212|135:199,1,93.75,2|0,1:2|2:0,2:0:0:0:
304,258,142400,5,2,2:0:0:0:
297,249,142460,2,0,B|252:235|252:235|222:271,1,93.75,2|0,1:2|2:0,2:0:0:0:
290,364,142580,6,0,L|280:334,1,31.25,8|0,1:2|2:0,2:0:0:0:
240,194,142700,2,0,L|225:148,1,46.8750000000001,0|0,2:0|2:0,2:0:0:0:
440,283,142820,5,2,1:2:0:0:
437,274,142880,1,2,1:2:0:0:
433,266,142940,1,2,1:2:0:0:
428,256,143000,1,2,1:2:0:0:
424,246,143060,2,0,L|379:232,1,46.8750000000001,2|0,1:2|2:0,2:0:0:0:
201,353,143180,2,0,L|126:330,1,78.125,2|0,2:0|2:0,2:0:0:0:
19,351,143300,5,10,1:2:0:0:
11,342,143360,1,0,1:0:0:0:
11,330,143420,2,0,B|29:289|39:312|57:266,1,78.125,2|0,1:2|2:0,2:0:0:0:
138,242,143540,1,2,1:2:0:0:
147,239,143600,1,0,1:2:0:0:
140,234,143660,2,0,B|119:174|96:212|74:146,1,109.375,10|0,1:2|2:0,2:0:0:0:
15,40,143780,6,0,B|70:56|70:56|59:57|59:57|113:74,1,125,8|0,1:2|2:0,2:0:0:0:
324,132,143900,1,0,1:2:0:0:
324,132,143960,1,0,1:0:0:0:
324,132,144020,6,0,B|338:82|338:82|315:56|315:56|304:55|304:55|196:88|196:88|188:129|188:129|183:130|183:130|229:182,1,312.5,0|0,1:2|2:0,2:0:0:0:
273,254,144200,2,0,B|280:229|280:229|323:216|323:216|324:212|324:212|366:257|366:257|359:299|359:299|321:310,1,218.75,2|0,2:0|2:0,2:0:0:0:
337,322,144380,2,0,B|361:351|361:351|326:361|326:361|329:324,1,109.375001043081,2|0,2:0|2:0,2:0:0:0:
397,169,144500,6,2,B|438:156|438:156|441:149|441:149|399:161,6,93.7500000000001,10|2|2|2|2|2|2,1:2|2:0|2:0|2:0|2:0|2:0|2:0,2:0:0:0:
444,240,144740,2,0,B|471:231|471:231|473:226|473:226|445:235,1,62.5,2|0,2:0|2:0,2:0:0:0:
491,309,144860,2,0,B|508:303|508:303|509:300|509:300|492:305,1,40.625,2|0,2:0|2:0,2:0:0:0:
512,63,144980,6,0,B|495:76|495:76|425:54,1,93.75,2|0,1:2|2:0,2:0:0:0:
412,63,145100,2,0,L|382:53,1,31.25,0|0,2:0|2:0,2:0:0:0:
273,0,145220,5,2,1:2:0:0:
279,19,145280,1,2,1:2:0:0:
285,40,145340,2,0,B|292:63|292:63|289:68|289:68|302:85|302:85|300:88|300:88|317:142,1,109.375,2|0,2:0|2:0,2:0:0:0:
176,267,145460,6,0,L|185:237,1,31.25,10|0,1:2|2:0,2:0:0:0:
211,156,145580,2,0,L|220:126,1,31.25,2|0,2:0|2:0,2:0:0:0:
341,239,145700,6,2,B|308:229|308:229|315:233|315:233|280:222,1,78.125,2|2,2:0|2:0,2:0:0:0:
53,149,145820,2,2,B|85:158|85:158|78:154|78:154|112:165,1,78.125,2|2,2:0|2:0,2:0:0:0:
233,365,145940,5,2,1:2:0:0:
233,365,146000,1,2,1:2:0:0:
233,365,146060,2,0,B|257:335|257:335|253:296,1,78.125,2|0,2:0|2:0,2:0:0:0:
146,90,146180,2,0,B|141:51|141:51|166:21,2,78.125,2|0|0,2:0|2:0|2:0,2:0:0:0:
220,126,146360,5,2,2:0:0:0:
220,126,146420,2,0,L|210:155,1,31.25,10|0,1:2|2:0,2:0:0:0:
334,80,146540,5,2,2:0:0:0:
334,80,146600,2,0,L|316:140,1,62.5,2|0,1:2|2:0,2:0:0:0:
449,35,146720,5,2,2:0:0:0:
449,35,146780,2,0,L|421:124,1,93.75,2|0,1:2|2:0,2:0:0:0:
462,225,146900,6,0,B|434:234|434:234|436:232|436:232|408:240,1,62.5,2|0,1:2|2:0,2:0:0:0:
244,288,147020,1,2,2:0:0:0:
476,384,147140,6,0,B|433:371|433:371|436:373|436:373|393:360,1,93.75,10|0,1:2|2:0,2:0:0:0:
211,144,147260,1,2,2:0:0:0:
211,144,147320,1,2,2:0:0:0:
211,144,147380,6,0,B|175:174|175:174|189:218,1,93.75,0|0,1:2|2:0,2:0:0:0:
45,327,147500,2,0,B|80:296|80:296|66:252,1,93.75,0|0,1:2|2:0,2:0:0:0:
86,90,147620,6,0,L|100:135,1,46.8750000000001,10|0,1:2|2:0,2:0:0:0:
174,384,147740,2,0,L|156:327,1,46.8750000000001,2|0,2:0|2:0,2:0:0:0:
303,113,147860,5,2,1:2:0:0:
275,202,147980,1,2,2:0:0:0:
312,122,148100,1,2,2:0:0:0:
284,211,148220,1,2,2:0:0:0:
512,222,148340,6,0,P|422:235|376:313,1,187.5,10|0,1:0|2:0,2:0:0:0:
323,380,148520,1,2,2:0:0:0:
323,380,148580,2,0,B|280:344|280:344|294:293,1,109.375,2|0,2:0|2:0,2:0:0:0:
461,317,148700,2,0,B|444:266,1,46.8750000000001,2|0,2:0|2:0,2:0:0:0:
341,143,148820,6,0,B|320:126|320:126|329:136|329:136|311:121,1,62.5,2|0,1:2|2:0,2:0:0:0:
452,109,148940,2,0,B|459:83|459:83|457:96|457:96|464:74,1,62.5,2|0,2:0|2:0,2:0:0:0:
373,51,149060,1,2,1:2:0:0:
373,51,149120,1,2,1:2:0:0:
373,51,149180,2,0,B|365:25|365:25|371:37|371:37|364:15,1,62.5,2|0,2:0|2:0,2:0:0:0:
416,201,149300,6,0,P|413:184|421:199,1,46.8750000000001,10|0,1:2|2:0,2:0:0:0:
295,281,149420,6,0,P|290:305|298:282,1,70.625,0|0,2:0|2:0,2:0:0:0:
78,116,149540,6,0,P|70:85|81:114,1,93.75,2|0,2:0|2:0,2:0:0:0:
2,282,149660,5,2,1:2:0:0:
0,274,149720,5,2,1:2:0:0:
7,275,149780,6,2,B|17:270|17:270|19:271|19:271|26:268|26:268|27:269|27:269|34:265|34:265|38:266|38:266|42:262|42:262|45:264|45:264|49:260|49:260|53:262|53:262|57:258|57:258|60:260|60:260|64:256|64:256|67:257|67:257|70:253|70:253|75:255|75:255|77:251|77:251|83:253|83:253|84:248|84:248|90:251|90:251|91:246|91:246|95:250|95:250|99:244|99:244|103:248|103:248|106:242|106:242|111:245|111:245|114:239|114:239|118:243|118:243|122:237|122:237|126:241|126:241|130:233|130:233|135:238|135:238|139:230|139:230|143:236|143:236|147:228|147:228|151:234|151:234|155:225|155:225|159:232|159:232|163:223|163:223|167:230|167:230|170:220|170:220|175:227|175:227|179:217|179:217|184:225|184:225|186:215|186:215|192:222|192:222|194:213|194:213|200:221|200:221|202:209|202:209|208:218|208:218|211:207|211:207|218:215|218:215|221:204|221:204|226:213|226:213|230:201|230:201|237:210|237:210|240:197|240:197|247:207|247:207|249:194|249:194|257:204|257:204|260:191|260:191|266:202|266:202|269:187|269:187|275:199|275:199,1,525,2|0,1:2|2:0,2:0:0:0:
219,118,150020,6,0,B|166:136|166:136|150:186,1,109.375,2|0,2:0|2:0,2:0:0:0:
184,327,150140,2,0,B|197:283|197:283|196:300|196:300|209:256,1,109.375,0|0,2:0|2:0,2:0:0:0:
208,29,150260,2,0,B|281:51|281:51|305:114|305:114|376:135,1,218.75,10|2,1:2|2:0,2:0:0:0:
456,25,150440,5,2,2:0:0:0:
448,23,150500,2,0,B|404:9|404:9|374:45,1,93.75,0|0,1:2|2:0,2:0:0:0:
443,194,150620,1,0,2:0:0:0:
301,197,150740,6,0,L|330:206,1,31.25,0|0,1:2|2:0,2:0:0:0:
495,116,150860,2,0,L|465:106,1,31.25,0|0,1:2|2:0,2:0:0:0:
451,323,150980,6,0,L|437:278,1,46.8750000000001,8|0,1:2|2:0,2:0:0:0:
366,44,151100,2,0,L|352:0,1,46.8750000000001,0|0,1:2|2:0,2:0:0:0:
324,309,151220,6,0,B|280:295|280:295|275:278|275:278|231:265,1,109.375,8|0,1:2|2:0,2:0:0:0:
135,145,151340,5,0,1:2:0:0:
135,145,151400,1,0,1:2:0:0:
135,145,151460,2,0,B|74:105|74:105|111:153,1,125,8|0,1:2|2:0,2:0:0:0:
26,303,151580,2,0,B|96:281|96:281|111:230,1,125,8|0,1:2|2:0,2:0:0:0:
242,101,151700,6,0,B|186:282|186:282|227:306|224:365,1,281.25,4|0,1:2|2:0,2:0:0:0:
145,353,151880,1,2,2:0:0:0:
145,353,151940,2,0,P|119:356|100:366,1,46.8750000000001,8|0,1:2|2:0,2:0:0:0:
301,197,152060,2,0,P|326:193|345:183,1,46.8750000000001,2|0,2:0|2:0,2:0:0:0:
512,371,152180,6,0,B|417:342|417:342|423:340|423:340|342:315,1,187.5,2|0,1:2|2:0,2:0:0:0:
434,184,152360,1,0,1:0:0:0:
434,184,152420,2,0,B|309:222|309:222|317:223|317:223|210:256,1,250,10|2,1:2|2:0,2:0:0:0:
371,308,152600,1,2,2:0:0:0:
371,308,152660,2,0,L|418:322,1,46.8750000000001,2|0,1:2|2:0,2:0:0:0:
507,217,152780,5,0,1:0:0:0:
510,209,152840,1,0,1:0:0:0:
512,203,152900,2,0,B|523:157|523:157|489:126,1,93.75,8|0,1:2|2:0,2:0:0:0:
368,20,153020,2,0,B|356:65|356:65|390:96,1,93.75,0|0,2:0|2:0,2:0:0:0:
477,35,153140,6,0,B|483:-11|483:-11|462:30,1,93.75,2|0,1:2|2:0,2:0:0:0:
421,195,153260,1,2,2:0:0:0:
173,122,153380,6,0,B|184:119|184:119|192:122|192:122|217:103|217:103|226:106|226:106|273:91,1,109.375,10|0,1:2|2:0,2:0:0:0:
485,30,153500,2,0,B|530:15|530:15|536:5|536:5|487:20,1,109.375,2|0,1:2|2:0,2:0:0:0:
99,59,153620,6,0,B|130:33|130:33|206:56|206:56|225:114|225:114|219:104|219:104|238:163|238:163|314:187|314:187|346:161,1,375,2|0,1:2|2:0,2:0:0:0:
376,82,153860,6,0,L|361:37,1,46.8750000000001,8|0,1:2|2:0,2:0:0:0:
154,222,153980,2,0,B|196:234|196:234|198:239|198:239|241:252,1,93.75,2|0,2:0|2:0,2:0:0:0:
481,307,154100,6,0,B|468:264|468:264|391:240|391:240|382:242|382:242|294:317,1,250,2|2,1:2|2:0,2:0:0:0:
346,384,154280,1,2,2:0:0:0:
346,384,154340,2,0,B|382:355|382:355|365:301,1,93.75,8|0,1:2|2:0,2:0:0:0:
268,89,154460,5,2,1:2:0:0:
270,82,154520,5,0,1:2:0:0:
275,88,154580,6,0,B|338:108|338:108|346:141|346:141|514:192,1,275,2|2,1:2|2:0,2:0:0:0:
503,95,154760,1,2,2:0:0:0:
503,95,154820,2,0,B|450:111|450:111|439:150,1,93.75,10|0,1:2|2:0,2:0:0:0:
498,313,154940,1,0,1:0:0:0:
496,307,155000,1,0,1:0:0:0:
494,301,155060,2,0,L|484:271,1,31.25,0|2,1:2|2:0,2:0:0:0:
397,43,155180,6,0,B|401:28|401:28|399:27|399:27|403:14,1,31.25,2|0,2:0|2:0,2:0:0:0:
275,88,155300,6,0,B|282:66|282:66|279:65|279:65|286:45,1,46.8750000000001,10|0,1:2|2:0,2:0:0:0:
143,136,155420,6,0,B|151:107|151:107|148:105|148:105|156:77,1,62.5,2|0,1:2|2:0,2:0:0:0:
357,166,155540,6,0,B|284:188|284:188|255:196|273:213|242:222|242:222|128:258,1,250,2|0,1:2|2:0,2:0:0:0:
56,227,155720,1,2,2:0:0:0:
51,232,155780,2,0,B|35:283|35:283|76:319,1,109.375,10|0,1:2|2:0,2:0:0:0:
194,213,155900,2,0,L|208:258,2,46.875,2|0|2,2:0|2:0|2:0,2:0:0:0:
50,146,156020,6,0,B|20:137,1,31.25,0|0,1:2|2:0,2:0:0:0:
282,216,156140,2,0,L|311:224,1,31.25,0|0,2:0|2:0,2:0:0:0:
182,375,156260,6,0,B|266:349|266:349|275:332|275:332|280:334|280:334|411:294,1,250,10|2,1:2|2:0,2:0:0:0:
418,302,156440,1,2,2:0:0:0:
426,313,156500,2,0,B|419:332|419:332|422:336|422:336|416:356,1,46.8750000000001,2|0,1:2|2:0,2:0:0:0:
357,166,156620,1,2,2:0:0:0:
353,161,156680,1,2,2:0:0:0:
350,155,156740,2,0,B|340:128|340:128|355:80,1,78.125,8|0,1:2|2:0,2:0:0:0:
462,171,156860,6,0,B|453:197|453:197|457:202|457:202|449:229,1,62.5,2|0,2:0|2:0,2:0:0:0:
304,344,156980,2,0,P|282:367|308:348,1,93.75,2|2,1:2|2:0,2:0:0:0:
502,22,157100,6,0,B|491:55|491:55|496:61|496:61|485:95,1,78.125,2|0,2:0|2:0,2:0:0:0:
507,367,157220,6,0,B|469:355|469:355|461:323|461:323|425:312,1,109.375,8|0,1:2|2:0,2:0:0:0:
350,155,157340,2,0,B|312:166|312:166|304:198|304:198|268:209,1,109.375,0|0,1:2|2:0,2:0:0:0:
107,345,157460,6,0,B|-20:154|-20:154|-14:153|-14:153|108:218,1,375,2|0,1:2|2:0,2:0:0:0:
184,205,157700,2,0,B|197:249|197:249|160:278,1,93.75,10|0,1:2|2:0,2:0:0:0:
7,377,157820,1,0,1:0:0:0:
7,377,157880,1,0,1:0:0:0:
7,377,157940,2,0,B|19:342|19:342|23:341|23:341|36:305,1,78.125,2|0,1:2|2:0,2:0:0:0:
152,40,158060,6,0,P|110:111|159:44,2,250,2|10|0,2:0|1:2|2:0,2:0:0:0:
378,171,158420,5,2,1:2:0:0:
382,164,158480,1,2,1:2:0:0:
373,165,158540,2,0,B|324:153|349:129|295:116,1,93.75,2|0,2:0|2:0,2:0:0:0:
109,137,158660,6,0,P|77:117|68:79,1,78.125,8|0,1:2|2:0,2:0:0:0:
276,0,158780,2,0,P|273:23|260:42,1,46.8750000000001,2|2,2:0|2:0,2:0:0:0:
210,132,158900,5,2,1:2:0:0:
210,132,158960,1,2,1:2:0:0:
210,132,159020,2,0,B|213:166|237:182|237:182|206:179|198:156,1,109.375,2|0,2:0|2:0,2:0:0:0:
382,61,159140,2,0,P|389:24|376:59,1,109.375,10|0,1:2|2:0,2:0:0:0:
317,249,159260,6,0,B|315:234|308:224|308:224|344:234|350:271,1,93.75,0|0,1:2|2:0,2:0:0:0:
473,281,159380,2,0,B|402:304|448:333|380:358,1,125,2|0,1:2|2:0,2:0:0:0:
293,339,159500,5,2,1:2:0:0:
296,347,159560,1,0,1:2:0:0:
287,346,159620,2,0,L|242:359,1,46.8750000000001,8|0,1:2|2:0,2:0:0:0:
373,165,159740,2,0,L|417:151,1,46.8750000000001,0|0,2:0|2:0,2:0:0:0:
217,254,159860,6,0,B|188:234|184:205|184:205|122:186,1,125,0|0,1:2|2:0,2:0:0:0:
73,283,159980,6,0,B|62:298|62:298|118:280,1,78.125,2|0,2:0|2:0,2:0:0:0:
25,137,160100,2,0,B|9:126|9:126|27:182,1,78.125,10|0,1:2|2:0,2:0:0:0:
171,89,160220,2,0,B|181:73|181:73|125:91,1,78.125,2|0,2:0|2:0,2:0:0:0:
141,207,160340,6,0,L|150:176,2,31.25,0|0|0,1:2|2:0|2:0,2:0:0:0:
217,254,160460,2,0,L|241:174,1,78.125,0|0,2:0|2:0,2:0:0:0:
271,46,160580,6,0,P|277:30|276:47,6,46.875,10|0|0|0|2|0|0,1:2|2:0|2:0|2:0|2:0|2:0|2:0,2:0:0:0:
410,186,160820,6,0,B|362:200|362:200|353:224|353:224|305:238,1,125,2|0,1:2|2:0,2:0:0:0:
239,179,160940,2,0,L|252:134,2,46.875,2|0|0,2:0|2:0|2:0,2:0:0:0:
408,328,161060,6,0,B|375:318|375:318|385:317|385:317|353:308,1,78.2499999999999,10|0,1:2|2:0,2:0:0:0:
150,177,161180,2,0,B|96:218|96:218|117:284,1,137.5,2|0,1:2|2:0,2:0:0:0:
223,323,161300,6,0,B|212:290|212:290|212:293|212:293|200:253,1,78.125,0|0,1:2|2:0,2:0:0:0:
136,39,161420,2,0,B|132:24|132:24|132:25|132:25|128:11,1,31.25,0|0,2:0|2:0,2:0:0:0:
86,381,161540,6,0,B|100:335|100:335|100:339|100:339|117:283,1,109.375,10|0,1:2|2:0,2:0:0:0:
150,177,161660,2,0,B|158:150|158:150|158:152|158:152|168:120,1,62.5,2|2,2:0|2:0,2:0:0:0:
22,84,161780,5,0,1:2:0:0:
20,89,161840,1,0,1:2:0:0:
19,94,161900,1,2,1:2:0:0:
17,100,161960,1,0,1:2:0:0:
15,105,162020,2,0,B|2:148|2:148|39:178,1,93.75,8|0,1:2|2:0,2:0:0:0:
261,65,162140,6,0,B|251:94|251:94|268:122|268:122|259:151,1,93.7500035762788,0|0,2:0|2:0,2:0:0:0:
207,253,162260,6,0,B|234:244|234:244|235:241|235:241|264:232,2,62.5,2|0|0,1:2|2:0|2:0,2:0:0:0:
350,67,162380,2,0,B|367:61|367:61|367:59|367:59|385:53,2,39.0625,0|0|0,2:0|2:0|2:0,2:0:0:0:
317,309,162500,5,10,1:2:0:0:
315,302,162560,1,0,1:0:0:0:
323,305,162620,2,0,B|346:297|346:297|371:216,1,109.375,2|0,2:0|2:0,2:0:0:0:
388,139,162740,6,0,L|405:133,1,15.625,2|0,1:2|2:0,2:0:0:0:
159,40,162860,6,0,L|184:32,1,23.4375008940697,2|0,2:0|2:0,2:0:0:0:
89,293,162980,6,0,L|120:283,1,31.25,10|0,1:2|2:0,2:0:0:0:
16,101,163100,6,0,B|78:120|78:120|71:119|71:119|135:139,1,140.625,0|0,1:2|2:0,2:0:0:0:
226,163,163220,2,2,B|219:140|219:140|225:149|225:149|219:129,6,54.6875,2|2|2|2|2|2|2,1:2|2:0|2:0|2:0|2:0|2:0|2:0,2:0:0:0:
1,227,163460,2,0,B|35:216|35:216|32:219|32:219|68:208,1,78.125,10|0,1:2|2:0,2:0:0:0:
293,69,163580,5,2,2:0:0:0:
286,72,163640,1,2,1:2:0:0:
290,76,163700,2,0,B|323:186|323:186|305:203|305:203|110:143,1,328.125,2|0,1:2|2:0,2:0:0:0:
86,305,163940,6,0,B|137:289|137:289|149:250,1,93.75,10|0,1:2|2:0,2:0:0:0:
68,22,164060,2,0,B|116:37|116:37|118:40|118:40|172:57,1,109.375,2|0,2:0|2:0,2:0:0:0:
357,116,164180,6,0,B|405:75|405:75|387:16,1,125,2|2,1:2|2:0,2:0:0:0:
308,13,164300,2,0,B|277:38|277:38|289:74,1,78.125,2|0,2:0|2:0,2:0:0:0:
498,259,164420,6,0,B|488:236|488:236|357:196|357:196|290:260,1,250,8|2,1:2|2:0,2:0:0:0:
373,368,164600,1,0,1:2:0:0:
373,368,164660,2,0,B|398:342|398:342|382:287,1,93.75,2|0,1:2|2:0,2:0:0:0:
227,320,164780,2,0,B|266:332|266:332|256:331|256:331|297:343,1,93.75,2|0,2:3|2:0,2:0:0:0:
476,152,164900,6,0,P|438:150|414:179,1,78.125,10|0,1:2|2:0,2:0:0:0:
288,74,165020,2,0,P|265:112|280:155,1,93.75,2|0,1:2|2:0,2:0:0:0:
381,286,165140,6,0,B|341:274|341:274|335:265|335:265|295:252,1,93.75,2|0,1:2|2:0,2:0:0:0:
205,221,165260,1,2,2:3:0:0:
476,152,165380,6,0,B|424:136|424:136|410:141|410:141|357:125,1,125,10|0,1:2|2:0,2:0:0:0:
189,75,165500,1,2,2:3:0:0:
512,317,165620,6,0,B|478:306|478:306|461:250,1,93.75,2|0,1:2|2:0,2:0:0:0:
400,44,165740,2,0,L|387:0,1,46.8750000000001,2|0,2:3|2:0,2:0:0:0:
381,286,165860,6,0,B|377:291|377:291|388:329,2,46.875,10|0|0,1:2|2:0|2:0,2:0:0:0:
476,152,165980,2,0,B|479:146|479:146|468:108,2,46.875,2|0|2,2:3|2:0|2:3,2:0:0:0:
274,337,166100,6,0,P|245:323|231:297,1,62.5,10|0,1:2|2:0,2:0:0:0:
125,382,166220,2,0,P|123:350|137:326,1,62.5,2|0,1:2|2:0,2:0:0:0:
194,82,166340,6,0,P|196:112|180:138,1,62.5,10|0,1:2|2:0,2:0:0:0:
304,188,166460,2,0,P|279:205|248:205,1,62.5,2|0,1:2|2:0,2:0:0:0:
14,279,166580,6,0,P|39:261|69:261,1,62.5,10|0,1:2|2:0,2:0:0:0:
47,127,166700,1,2,1:2:0:0:
47,127,166760,1,2,1:2:0:0:
47,127,166820,2,0,P|74:140|89:167,1,62.5,10|0,1:2|2:0,2:0:0:0:
161,248,166940,6,0,P|158:215|167:246,1,93.75,2|0,1:2|2:0,2:0:0:0:
119,32,167060,5,6,1:2:0:0:
96,41,167300,1,0,1:0:0:0:
97,65,167540,1,0,1:0:0:0:
120,71,167780,1,0,1:0:0:0:
194,1,168020,1,0,1:0:0:0:
283,49,168260,1,0,1:0:0:0:
264,148,168500,1,0,1:0:0:0:
163,160,168740,1,0,1:0:0:0:
111,349,168980,5,8,1:0:0:0:
59,284,169220,1,0,1:0:0:0:
104,217,169460,1,0,1:0:0:0:
183,239,169700,1,0,1:0:0:0:
254,362,169940,1,8,1:0:0:0:
392,332,170180,1,0,1:0:0:0:
406,190,170420,1,0,1:0:0:0:
277,134,170660,1,0,1:0:0:0:
254,362,170900,6,0,L|285:326,1,46.8750000000001,8|0,1:0|2:0,2:0:0:0:
406,190,171020,1,0,1:0:0:0:
183,239,171140,6,0,L|225:257,1,46.8750000000001,8|0,1:0|2:0,2:0:0:0:
393,330,171260,1,0,1:0:0:0:
277,134,171380,6,0,L|272:180,1,46.8750000000001,8|0,1:0|2:0,2:0:0:0:
254,362,171500,1,0,1:0:0:0:
406,190,171620,6,0,L|360:200,1,46.8750000000001,8|0,1:0|2:0,2:0:0:0:
183,239,171740,1,0,1:0:0:0:
450,355,171860,6,0,L|389:328,1,62.5,8|0,1:0|2:0,2:0:0:0:
183,239,171980,1,0,1:0:0:0:
447,143,172100,6,0,L|403:192,1,62.5,8|0,1:0|2:0,2:0:0:0:
254,362,172220,1,0,1:0:0:0:
245,80,172340,6,0,L|278:136,1,62.5,8|0,1:0|2:0,2:0:0:0:
392,329,172460,1,0,1:0:0:0:
122,253,172580,6,0,L|186:238,1,62.5,8|0,1:0|2:0,2:0:0:0:
405,189,172700,1,0,1:0:0:0:
163,325,172820,5,0,1:0:0:0:
127,336,172880,1,0,1:0:0:0:
89,330,172940,1,0,1:0:0:0:
58,307,173000,1,0,1:0:0:0:
40,273,173060,1,0,1:0:0:0:
40,235,173120,1,0,1:0:0:0:
57,200,173180,1,0,1:0:0:0:
88,177,173240,1,0,1:0:0:0:
126,170,173300,5,0,1:0:0:0:
152,161,173360,1,0,1:0:0:0:
170,140,173420,1,0,1:0:0:0:
174,112,173480,1,0,1:0:0:0:
164,87,173540,1,0,1:0:0:0:
142,70,173600,1,0,1:0:0:0:
114,67,173660,1,0,1:0:0:0:
89,79,173720,1,0,1:0:0:0:
74,102,173780,5,0,1:0:0:0:
231,259,173900,1,0,2:0:0:0:
325,76,174020,2,0,B|343:27|343:27|313:69,1,103.125,0|0,2:0|2:0,2:0:0:0:
6,159,174740,6,0,B|33:197|33:197|76:179,1,93.7500035762788,2|0,1:2|1:2,2:0:0:0:
162,219,174920,1,2,2:3:0:0:
169,210,174980,2,0,L|160:164,1,46.8750017881394,2|0,1:2|2:0,2:0:0:0:
148,84,175100,1,2,1:3:0:0:
87,300,175220,5,2,1:2:0:0:
91,292,175280,1,2,1:3:0:0:
93,296,175340,2,0,B|112:302|112:302|115:306|115:306|135:312,1,46.8750017881394,2|0,1:3|2:0,2:0:0:0:
263,167,175460,5,2,1:2:0:0:
267,175,175520,1,2,1:3:0:0:
269,170,175580,2,0,B|288:163|288:163|291:159|291:159|311:153,1,46.8750017881394,2|2,1:3|2:3,2:0:0:0:
397,309,175700,6,0,B|396:339|396:339|379:365,1,62.5,2|2,1:2|2:3,2:0:0:0:
295,347,175820,1,2,1:3:0:0:
304,348,175880,1,2,1:3:0:0:
299,340,175940,2,0,B|299:309|299:309|316:283,1,62.5,2|2,1:2|2:3,2:0:0:0:
474,189,176060,6,0,B|384:216,1,93.7500035762788,2|0,1:2|2:0,2:0:0:0:
263,32,176180,1,0,1:3:0:0:
263,32,176240,2,0,L|353:59,1,93.7500035762788,2|2,1:2|1:3,2:0:0:0:
444,105,176360,5,0,1:3:0:0:
441,95,176420,2,0,B|452:57,3,31.25,2|0|0|0,1:0|2:0|1:2|2:0,2:0:0:0:
89,173,176660,6,0,B|76:227|25:239|25:239|16:251|16:251|291:168,1,375,4|0,1:2|2:0,2:0:0:0:
193,117,176900,2,0,B|99:40|99:40|100:44|100:44|155:121,1,218.75,10|0,1:2|2:0,2:0:0:0:
406,304,177140,6,0,B|330:324|294:388|294:388|370:140,1,403.125,2|0,1:2|2:0,2:0:0:0:
267,175,177380,6,0,B|258:202|258:202|288:219|292:260,1,93.75,10|0,1:2|2:0,2:0:0:0:
424,224,177500,1,2,2:0:0:0:
199,382,177620,1,0,1:2:0:0:
375,142,177740,6,0,B|394:99|394:99|362:133,1,93.75,2|0,2:0|2:0,2:0:0:0:
167,285,177860,2,0,B|229:304|229:304|257:312|286:294|286:294|314:275|343:284|343:284|405:303,1,250,8|2,1:2|2:0,2:0:0:0:
174,28,178100,6,0,P|243:202|283:386,1,375,2|0,1:2|2:0,2:0:0:0:
245,103,178340,6,0,P|225:148|197:207,1,109.375,10|0,1:2|2:0,2:0:0:0:
107,73,178460,6,0,P|120:105|137:144,1,78.125,0|0,1:2|2:0,2:0:0:0:
0,120,178580,6,0,P|19:127|43:135,1,46.8750000000001,0|0,1:2|2:0,2:0:0:0:
299,194,178700,5,2,1:2:0:0:
174,28,178820,1,10,1:2:0:0:
270,277,178940,1,2,2:0:0:0:
405,181,179060,1,2,1:2:0:0:
397,178,179120,1,2,2:3:0:0:
399,185,179180,2,0,P|386:219|376:259,1,78.125,2|0,2:3|2:0,2:0:0:0:
173,378,179300,6,0,P|80:328|83:223,1,218.75,10|2,1:2|2:0,2:0:0:0:
199,202,179480,1,2,2:3:0:0:
187,210,179540,2,0,B|192:248|192:248|165:276,1,78.125,2|0,1:2|2:0,2:0:0:0:
71,365,179660,1,0,2:0:0:0:
44,135,179780,6,0,B|21:93|21:93|54:127,1,93.75,10|0,1:2|2:0,2:0:0:0:
165,286,179900,1,0,2:0:0:0:
310,189,180020,6,0,P|275:276|255:367,1,187.5,2|2,1:2|2:3,2:0:0:0:
349,348,180200,1,2,1:3:0:0:
349,348,180260,2,0,B|389:312|389:312|375:259,1,109.375,10|0,1:2|2:0,2:0:0:0:
239,124,180380,2,0,B|225:71|225:71|266:36,1,109.375,2|0,1:2|2:0,2:0:0:0:
494,68,180500,6,0,B|493:50|493:50|400:6|341:101|341:101|446:89|482:182,1,375,0|0,1:2|2:0,2:0:0:0:
374,258,180740,2,0,P|362:187|379:256,1,218.75,10|0,1:2|2:0,2:0:0:0:
149,1,180980,6,0,P|257:142|166:293,1,375,2|0,1:2|2:0,2:0:0:0:
110,119,181220,6,0,B|125:167|125:167|148:171|158:192,1,93.75,10|0,1:2|2:0,2:0:0:0:
88,261,181340,1,2,2:0:0:0:
266,35,181460,1,2,1:3:0:0:
38,81,181580,6,0,B|-8:72|-8:72|32:95,1,93.75,2|0,2:0|2:0,2:0:0:0:
295,142,181700,2,0,B|232:160|232:160|205:169|191:201|191:201|178:232|149:241|149:241|87:260,1,250,10|2,1:2|2:0,2:0:0:0:
502,42,181940,6,0,P|412:222|343:381,1,375,2|0,1:2|2:0,2:0:0:0:
434,286,182180,6,0,L|385:181,1,109.375,10|0,1:2|2:0,2:0:0:0:
282,299,182300,6,0,L|315:228,1,78.125,0|0,1:2|2:0,2:0:0:0:
165,276,182420,6,0,L|216:257,1,46.8750000000001,0|0,1:2|2:0,2:0:0:0:
512,201,182540,5,2,1:2:0:0:
271,45,182660,1,10,1:2:0:0:
434,286,182780,1,2,2:0:0:0:
416,107,182900,1,2,1:2:0:0:
408,105,182960,1,2,2:3:0:0:
410,112,183020,2,0,P|397:146|387:186,1,78.125,2|0,2:3|2:0,2:0:0:0:
282,299,183140,5,10,1:2:0:0:
368,13,183260,1,2,2:0:0:0:
108,208,183380,6,0,B|156:193|132:172|184:158,1,93.75,2|0,1:2|2:0,2:0:0:0:
425,97,183500,1,0,2:0:0:0:
180,49,183620,6,0,B|323:83|237:149|379:185,1,250,10|0,1:2|2:0,2:0:0:0:
512,149,183800,1,2,2:3:0:0:
512,149,183860,2,0,P|474:175|457:218,1,93.75,2|0,1:2|2:0,2:0:0:0:
480,384,183980,5,2,1:3:0:0:
480,384,184040,1,2,1:3:0:0:
480,384,184100,2,0,B|512:340|512:340|501:287,1,109.375,8|0,1:2|2:0,2:0:0:0:
445,0,184220,2,0,B|413:44|413:44|424:97,1,109.375,2|2,1:3|2:3,2:0:0:0:
512,64,184340,5,6,1:2:0:0:
218,232,184460,2,0,B|346:248|288:307|411:323,1,218.75,2|8,2:0|1:2,2:0:0:0:
378,187,184700,1,2,2:0:0:0:
240,359,184820,2,0,P|322:248|456:217,1,281.25,2|0,1:2|2:0,2:0:0:0:
230,118,185000,5,2,2:3:0:0:
230,118,185060,2,0,B|288:137|288:137|299:177,1,93.75,8|0,1:2|2:0,2:0:0:0:
448,9,185180,2,0,L|358:36,1,93.75,2|0,2:3|2:0,2:0:0:0:
89,118,185300,1,2,1:3:0:0:
371,181,185420,6,0,B|189:118|189:118|169:56,2,250,2|10|2,2:0|1:2|2:0,2:0:0:0:
272,46,185780,5,2,1:2:0:0:
485,112,185900,1,2,2:0:0:0:
175,245,186020,6,0,L|218:227,1,46.8750000000001,10|0,1:2|2:0,2:0:0:0:
496,106,186140,2,0,L|451:92,1,46.8750000000001,2|0,1:2|2:0,2:0:0:0:
272,46,186260,6,0,B|282:80|282:80|279:76|279:76|290:111,1,78.125,2|0,1:2|2:0,2:0:0:0:
451,250,186380,2,0,B|462:285|462:285|459:280|459:280|469:315,1,78.125,2|0,1:2|2:0,2:0:0:0:
305,384,186500,6,0,P|340:267|370:168,1,218.75,8|2,1:2|2:0,2:0:0:0:
184,45,186680,1,0,2:0:0:0:
177,52,186740,2,0,B|169:105|169:105|206:145,1,109.375,2|0,1:2|2:0,2:0:0:0:
451,250,186860,5,2,1:3:0:0:
441,242,186920,1,2,1:3:0:0:
430,234,186980,2,0,B|322:268|322:268|311:299|311:299|208:330,1,250,10|0,1:2|2:0,2:0:0:0:
137,352,187160,1,2,2:3:0:0:
137,352,187220,2,0,B|91:360|91:360|134:340,1,93.75,2|0,1:3|2:0,2:0:0:0:
217,240,187340,5,2,1:3:0:0:
186,231,187400,1,2,1:3:0:0:
155,222,187460,1,10,1:2:0:0:
286,119,187580,5,2,1:2:0:0:
299,115,187640,1,2,1:2:0:0:
314,111,187700,2,0,L|391:87,1,62.5,2|0,1:2|2:0,2:0:0:0:
74,276,187820,2,0,L|14:257,1,62.5,2|0,2:0|2:0,2:0:0:0:
313,350,187940,5,10,1:2:0:0:
219,34,188060,1,0,1:2:0:0:
322,367,188180,6,0,P|422:359|436:253,1,218.75,0|0,1:2|2:0,2:0:0:0:
450,174,188360,5,2,2:0:0:0:
450,174,188420,2,0,B|380:114|278:137|259:258|259:258|320:236|361:290,1,375,10|0,1:2|2:0,2:0:0:0:
335,361,188660,2,0,P|379:370|416:343,1,93.75,2|0,1:2|2:0,2:0:0:0:
433,252,188780,1,2,2:0:0:0:
185,369,188900,2,0,B|212:357|212:357|209:359|209:359|236:346,1,62.5,8|0,1:2|2:0,2:0:0:0:
360,176,189020,6,0,B|301:165|336:144|278:133,1,93.75,2|0,2:0|2:0,2:0:0:0:
185,186,189140,1,2,1:3:0:0:
179,200,189200,1,2,1:3:0:0:
182,214,189260,1,2,1:3:0:0:
188,227,189320,1,2,1:3:0:0:
201,234,189380,2,0,B|316:256|338:141|304:164|326:48|442:71,1,328.125,10|0,1:2|2:0,2:0:0:0:
445,153,189620,6,0,B|480:164|488:191|488:191|470:181|455:179,1,93.7500035762788,2|0,1:2|2:0,2:0:0:0:
201,102,189740,1,2,2:0:0:0:
346,220,189860,6,0,P|351:197|359:175,1,46.8750000000001,8|0,1:2|2:0,2:0:0:0:
293,88,189980,2,0,P|287:110|279:132,1,46.8750000000001,2|0,1:2|2:0,2:0:0:0:
284,272,190100,6,0,P|273:302|278:271,1,93.75,2|0,1:3|2:0,2:0:0:0:
353,37,190220,2,0,P|368:8|361:40,1,93.75,2|0,1:3|2:0,2:0:0:0:
136,206,190340,6,0,B|156:137|176:179|200:102,1,125,8|0,1:2|2:0,2:0:0:0:
79,29,190460,2,0,B|91:72|104:45|119:94,1,78.125,2|0,2:3|2:0,2:0:0:0:
16,322,190580,5,2,1:3:0:0:
24,354,190640,1,2,1:3:0:0:
44,370,190700,1,2,1:3:0:0:
59,371,190760,1,2,1:3:0:0:
68,368,190820,2,0,B|86:328|126:311|126:311|132:247|89:204|21:225,1,250,10|0,1:2|2:0,2:0:0:0:
209,177,191000,5,0,1:0:0:0:
209,177,191060,2,0,P|220:213|204:248,1,78.125,2|0,1:2|2:0,2:0:0:0:
309,288,191180,2,0,P|293:304|270:306,1,46.8750000000001,2|0,2:0|2:0,2:0:0:0:
119,93,191300,6,0,B|107:54|107:54|249:34|289:144,1,262.5,8|2,1:2|2:2,2:0:0:0:
209,177,191480,1,2,1:3:0:0:
200,167,191540,2,0,B|187:126|187:126|215:94,1,84.375,0|0,1:2|2:0,2:0:0:0:
318,22,191660,6,0,L|301:65,1,46.8750000000001,2|0,2:0|2:0,2:0:0:0:
100,230,191780,6,0,B|161:248|161:248|168:269|189:282,1,109.375,10|0,1:2|2:0,2:0:0:0:
415,24,191900,6,0,L|377:126,1,109.375001043081,2|2,1:3|2:3,2:0:0:0:
340,383,192020,6,0,B|342:362|354:348|354:348|337:295,1,93.7500035762788,6|0,1:2|2:0,2:0:0:0:
288,142,192140,1,0,2:0:0:0:
431,256,192260,6,0,B|465:263|475:292|475:292|482:297|482:297|476:226|428:189|356:212,1,250,8|0,1:2|2:0,2:0:0:0:
319,289,192440,1,2,2:3:0:0:
319,289,192500,2,0,P|296:296|274:303,1,31.25,2|0,1:3|2:0,2:0:0:0:
475,132,192620,2,0,P|498:125|520:118,1,31.25,2|0,2:3|2:0,2:0:0:0:
296,64,192740,6,0,P|265:84|259:122,1,78.125,8|0,1:2|2:0,2:0:0:0:
364,216,192860,1,2,1:3:0:0:
368,207,192920,1,2,1:3:0:0:
360,208,192980,2,0,B|320:194|278:183|278:183|256:142|256:142|220:136|172:117,1,218.75,2|0,1:3|2:0,2:0:0:0:
54,7,193160,5,2,2:3:0:0:
54,7,193220,2,0,P|5:25|0:76,1,109.375,8|0,1:2|2:0,2:0:0:0:
93,128,193340,2,0,P|86:106|80:83,1,46.8750000000001,2|0,2:3|2:0,2:0:0:0:
35,222,193460,5,0,1:2:0:0:
154,17,193580,1,0,2:0:0:0:
30,231,193700,2,0,P|60:219|89:212,1,62.5,8|0,1:2|2:0,2:0:0:0:
267,126,193820,5,2,1:3:0:0:
259,122,193880,1,2,1:3:0:0:
266,120,193940,2,0,L|302:51,1,78.125,2|0,1:3|2:0,2:0:0:0:
453,80,194060,2,0,L|359:108,1,93.75,0|0,1:2|2:0,2:0:0:0:
0,76,194180,6,0,B|152:122|152:122|175:197|175:197|271:226,1,337.5,8|0,1:2|2:0,2:0:0:0:
498,194,194420,6,0,B|359:236|359:236|361:299|302:327,1,250,2|0,1:2|2:0,2:0:0:0:
189,231,194600,1,0,2:0:0:0:
189,231,194660,2,0,B|205:219|205:219|279:242,1,93.75,10|0,1:2|2:0,2:0:0:0:
506,291,194780,1,0,2:0:0:0:
177,351,194900,6,0,P|151:244|112:142,1,218.75,2|0,1:2|2:0,2:0:0:0:
475,21,195140,2,0,P|436:124|410:230,1,218.75,10|0,1:2|2:0,2:0:0:0:
331,156,195320,1,2,1:3:0:0:
327,146,195380,1,2,1:2:0:0:
335,145,195440,1,2,1:3:0:0:
333,139,195500,2,0,P|350:95|363:50,1,93.75,0|0,2:0|2:0,2:0:0:0:
502,282,195620,6,0,B|439:295|475:321|409:336,1,109.375,10|0,1:2|2:0,2:0:0:0:
266,68,195740,2,0,B|203:54|239:28|173:13,1,109.375,2|0,1:3|2:0,2:0:0:0:
9,293,195860,6,0,B|52:281|52:281|57:274|57:274|130:252,1,109.375,2|0,1:2|2:0,2:0:0:0:
189,231,195980,1,2,2:3:0:0:
2,150,196100,6,0,B|125:187|125:187|158:299|158:299|282:337,1,375,8|0,1:2|2:0,2:0:0:0:
271,319,196340,6,0,B|240:309|240:309|168:331,1,93.75,2|0,1:2|2:0,2:0:0:0:
96,355,196460,1,2,2:3:0:0:
354,274,196580,2,0,B|372:184|297:122|207:153|207:153|269:172|269:234,1,346.875,8|0,1:2|2:0,2:0:0:0:
476,338,196820,5,2,1:2:0:0:
484,336,196880,1,2,1:3:0:0:
492,333,196940,1,2,1:3:0:0:
499,331,197000,1,2,1:3:0:0:
506,330,197060,6,0,B|362:286|362:286|335:337|278:337,1,250,10|0,1:2|2:0,2:0:0:0:
322,51,197300,2,0,B|330:79|330:79|426:113|439:231,1,218.75,2|0,1:3|2:0,2:0:0:0:
382,167,197480,5,2,2:3:0:0:
380,158,197540,2,0,L|398:98,1,62.5,10|0,1:2|2:0,2:0:0:0:
217,172,197660,2,0,L|295:148,1,78.125,0|0,1:2|2:0,2:0:0:0:
487,99,197780,6,0,B|533:92|533:92|491:113,1,93.75,0|0,1:2|2:0,2:0:0:0:
219,0,197900,2,0,B|209:45|209:45|243:78,1,93.75,0|0,1:2|2:0,2:0:0:0:
362,310,198020,6,0,P|264:277|155:247,1,215.625,8|0,1:2|2:0,2:0:0:0:
404,75,198260,2,0,P|241:128|27:189,1,393.75,0|0,1:2|2:0,2:0:0:0:
85,122,198500,6,0,B|155:94|200:152|200:152|207:172|207:172|254:184|254:184|290:148,1,250,10|0,1:2|2:0,2:0:0:0:
404,75,198680,5,2,2:3:0:0:
404,75,198740,2,0,L|374:170,1,93.75,2|0,1:2|2:0,2:0:0:0:
512,154,198860,2,0,L|467:140,1,46.8750000000001,2|0,2:3|2:0,2:0:0:0:
245,77,198980,6,0,B|242:57|237:39|237:39|253:27|265:13,1,78.125,10|0,1:2|2:0,2:0:0:0:
312,243,199100,1,2,1:2:0:0:
312,243,199160,1,2,1:2:0:0:
312,243,199220,2,0,B|314:261|320:282|320:282|306:293|293:309,1,78.125,2|0,1:2|2:0,2:0:0:0:
137,4,199340,5,8,0:2:0:0:
146,0,199400,1,8,0:2:0:0:
144,10,199460,2,0,L|166:117,1,109.375,10|0,1:2|2:0,2:0:0:0:
414,312,199580,2,0,L|391:204,1,109.375,0|0,1:2|2:0,2:0:0:0:
20,238,199700,6,0,B|7:239|7:239|-35:300|27:374|27:374|57:277|141:261,1,328.125,6|0,1:2|2:0,2:0:0:0:
191,205,199940,2,0,B|223:237|223:237|213:283,1,93.75,10|0,1:2|2:0,2:0:0:0:
155,384,200060,2,0,B|119:266|119:266|117:272|117:272|79:145,1,250,2|0,2:0|1:2,2:0:0:0:
23,102,200240,5,0,2:0:0:0:
23,102,200300,2,0,B|50:65|50:65|96:79,1,93.75,2|0,2:0|2:0,2:0:0:0:
232,0,200420,2,0,B|254:11|260:39|260:39|286:47,1,78.125,8|0,1:2|2:0,2:0:0:0:
458,250,200540,5,2,1:2:0:0:
457,242,200600,5,2,1:3:0:0:
450,246,200660,6,0,B|361:235|341:150|341:150|335:151|335:151|310:138|310:138|305:139|305:139|178:100,1,328.125,2|0,1:3|2:0,2:0:0:0:
191,205,200900,2,0,B|175:200|175:200|91:313|91:313|314:172,1,421.874999999999,8|0,1:2|2:0,2:0:0:0:
468,83,201140,5,2,1:3:0:0:
461,82,201200,1,2,2:3:0:0:
462,88,201260,2,0,L|442:153,1,62.5,2|0,2:3|2:0,2:0:0:0:
450,246,201380,6,0,B|431:270|431:270|402:260,1,62.5,10|0,1:2|2:0,2:0:0:0:
226,84,201500,2,0,B|196:74|196:74|178:98,1,62.5,2|0,1:2|2:0,2:0:0:0:
264,337,201620,6,0,L|292:243,1,93.75,2|0,1:2|2:0,2:0:0:0:
366,7,201740,2,0,L|337:100,1,93.75,0|0,1:2|2:0,2:0:0:0:
314,171,201860,1,10,1:2:0:0:
135,262,201980,6,0,B|177:245|152:229|192:212,1,78.125,2|0,2:0|2:0,2:0:0:0:
299,165,202100,1,2,1:3:0:0:
27,115,202220,6,0,B|78:138|45:156|93:180,1,93.75,2|0,2:0|2:0,2:0:0:0:
349,312,202340,1,8,1:2:0:0:
25,375,202460,5,2,2:0:0:0:
31,379,202520,1,2,2:3:0:0:
38,383,202580,2,0,B|137:352|137:352|142:356|142:356|246:324,1,218.75,2|0,1:3|2:0,2:0:0:0:
496,275,202820,6,0,P|443:274|419:225,1,109.375,8|0,1:2|2:0,2:0:0:0:
484,127,202940,2,0,B|487:134|487:134|476:172,1,46.8750000000001,0|0,2:0|2:0,2:0:0:0:
349,312,203060,6,0,B|398:145|398:145|369:119|374:75,1,250,2|0,1:2|2:0,2:0:0:0:
449,41,203240,1,0,2:0:0:0:
449,41,203300,2,0,B|507:10|507:10|468:55,1,109.375,10|0,1:2|2:0,2:0:0:0:
270,154,203420,2,0,B|295:161|295:161|284:161|284:161|308:168,1,62.5,2|0,1:3|2:0,2:0:0:0:
450,382,203540,6,0,B|440:349|440:349|445:358|445:358|434:325,1,78.125,2|0,1:2|2:0,2:0:0:0:
374,76,203660,1,0,2:0:0:0:
190,265,203780,6,0,B|225:254|225:254|226:250|226:250|277:235,1,78.125,10|0,1:2|2:0,2:0:0:0:
476,171,203900,2,0,B|417:153|417:153|404:111|404:111|254:65,1,262.5,2|0,2:0|1:2,2:0:0:0:
193,7,204080,1,0,2:0:0:0:
193,7,204140,2,0,B|157:35|157:35|172:81,1,93.75,2|0,2:0|2:0,2:0:0:0:
7,259,204260,2,0,B|13:238|13:238|16:237|16:237|23:212,1,46.8750000000001,8|0,1:2|2:0,2:0:0:0:
39,33,204380,6,0,B|66:40|66:40|113:196|113:196|144:205,1,218.75,2|2,2:0|1:3,2:0:0:0:
214,178,204560,5,2,2:3:0:0:
214,178,204620,2,0,B|231:231|231:231|190:265,1,109.375,2|0,2:3|2:0,2:0:0:0:
9,124,204740,2,0,B|40:133|40:133|41:137|41:137|80:149,1,78.125,10|0,1:2|2:0,2:0:0:0:
172,81,204860,2,0,B|150:74|150:74|149:71|149:71|123:63,1,46.8750000000001,2|0,2:0|2:0,2:0:0:0:
39,33,204980,5,2,1:3:0:0:
34,21,205040,1,2,1:3:0:0:
31,9,205100,1,2,1:2:0:0:
113,281,205220,6,0,L|140:370,1,93.75,8|0,1:2|2:0,2:0:0:0:
281,96,205340,2,0,L|309:185,1,93.75,2|0,1:2|2:0,2:0:0:0:
356,312,205460,5,2,1:2:0:0:
340,307,205520,1,2,1:3:0:0:
325,302,205580,1,2,1:3:0:0:
310,297,205640,1,2,1:3:0:0:
294,293,205700,2,0,B|259:282|259:282|257:276|257:276|223:266,1,78.125,8|0,1:2|2:0,2:0:0:0:
379,223,205820,1,2,1:2:0:0:
382,231,205880,1,2,1:3:0:0:
386,226,205940,2,0,L|445:207,1,46.8750000000001,2|0,1:3|2:0,2:0:0:0:
276,377,206060,1,2,2:0:0:0:
488,154,206180,6,0,B|524:182|524:182|509:228,1,93.75,10|0,1:2|2:0,2:0:0:0:
455,379,206300,5,2,1:2:0:0:
464,377,206360,5,2,1:3:0:0:
457,371,206420,6,0,L|434:296,1,78.125,2|0,1:3|2:0,2:0:0:0:
378,113,206540,2,0,L|387:142,1,31.25,2|0,2:3|2:0,2:0:0:0:
280,205,206660,6,0,L|298:145,1,62.5,8|0,1:2|2:0,2:0:0:0:
342,2,206780,2,0,L|351:31,1,31.25,2|0,2:3|2:0,2:0:0:0:
252,10,206900,6,0,L|222:0,2,31.25,2|2|2,1:3|2:3|2:3,2:0:0:0:
441,55,207020,2,0,L|470:64,2,31.25,2|2|2,2:3|2:3|2:3,2:0:0:0:
87,177,207140,6,0,B|100:154|100:154|182:129,1,109.375,10|0,1:2|2:0,2:0:0:0:
448,50,207260,2,0,B|493:36|493:36|500:23,1,62.5,0|0,1:2|2:0,2:0:0:0:
116,63,207380,6,0,B|168:49|206:81|199:136|199:136|193:146|193:146|192:198|231:223|280:203,1,275,2|0,1:2|2:0,2:0:0:0:
310,283,207560,1,0,1:0:0:0:
310,283,207620,2,0,P|359:263|360:212,1,109.375,10|0,1:2|2:0,2:0:0:0:
441,55,207740,6,0,B|432:20|432:20|368:12|299:43|288:120,1,231.25,2|0,2:0|1:2,2:0:0:0:
437,174,207920,1,0,1:0:0:0:
437,174,207980,2,0,P|422:139|379:129,1,78.125,2|0,2:0|2:0,2:0:0:0:
238,184,208100,2,0,B|261:192|261:192|252:192|252:192|278:202,1,62.5,8|0,1:2|2:0,2:0:0:0:
444,262,208220,5,2,1:2:0:0:
447,254,208280,1,2,1:3:0:0:
451,261,208340,2,0,B|493:275|469:291|512:306,2,78.125,2|2|2,1:3|2:3|2:3,2:0:0:0:
141,322,208580,6,0,B|197:304|197:304|207:271,1,93.75,8|0,1:2|2:0,2:0:0:0:
155,150,208700,1,2,2:3:0:0:
143,153,208760,1,2,2:3:0:0:
132,157,208820,5,2,1:3:0:0:
120,195,208880,1,2,1:3:0:0:
108,234,208940,2,0,L|56:249,1,46.8750000000001,2|0,2:0|2:0,2:0:0:0:
16,159,209060,6,0,B|-8:128|-8:128|22:151,1,78.1250000000001,10|0,1:2|2:0,2:0:0:0:
256,383,209180,2,0,B|266:348|266:348|270:346|270:346|281:310,1,78.1250000000001,2|0,1:2|2:0,2:0:0:0:
365,74,209300,5,2,1:2:0:0:
349,79,209360,5,2,1:3:0:0:
360,92,209420,6,0,B|368:118|368:118|360:129|360:129|388:223,1,109.375,2|0,1:3|2:0,2:0:0:0:
234,167,209540,2,0,L|286:150,1,46.8750000000001,10|0,1:2|2:0,2:0:0:0:
481,256,209660,6,0,B|505:226|505:226|492:183,1,78.125,2|0,2:0|2:0,2:0:0:0:
466,82,209780,1,2,1:3:0:0:
361,378,209900,6,0,B|372:336|372:336|377:333|377:333|391:291,1,93.75,2|0,2:0|2:0,2:0:0:0:
468,57,210020,2,0,B|402:76|402:76|391:111|391:111|282:144,1,218.75,8|2,1:2|2:2,2:0:0:0:
213,75,210200,1,0,2:0:0:0:
220,68,210260,2,0,L|264:54,1,46.8750000000001,2|0,1:3|2:0,2:0:0:0:
383,206,210380,2,0,L|338:219,1,46.8750000000001,2|0,2:3|2:0,2:0:0:0:
18,116,210500,6,0,B|90:91|148:138|141:207|141:207|136:222|136:222|150:296|231:271,1,328.125,8|0,1:2|2:0,2:0:0:0:
223,265,210740,6,0,P|249:181|151:226,1,250,2|0,1:2|2:0,2:0:0:0:
158,300,210920,1,0,1:0:0:0:
158,300,210980,2,0,B|145:328|111:324|111:324|131:320|143:303,1,93.75,10|0,1:2|2:0,2:0:0:0:
58,202,211100,2,0,P|50:186|62:198,1,46.8750000000001,0|0,1:2|2:0,2:0:0:0:
304,384,211220,6,0,B|293:351|293:351|294:361|294:361|285:327,1,78.125,2|0,1:2|2:0,2:0:0:0:
213,75,211340,1,2,2:3:0:0:
458,329,211460,6,0,B|415:315|415:315|414:310|414:310|371:298,1,93.75,10|0,1:2|2:0,2:0:0:0:
150,223,211580,2,0,B|156:201|156:201|333:147|333:147|345:107,1,250,2|2,2:0|1:3,2:0:0:0:
298,186,211760,5,2,1:3:0:0:
298,186,211820,2,0,B|207:160,1,93.75,2|0,2:0|2:0,2:0:0:0:
69,116,211940,2,0,B|90:121|90:121|91:124|91:124|112:130,1,46.8750000000001,8|0,1:2|2:0,2:0:0:0:
444,116,212060,6,0,P|465:91|439:110,1,93.7500035762788,2|0,0:0|0:0,0:0:0:0:
399,217,212180,2,0,B|448:141|372:91|379:123|303:73|350:0,1,250,0|0,1:0|0:2,2:0:0:0:
298,186,212360,1,0,2:0:0:0:
298,186,212420,2,0,B|311:233|311:233|410:241|445:343,1,231.25,10|0,1:2|2:0,2:0:0:0:
277,384,212600,5,0,1:2:0:0:
277,384,212660,2,0,P|290:343|336:330,1,93.75,2|0,1:2|2:0,2:0:0:0:
512,248,212780,2,0,L|469:235,1,31.25,2|0,2:3|2:0,2:0:0:0:
264,76,212900,6,0,B|247:128|230:101|214:152,1,93.75,10|0,1:2|2:0,2:0:0:0:
130,300,213020,2,0,B|113:248|96:275|80:224,1,93.75,2|0,1:3|2:0,2:0:0:0:
57,3,213140,5,2,1:2:0:0:
22,12,213200,1,2,1:3:0:0:
2,33,213260,1,2,1:3:0:0:
0,68,213320,1,2,1:3:0:0:
18,98,213380,2,0,B|43:106|51:129|51:129|99:144,1,93.75,10|0,1:2|2:0,2:0:0:0:
213,152,213500,6,0,P|92:174|4:260,1,250,2|2,2:0|1:3,2:0:0:0:
263,76,213680,1,0,2:3:0:0:
263,76,213740,2,0,P|309:107|300:158,1,109.375,2|0,2:0|2:0,2:0:0:0:
130,300,213860,2,0,B|136:278|136:278|140:276|140:276|146:257,1,46.8750000000001,8|0,1:2|2:0,2:0:0:0:
188,0,213980,5,2,1:2:0:0:
192,5,214040,5,2,1:3:0:0:
183,3,214100,6,0,B|163:18|163:18|181:75,1,78.1250000000001,2|0,1:3|2:0,2:0:0:0:
227,231,214220,2,0,L|236:260,1,31.25,2|0,2:3|2:0,2:0:0:0:
18,98,214340,6,0,L|78:116,1,62.5,8|0,1:2|2:0,2:0:0:0:
381,205,214460,2,0,L|410:214,1,31.25,2|0,2:3|2:0,2:0:0:0:
249,384,214580,6,0,B|255:363|255:363|252:361|252:361|262:330,2,46.875,2|2|2,1:3|2:0|2:3,2:0:0:0:
305,169,214700,5,2,2:3:0:0:
308,160,214760,1,2,2:3:0:0:
302,164,214820,2,0,L|227:141,1,78.125,10|0,1:2|2:0,2:0:0:0:
0,225,214940,6,0,L|99:194,1,93.75,2|0,1:3|2:0,2:0:0:0:
502,69,215060,1,2,1:2:0:0:
286,117,216740,6,0,B|281:88|253:51|156:54|156:54|272:100|269:220,1,375,10|0,1:2|1:2,2:0:0:0:
316,308,216980,6,0,B|270:295|270:295|239:331,1,93.75,10|0,1:2|2:0,2:0:0:0:
81,198,217100,1,2,1:3:0:0:
83,189,217160,1,2,1:3:0:0:
87,195,217220,2,0,B|139:209|139:209|175:168,1,109.375,10|0,1:2|2:0,2:0:0:0:
410,29,217340,6,0,P|382:99|364:178,1,156.25,10|0,1:2|2:0,2:0:0:0:
79,313,217580,2,0,P|58:221|24:135,1,187.5,10|0,1:2|2:0,2:0:0:0:
512,21,217820,2,0,P|472:119|448:230,1,218.75,2|0,1:2|2:0,2:0:0:0:
409,364,218000,5,0,2:0:0:0:
409,364,218060,2,0,P|395:344|375:333,1,46.8750000000001,0|0,1:2|2:0,2:0:0:0:
364,177,218180,6,0,P|327:187|298:213,1,78.125,8|0,1:2|2:0,2:0:0:0:
155,64,218300,6,0,P|153:118|176:168,1,109.375,0|0,1:2|2:0,2:0:0:0:
372,74,218420,5,2,1:2:0:0:
370,64,218480,1,2,1:3:0:0:
363,60,218540,1,2,1:3:0:0:
365,52,218600,1,2,1:3:0:0:
359,45,218660,6,0,B|349:14|349:14|287:14|277:85,1,140.625,10|0,1:2|2:0,2:0:0:0:
409,364,218780,2,0,B|350:343|350:343|335:353|335:353|276:333,1,140.625,0|0,2:0|2:0,2:0:0:0:
31,301,218900,6,0,B|-4:330|7:375|7:375|40:309|115:305,1,218.75,6|0,1:2|2:0,2:0:0:0:
158,238,219080,1,0,1:2:0:0:
160,231,219140,2,0,B|189:206|189:206|177:169,1,78.125,10|0,1:2|2:0,2:0:0:0:
1,66,219260,6,0,B|79:50|109:126|109:126|57:164|79:226,1,250,2|0,2:0|1:2,2:0:0:0:
147,377,219440,5,0,1:2:0:0:
147,377,219500,2,0,P|187:357|194:313,1,93.75,2|0,2:0|2:0,2:0:0:0:
60,151,219620,2,0,B|70:186|70:186|68:189|68:189|79:225,1,78.125,10|0,1:2|2:0,2:0:0:0:
383,279,219740,5,2,1:2:0:0:
383,279,219800,1,2,1:3:0:0:
383,279,219860,2,0,B|181:217|181:217|201:207|201:207|276:229|326:163,1,375,2|0,1:2|2:0,2:0:0:0:
219,36,220100,2,0,B|202:89|202:89|243:123,1,109.375,10|0,1:2|2:0,2:0:0:0:
375,39,220220,1,2,1:2:0:0:
375,39,220280,1,2,1:3:0:0:
375,39,220340,2,0,B|338:50|338:50|335:49|335:49|297:60,1,78.125,2|0,1:3|2:0,2:0:0:0:
124,113,220460,1,2,2:0:0:0:
408,200,220580,6,0,B|370:188|370:188|362:174|362:174|322:162,1,93.75,10|0,1:2|2:0,2:0:0:0:
41,76,220700,2,0,B|78:87|78:87|86:101|86:101|126:113,1,93.75,2|0,1:2|2:0,2:0:0:0:
244,277,220820,6,0,B|245:253|245:253|231:235,1,46.8750000000001,2|0,1:2|2:0,2:0:0:0:
158,257,220940,1,0,1:2:0:0:
158,257,221000,1,0,1:0:0:0:
158,257,221060,2,0,B|156:280|156:280|170:298,1,46.8750000000001,10|0,1:2|2:0,2:0:0:0:
305,337,221180,5,2,1:2:0:0:
311,343,221240,1,2,1:3:0:0:
311,336,221300,2,0,B|333:304|333:304|331:266,1,78.1250000000001,2|0,1:3|2:0,2:0:0:0:
88,189,221420,2,0,B|65:220|65:220|67:258,1,78.1250000000001,2|0,2:0|2:0,2:0:0:0:
205,378,221540,6,0,B|235:238|165:297|194:151,1,231.25,8|2,1:2|2:0,2:0:0:0:
302,64,221720,1,2,1:3:0:0:
302,64,221780,2,0,B|315:108|315:108|278:136,1,93.75,2|0,1:3|2:0,2:0:0:0:
142,11,221900,2,0,B|189:32|164:46|216:68,1,93.75,2|0,2:0|2:0,2:0:0:0:
393,134,222020,5,10,1:2:0:0:
158,257,222140,1,2,2:0:0:0:
434,210,222260,5,2,1:2:0:0:
52,78,222380,1,2,2:3:0:0:
434,210,222500,6,0,L|420:254,1,31.25,10|0,1:2|2:0,2:0:0:0:
302,64,222620,2,0,L|315:19,1,31.25,0|0,1:2|2:0,2:0:0:0:
493,294,222740,6,0,B|500:269|500:269|391:229|329:325,1,218.75,2|0,1:2|2:0,2:0:0:0:
259,298,222920,1,0,1:2:0:0:
259,298,222980,2,0,P|248:342|277:377,1,93.75,10|0,1:2|2:0,2:0:0:0:
440,359,223100,6,0,B|358:361|348:282|348:282|351:273|351:273|328:198|246:209,1,281.25,2|0,2:0|1:2,2:0:0:0:
212,137,223280,1,2,1:3:0:0:
212,137,223340,2,0,P|165:159|164:211,1,109.375,2|0,2:0|2:0,2:0:0:0:
134,378,223460,6,0,B|170:367|170:367|171:363|171:363|207:353,1,78.125,10|0,1:2|2:0,2:0:0:0:
340,142,223580,2,0,B|376:131|376:131|377:127|377:127|413:117,1,78.125,2|0,2:0|2:0,2:0:0:0:
90,158,223700,5,2,1:2:0:0:
90,158,223760,1,2,1:3:0:0:
90,158,223820,2,0,B|141:172|110:193|165:211,1,93.75,2|0,2:3|2:0,2:0:0:0:
245,209,223940,2,0,L|277:218,1,31.25,10|0,1:2|2:0,2:0:0:0:
5,349,224060,5,2,1:2:0:0:
5,349,224120,1,2,1:3:0:0:
5,349,224180,2,0,B|73:314|26:297|97:267,1,125,2|0,1:3|2:0,2:0:0:0:
340,155,224300,2,0,L|388:140,1,46.8750000000001,2|0,2:0|2:0,2:0:0:0:
396,312,224420,6,0,B|431:281|431:281|416:236,1,93.75,10|0,1:2|2:0,2:0:0:0:
287,2,224540,2,0,B|251:32|251:32|266:77,1,93.75,2|0,1:2|2:0,2:0:0:0:
442,33,224660,5,2,1:2:0:0:
442,33,224720,1,2,1:3:0:0:
442,33,224780,2,0,L|365:56,1,78.125,2|0,1:3|2:0,2:0:0:0:
174,125,224900,1,10,1:2:0:0:
474,168,225020,6,0,L|383:140,1,93.75,2|0,2:0|2:0,2:0:0:0:
99,53,225140,1,0,1:2:0:0:
285,384,225260,5,2,2:0:0:0:
288,378,225320,1,2,2:3:0:0:
291,373,225380,2,0,B|281:262|241:305|231:196,1,187.5,8|2,1:2|2:0,2:0:0:0:
316,193,225560,5,2,2:3:0:0:
316,193,225620,2,0,B|323:195|323:195|335:231,1,46.8750000000001,2|0,1:3|2:0,2:0:0:0:
201,369,225740,2,0,B|193:366|193:366|181:330,1,46.8750000000001,2|0,2:0|2:0,2:0:0:0:
430,250,225860,6,0,P|404:279|387:314,1,78.125,10|0,1:2|2:0,2:0:0:0:
87,312,225980,2,0,P|112:282|129:247,1,78.125,2|0,2:0|2:0,2:0:0:0:
255,287,226100,5,2,1:2:0:0:
255,274,226160,1,0,1:3:0:0:
265,280,226220,1,2,1:2:0:0:
40,238,226340,6,0,L|6:230,1,31.25,10|0,1:2|2:0,2:0:0:0:
474,329,226460,2,0,L|508:336,1,31.25,2|0,1:3|2:0,2:0:0:0:
232,88,226580,6,0,B|201:79|191:51|191:51|186:48|186:48|231:199,1,218.75,6|0,1:2|2:0,2:0:0:0:
45,153,226760,1,0,1:0:0:0:
45,153,226820,2,0,B|101:170|101:170|134:144,1,93.75,10|0,1:2|2:0,2:0:0:0:
294,0,226940,2,0,L|264:9,1,31.25,2|0,2:0|2:0,2:0:0:0:
14,7,227060,5,2,1:2:0:0:
6,9,227120,1,2,2:3:0:0:
10,13,227180,2,0,B|21:55|21:55|83:74,1,109.375,2|0,2:3|2:0,2:0:0:0:
307,142,227300,2,0,L|351:155,1,46.8750000000001,10|0,1:2|2:0,2:0:0:0:
119,278,227420,5,2,1:2:0:0:
117,285,227480,1,2,2:3:0:0:
123,284,227540,2,0,B|159:294|159:294|183:263,1,78.125,2|0,1:2|2:0,2:0:0:0:
231,198,227660,1,2,2:0:0:0:
241,384,227780,6,0,B|278:355|278:355|265:310,1,93.75,10|0,1:2|2:0,2:0:0:0:
197,86,227900,1,2,2:0:0:0:
366,309,228020,6,0,B|204:275|286:219|120:181,1,281.25,2|0,1:2|2:0,2:0:0:0:
48,223,228200,1,2,2:0:0:0:
48,223,228260,2,0,B|20:260|20:260|30:305,1,93.75,10|0,1:2|2:0,2:0:0:0:
357,167,228380,2,0,B|384:129|384:129|374:84,1,93.75,0|0,1:2|2:0,2:0:0:0:
16,67,228500,5,2,1:2:0:0:
27,81,228560,1,2,1:3:0:0:
13,82,228620,1,2,1:3:0:0:
18,91,228680,1,2,1:3:0:0:
10,95,228740,2,0,B|-16:161|-16:161|39:93|118:98,1,225,8|2,1:2|2:0,2:0:0:0:
137,18,228920,5,2,2:3:0:0:
137,18,228980,2,0,P|186:34|197:86,1,109.375,2|0,1:2|2:0,2:0:0:0:
137,224,229100,2,0,B|130:204|130:204|127:202|127:202|121:180,1,46.8750000000001,0|0,2:0|2:0,2:0:0:0:
278,92,229220,6,0,P|277:137|238:159,1,93.75,8|0,1:2|2:0,2:0:0:0:
113,100,229340,1,2,1:2:0:0:
121,102,229400,1,0,1:2:0:0:
118,94,229460,1,2,1:2:0:0:
159,304,229580,5,2,2:0:0:0:
274,12,229700,1,10,1:2:0:0:
41,170,229820,1,2,2:0:0:0:
446,79,229940,6,0,B|373:101|373:101|345:193|345:193|348:198|348:198|316:301|316:301|249:321,1,356.249990487099,2|0,1:2|2:0,2:0:0:0:
181,377,230180,2,0,B|144:348|144:348|158:304,1,93.75,10|0,1:2|2:0,2:0:0:0:
450,170,230300,2,0,B|437:211|437:211|432:213|432:213|419:257,1,93.75,0|0,1:2|2:0,2:0:0:0:
436,346,230420,6,0,B|346:375|317:285|347:300|318:211|228:240,1,262.5,2|0,1:2|2:0,2:0:0:0:
209,165,230600,1,0,1:0:0:0:
209,165,230660,2,0,P|158:176|151:231,1,109.375,10|0,1:2|2:0,2:0:0:0:
264,367,230780,2,0,L|249:322,1,46.8750000000001,2|0,2:0|2:0,2:0:0:0:
352,84,230900,5,2,1:2:0:0:
350,75,230960,1,2,1:3:0:0:
343,80,231020,2,0,B|320:86|320:86|299:153,1,93.75,2|0,2:3|2:0,2:0:0:0:
450,170,231140,6,0,L|405:156,1,46.8750000000001,10|0,1:2|2:0,2:0:0:0:
173,85,231260,1,2,2:0:0:0:
319,286,231380,5,2,1:2:0:0:
315,280,231440,1,0,1:0:0:0:
322,280,231500,2,0,B|374:268|350:248|405:240,1,93.75,2|0,2:0|2:0,2:0:0:0:
475,11,231620,6,0,B|464:46|464:46|465:49|465:49|455:84,1,78.125,10|0,1:2|2:0,2:0:0:0:
377,361,231740,1,2,2:0:0:0:
341,74,231860,5,2,1:2:0:0:
341,74,231920,1,2,1:3:0:0:
341,74,231980,2,0,B|292:34|292:34|312:75,1,109.375,2|0,2:3|2:0,2:0:0:0:
481,310,232100,6,0,B|460:295|455:265|455:265|403:240,1,109.375,10|0,1:2|2:0,2:0:0:0:
266,182,232220,1,2,1:2:0:0:
254,185,232280,1,2,2:3:0:0:
243,189,232340,5,2,1:2:0:0:
231,227,232400,1,2,1:3:0:0:
217,266,232460,2,0,B|204:305|204:305|223:326|220:356,1,93.75,0|0,1:2|2:0,2:0:0:0:
15,150,232580,2,0,B|3:118|3:118|113:93|154:192,1,218.75,8|2,1:2|2:0,2:0:0:0:
58,334,232820,5,2,1:2:0:0:
31,339,232880,1,2,1:3:0:0:
11,330,232940,1,2,1:3:0:0:
0,310,233000,1,2,1:3:0:0:
4,287,233060,2,0,B|32:239|40:274|68:218,1,93.75,8|0,1:2|2:0,2:0:0:0:
0,8,233180,6,0,B|43:21|43:21|43:24|43:24|87:37,1,93.75,2|0,2:0|2:0,2:0:0:0:
300,100,233300,1,2,1:2:0:0:
217,266,233420,1,2,2:0:0:0:
213,31,233540,5,10,1:2:0:0:
312,333,233660,1,2,2:0:0:0:
498,104,233780,6,0,B|526:126|518:163|518:163|418:174|400:286,1,250,2|0,1:2|2:0,2:0:0:0:
444,362,233960,1,2,2:3:0:0:
444,362,234020,2,0,B|452:349|471:352|471:352|507:324|486:283,1,109.375,10|0,1:2|2:0,2:0:0:0:
390,24,234140,5,2,1:3:0:0:
384,14,234200,5,2,1:3:0:0:
381,24,234260,6,0,B|331:71|331:71|351:132|351:132|402:141|412:201,1,231.25,2|0,1:2|2:0,2:0:0:0:
329,215,234440,1,2,2:0:0:0:
329,215,234500,2,0,B|302:227|298:253|298:253|296:221|325:202,1,93.75,10|0,1:2|2:0,2:0:0:0:
498,104,234620,2,0,B|477:77|477:77|444:85,1,68.75,2|0,2:0|2:0,2:0:0:0:
250,135,234740,5,2,1:2:0:0:
255,128,234800,1,2,1:3:0:0:
247,128,234860,2,0,B|223:118|216:97|216:97|165:81,1,93.75,2|0,2:3|2:0,2:0:0:0:
0,217,234980,2,0,L|44:203,1,46.8750000000001,10|0,1:2|2:0,2:0:0:0:
158,182,235100,5,2,1:2:0:0:
158,182,235160,1,0,2:0:0:0:
158,182,235220,2,0,L|135:256,1,78.2499999999999,2|0,1:2|2:0,2:0:0:0:
112,330,235340,1,2,2:0:0:0:
67,29,235460,6,0,L|94:118,1,93.75,10|0,1:2|2:0,2:0:0:0:
172,381,235580,1,2,2:0:0:0:
432,80,235700,6,0,B|446:101|446:101|426:164|426:164|242:220|242:220|222:284|222:284|236:303,1,375,2|0,1:2|2:0,2:0:0:0:
392,262,235940,6,0,L|436:248,1,46.8750000000001,10|0,1:2|2:0,2:0:0:0:
272,123,236060,2,0,L|226:135,1,46.8750000000001,2|0,1:3|2:0,2:0:0:0:
267,375,236180,6,0,B|297:365|297:365|323:282,1,93.75,2|0,1:2|2:0,2:0:0:0:
401,9,236300,2,0,B|370:18|370:18|351:77,1,93.75,2|0,1:3|2:0,2:0:0:0:
331,182,236420,6,0,B|351:174|351:174|343:202|343:202|323:208|323:208|331:182,1,93.75,8|0,1:2|2:0,2:0:0:0:
272,123,236540,1,2,2:0:0:0:
392,262,236660,1,2,1:2:0:0:
234,310,236780,5,2,1:2:0:0:
234,310,236840,1,0,1:0:0:0:
234,310,236900,2,0,B|209:297|204:273|204:273|161:260,1,93.75,10|0,1:2|2:0,2:0:0:0:
51,364,237020,2,0,B|93:350|93:350|100:354|100:354|140:341,1,93.75,2|0,2:0|2:0,2:0:0:0:
306,275,237140,6,0,L|315:304,1,31.25,2|0,1:2|2:0,2:0:0:0:
85,233,237260,2,0,L|55:223,1,31.25,2|0,2:3|2:0,2:0:0:0:
312,264,237380,6,0,L|325:308,1,46.8750000000001,10|0,1:2|2:0,2:0:0:0:
245,46,237500,2,0,L|232:2,1,46.8750000000001,2|0,2:0|2:0,2:0:0:0:
490,207,237620,6,0,B|383:174|383:174|352:186|352:186|350:175|350:175|293:118|293:118|243:133|243:133|131:99,1,375,2|0,1:2|2:0,2:0:0:0:
46,73,237860,6,0,B|22:46|22:46|26:41|26:41|91:61,1,109.375,10|0,1:2|2:0,2:0:0:0:
323,127,237980,2,0,B|240:152|240:152|229:180,1,109.375,0|0,1:2|2:0,2:0:0:0:
245,341,238100,6,0,B|167:355|152:278|175:294|160:217|83:232,1,218.75,2|0,1:2|2:0,2:0:0:0:
20,361,238280,1,0,2:0:0:0:
20,361,238340,2,0,B|50:349|79:342|79:342|87:311,1,93.75,10|0,1:2|2:0,2:0:0:0:
5,213,238460,1,2,2:3:0:0:
244,255,238580,6,0,B|331:272|348:184|322:202|339:113|428:131,1,250,2|0,1:2|2:0,2:0:0:0:
496,271,238760,1,0,2:0:0:0:
496,271,238820,2,0,B|463:256|430:250|430:250|417:211,1,109.375,10|0,1:2|2:0,2:0:0:0:
510,127,238940,1,0,2:0:0:0:
354,310,239060,6,0,L|337:256,1,46.8750000000001,2|0,1:2|2:0,2:0:0:0:
184,155,239180,2,0,L|167:101,1,46.8750000000001,2|0,2:0|2:0,2:0:0:0:
427,130,239300,6,0,L|440:85,1,46.8750000000001,10|0,1:2|2:0,2:0:0:0:
244,255,239420,2,0,L|257:210,1,46.8750000000001,2|0,2:0|2:0,2:0:0:0:
300,27,239540,5,2,1:2:0:0:
293,21,239600,1,2,1:3:0:0:
302,19,239660,1,2,1:3:0:0:
100,292,239780,6,0,B|127:283|127:283|129:279|129:279|157:270,1,62.5,10|0,1:2|2:0,2:0:0:0:
333,105,239900,2,0,B|305:113|305:113|303:117|303:117|275:126,1,62.5,2|0,1:3|2:0,2:0:0:0:
128,15,240020,6,0,B|96:24|96:24|77:85,1,93.75,2|0,1:2|2:0,2:0:0:0:
304,377,240140,2,0,B|335:367|335:367|354:306,1,93.75,0|0,1:2|2:0,2:0:0:0:
23,161,240260,6,0,B|100:184|100:184|107:183|107:183|125:216|125:216|245:255,1,250,8|2,1:2|2:0,2:0:0:0:
24,346,240500,6,0,B|33:313|33:313|90:295,1,93.75,2|0,1:2|2:0,2:0:0:0:
337,218,240620,1,2,1:3:0:0:
341,225,240680,1,2,1:3:0:0:
344,214,240740,1,8,1:2:0:0:
206,46,240860,6,0,B|201:59|201:59|197:62|197:62|197:85|197:85|193:88|193:88|173:151,1,93.75,2|0,2:0|2:0,2:0:0:0:
99,379,240980,1,2,1:2:0:0:
24,187,241100,1,2,2:0:0:0:
191,384,241220,1,10,1:2:0:0:
82,107,241340,1,2,2:0:0:0:
467,332,241460,6,0,B|453:319|452:299|452:299|401:273|359:322|359:322|358:314|358:314|244:280,1,268.75,2|0,1:2|2:0,2:0:0:0:
168,306,241640,1,2,2:0:0:0:
168,306,241700,2,0,B|165:277|154:252|154:252|176:240|195:216,1,109.375,10|0,1:2|2:0,2:0:0:0:
395,35,241820,2,0,B|398:64|408:88|408:88|387:101|367:124,1,109.375,2|0,1:2|2:0,2:0:0:0:
113,5,241940,6,0,B|84:43|116:79|116:79|210:67|260:144,1,250,6|0,1:2|2:0,2:0:0:0:
367,123,242120,1,0,2:0:0:0:
367,123,242180,2,0,B|342:142|342:142|349:174|323:197,1,93.75,10|0,1:2|2:0,2:0:0:0:
117,181,242300,2,0,P|129:171|141:161,1,31.25,0|0,2:0|2:0,2:0:0:0:
272,24,242420,5,2,1:2:0:0:
272,24,242480,1,2,1:3:0:0:
272,24,242540,2,0,B|279:8|266:-17|266:-17|295:9|283:43,1,109.375,2|2,2:3|2:0,2:0:0:0:
8,113,242660,2,0,L|52:126,1,46.8750000000001,10|0,1:2|2:0,2:0:0:0:
260,144,242780,5,2,2:0:0:0:
260,144,242840,1,0,2:0:0:0:
260,144,242900,2,0,B|246:195|235:164|217:214,1,81.25,2|0,1:2|2:0,2:0:0:0:
180,83,243020,1,0,2:0:0:0:
280,263,243140,6,0,B|296:324|310:287|331:346,1,100,10|0,1:2|2:0,2:0:0:0:
46,247,243260,1,2,2:0:0:0:
418,248,243380,6,0,B|355:265|355:265|324:273|308:299|308:299|292:327|261:335|261:335|199:352,1,250,2|0,1:2|2:0,2:0:0:0:
166,282,243560,1,0,2:0:0:0:
166,282,243620,2,0,B|114:266,1,46.8750000000001,10|0,1:2|2:0,2:0:0:0:
414,353,243740,2,0,B|466:369,1,46.8750000000001,2|0,1:2|2:0,2:0:0:0:
119,349,243860,6,0,B|86:359|86:359|94:358|94:358|62:368,1,78.125,2|0,1:2|2:0,2:0:0:0:
427,253,243980,2,0,B|459:243|459:243|451:246|451:246|485:236,1,78.125,2|0,1:2|2:0,2:0:0:0:
164,161,244100,6,0,B|188:46|319:42|319:42|309:77,1,250,8|2,1:2|2:0,2:0:0:0:
384,119,244280,5,0,2:0:0:0:
384,119,244340,2,0,P|357:164|304:161,1,109.375,2|0,1:2|2:0,2:0:0:0:
143,12,244460,2,0,B|169:20|169:20|169:24|169:24|202:34,1,62.5,2|0,2:0|2:0,2:0:0:0:
296,248,244580,6,0,P|252:244|234:203,1,93.75,10|0,1:2|2:0,2:0:0:0:
314,24,244700,2,0,B|307:44|307:44|310:46|310:46|303:67,1,46.8750000000001,2|0,2:0|2:0,2:0:0:0:
234,384,244820,6,0,P|308:285|427:253,1,250,2|0,1:2|2:0,2:0:0:0:
164,161,245060,1,10,1:2:0:0:
416,355,245180,1,2,2:0:0:0:
0,233,245300,6,0,B|57:250|57:250|55:236|55:236|105:282|105:282|131:273|131:273|329:333,1,375,2|0,1:2|2:0,2:0:0:0:
431,267,245540,2,0,B|473:246|473:246|427:253,1,93.75,8|0,1:2|2:0,2:0:0:0:
76,373,245660,2,0,B|119:359|119:359|121:356|121:356|167:341,1,93.75,2|0,1:3|2:0,2:0:0:0:
228,50,245780,6,0,B|199:123|273:151|261:126|335:154|306:227,1,218.75,2|0,1:2|2:0,2:0:0:0:
256,290,245960,1,0,2:0:0:0:
256,290,246020,2,0,P|218:265|221:221,1,93.75,10|0,1:2|2:0,2:0:0:0:
382,100,246140,2,0,L|373:130,1,31.25,2|2,2:3|2:3,2:0:0:0:
148,170,246260,6,0,B|156:93|221:49|306:67|306:67|291:111,1,262.5,2|2,1:2|2:0,2:0:0:0:
457,144,246440,5,0,1:2:0:0:
457,144,246500,2,0,B|484:152|484:152|480:153|480:153|509:161,1,62.5,10|0,1:2|2:0,2:0:0:0:
199,69,246620,2,0,B|173:62|173:62|177:61|177:61|146:52,1,62.5,2|0,2:0|2:0,2:0:0:0:
499,7,246740,6,0,B|533:37|533:37|517:76|517:76|404:103|383:227,1,300,2|0,1:2|2:0,2:0:0:0:
482,243,246980,2,0,B|506:295|468:340|468:340|441:346|441:346|398:245|291:248|291:248|285:275|260:286,1,375,10|0,1:2|2:0,2:0:0:0:
220,221,247220,5,2,1:2:0:0:
220,221,247280,1,2,1:3:0:0:
220,221,247340,2,0,B|161:184|161:184|186:206|197:227,1,125,2|0,2:3|2:0,2:0:0:0:
350,383,247460,6,0,L|335:336,1,46.8750000000001,10|0,1:2|2:0,2:0:0:0:
289,166,247580,2,0,L|275:121,1,46.8750000000001,2|0,1:2|2:0,2:0:0:0:
127,384,247700,6,0,B|167:372|167:372|169:363|169:363|210:351,1,93.75,2|0,1:2|2:0,2:0:0:0:
498,120,247820,2,0,B|457:131|457:131|455:140|455:140|414:152,1,93.75,2|0,1:2|2:0,2:0:0:0:
144,68,247940,5,10,1:2:0:0:
383,223,248060,1,2,2:0:0:0:
138,62,248180,6,0,B|79:79|79:79|38:216|38:216|57:229|66:255,1,250,2|2,1:2|2:0,2:0:0:0:
129,200,248360,1,0,1:2:0:0:
129,200,248420,2,0,P|136:168|147:140,1,62.5,10|0,1:2|2:0,2:0:0:0:
18,17,248540,2,0,P|10:47|0:76,1,62.5,2|0,2:0|2:0,2:0:0:0:
0,382,248660,6,0,P|59:335|133:350,1,156.25,2|0,1:2|2:0,2:0:0:0:
509,259,248900,6,0,P|434:273|375:226,1,156.25,8|0,1:2|2:0,2:0:0:0:
288,101,249140,6,0,B|319:165|264:216|247:167|192:218|223:282,1,218.750002086163,0|0,1:2|2:0,2:0:0:0:
304,323,249320,5,0,1:0:0:0:
304,323,249380,2,0,P|311:354|298:324,1,93.75,10|0,1:2|2:0,2:0:0:0:
209,72,249500,6,0,P|199:30|216:69,1,125,0|0,1:2|2:0,2:0:0:0:
376,227,249620,6,0,B|258:191|258:191|253:193|253:193|135:157,1,250,2|0,1:2|2:0,2:0:0:0:
103,78,249800,1,0,2:0:0:0:
103,78,249860,2,0,P|54:93|53:145,1,109.375,10|0,1:2|2:0,2:0:0:0:
146,278,249980,2,0,L|155:248,1,31.25,0|0,2:0|2:0,2:0:0:0:
209,72,250100,6,0,B|221:38|259:32|259:32|221:27|208:48,1,125,2|0,1:2|2:0,2:0:0:0:
74,226,250220,2,0,B|61:259|23:265|23:265|61:270|74:249,1,125,2|0,2:0|2:0,2:0:0:0:
6,28,250340,6,0,B|-6:100|69:124|63:69|141:86|137:156,1,218.75,10|2,1:2|2:0,2:0:0:0:
24,384,250580,2,0,B|73:368|73:368|77:371|77:371|129:355,1,109.375,2|0,1:2|2:0,2:0:0:0:
326,296,250700,1,0,2:0:0:0:
159,249,250820,6,0,B|193:259|193:259|196:257|196:257|232:268,1,78.125,10|0,1:2|2:0,2:0:0:0:
419,324,250940,1,2,2:0:0:0:
278,138,251060,5,2,1:2:0:0:
281,145,251120,1,2,1:3:0:0:
283,153,251180,1,2,1:3:0:0:
286,160,251240,1,2,1:3:0:0:
288,168,251300,2,0,B|301:212,1,46.8750000000001,8|0,1:2|2:0,2:0:0:0:
339,340,251420,2,0,B|326:296,1,46.8750000000001,2|0,1:2|2:0,2:0:0:0:
446,95,251540,6,0,B|412:105|412:105|390:174,1,93.75,2|0,1:2|2:0,2:0:0:0:
328,352,251660,2,0,B|298:382|298:382|317:319,1,109.375,2|0,1:2|2:0,2:0:0:0:
302,58,251780,6,0,B|343:70|343:70|392:228|392:228|433:240,1,250,10|2,1:2|2:0,2:0:0:0:
508,199,251960,1,0,2:0:0:0:
508,199,252020,2,0,B|535:188|535:188|467:167,1,93.75,2|0,1:2|2:0,2:0:0:0:
216,91,252140,2,0,B|171:77,1,46.8750000000001,2|0,2:0|2:0,2:0:0:0:
508,60,252260,6,0,B|479:68|479:68|474:85|474:85|445:94,1,78.125,10|0,1:2|2:0,2:0:0:0:
310,135,252380,2,0,B|281:145,1,31.25,2|0,2:0|2:0,2:0:0:0:
449,361,252500,6,0,B|368:336|368:336|363:325|363:325|214:279,1,250,2|0,1:2|2:0,2:0:0:0:
135,378,252740,1,10,1:2:0:0:
510,284,252860,1,2,2:3:0:0:
137,261,252980,5,2,1:2:0:0:
122,257,253040,1,2,1:3:0:0:
107,252,253100,1,2,1:3:0:0:
92,247,253160,1,2,1:3:0:0:
76,243,253220,2,0,B|46:232|15:224|15:224|37:227|60:214,1,109.375,10|0,1:2|2:0,2:0:0:0:
191,92,253340,2,0,B|209:64|241:59|241:59|214:49|196:66,1,109.375,2|0,1:2|2:0,2:0:0:0:
13,63,253460,6,0,B|83:49|105:115|105:115|101:126|101:126|123:192|193:179,1,250,2|0,1:2|2:0,2:0:0:0:
474,77,253700,2,0,B|492:17|492:17|369:-6|334:106,1,262.5,10|0,1:2|2:0,2:0:0:0:
440,228,253880,1,0,2:0:0:0:
444,220,253940,2,0,B|448:180|448:180|422:150,1,78.125,2|0,1:2|2:0,2:0:0:0:
363,204,254060,1,2,2:0:0:0:
512,296,254180,5,10,1:2:0:0:
353,18,254300,1,2,2:0:0:0:
390,309,254420,6,0,B|359:333|359:333|321:318|321:318|297:201|194:177,1,281.25,2|0,1:2|2:0,2:0:0:0:
64,336,254660,2,0,B|33:342|5:366|5:366|8:351|8:351|57:323|69:264|69:264|170:218|232:304,1,375,10|0,1:2|2:0,2:0:0:0:
176,358,254900,6,0,B|141:327|141:327|156:283,1,93.75,2|0,1:2|2:0,2:0:0:0:
194,172,255020,1,2,2:0:0:0:
294,352,255140,6,0,L|325:364,1,31.25,8|0,1:2|2:0,2:0:0:0:
29,259,255260,2,0,L|-2:247,1,31.25,2|0,1:3|2:0,2:0:0:0:
284,226,255380,6,0,P|314:228|341:214,1,62.5,2|0,1:2|2:0,2:0:0:0:
295,136,255500,6,0,P|315:119|323:93,1,54.6875000000001,2|0,1:2|2:0,2:0:0:0:
238,71,255620,6,0,P|239:51|230:34,1,39.8437500000001,10|0,1:2|2:0,2:0:0:0:
152,76,255740,6,0,P|142:64|127:59,1,31.25,2|0,2:0|2:0,2:0:0:0:
445,323,255860,2,0,B|408:311|408:311|406:309|406:309|371:298,1,78.125,2|0,1:2|2:0,2:0:0:0:
202,175,255980,5,2,1:2:0:0:
198,166,256040,5,0,1:2:0:0:
194,172,256100,6,0,B|107:148|33:220|44:328|116:367|167:359|200:302|168:257,1,375,10|0,1:2|2:0,2:0:0:0:
140,363,256340,6,0,P|127:265|73:182,1,200,2|0,1:2|2:0,2:0:0:0:
371,20,256580,2,0,P|384:118|439:202,1,200,8|0,1:2|2:0,2:0:0:0:
152,76,256820,5,0,1:2:0:0:
360,308,256940,1,0,2:0:0:0:
2,268,257060,5,10,1:2:0:0:
509,115,257180,1,2,1:2:0:0:
256,192,257300,5,4,1:2:0:0:
333,212,257540,1,0,2:0:0:0:
377,146,257780,2,0,L|364:84,1,62.5,0|0,1:2|2:0,2:0:0:0:
497,196,258020,2,0,P|458:205|435:245,1,83.3333333333333,2|0,2:0|2:0,2:0:0:0:
485,299,258260,6,0,P|497:337|508:378,1,83.3333333333333,2|0,2:0|2:0,2:0:0:0:
352,342,258500,2,0,L|263:318,1,83.3333333333333,2|0,2:0|2:0,2:0:0:0:
271,320,258740,1,2,1:2:0:0:
298,237,258860,1,2,2:0:0:0:
212,262,258980,2,0,P|179:271|151:278,1,62.5,2|2,2:0|2:0,2:0:0:0:
10,325,259220,5,2,2:0:0:0:
66,254,259460,1,0,2:0:0:0:
12,189,259700,2,0,L|-1:127,1,62.5,0|0,1:2|2:0,2:0:0:0:
156,1,259940,2,0,P|178:34|174:75,1,83.3333333333333,2|0,2:0|2:0,2:0:0:0:
171,171,260180,6,0,P|132:154|92:143,1,83.3333333333333,2|0,2:0|2:0,2:0:0:0:
266,39,260420,1,2,2:0:0:0:
266,39,260540,2,0,P|294:19|319:5,1,62.5,2|0,2:0|1:2,2:0:0:0:
340,115,260780,2,0,P|372:124|399:135,1,62.5,2|0,2:0|2:0,2:0:0:0:
388,224,261020,1,2,2:0:0:0:
470,186,261140,5,2,2:0:0:0:
351,350,261380,1,0,2:0:0:0:
201,217,261620,1,0,1:2:0:0:
201,217,261860,6,0,P|212:172|225:124,1,83.3333333333333,0|0,2:0|2:0,2:0:0:0:
221,136,262100,1,0,2:0:0:0:
101,179,262340,1,0,2:0:0:0:
17,74,262580,5,2,1:2:0:0:
20,66,262700,5,0,2:0:0:0:
24,59,262820,6,0,L|5:0,1,62.5,2|0,2:0|2:0,2:0:0:0:
137,45,263060,6,0,P|96:147|58:249,1,218.75,2|0,2:0|2:0,2:0:0:0:
31,323,263540,1,2,1:2:0:0:
35,333,263900,5,2,2:0:0:0:
158,230,264020,2,0,P|174:273|191:315,1,83.3333333333333,2|0,2:0|2:0,2:0:0:0:
258,378,264260,2,0,P|269:347|281:316,1,62.5,2|2,2:0|2:0,2:0:0:0:
362,192,264500,5,2,2:0:0:0:
217,131,264620,1,2,2:0:0:0:
217,131,264680,1,2,2:0:0:0:
217,131,264740,1,2,2:0:0:0:
259,234,264860,1,2,2:0:0:0:
318,89,264980,6,0,P|323:73|329:58,1,31.25,10|0,1:2|2:0,2:0:0:0:
155,55,266900,6,0,P|146:32|137:9,1,46.8750000000001,8|0,1:2|2:0,2:0:0:0:
443,256,268820,6,0,P|454:226|465:197,1,62.5,8|0,1:2|2:0,2:0:0:0:
79,345,270740,6,0,P|64:307|49:269,1,78.125,8|0,1:2|2:0,2:0:0:0:
290,137,271460,6,0,B|253:216|235:162|200:241,1,140.625,2|0,2:0|2:0,2:0:0:0:
285,267,271700,1,2,2:0:0:0:
285,267,271820,2,0,P|300:312|346:325,1,93.7500000000002,2|0,2:0|2:0,2:0:0:0:
204,107,272060,2,0,P|156:96|122:130,1,93.7500000000002,2|0,2:0|2:0,2:0:0:0:
383,116,272300,2,0,P|415:80|403:33,1,93.7500000000002,2|0,2:0|2:0,2:0:0:0:
272,0,272540,2,0,P|280:21|285:44,1,46.8750000000001,2|0,2:0|2:0,2:0:0:0:
299,123,272660,5,8,1:2:0:0:
299,123,272900,1,0,1:2:0:0:
299,123,273140,1,0,1:2:0:0:
299,123,273380,1,0,1:2:0:0:
354,180,273620,5,0,1:2:0:0:
356,259,273860,1,0,1:2:0:0:
304,319,274100,1,0,1:2:0:0:
225,328,274340,1,0,1:0:0:0:
160,281,274580,6,0,L|149:235,1,46.8750000000001,8|0,1:2|2:0,2:0:0:0:
127,153,274820,1,0,1:2:0:0:
210,134,275060,1,0,1:2:0:0:
228,214,275300,1,0,1:2:0:0:
488,51,275540,5,0,1:2:0:0:
456,196,275780,1,0,1:2:0:0:
304,161,276020,1,0,1:2:0:0:
343,11,276260,1,0,1:0:0:0:
343,11,276380,1,0,1:0:0:0:
221,160,276500,5,8,1:0:0:0:
190,25,276620,1,0,1:0:0:0:
146,199,276740,5,0,1:0:0:0:
74,115,276860,1,0,1:0:0:0:
98,267,276980,5,0,1:0:0:0:
14,236,277100,1,0,1:0:0:0:
86,350,277220,5,2,1:2:0:0:
15,358,277340,1,0,1:0:0:0:
146,199,277460,5,10,1:2:0:0:
198,370,277580,1,0,1:0:0:0:
250,125,277700,5,2,1:2:0:0:
275,344,277820,1,2,1:2:0:0:
372,85,277940,5,8,1:0:0:0:
357,341,278060,1,2,1:2:0:0:
502,71,278180,5,0,1:0:0:0:
435,367,278300,1,2,1:2:0:0:
71,290,278420,5,0,1:0:0:0:
59,277,278480,1,0,1:0:0:0:
56,261,278540,1,0,1:0:0:0:
61,237,278600,1,0,1:0:0:0:
80,219,278660,1,0,1:0:0:0:
111,215,278720,1,0,1:0:0:0:
138,235,278780,1,0,1:0:0:0:
147,269,278840,5,0,1:0:0:0:
165,307,278900,1,2,1:2:0:0:
208,324,278960,1,0,1:0:0:0:
250,313,279020,1,0,1:0:0:0:
276,279,279080,1,0,1:0:0:0:
280,235,279140,1,0,1:0:0:0:
260,199,279200,1,0,1:0:0:0:
222,179,279260,1,0,1:0:0:0:
205,141,279320,1,0,1:0:0:0:
221,99,279380,5,10,1:2:0:0:
221,100,279440,2,0,P|236:73|265:63,1,62.5,0|8,2:0|1:0,2:0:0:0:
367,151,279560,1,8,1:0:0:0:
367,151,279620,2,0,P|336:150|312:130,1,62.5,0|8,1:0|1:0,2:0:0:0:
337,0,279740,2,0,P|351:26|346:56,1,62.5,8|0,1:0|2:0,2:0:0:0:
144,25,279860,5,8,1:0:0:0:
141,34,279920,5,8,1:0:0:0:
136,28,279980,6,0,L|86:12,1,46.8750000000001,0|0,1:0|1:0,2:0:0:0:
438,92,280100,6,0,L|487:76,1,46.8750000000001,8|0,1:0|1:0,2:0:0:0:
190,306,280220,6,0,L|146:335,1,46.8750000000001,8|0,1:0|1:0,2:0:0:0:
512,321,280340,6,0,B|465:305|465:305|457:292|457:292|395:294|395:294|388:281|388:281|282:249,1,250,4|0,1:2|2:0,2:0:0:0:
39,314,280580,6,0,B|32:196|150:190|122:221|239:215|233:97,1,328.125,8|0,1:2|2:0,2:0:0:0:
223,95,280820,2,0,P|160:32|144:119,1,218.75,2|0,1:3|2:0,2:0:0:0:
69,184,281000,1,2,2:3:0:0:
69,184,281060,2,0,P|114:193|153:219,1,93.75,10|0,1:2|2:0,2:0:0:0:
327,106,281180,1,0,2:0:0:0:
0,383,281300,6,0,P|92:326|198:301,1,218.75,2|0,1:2|2:0,2:0:0:0:
144,119,281540,1,10,1:2:0:0:
382,346,281660,1,2,2:0:0:0:
293,365,281780,2,0,B|282:311|282:311|321:273,1,109.375,0|0,1:2|2:0,2:0:0:0:
509,103,281900,5,2,2:0:0:0:
509,103,281960,1,0,1:0:0:0:
509,103,282020,2,0,P|502:118|492:129,1,31.25,8|0,1:2|2:0,2:0:0:0:
405,207,282140,6,0,P|410:184|404:162,1,46.8750000000001,2|0,1:2|2:0,2:0:0:0:
301,51,282260,6,0,P|320:75|326:105,1,62.5,2|0,1:2|2:0,2:0:0:0:
321,273,282380,6,0,P|290:248|252:246,1,78.125,0|0,1:2|2:0,2:0:0:0:
2,280,282500,6,0,P|21:365|109:374,1,187.5,8|0,1:2|2:0,2:0:0:0:
163,318,282680,1,2,2:3:0:0:
158,312,282740,2,0,B|166:241|108:206|105:248|43:207|52:139,1,218.75,2|0,1:3|2:0,2:0:0:0:
170,50,282920,5,0,2:0:0:0:
170,50,282980,2,0,B|163:68|163:68|162:81|162:81|151:89|151:89|153:95|153:95|134:148,1,109.375,10|0,1:2|2:0,2:0:0:0:
78,300,283100,2,0,L|98:243,1,46.8750000000001,2|0,2:3|2:0,2:0:0:0:
72,58,283220,6,0,B|64:7|23:-10|23:-10|140:-20|218:18|230:124,1,365.625001394749,2|0,1:2|2:0,2:0:0:0:
277,196,283460,2,0,B|218:213|218:213|214:233|199:246,1,100,10|0,1:2|2:0,2:0:0:0:
52,142,283580,1,2,2:0:0:0:
353,258,283700,1,2,1:3:0:0:
345,255,283760,1,2,1:3:0:0:
351,252,283820,2,0,B|364:210|364:210|363:206|363:206|376:163,1,93.75,2|0,2:0|2:0,2:0:0:0:
337,25,283940,6,0,B|299:52|299:52|314:102,1,93.75,8|0,1:2|2:0,2:0:0:0:
397,384,284060,2,0,B|435:356|435:356|422:312,1,93.75,2|0,1:2|2:0,2:0:0:0:
505,137,284180,6,0,B|375:176|375:176|359:176|359:176|339:238|339:238|308:236|308:236|183:275,1,375,2|0,1:2|2:0,2:0:0:0:
173,281,284420,2,0,P|151:189|231:221,1,218.75,8|0,1:2|2:0,2:0:0:0:
120,88,284660,6,0,P|129:64|124:90,1,78.125,2|0,1:3|2:0,2:0:0:0:
55,308,284780,2,0,B|32:334|32:334|54:280,1,93.7499999999999,2|0,2:3|2:0,2:0:0:0:
218,100,284900,6,0,P|237:89|216:95,1,62.5,8|0,1:2|2:0,2:0:0:0:
44,177,285020,2,0,B|14:176|14:176|60:160,1,78.125,2|0,2:3|2:0,2:0:0:0:
433,51,285140,6,0,B|447:9|447:9|323:19|317:140,1,250,2|0,1:2|2:0,2:0:0:0:
455,261,285380,1,8,1:2:0:0:
273,19,285500,1,2,2:3:0:0:
299,357,285620,6,0,P|300:340|308:327,1,31.25,0|0,1:2|2:0,2:0:0:0:
340,221,285740,2,0,P|338:237|330:250,1,31.25,0|0,2:0|2:0,2:0:0:0:
247,262,285860,6,0,P|234:242|214:229,1,46.8750000000001,10|0,1:2|2:0,2:0:0:0:
389,317,285980,2,0,P|401:336|420:349,1,46.8750000000001,2|0,1:2|2:0,2:0:0:0:
184,316,286100,6,0,P|153:320|126:333,1,62.5,2|0,1:3|2:0,2:0:0:0:
454,261,286220,2,0,P|484:256|512:243,1,62.5,2|0,1:3|2:0,2:0:0:0:
357,9,286340,6,0,B|301:64|301:64|317:140,1,156.25,8|0,1:2|2:0,2:0:0:0:
394,163,286520,1,2,1:3:0:0:
394,163,286580,2,0,B|449:107|449:107|433:31,1,156.25,2|0,1:3|2:0,2:0:0:0:
101,111,286820,6,0,P|216:146|247:262,1,250,10|0,1:2|2:0,2:0:0:0:
61,299,287000,1,0,2:0:0:0:
61,299,287060,2,0,B|60:238|112:213|111:249|167:220|166:161,1,187.5,2|0,1:2|2:0,2:0:0:0:
47,49,287240,1,2,2:3:0:0:
47,49,287300,2,0,B|12:80|12:80|24:126,1,93.75,8|0,1:2|2:0,2:0:0:0:
159,33,287420,1,2,1:3:0:0:
159,33,287480,1,2,1:3:0:0:
159,33,287540,5,2,1:3:0:0:
170,58,287600,1,2,1:3:0:0:
180,82,287660,2,0,B|217:93|217:93|222:110|242:122,1,78.125,2|0,2:0|2:0,2:0:0:0:
359,40,287780,6,0,B|381:-9|381:-9|342:28,1,109.375,10|0,1:2|2:0,2:0:0:0:
160,323,287900,2,0,B|218:306|187:278|246:261,1,109.375,2|0,1:2|2:0,2:0:0:0:
481,221,288020,6,0,P|466:280|420:322,1,125,10|0,1:2|2:0,2:0:0:0:
423,158,288260,2,0,P|351:215|335:307,1,187.5,8|0,1:2|2:0,2:0:0:0:
258,361,288440,5,2,1:3:0:0:
258,361,288500,2,0,P|198:368|159:322,1,125,8|0,1:2|2:0,2:0:0:0:
0,302,288740,2,0,P|58:233|148:244,1,187.5,8|0,1:2|2:0,2:0:0:0:
289,141,288920,5,2,1:3:0:0:
289,141,288980,2,0,P|286:79|250:29,1,125,8|0,1:2|2:0,2:0:0:0:
224,193,289220,2,0,P|165:118|168:30,1,187.5,8|0,1:2|2:0,2:0:0:0:
411,153,289460,6,0,P|370:175|353:218,1,93.75,8|0,1:2|2:0,2:0:0:0:
409,331,289580,5,2,1:3:0:0:
416,329,289640,5,2,1:3:0:0:
411,324,289700,6,0,P|409:307|401:294,1,31.25,8|0,1:2|2:0,2:0:0:0:
493,123,289820,6,0,P|511:98|512:67,1,62.5,8|0,1:2|2:0,2:0:0:0:
430,333,289940,6,0,P|436:313|435:295,1,39.8437500000001,8|0,1:2|2:0,2:0:0:0:
367,73,290060,6,0,P|356:36|327:11,1,78.125,0|0,1:2|2:0,2:0:0:0:
443,348,290180,6,0,P|460:330|468:311,1,46.8750000000001,8|0,1:2|2:0,2:0:0:0:
186,125,290300,6,0,P|143:107|98:116,1,93.75,0|0,1:2|2:0,2:0:0:0:
171,362,290420,5,8,1:2:0:0:
195,375,290480,5,0,1:2:0:0:
239,370,290540,5,8,1:2:0:0:
267,339,290600,5,0,1:2:0:0:
265,292,290660,5,10,1:2:0:0:
249,243,290720,5,0,1:2:0:0:
266,184,290780,5,8,1:2:0:0:
325,158,290840,5,0,1:2:0:0:
394,178,290900,5,14,1:2:0:0:
394,178,291620,6,0,B|412:195|411:225|411:225|422:202|412:184,1,93.75,8|0,1:2|2:0,2:0:0:0:
344,113,291740,2,0,B|325:93|326:65|326:65|315:88|324:105,1,93.75,0|0,2:0|2:0,2:0:0:0:
494,362,291860,6,0,B|430:263|332:327|372:336|274:399|210:301,1,328.125,4|2,1:0|2:0,2:0:0:0:
262,176,292100,2,0,P|302:208|292:260,1,109.375,8|0,1:2|2:0,2:0:0:0:
202,297,292220,1,2,2:0:0:0:
223,38,292340,6,0,P|183:122|154:212,1,187.5,2|0,1:2|2:0,2:0:0:0:
119,383,292520,1,2,2:0:0:0:
119,383,292580,2,0,P|68:227|0:79,1,328.125,10|0,1:2|2:0,2:0:0:0:
262,176,292820,6,0,B|344:193|362:110|337:127|354:44|437:61,1,237.5,2|0,1:2|2:0,2:0:0:0:
481,129,293000,1,2,2:0:0:0:
481,129,293060,2,0,P|459:175|396:172,1,109.375,8|0,1:2|2:0,2:0:0:0:
222,38,293180,2,0,P|256:53|267:93,1,78.125,2|0,2:0|2:0,2:0:0:0:
348,291,293300,6,0,P|260:227|152:211,1,218.75,2|0,1:2|2:0,2:0:0:0:
180,305,293480,1,2,2:0:0:0:
180,305,293540,2,0,P|217:331|263:338,1,93.75,10|2,1:2|2:0,2:0:0:0:
450,267,293660,5,2,1:2:0:0:
441,269,293720,1,2,1:2:0:0:
447,273,293780,2,0,B|450:338|483:307|485:371,2,109.375,0|0|0,1:2|2:0|2:0,2:0:0:0:
504,207,293960,5,2,2:0:0:0:
504,207,294020,2,0,P|510:161|479:128,1,93.75,8|0,1:2|2:0,2:0:0:0:
318,27,294140,2,0,P|311:72|342:105,1,93.75,2|0,2:0|2:0,2:0:0:0:
389,198,294260,6,0,B|427:78|466:155|512:17,1,218.75,2|0,1:2|2:0,2:0:0:0:
426,7,294440,1,2,2:0:0:0:
426,7,294500,2,0,P|409:23|400:52,1,46.8750000000001,10|2,1:2|2:0,2:0:0:0:
450,267,294620,5,2,1:2:0:0:
441,269,294680,1,2,1:2:0:0:
447,273,294740,2,0,B|457:305|457:305|382:212|266:225,1,250,0|2,1:2|2:0,2:0:0:0:
171,168,294920,1,2,2:0:0:0:
171,168,294980,2,0,P|213:149|236:109,1,93.75,8|0,1:2|2:0,2:0:0:0:
372,355,295100,2,0,P|326:349|292:318,1,93.75,2|0,2:0|2:0,2:0:0:0:
60,217,295220,6,0,B|28:165|28:165|143:159|209:227|204:325,1,328.125,2|0,1:2|2:0,2:0:0:0:
132,345,295460,2,0,B|115:291|115:291|158:260,1,109.375,10|0,1:2|2:0,2:0:0:0:
83,1,295580,2,0,L|96:45,1,46.8750000000001,0|0,1:2|2:0,2:0:0:0:
60,217,295700,6,0,B|45:128|133:114|115:140|202:125|188:38,1,250,6|0,1:2|2:0,2:0:0:0:
0,12,295880,1,2,2:0:0:0:
0,12,295940,2,0,P|-6:51|22:85,1,87.5,8|0,1:2|2:0,2:0:0:0:
355,85,296060,2,0,P|307:74|269:104,1,100,2|0,2:0|2:0,2:0:0:0:
23,85,296180,6,0,P|134:89|205:206,1,250,2|0,1:2|2:0,2:0:0:0:
273,248,296360,1,2,2:0:0:0:
273,248,296420,2,0,P|327:223|327:161,2,125,10|0|2,1:2|2:0|2:0,2:0:0:0:
24,381,296660,6,0,B|47:302|121:263|198:298|198:298|208:325,1,250,2|0,1:2|2:0,2:0:0:0:
264,383,296840,1,2,2:0:0:0:
264,383,296900,2,0,P|283:362|285:326,1,62.5,8|0,1:2|2:0,2:0:0:0:
116,181,297020,2,0,P|106:232|145:268,1,109.375,2|0,2:0|2:0,2:0:0:0:
363,15,297140,5,0,1:2:0:0:
363,15,297200,2,0,P|307:122|272:247,1,250,2|0,1:2|2:0,2:0:0:0:
173,18,297380,5,10,1:2:0:0:
165,19,297440,1,2,1:2:0:0:
158,24,297500,1,2,1:2:0:0:
154,32,297560,1,2,1:2:0:0:
154,41,297620,2,0,B|163:105|193:71|202:134,2,109.375,4|0|2,1:2|2:0|2:0,2:0:0:0:
262,19,297800,5,2,2:0:0:0:
262,19,297860,2,0,P|289:56|288:102,1,93.75,8|0,1:2|2:0,2:0:0:0:
98,170,297980,2,0,P|70:132|71:86,1,93.75,2|0,2:0|2:0,2:0:0:0:
265,233,298100,6,0,B|260:308|222:271|218:346,2,125,2|0|0,1:2|2:0|2:0,2:0:0:0:
384,284,298280,1,2,2:0:0:0:
384,284,298340,2,0,P|381:338|341:373,1,109.375,10|2,1:2|2:0,2:0:0:0:
100,344,298460,1,2,1:2:0:0:
108,342,298520,1,2,1:2:0:0:
103,337,298580,6,0,P|110:215|202:134,1,250,2|2,1:2|2:0,2:0:0:0:
5,145,298760,5,2,2:0:0:0:
5,145,298820,2,0,P|35:178|80:174,1,93.7500035762788,8|2,1:2|2:0,2:0:0:0:
118,3,298940,6,0,P|72:28|72:80,1,109.375,2|0,2:0|2:0,2:0:0:0:
300,155,299060,5,2,1:2:0:0:
300,155,299120,2,0,B|289:86|229:57|158:80|158:80|200:134,1,256.250003910065,2|0,1:2|2:0,2:0:0:0:
265,233,299300,6,0,B|339:215|300:183|380:166,1,137.5,10|0,1:2|2:0,2:0:0:0:
375,30,299420,6,0,P|368:53|361:74,1,46.8750000000001,0|0,1:2|2:0,2:0:0:0:
512,289,299540,6,0,P|472:187|448:80,1,218.75,6|0,1:2|2:0,2:0:0:0:
194,158,299780,2,0,P|233:259|257:366,1,218.75,10|0,1:2|2:0,2:0:0:0:
380,165,300020,1,2,1:2:0:0:
156,312,300140,5,2,1:2:0:0:
156,312,300200,1,2,1:2:0:0:
156,312,300260,2,0,P|126:276|130:231,1,93.75,10|0,1:2|2:0,2:0:0:0:
275,4,300380,2,0,P|278:50|250:84,1,93.75,2|0,2:3|2:0,2:0:0:0:
13,3,300500,6,0,P|66:19|120:35,1,112.5,2|0,1:2|2:0,2:0:0:0:
226,259,300620,1,2,2:3:0:0:
226,259,300680,1,2,2:3:0:0:
226,259,300740,2,0,B|216:169|128:180|152:200|65:210|54:122,1,250,10|0,1:2|2:0,2:0:0:0:
126,32,300920,5,0,2:0:0:0:
126,32,300980,2,0,P|154:63|136:113,1,93.75,2|0,1:2|2:0,2:0:0:0:
24,367,301100,5,2,2:0:0:0:
17,367,301160,1,2,2:0:0:0:
20,360,301220,2,0,P|30:308|78:287,1,109.375,10|0,1:2|2:0,2:0:0:0:
368,237,301340,6,0,P|311:216|299:157,1,125,2|0,1:3|2:0,2:0:0:0:
423,54,301460,6,0,P|404:96|390:144,1,93.75,2|0,1:2|2:0,2:0:0:0:
338,363,301580,1,0,1:2:0:0:
338,363,301640,1,0,1:0:0:0:
338,363,301700,2,0,P|380:344|428:330,1,93.75,10|0,1:2|2:0,2:0:0:0:
303,153,301820,5,2,2:3:0:0:
299,162,301880,1,2,2:3:0:0:
295,155,301940,2,0,P|256:147|224:126,1,78.125,2|0,1:2|2:0,2:0:0:0:
91,285,302060,2,0,P|116:255|151:238,1,78.125,2|2,2:0|2:0,2:0:0:0:
81,45,302180,2,0,P|93:81|91:120,1,78.125,10|0,1:2|2:0,2:0:0:0:
156,161,302300,1,2,2:3:0:0:
13,236,302420,6,0,P|121:257|220:302,1,218.75,2|2,1:2|2:0,2:0:0:0:
129,383,302600,1,0,2:0:0:0:
129,383,302660,2,0,P|74:373|25:349,1,109.375,10|0,1:2|2:0,2:0:0:0:
230,201,302780,1,2,2:0:0:0:
338,363,302900,6,0,P|336:348|330:334,1,31.25,2|0,1:2|2:0,2:0:0:0:
394,210,303020,2,0,P|396:225|402:239,1,31.25,2|0,2:0|2:0,2:0:0:0:
342,68,303140,6,0,P|334:107|318:144,1,78.125,10|0,1:2|2:0,2:0:0:0:
490,325,303260,2,0,P|497:287|512:251,1,78.125,2|0,1:2|2:0,2:0:0:0:
149,36,303380,6,0,B|210:54|172:54|233:73,1,93.75,6|0,1:2|2:0,2:0:0:0:
427,129,303500,1,0,2:0:0:0:
71,186,303620,6,0,B|132:167|94:167|155:148,1,93.75,10|0,1:2|2:0,2:0:0:0:
497,66,303740,1,2,0:3:0:0:
497,66,303800,1,2,0:3:0:0:
497,66,303860,6,0,P|466:32|421:32,1,93.75,2|0,1:2|2:0,2:0:0:0:
322,254,303980,1,2,1:2:0:0:
322,265,304040,1,2,1:2:0:0:
328,261,304100,2,0,P|372:251|394:211,1,93.75,10|0,1:2|2:0,2:0:0:0:
296,12,304220,5,2,1:3:0:0:
305,8,304280,5,2,1:3:0:0:
302,19,304340,6,0,B|329:77|304:49|330:107,1,93.75,6|0,1:2|2:0,2:0:0:0:
410,325,304460,1,2,2:3:0:0:
156,148,304580,6,0,B|217:166|179:166|240:185,1,93.75,10|0,1:2|2:0,2:0:0:0:
495,258,304700,1,2,2:3:0:0:
501,248,304760,1,2,2:3:0:0:
507,237,304820,6,0,P|512:191|488:152,1,93.75,2|0,1:2|2:0,2:0:0:0:
225,294,304940,1,2,1:2:0:0:
233,296,305000,1,2,1:2:0:0:
228,300,305060,2,0,P|222:345|246:384,1,93.75,10|0,1:2|2:0,2:0:0:0:
392,211,305180,5,0,1:2:0:0:
381,207,305240,5,0,1:2:0:0:
390,199,305300,5,10,1:2:0:0:
399,142,305360,1,0,1:2:0:0:
371,94,305420,1,2,1:2:0:0:
317,77,305480,1,0,1:2:0:0:
265,95,305540,1,10,1:2:0:0:
241,130,305600,1,0,1:2:0:0:
210,154,305660,1,2,2:0:0:0:
176,155,305720,1,0,1:2:0:0:
156,148,305780,6,0,P|132:110|139:64,1,93.75,2|0,1:2|2:0,2:0:0:0:
290,213,305900,1,2,2:0:0:0:
290,213,305960,1,2,2:0:0:0:
290,213,306020,2,0,P|311:246|304:288,1,78.125,10|0,1:2|2:0,2:0:0:0:
95,380,306140,5,2,1:2:0:0:
84,378,306200,5,2,1:2:0:0:
91,373,306260,6,0,P|105:328|121:284,1,93.75,0|0,1:2|2:0,2:0:0:0:
220,0,306380,1,2,2:0:0:0:
220,290,306500,6,0,P|211:267|202:245,1,46.8750000000001,8|0,1:2|2:0,2:0:0:0:
140,64,306620,1,2,2:0:0:0:
63,226,306740,5,2,1:2:0:0:
354,110,306860,1,2,2:0:0:0:
0,85,306980,5,10,1:2:0:0:
441,279,307100,1,2,1:2:0:0:
164,159,307220,5,6,1:2:0:0:
164,159,307940,6,0,P|155:137|148:125,1,31.25,2|0,2:0|2:0,2:0:0:0:
309,91,308180,2,0,B|288:188|253:130|236:234,1,156.25,2|0,2:0|2:0,2:0:0:0:
282,295,308900,1,2,2:0:0:0:
206,341,309140,5,2,2:0:0:0:
203,352,309620,1,2,2:0:0:0:
32,158,310100,1,2,2:0:0:0:
32,158,310580,6,0,P|31:143|25:127,2,31.25,2|2|2,2:0|2:0|2:0,2:0:0:0:
106,83,311060,2,0,P|110:127|125:174,1,93.75,2|0,2:0|2:0,2:0:0:0:
214,150,311540,6,0,P|223:139|231:123,2,31.25,2|2|2,2:0|2:0|2:0,2:0:0:0:
329,147,312020,2,0,P|300:181|277:225,1,93.75,2|0,2:0|2:0,2:0:0:0:
359,261,312500,6,0,P|373:260|389:254,2,31.25,2|2|2,2:0|2:0|2:0,2:0:0:0:
493,333,312980,2,0,P|384:343|280:377,1,218.75,2|0,2:0|2:0,2:0:0:0:
216,332,313940,1,2,2:0:0:0:
216,332,314540,5,2,2:0:0:0:
260,295,314660,1,2,2:0:0:0:
275,226,314780,1,2,2:0:0:0:
238,151,314900,5,2,2:0:0:0:
238,151,315620,6,0,P|238:135|245:121,1,31.25,2|0,2:0|2:0,2:0:0:0:
160,33,315860,2,0,P|153:110|127:185,1,156.25,2|0,2:0|2:0,2:0:0:0:
171,253,316580,1,2,2:0:0:0:
110,314,316820,5,2,2:0:0:0:
104,324,317300,1,2,2:0:0:0:
0,158,317780,1,2,2:0:0:0:
0,158,318260,6,0,P|4:146|8:127,2,31.25,2|2|2,2:0|2:0|2:0,2:0:0:0:
135,85,318740,1,2,2:0:0:0:
135,85,319220,5,2,2:0:0:0:
209,179,319460,1,2,2:0:0:0:
330,115,319700,2,2,P|332:106|336:96,2,15.625,2|2|2,2:0|2:0|2:0,2:0:0:0:
390,169,319940,1,2,2:0:0:0:
406,162,320180,1,2,2:0:0:0:
423,155,320420,1,2,2:0:0:0:
373,283,320660,6,0,P|334:255|290:241,1,93.75,2|0,2:0|2:0,2:0:0:0:
269,142,321140,6,0,P|249:155|227:162,1,46.875,2|0,2:0|2:0,2:0:0:0:
87,135,321620,6,0,B|64:89|-2:99|-15:161|22:209|54:176|65:235|65:235|100:186|115:229|169:200|182:139|126:103|87:135,1,400,2|0,2:0|2:0,2:0:0:0:
