osu file format v14

[General]
AudioFilename: audio.mp3
AudioLeadIn: 0
PreviewTime:39764
Countdown: 0
SampleSet: Normal
StackLeniency: 0.7
Mode: 1
LetterboxInBreaks: 0
WidescreenStoryboard: 1

[Editor]
Bookmarks: 502,102502
DistanceSpacing: 6
BeatDivisor: 4
GridSize: 32
TimelineZoom: 2.1

[Metadata]
Title:We are not the kyuutie Ladies
TitleUnicode:We are not the 吸tie Ladies
Artist:katagiri
ArtistUnicode:かたぎり
Creator:Hivie
Version:Muzukashii
Source:
Tags:roxy- ktyn chromoxx yassu- uone cutie electronic japanese hardcore jcore j-core igts2022 gf nm1 intermediate global taiko showdown 2022 grand finals mashup hardtek KitajimaYN yuni kurokurokuro かたぎりの長い午後"
BeatmapID:3729952
BeatmapSetID:1754869

[Difficulty]
HPDrainRate:6
CircleSize:2
OverallDifficulty:5
ApproachRate:10
SliderMultiplier:1.4
SliderTickRate:1

[Events]
//Background and Video events
0,0,"BG.jpg",0,130
//Break Periods
//Storyboard Layer 0 (Background)
//Storyboard Layer 1 (Fail)
//Storyboard Layer 2 (Pass)
//Storyboard Layer 3 (Foreground)
//Storyboard Layer 4 (Overlay)
//Storyboard Sound Samples

[TimingPoints]
502,300,4,1,0,100,1,0
40102,-100,4,1,0,100,0,1
64102,-100,4,1,0,100,0,0
102502,-100,4,1,0,100,0,1
116902,-100,4,1,0,100,0,0
126502,-117.647058823529,4,1,0,100,0,0
136102,-100,4,1,0,100,0,0
155302,-100,4,1,0,100,0,1
169702,-100,4,1,0,100,0,0

[HitObjects]
256,192,1702,5,0,0:0:0:0:
256,192,1852,1,0,0:0:0:0:
256,192,2002,1,0,0:0:0:0:
256,192,2302,1,8,0:0:0:0:
256,192,2527,1,8,0:0:0:0:
256,192,2752,1,8,0:0:0:0:
256,192,2902,1,0,0:0:0:0:
256,192,3052,1,0,0:0:0:0:
256,192,3202,1,0,0:0:0:0:
256,192,3502,1,8,0:0:0:0:
256,192,3727,1,0,0:0:0:0:
256,192,3952,1,8,0:0:0:0:
256,192,4102,1,0,0:0:0:0:
256,192,4252,1,0,0:0:0:0:
256,192,4402,1,0,0:0:0:0:
256,192,4702,1,8,0:0:0:0:
256,192,4927,1,8,0:0:0:0:
256,192,5152,1,8,0:0:0:0:
256,192,5302,1,0,0:0:0:0:
256,192,5452,1,0,0:0:0:0:
256,192,5602,1,0,0:0:0:0:
256,192,5902,1,8,0:0:0:0:
256,192,6352,1,8,0:0:0:0:
256,192,6502,1,0,0:0:0:0:
256,192,6652,1,0,0:0:0:0:
256,192,6802,1,0,0:0:0:0:
256,192,7102,1,8,0:0:0:0:
256,192,7327,1,8,0:0:0:0:
256,192,7552,1,8,0:0:0:0:
256,192,7702,1,0,0:0:0:0:
256,192,7852,1,0,0:0:0:0:
256,192,8002,1,0,0:0:0:0:
256,192,8302,1,8,0:0:0:0:
256,192,8527,1,0,0:0:0:0:
256,192,8752,1,8,0:0:0:0:
256,192,8902,1,0,0:0:0:0:
256,192,9052,1,8,0:0:0:0:
256,192,9202,1,0,0:0:0:0:
256,192,9277,1,0,0:0:0:0:
256,192,9352,1,0,0:0:0:0:
256,192,9502,1,8,0:0:0:0:
256,192,9577,1,8,0:0:0:0:
256,192,9652,1,8,0:0:0:0:
256,192,9802,1,0,0:0:0:0:
256,192,9952,1,0,0:0:0:0:
256,192,10102,1,8,0:0:0:0:
256,192,10252,1,8,0:0:0:0:
256,192,10402,1,8,0:0:0:0:
256,192,10627,1,8,0:0:0:0:
256,96,11002,1,12,0:0:0:0:
256,96,11302,1,4,0:0:0:0:
256,192,11752,1,0,0:0:0:0:
256,192,11902,1,8,0:0:0:0:
256,192,12202,1,8,0:0:0:0:
256,192,12352,1,0,0:0:0:0:
256,192,12427,1,0,0:0:0:0:
256,192,12502,1,0,0:0:0:0:
256,192,12652,1,8,0:0:0:0:
256,192,12802,1,8,0:0:0:0:
256,192,12952,1,8,0:0:0:0:
256,192,13102,1,0,0:0:0:0:
256,192,13402,1,0,0:0:0:0:
256,192,13552,1,8,0:0:0:0:
256,192,13702,1,0,0:0:0:0:
256,192,13777,1,0,0:0:0:0:
256,192,13852,1,0,0:0:0:0:
256,192,14002,1,8,0:0:0:0:
256,192,14152,1,0,0:0:0:0:
256,192,14302,1,8,0:0:0:0:
256,192,14452,1,0,0:0:0:0:
256,192,14527,1,0,0:0:0:0:
256,192,14602,1,0,0:0:0:0:
256,192,14752,1,8,0:0:0:0:
256,192,15052,1,0,0:0:0:0:
256,192,15202,1,8,0:0:0:0:
256,192,15277,1,8,0:0:0:0:
256,192,15352,1,8,0:0:0:0:
256,192,15502,1,0,0:0:0:0:
256,192,15652,1,8,0:0:0:0:
256,192,15802,1,0,0:0:0:0:
256,192,15952,1,0,0:0:0:0:
256,192,16102,1,8,0:0:0:0:
256,192,16552,1,0,0:0:0:0:
256,192,16702,1,8,0:0:0:0:
256,192,17002,1,8,0:0:0:0:
256,192,17077,1,8,0:0:0:0:
256,192,17152,1,8,0:0:0:0:
256,192,17302,1,0,0:0:0:0:
256,192,17452,1,8,0:0:0:0:
256,192,17602,1,0,0:0:0:0:
256,192,17677,1,0,0:0:0:0:
256,192,17752,1,0,0:0:0:0:
256,192,17902,1,8,0:0:0:0:
256,192,18052,1,8,0:0:0:0:
256,192,18202,1,0,0:0:0:0:
256,192,18352,1,0,0:0:0:0:
256,192,18502,1,8,0:0:0:0:
256,192,18802,1,0,0:0:0:0:
256,192,19102,1,8,0:0:0:0:
256,192,19402,1,0,0:0:0:0:
256,192,19552,1,0,0:0:0:0:
256,192,19702,1,8,0:0:0:0:
256,192,20002,1,0,0:0:0:0:
256,192,20152,1,8,0:0:0:0:
256,192,20302,1,0,0:0:0:0:
256,192,20377,1,0,0:0:0:0:
256,192,20452,1,0,0:0:0:0:
256,192,20602,1,8,0:0:0:0:
256,192,20677,1,8,0:0:0:0:
256,192,20752,1,8,0:0:0:0:
256,96,20902,1,4,0:0:0:0:
256,192,23152,1,4,0:0:0:0:
256,192,23302,1,4,0:0:0:0:
256,192,24502,1,0,0:0:0:0:
256,192,24652,1,0,0:0:0:0:
256,192,24802,1,0,0:0:0:0:
256,192,25027,1,0,0:0:0:0:
256,192,25402,1,8,0:0:0:0:
256,192,25477,1,8,0:0:0:0:
256,192,25552,1,8,0:0:0:0:
256,192,25702,1,0,0:0:0:0:
256,192,25852,1,8,0:0:0:0:
256,192,26302,1,0,0:0:0:0:
256,192,26452,1,8,0:0:0:0:
256,192,26602,1,8,0:0:0:0:
256,192,26752,1,0,0:0:0:0:
256,192,26902,1,8,0:0:0:0:
256,192,27127,1,8,0:0:0:0:
256,192,27352,1,0,0:0:0:0:
256,192,27502,1,8,0:0:0:0:
256,192,27577,1,8,0:0:0:0:
256,192,27652,1,8,0:0:0:0:
256,192,27802,1,0,0:0:0:0:
256,192,28102,1,0,0:0:0:0:
256,192,28252,1,8,0:0:0:0:
256,192,28552,1,8,0:0:0:0:
256,192,28702,1,0,0:0:0:0:
256,192,28852,1,0,0:0:0:0:
256,192,29002,1,8,0:0:0:0:
256,192,29077,1,8,0:0:0:0:
256,192,29152,1,8,0:0:0:0:
256,192,29302,1,0,0:0:0:0:
256,192,29452,1,0,0:0:0:0:
256,192,29602,1,8,0:0:0:0:
256,192,29752,1,0,0:0:0:0:
256,192,29827,1,0,0:0:0:0:
256,192,29902,1,0,0:0:0:0:
256,192,30052,1,8,0:0:0:0:
256,192,30202,1,8,0:0:0:0:
256,192,30502,1,4,0:0:0:0:
256,192,30952,1,8,0:0:0:0:
256,192,31102,1,0,0:0:0:0:
256,192,31402,1,8,0:0:0:0:
256,192,31702,1,0,0:0:0:0:
256,192,31852,1,0,0:0:0:0:
256,192,32152,1,0,0:0:0:0:
256,192,32302,1,8,0:0:0:0:
256,192,32602,1,8,0:0:0:0:
256,192,32902,1,0,0:0:0:0:
256,192,33352,1,0,0:0:0:0:
256,192,33502,1,8,0:0:0:0:
256,192,33802,1,8,0:0:0:0:
256,192,34102,1,0,0:0:0:0:
256,192,34327,1,0,0:0:0:0:
256,192,34552,1,0,0:0:0:0:
256,192,34702,1,8,0:0:0:0:
256,192,35002,1,12,0:0:0:0:
256,192,35302,1,4,0:0:0:0:
256,192,35602,1,8,0:0:0:0:
256,192,35752,1,0,0:0:0:0:
256,192,35827,1,0,0:0:0:0:
256,192,35902,1,0,0:0:0:0:
256,192,36052,1,8,0:0:0:0:
256,192,36202,1,8,0:0:0:0:
256,192,36502,1,8,0:0:0:0:
256,192,36652,1,0,0:0:0:0:
256,192,36727,1,0,0:0:0:0:
256,192,36802,1,0,0:0:0:0:
256,192,36952,1,8,0:0:0:0:
256,192,37102,1,0,0:0:0:0:
256,192,37252,1,8,0:0:0:0:
256,192,37402,1,0,0:0:0:0:
256,192,37702,1,8,0:0:0:0:
256,192,37852,1,0,0:0:0:0:
256,192,38002,1,8,0:0:0:0:
256,192,38152,1,0,0:0:0:0:
256,192,38302,1,8,0:0:0:0:
256,192,38377,1,8,0:0:0:0:
256,192,38452,1,8,0:0:0:0:
256,192,38602,1,0,0:0:0:0:
256,192,38677,1,0,0:0:0:0:
256,192,38752,1,0,0:0:0:0:
256,192,38902,1,8,0:0:0:0:
256,192,39802,1,12,0:0:0:0:
256,192,40102,1,0,0:0:0:0:
256,192,40252,1,8,0:0:0:0:
256,192,40402,1,0,0:0:0:0:
256,192,40552,1,8,0:0:0:0:
256,192,40627,1,8,0:0:0:0:
256,192,40702,1,8,0:0:0:0:
256,192,40852,1,0,0:0:0:0:
256,192,41002,1,8,0:0:0:0:
256,192,41152,1,8,0:0:0:0:
256,192,41302,1,0,0:0:0:0:
256,192,41452,1,8,0:0:0:0:
256,192,41527,1,8,0:0:0:0:
256,192,41602,1,8,0:0:0:0:
256,192,41752,1,0,0:0:0:0:
256,192,41902,1,8,0:0:0:0:
256,192,42352,1,0,0:0:0:0:
256,192,42502,1,8,0:0:0:0:
256,192,42652,1,0,0:0:0:0:
256,192,42802,1,8,0:0:0:0:
256,192,42952,1,0,0:0:0:0:
256,192,43027,1,0,0:0:0:0:
256,192,43102,1,0,0:0:0:0:
256,192,43252,1,8,0:0:0:0:
256,192,43402,1,8,0:0:0:0:
256,192,43552,1,0,0:0:0:0:
256,192,43702,1,8,0:0:0:0:
256,192,43852,1,0,0:0:0:0:
256,192,44002,1,8,0:0:0:0:
256,192,44077,1,8,0:0:0:0:
256,192,44152,1,8,0:0:0:0:
256,192,44302,1,0,0:0:0:0:
256,192,44452,1,0,0:0:0:0:
256,192,44602,1,8,0:0:0:0:
256,192,44677,1,8,0:0:0:0:
256,192,44752,1,8,0:0:0:0:
256,192,44902,1,0,0:0:0:0:
256,192,45052,1,8,0:0:0:0:
256,192,45202,1,0,0:0:0:0:
256,192,45352,1,8,0:0:0:0:
256,192,45652,1,0,0:0:0:0:
256,192,45802,1,8,0:0:0:0:
256,192,45877,1,8,0:0:0:0:
256,192,45952,1,8,0:0:0:0:
256,192,46102,1,0,0:0:0:0:
256,192,46252,1,8,0:0:0:0:
256,192,46402,1,0,0:0:0:0:
256,192,46477,1,0,0:0:0:0:
256,192,46552,1,0,0:0:0:0:
256,192,46702,1,8,0:0:0:0:
256,192,47152,1,0,0:0:0:0:
256,192,47302,1,8,0:0:0:0:
256,192,47452,1,0,0:0:0:0:
256,192,47602,1,8,0:0:0:0:
256,192,47677,1,8,0:0:0:0:
256,192,47752,1,8,0:0:0:0:
256,192,47902,1,0,0:0:0:0:
256,192,48052,1,0,0:0:0:0:
256,192,48202,1,8,0:0:0:0:
256,192,48352,1,0,0:0:0:0:
256,192,48427,1,0,0:0:0:0:
256,192,48502,1,0,0:0:0:0:
256,192,48652,1,8,0:0:0:0:
256,192,48802,1,0,0:0:0:0:
256,192,48952,1,8,0:0:0:0:
256,192,49102,1,0,0:0:0:0:
256,192,49252,1,8,0:0:0:0:
256,192,49402,1,0,0:0:0:0:
256,192,49477,1,0,0:0:0:0:
256,192,49552,1,0,0:0:0:0:
256,192,49702,1,8,0:0:0:0:
256,192,50002,1,8,0:0:0:0:
256,192,50152,1,8,0:0:0:0:
256,192,50302,1,0,0:0:0:0:
256,192,50452,1,8,0:0:0:0:
256,192,50602,1,0,0:0:0:0:
256,192,50752,1,8,0:0:0:0:
256,192,50902,1,0,0:0:0:0:
256,192,50977,1,0,0:0:0:0:
256,192,51052,1,0,0:0:0:0:
256,192,51202,1,8,0:0:0:0:
256,192,51352,1,8,0:0:0:0:
256,192,51802,1,8,0:0:0:0:
256,192,51952,1,0,0:0:0:0:
256,192,52252,1,0,0:0:0:0:
256,192,52402,1,8,0:0:0:0:
256,192,52552,1,0,0:0:0:0:
256,192,52702,1,8,0:0:0:0:
256,192,52852,1,0,0:0:0:0:
256,192,53002,1,8,0:0:0:0:
256,192,53152,1,0,0:0:0:0:
256,192,53227,1,0,0:0:0:0:
256,192,53302,1,0,0:0:0:0:
256,192,53452,1,8,0:0:0:0:
256,192,53602,1,0,0:0:0:0:
256,192,53752,1,0,0:0:0:0:
256,192,53902,1,8,0:0:0:0:
256,192,54052,1,0,0:0:0:0:
256,192,54202,1,8,0:0:0:0:
256,192,54277,1,8,0:0:0:0:
256,192,54352,1,8,0:0:0:0:
256,192,54502,1,0,0:0:0:0:
256,192,54802,1,8,0:0:0:0:
256,192,55102,1,8,0:0:0:0:
256,192,55252,1,0,0:0:0:0:
256,192,55402,1,8,0:0:0:0:
256,192,55552,1,0,0:0:0:0:
256,192,55702,1,8,0:0:0:0:
256,192,55777,1,8,0:0:0:0:
256,192,55852,1,8,0:0:0:0:
256,192,56002,1,0,0:0:0:0:
256,192,56152,1,8,0:0:0:0:
256,192,56602,1,8,0:0:0:0:
256,192,56752,1,8,0:0:0:0:
256,192,56902,1,0,0:0:0:0:
256,192,57052,1,0,0:0:0:0:
256,192,57202,1,8,0:0:0:0:
256,192,57502,1,8,0:0:0:0:
256,192,57652,1,0,0:0:0:0:
256,192,57802,1,8,0:0:0:0:
256,192,57877,1,8,0:0:0:0:
256,192,57952,1,8,0:0:0:0:
256,192,58102,1,0,0:0:0:0:
256,192,58252,1,0,0:0:0:0:
256,192,58402,1,8,0:0:0:0:
256,192,58552,1,0,0:0:0:0:
256,192,58702,1,8,0:0:0:0:
256,192,58777,1,8,0:0:0:0:
256,192,58852,1,8,0:0:0:0:
256,192,59002,1,0,0:0:0:0:
256,192,59077,1,0,0:0:0:0:
256,192,59152,1,0,0:0:0:0:
256,192,59302,1,8,0:0:0:0:
256,192,59752,1,0,0:0:0:0:
256,192,59902,1,8,0:0:0:0:
256,192,60127,1,0,0:0:0:0:
256,192,60352,1,8,0:0:0:0:
256,192,60502,1,8,0:0:0:0:
256,192,60727,1,0,0:0:0:0:
256,192,60952,1,8,0:0:0:0:
256,192,61102,1,0,0:0:0:0:
256,192,61327,1,8,0:0:0:0:
256,192,61552,1,0,0:0:0:0:
256,192,61702,1,8,0:0:0:0:
256,192,62152,1,0,0:0:0:0:
256,192,62302,1,8,0:0:0:0:
256,192,62602,1,8,0:0:0:0:
256,192,62752,1,0,0:0:0:0:
256,192,62902,1,8,0:0:0:0:
256,192,63202,1,8,0:0:0:0:
256,192,63352,1,0,0:0:0:0:
256,192,63502,1,8,0:0:0:0:
256,192,63577,1,8,0:0:0:0:
256,192,63652,1,8,0:0:0:0:
256,192,63802,1,0,0:0:0:0:
256,192,63952,1,8,0:0:0:0:
256,192,64102,1,0,0:0:0:0:
256,192,64252,1,0,0:0:0:0:
256,192,64402,1,0,0:0:0:0:
256,192,64702,1,8,0:0:0:0:
256,192,64927,1,8,0:0:0:0:
256,192,65152,1,8,0:0:0:0:
256,192,65302,1,0,0:0:0:0:
256,192,65452,1,0,0:0:0:0:
256,192,65602,1,0,0:0:0:0:
256,192,65902,1,8,0:0:0:0:
256,192,66127,1,0,0:0:0:0:
256,192,66352,1,8,0:0:0:0:
256,192,66502,1,0,0:0:0:0:
256,192,66652,1,0,0:0:0:0:
256,192,66802,1,0,0:0:0:0:
256,192,67102,1,8,0:0:0:0:
256,192,67327,1,8,0:0:0:0:
256,192,67552,1,8,0:0:0:0:
256,192,67702,1,0,0:0:0:0:
256,192,67852,1,0,0:0:0:0:
256,192,68002,1,0,0:0:0:0:
256,192,68302,1,8,0:0:0:0:
256,192,68752,1,8,0:0:0:0:
256,192,68902,1,0,0:0:0:0:
256,192,69052,1,0,0:0:0:0:
256,192,69202,1,0,0:0:0:0:
256,192,69502,1,8,0:0:0:0:
256,192,69727,1,8,0:0:0:0:
256,192,69952,1,8,0:0:0:0:
256,192,70102,1,0,0:0:0:0:
256,192,70252,1,0,0:0:0:0:
256,192,70402,1,0,0:0:0:0:
256,192,70702,1,8,0:0:0:0:
256,192,70927,1,0,0:0:0:0:
256,192,71152,1,8,0:0:0:0:
256,192,71302,1,0,0:0:0:0:
256,192,71602,1,8,0:0:0:0:
256,192,71752,1,0,0:0:0:0:
256,192,71902,1,8,0:0:0:0:
256,192,71977,1,8,0:0:0:0:
256,192,72052,1,8,0:0:0:0:
256,192,72202,1,0,0:0:0:0:
256,192,72277,1,0,0:0:0:0:
256,192,72352,1,0,0:0:0:0:
256,192,72502,1,8,0:0:0:0:
256,192,73402,1,12,0:0:0:0:
256,192,73702,1,0,0:0:0:0:
256,192,74002,1,8,0:0:0:0:
256,192,74152,1,0,0:0:0:0:
256,192,74302,1,8,0:0:0:0:
256,192,74452,1,8,0:0:0:0:
256,192,74602,1,0,0:0:0:0:
256,192,74752,1,8,0:0:0:0:
256,192,74902,1,0,0:0:0:0:
256,192,74977,1,0,0:0:0:0:
256,192,75052,1,0,0:0:0:0:
256,192,75202,1,8,0:0:0:0:
256,192,75352,1,0,0:0:0:0:
256,192,75502,1,8,0:0:0:0:
256,192,75577,1,8,0:0:0:0:
256,192,75652,1,8,0:0:0:0:
256,192,75802,1,0,0:0:0:0:
256,192,75952,1,0,0:0:0:0:
256,192,76102,1,8,0:0:0:0:
256,192,76402,1,8,0:0:0:0:
256,192,76552,1,0,0:0:0:0:
256,192,76702,1,8,0:0:0:0:
256,192,76852,1,8,0:0:0:0:
256,192,77002,1,0,0:0:0:0:
256,192,77152,1,8,0:0:0:0:
256,192,77302,1,0,0:0:0:0:
256,192,77452,1,0,0:0:0:0:
256,192,77602,1,8,0:0:0:0:
256,192,77752,1,0,0:0:0:0:
256,192,77902,1,8,0:0:0:0:
256,192,77977,1,8,0:0:0:0:
256,192,78052,1,8,0:0:0:0:
256,192,78202,1,0,0:0:0:0:
256,192,78277,1,0,0:0:0:0:
256,192,78352,1,0,0:0:0:0:
256,192,78502,1,8,0:0:0:0:
256,192,78652,1,0,0:0:0:0:
256,192,78802,1,8,0:0:0:0:
256,192,79102,1,0,0:0:0:0:
256,192,79552,1,8,0:0:0:0:
256,192,79702,1,0,0:0:0:0:
256,192,79852,1,8,0:0:0:0:
256,192,80002,1,0,0:0:0:0:
256,192,80077,1,0,0:0:0:0:
256,192,80152,1,0,0:0:0:0:
256,192,80302,1,8,0:0:0:0:
256,192,80452,1,8,0:0:0:0:
256,192,80602,1,0,0:0:0:0:
256,192,80752,1,0,0:0:0:0:
256,192,80902,1,8,0:0:0:0:
256,192,81202,1,8,0:0:0:0:
256,192,81352,1,8,0:0:0:0:
256,192,81502,1,0,0:0:0:0:
256,192,81652,1,8,0:0:0:0:
256,192,81802,1,0,0:0:0:0:
256,192,81952,1,0,0:0:0:0:
256,192,82102,1,8,0:0:0:0:
256,192,82252,1,0,0:0:0:0:
256,192,82327,1,0,0:0:0:0:
256,192,82402,1,0,0:0:0:0:
256,192,82552,1,8,0:0:0:0:
256,192,82702,1,0,0:0:0:0:
256,192,83002,1,12,0:0:0:0:
256,192,83302,1,4,0:0:0:0:
256,192,84502,1,4,0:0:0:0:
256,192,85552,1,4,0:0:0:0:
256,192,85702,1,4,0:0:0:0:
256,192,86902,1,0,0:0:0:0:
256,192,87052,1,0,0:0:0:0:
256,192,87202,1,0,0:0:0:0:
256,192,87427,1,0,0:0:0:0:
256,192,87802,1,0,0:0:0:0:
256,192,88102,1,12,0:0:0:0:
256,192,88552,1,0,0:0:0:0:
256,192,88702,1,8,0:0:0:0:
256,192,88852,1,0,0:0:0:0:
256,192,89002,1,8,0:0:0:0:
256,192,89077,1,8,0:0:0:0:
256,192,89152,1,8,0:0:0:0:
256,192,89302,1,0,0:0:0:0:
256,192,89602,1,8,0:0:0:0:
256,192,89752,1,0,0:0:0:0:
256,192,89902,1,8,0:0:0:0:
256,192,90052,1,8,0:0:0:0:
256,192,90202,1,0,0:0:0:0:
256,192,90277,1,0,0:0:0:0:
256,192,90352,1,0,0:0:0:0:
256,192,90502,1,8,0:0:0:0:
256,192,90652,1,0,0:0:0:0:
256,192,90802,1,8,0:0:0:0:
256,192,90952,1,0,0:0:0:0:
256,192,91102,1,8,0:0:0:0:
256,192,91327,1,0,0:0:0:0:
256,192,91552,1,8,0:0:0:0:
256,192,91852,1,8,0:0:0:0:
256,192,92002,1,0,0:0:0:0:
256,192,92077,1,0,0:0:0:0:
256,192,92152,1,0,0:0:0:0:
256,192,92302,1,8,0:0:0:0:
256,192,92452,1,8,0:0:0:0:
256,192,92602,1,0,0:0:0:0:
256,192,92902,1,8,0:0:0:0:
256,192,93202,1,8,0:0:0:0:
256,192,93502,1,0,0:0:0:0:
256,192,93652,1,0,0:0:0:0:
256,192,93802,1,8,0:0:0:0:
256,192,93952,1,0,0:0:0:0:
256,192,94027,1,0,0:0:0:0:
256,192,94102,1,0,0:0:0:0:
256,192,94252,1,8,0:0:0:0:
256,192,94402,1,0,0:0:0:0:
256,192,94552,1,8,0:0:0:0:
256,192,94852,1,8,0:0:0:0:
256,192,95002,1,8,0:0:0:0:
256,192,95152,1,0,0:0:0:0:
256,192,95302,1,8,0:0:0:0:
256,192,95602,1,8,0:0:0:0:
256,192,95752,1,0,0:0:0:0:
256,192,95902,1,8,0:0:0:0:
256,192,96202,1,0,0:0:0:0:
256,192,96352,1,0,0:0:0:0:
256,192,96502,1,8,0:0:0:0:
256,192,96652,1,0,0:0:0:0:
256,192,96727,1,0,0:0:0:0:
256,192,96802,1,0,0:0:0:0:
256,192,96952,1,8,0:0:0:0:
256,192,97252,1,8,0:0:0:0:
256,192,97402,1,0,0:0:0:0:
256,192,97552,1,8,0:0:0:0:
256,192,97702,1,4,0:0:0:0:
256,192,98752,1,4,0:0:0:0:
256,192,98902,1,4,0:0:0:0:
256,192,99427,1,8,0:0:0:0:
256,192,99652,1,8,0:0:0:0:
256,192,99802,1,0,0:0:0:0:
256,192,99952,1,8,0:0:0:0:
256,192,100102,1,0,0:0:0:0:
256,192,100402,1,8,0:0:0:0:
256,192,100552,1,0,0:0:0:0:
256,192,100702,1,8,0:0:0:0:
256,192,100777,1,8,0:0:0:0:
256,192,100852,1,8,0:0:0:0:
256,192,101002,1,0,0:0:0:0:
256,192,101077,1,0,0:0:0:0:
256,192,101152,1,0,0:0:0:0:
256,192,101302,1,8,0:0:0:0:
256,192,102202,1,8,0:0:0:0:
256,192,102502,1,4,0:0:0:0:
256,192,102802,1,8,0:0:0:0:
256,192,102952,1,0,0:0:0:0:
256,192,103252,1,0,0:0:0:0:
256,192,103402,1,8,0:0:0:0:
256,192,103552,1,0,0:0:0:0:
256,192,103627,1,0,0:0:0:0:
256,192,103702,1,0,0:0:0:0:
256,192,103852,1,8,0:0:0:0:
256,192,104002,1,0,0:0:0:0:
256,192,104152,1,8,0:0:0:0:
256,192,104452,1,0,0:0:0:0:
256,192,104602,1,8,0:0:0:0:
256,192,104752,1,8,0:0:0:0:
256,192,104902,1,0,0:0:0:0:
256,192,104977,1,0,0:0:0:0:
256,192,105052,1,0,0:0:0:0:
256,192,105202,1,8,0:0:0:0:
256,192,105502,1,8,0:0:0:0:
256,192,105652,1,8,0:0:0:0:
256,192,105802,1,0,0:0:0:0:
256,192,105952,1,8,0:0:0:0:
256,192,106102,1,0,0:0:0:0:
256,192,106402,1,8,0:0:0:0:
256,192,106552,1,0,0:0:0:0:
256,192,106702,1,8,0:0:0:0:
256,192,106852,1,0,0:0:0:0:
256,192,107002,1,8,0:0:0:0:
256,192,107077,1,8,0:0:0:0:
256,192,107152,1,8,0:0:0:0:
256,192,107302,1,0,0:0:0:0:
256,192,107452,1,0,0:0:0:0:
256,192,107602,1,8,0:0:0:0:
256,192,107752,1,0,0:0:0:0:
256,192,108052,1,0,0:0:0:0:
256,192,108202,1,8,0:0:0:0:
256,192,108352,1,0,0:0:0:0:
256,192,108427,1,0,0:0:0:0:
256,192,108502,1,0,0:0:0:0:
256,192,108652,1,8,0:0:0:0:
256,192,108802,1,0,0:0:0:0:
256,192,108952,1,8,0:0:0:0:
256,192,109402,1,8,0:0:0:0:
256,192,109552,1,8,0:0:0:0:
256,192,109702,1,0,0:0:0:0:
256,192,109777,1,0,0:0:0:0:
256,192,109852,1,0,0:0:0:0:
256,192,110002,1,8,0:0:0:0:
256,192,110302,1,8,0:0:0:0:
256,192,110452,1,0,0:0:0:0:
256,192,110602,1,8,0:0:0:0:
256,192,110752,1,8,0:0:0:0:
256,192,110902,1,0,0:0:0:0:
256,192,111202,1,8,0:0:0:0:
256,192,111352,1,0,0:0:0:0:
256,192,111502,1,8,0:0:0:0:
256,192,111652,1,0,0:0:0:0:
256,192,111802,1,8,0:0:0:0:
256,192,111952,1,8,0:0:0:0:
256,192,112102,1,4,0:0:0:0:
256,192,112552,1,0,0:0:0:0:
256,192,112702,1,8,0:0:0:0:
256,192,112927,1,0,0:0:0:0:
256,192,113152,1,8,0:0:0:0:
256,192,113302,1,8,0:0:0:0:
256,192,113527,1,0,0:0:0:0:
256,192,113752,1,8,0:0:0:0:
256,192,113902,1,0,0:0:0:0:
256,192,114127,1,8,0:0:0:0:
256,192,114352,1,0,0:0:0:0:
256,192,114502,1,8,0:0:0:0:
256,192,114952,1,0,0:0:0:0:
256,192,115102,1,8,0:0:0:0:
256,192,115402,1,8,0:0:0:0:
256,192,115552,1,0,0:0:0:0:
256,192,115702,1,8,0:0:0:0:
256,192,116002,1,8,0:0:0:0:
256,192,116152,1,0,0:0:0:0:
256,192,116302,1,8,0:0:0:0:
256,192,116377,1,8,0:0:0:0:
256,192,116452,1,8,0:0:0:0:
256,192,116602,1,0,0:0:0:0:
256,192,116752,1,8,0:0:0:0:
256,192,116902,1,4,0:0:0:0:
256,192,117202,1,8,0:0:0:0:
256,192,117502,1,0,0:0:0:0:
256,192,117802,1,8,0:0:0:0:
256,192,117952,1,0,0:0:0:0:
256,192,118102,1,8,0:0:0:0:
256,192,118252,1,8,0:0:0:0:
256,192,118402,1,0,0:0:0:0:
256,192,118552,1,0,0:0:0:0:
256,192,118702,1,8,0:0:0:0:
256,192,118852,1,0,0:0:0:0:
256,192,118927,1,0,0:0:0:0:
256,192,119002,1,0,0:0:0:0:
256,192,119302,1,8,0:0:0:0:
256,192,119602,1,0,0:0:0:0:
256,192,119902,1,8,0:0:0:0:
256,192,120052,1,0,0:0:0:0:
256,192,120202,1,8,0:0:0:0:
256,192,120352,1,8,0:0:0:0:
256,192,120502,1,0,0:0:0:0:
256,192,120577,1,0,0:0:0:0:
256,192,120652,1,0,0:0:0:0:
256,192,120802,1,8,0:0:0:0:
256,192,120877,1,8,0:0:0:0:
256,192,120952,1,8,0:0:0:0:
256,192,121102,1,0,0:0:0:0:
256,192,121252,1,0,0:0:0:0:
256,192,121402,1,8,0:0:0:0:
256,192,121702,1,0,0:0:0:0:
256,192,122002,1,8,0:0:0:0:
256,192,122302,1,0,0:0:0:0:
256,192,122452,1,8,0:0:0:0:
256,192,122602,1,0,0:0:0:0:
256,192,122752,1,8,0:0:0:0:
256,192,122902,1,0,0:0:0:0:
256,192,122977,1,0,0:0:0:0:
256,192,123052,1,0,0:0:0:0:
256,192,123202,1,8,0:0:0:0:
256,192,123352,1,0,0:0:0:0:
256,192,123502,1,8,0:0:0:0:
256,192,123577,1,8,0:0:0:0:
256,192,123652,1,8,0:0:0:0:
256,192,123802,1,0,0:0:0:0:
256,192,124102,1,0,0:0:0:0:
256,192,124252,1,8,0:0:0:0:
256,192,124402,1,8,0:0:0:0:
256,192,124552,1,0,0:0:0:0:
256,192,124702,1,8,0:0:0:0:
256,192,124777,1,8,0:0:0:0:
256,192,124852,1,8,0:0:0:0:
256,192,125002,1,0,0:0:0:0:
256,192,125077,1,0,0:0:0:0:
256,192,125152,1,0,0:0:0:0:
256,192,125302,1,8,0:0:0:0:
256,192,126502,1,4,0:0:0:0:
256,192,127102,1,8,0:0:0:0:
256,192,127702,1,0,0:0:0:0:
256,192,128152,1,0,0:0:0:0:
256,192,128302,1,8,0:0:0:0:
256,192,128602,1,8,0:0:0:0:
256,192,128902,1,0,0:0:0:0:
256,192,129502,1,8,0:0:0:0:
256,192,130102,1,0,0:0:0:0:
256,192,130552,1,0,0:0:0:0:
256,192,130702,1,8,0:0:0:0:
256,192,131002,1,8,0:0:0:0:
256,192,131302,1,0,0:0:0:0:
256,192,131902,1,8,0:0:0:0:
256,192,132502,1,0,0:0:0:0:
256,192,132952,1,0,0:0:0:0:
256,192,133102,1,8,0:0:0:0:
256,192,133402,1,0,0:0:0:0:
256,192,133702,1,0,0:0:0:0:
256,192,134002,1,0,0:0:0:0:
256,192,134302,1,0,0:0:0:0:
256,192,134602,1,0,0:0:0:0:
256,192,134902,1,0,0:0:0:0:
256,192,135202,1,8,0:0:0:0:
256,192,135352,1,0,0:0:0:0:
256,192,135502,1,8,0:0:0:0:
256,192,135802,1,12,0:0:0:0:
256,192,136102,1,4,0:0:0:0:
256,192,136552,1,8,0:0:0:0:
256,192,136702,1,8,0:0:0:0:
256,192,137002,1,0,0:0:0:0:
256,192,137152,1,8,0:0:0:0:
256,192,137302,1,0,0:0:0:0:
256,192,137527,1,8,0:0:0:0:
256,192,137752,1,0,0:0:0:0:
256,192,137902,1,0,0:0:0:0:
256,192,138127,1,8,0:0:0:0:
256,192,138352,1,0,0:0:0:0:
256,192,138502,1,8,0:0:0:0:
256,192,138952,1,8,0:0:0:0:
256,192,139102,1,8,0:0:0:0:
256,192,139327,1,0,0:0:0:0:
256,192,139552,1,8,0:0:0:0:
256,192,139702,1,0,0:0:0:0:
256,192,139927,1,8,0:0:0:0:
256,192,140152,1,0,0:0:0:0:
256,192,140302,1,0,0:0:0:0:
256,192,140452,1,8,0:0:0:0:
256,192,140602,1,8,0:0:0:0:
256,192,140752,1,8,0:0:0:0:
256,192,140902,1,0,0:0:0:0:
256,192,141352,1,8,0:0:0:0:
256,192,141502,1,0,0:0:0:0:
256,192,141652,1,8,0:0:0:0:
256,192,141802,1,0,0:0:0:0:
256,192,141877,1,0,0:0:0:0:
256,192,141952,1,0,0:0:0:0:
256,192,142102,1,8,0:0:0:0:
256,192,142252,1,8,0:0:0:0:
256,192,142402,1,0,0:0:0:0:
256,192,142552,1,0,0:0:0:0:
256,192,142702,1,8,0:0:0:0:
256,192,142852,1,0,0:0:0:0:
256,192,142927,1,0,0:0:0:0:
256,192,143002,1,0,0:0:0:0:
256,192,143152,1,8,0:0:0:0:
256,192,143302,1,0,0:0:0:0:
256,192,143602,1,8,0:0:0:0:
256,192,143752,1,0,0:0:0:0:
256,192,143902,1,8,0:0:0:0:
256,192,143977,1,8,0:0:0:0:
256,192,144052,1,8,0:0:0:0:
256,192,144202,1,0,0:0:0:0:
256,192,144277,1,0,0:0:0:0:
256,192,144352,1,0,0:0:0:0:
256,192,144502,1,8,0:0:0:0:
256,192,145102,1,0,0:0:0:0:
256,192,145402,1,8,0:0:0:0:
256,192,145552,1,8,0:0:0:0:
256,192,145702,1,4,0:0:0:0:
256,192,146302,1,4,0:0:0:0:
256,192,146527,1,4,0:0:0:0:
256,192,146752,1,12,0:0:0:0:
256,192,147502,1,0,0:0:0:0:
256,192,147727,1,8,0:0:0:0:
256,192,148102,1,4,0:0:0:0:
256,192,148702,1,12,0:0:0:0:
256,192,149302,1,4,0:0:0:0:
256,192,149602,1,4,0:0:0:0:
256,192,149902,1,12,0:0:0:0:
256,192,150202,1,12,0:0:0:0:
256,192,150502,1,4,0:0:0:0:
256,192,150802,1,8,0:0:0:0:
256,192,151102,1,0,0:0:0:0:
256,192,151252,1,8,0:0:0:0:
256,192,151402,1,0,0:0:0:0:
256,192,151552,1,8,0:0:0:0:
256,192,151852,1,8,0:0:0:0:
256,192,152002,1,0,0:0:0:0:
256,192,152152,1,8,0:0:0:0:
256,192,152302,1,0,0:0:0:0:
256,192,152452,1,8,0:0:0:0:
256,192,152527,1,8,0:0:0:0:
256,192,152602,1,8,0:0:0:0:
256,192,152752,1,0,0:0:0:0:
256,192,152902,1,8,0:0:0:0:
256,192,153202,1,0,0:0:0:0:
256,192,153502,1,8,0:0:0:0:
256,192,153652,1,8,0:0:0:0:
256,192,153802,1,0,0:0:0:0:
256,192,153952,1,8,0:0:0:0:
256,192,154102,1,0,0:0:0:0:
256,192,154177,1,0,0:0:0:0:
256,192,154252,1,0,0:0:0:0:
256,192,154402,1,8,0:0:0:0:
256,192,154477,1,8,0:0:0:0:
256,192,154552,1,8,0:0:0:0:
256,192,154702,1,0,0:0:0:0:
256,192,155002,1,8,0:0:0:0:
256,192,155302,1,4,0:0:0:0:
256,192,155602,1,8,0:0:0:0:
256,192,155902,1,0,0:0:0:0:
256,192,156052,1,8,0:0:0:0:
256,192,156127,1,8,0:0:0:0:
256,192,156202,1,8,0:0:0:0:
256,192,156352,1,0,0:0:0:0:
256,192,156652,1,0,0:0:0:0:
256,192,156802,1,8,0:0:0:0:
256,192,156952,1,0,0:0:0:0:
256,192,157102,1,8,0:0:0:0:
256,192,157252,1,0,0:0:0:0:
256,192,157327,1,0,0:0:0:0:
256,192,157402,1,0,0:0:0:0:
256,192,157552,1,8,0:0:0:0:
256,192,157702,1,0,0:0:0:0:
256,192,158002,1,8,0:0:0:0:
256,192,158302,1,0,0:0:0:0:
256,192,158452,1,8,0:0:0:0:
256,192,158602,1,0,0:0:0:0:
256,192,158752,1,8,0:0:0:0:
256,192,158902,1,0,0:0:0:0:
256,192,159052,1,8,0:0:0:0:
256,192,159127,1,8,0:0:0:0:
256,192,159202,1,8,0:0:0:0:
256,192,159352,1,0,0:0:0:0:
256,192,159502,1,8,0:0:0:0:
256,192,159577,1,8,0:0:0:0:
256,192,159652,1,8,0:0:0:0:
256,192,160102,1,4,0:0:0:0:
256,192,160402,1,8,0:0:0:0:
256,192,160702,1,0,0:0:0:0:
256,192,160852,1,8,0:0:0:0:
256,192,160927,1,8,0:0:0:0:
256,192,161002,1,8,0:0:0:0:
256,192,161152,1,0,0:0:0:0:
256,192,161452,1,0,0:0:0:0:
256,192,161602,1,8,0:0:0:0:
256,192,161752,1,0,0:0:0:0:
256,192,161902,1,8,0:0:0:0:
256,192,162052,1,0,0:0:0:0:
256,192,162127,1,0,0:0:0:0:
256,192,162202,1,0,0:0:0:0:
256,192,162352,1,8,0:0:0:0:
256,192,162502,1,0,0:0:0:0:
256,192,162802,1,8,0:0:0:0:
256,192,163102,1,0,0:0:0:0:
256,192,163252,1,0,0:0:0:0:
256,192,163402,1,8,0:0:0:0:
256,192,163552,1,0,0:0:0:0:
256,192,163702,1,8,0:0:0:0:
256,192,163852,1,0,0:0:0:0:
256,192,163927,1,0,0:0:0:0:
256,192,164002,1,0,0:0:0:0:
256,192,164152,1,8,0:0:0:0:
256,192,164302,1,8,0:0:0:0:
256,192,164452,1,0,0:0:0:0:
256,192,164602,1,0,0:0:0:0:
256,192,164752,1,8,0:0:0:0:
256,192,164902,1,0,0:0:0:0:
256,192,165352,1,0,0:0:0:0:
256,192,165502,1,8,0:0:0:0:
256,192,165727,1,0,0:0:0:0:
256,192,165952,1,8,0:0:0:0:
256,192,166102,1,8,0:0:0:0:
256,192,166327,1,0,0:0:0:0:
256,192,166552,1,8,0:0:0:0:
256,192,166702,1,0,0:0:0:0:
256,192,166927,1,8,0:0:0:0:
256,192,167152,1,0,0:0:0:0:
256,192,167302,1,8,0:0:0:0:
256,192,167752,1,0,0:0:0:0:
256,192,167902,1,8,0:0:0:0:
256,192,168202,1,8,0:0:0:0:
256,192,168352,1,0,0:0:0:0:
256,192,168502,1,8,0:0:0:0:
256,192,168802,1,8,0:0:0:0:
256,192,168952,1,0,0:0:0:0:
256,192,169102,1,8,0:0:0:0:
256,192,169177,1,8,0:0:0:0:
256,192,169252,1,8,0:0:0:0:
256,192,169402,1,0,0:0:0:0:
256,192,169552,1,8,0:0:0:0:
256,192,169702,1,0,0:0:0:0:
256,192,169852,1,0,0:0:0:0:
256,192,170002,1,0,0:0:0:0:
256,192,170302,1,8,0:0:0:0:
256,192,170527,1,8,0:0:0:0:
256,192,170752,1,8,0:0:0:0:
256,192,170902,1,0,0:0:0:0:
256,192,171052,1,0,0:0:0:0:
256,192,171202,1,0,0:0:0:0:
256,192,171502,1,8,0:0:0:0:
256,192,171727,1,0,0:0:0:0:
256,192,171952,1,8,0:0:0:0:
256,192,172102,1,0,0:0:0:0:
256,192,172252,1,0,0:0:0:0:
256,192,172402,1,0,0:0:0:0:
256,192,172702,1,8,0:0:0:0:
256,192,172927,1,8,0:0:0:0:
256,192,173152,1,8,0:0:0:0:
256,192,173302,1,0,0:0:0:0:
256,192,173452,1,0,0:0:0:0:
256,192,173602,1,0,0:0:0:0:
256,192,173902,1,8,0:0:0:0:
256,192,174352,1,8,0:0:0:0:
256,192,174502,1,0,0:0:0:0:
256,192,174652,1,0,0:0:0:0:
256,192,174802,1,0,0:0:0:0:
256,192,175102,1,8,0:0:0:0:
256,192,175327,1,8,0:0:0:0:
256,192,175552,1,8,0:0:0:0:
256,192,175702,1,0,0:0:0:0:
256,192,175852,1,0,0:0:0:0:
256,192,176002,1,0,0:0:0:0:
256,192,176302,1,8,0:0:0:0:
256,192,176527,1,0,0:0:0:0:
256,192,176752,1,8,0:0:0:0:
256,192,176902,1,0,0:0:0:0:
256,192,177202,1,8,0:0:0:0:
256,192,177352,1,0,0:0:0:0:
256,192,177502,1,8,0:0:0:0:
256,192,177577,1,8,0:0:0:0:
256,192,177652,1,8,0:0:0:0:
256,192,177802,1,0,0:0:0:0:
256,192,177877,1,0,0:0:0:0:
256,192,177952,1,0,0:0:0:0:
256,192,178102,1,8,0:0:0:0:
256,192,179002,1,8,0:0:0:0:
256,192,179302,1,4,0:0:0:0:
256,192,179602,1,4,0:0:0:0:
256,192,179902,1,12,0:0:0:0:
256,192,180202,1,12,0:0:0:0:
256,192,180502,1,4,0:0:0:0:
256,192,181027,1,8,0:0:0:0:
256,192,181177,1,0,0:0:0:0:
256,192,181327,1,8,0:0:0:0:
256,192,181552,1,8,0:0:0:0:
256,192,181702,8,0,182602,0:0:0:0:
254,189,182902,5,4,0:0:0:0:
