osu file format v14

[General]
AudioFilename: audio.mp3
AudioLeadIn: 0
PreviewTime: 103158
Countdown: 0
SampleSet: Normal
StackLeniency: 0.7
Mode: 1
LetterboxInBreaks: 0
WidescreenStoryboard: 1

[Editor]
DistanceSpacing: 2.8
BeatDivisor: 2
GridSize: 32
TimelineZoom: 2

[Metadata]
Title:Urushi
TitleUnicode:漆
Artist:katagiri
ArtistUnicode:かたぎり
Creator:WTHBRO
Version:Muzukashii
Source:
Tags:electronic instrumental oriental 世界の合言葉はかたぎり miso-nicomi records MISO-017 うるし SFES2019 J-core 新発売!鬱ハンドスピナー寿司の怪 with 指定暴力団
BeatmapID:2224762
BeatmapSetID:1061593

[Difficulty]
HPDrainRate:6
CircleSize:5
OverallDifficulty:5
ApproachRate:5
SliderMultiplier:1.4
SliderTickRate:1

[Events]
//Background and Video events
0,0,"urushi.jpg",0,0
//Break Periods
//Storyboard Layer 0 (Background)
//Storyboard Layer 1 (Fail)
//Storyboard Layer 2 (Pass)
//Storyboard Layer 3 (Foreground)
//Storyboard Layer 4 (Overlay)
//Storyboard Sound Samples

[TimingPoints]
1145,289.855072463768,4,1,0,70,1,0
3318,-100,4,1,0,80,0,0
5782,-111.111111111111,4,1,0,70,0,0
8101,-100,4,1,0,80,0,0
15058,-111.111111111111,4,1,0,70,0,0
17087,-100,4,1,0,80,0,0
42884,-90.9090909090909,4,1,0,80,0,1
52159,-100,4,1,0,80,0,0
61434,-100,4,1,0,70,0,0
89260,-90.9090909090909,4,1,0,80,0,1
98536,-100,4,1,0,70,0,0
107811,-100,4,1,0,80,0,1
117087,-100,4,1,0,70,0,0
119405,-100,4,1,0,80,0,1
128681,-100,4,1,0,80,0,0

[HitObjects]
288,160,3318,5,0,0:0:0:0:
288,160,3463,1,8,0:0:0:0:
288,160,3681,1,8,0:0:0:0:
288,160,3898,1,0,0:0:0:0:
288,160,4043,1,8,0:0:0:0:
288,160,4260,1,8,0:0:0:0:
288,160,4478,1,0,0:0:0:0:
288,160,4623,1,0,0:0:0:0:
288,160,4768,1,8,0:0:0:0:
288,160,4913,1,8,0:0:0:0:
288,160,5058,1,0,0:0:0:0:
288,160,5202,1,8,0:0:0:0:
288,160,5492,1,8,0:0:0:0:
288,160,5782,1,4,0:0:0:0:
288,160,6942,1,0,0:0:0:0:
288,160,7376,1,0,0:0:0:0:
288,160,7666,1,8,0:0:0:0:
288,160,7811,1,8,0:0:0:0:
288,160,8101,1,4,0:0:0:0:
288,160,8318,1,8,0:0:0:0:
288,160,8536,1,8,0:0:0:0:
288,160,8681,1,8,0:0:0:0:
288,160,8826,1,8,0:0:0:0:
288,160,8971,1,0,0:0:0:0:
288,160,9260,1,0,0:0:0:0:
288,160,9478,1,0,0:0:0:0:
288,160,9695,1,8,0:0:0:0:
288,160,9840,1,8,0:0:0:0:
288,160,10420,1,4,0:0:0:0:
288,160,10637,1,0,0:0:0:0:
288,160,10855,1,0,0:0:0:0:
288,160,11000,1,8,0:0:0:0:
288,160,11289,1,8,0:0:0:0:
288,160,11362,1,8,0:0:0:0:
288,160,11434,1,8,0:0:0:0:
288,160,11579,1,8,0:0:0:0:
288,160,11724,1,8,0:0:0:0:
288,160,11869,1,8,0:0:0:0:
288,160,12014,1,0,0:0:0:0:
288,160,12159,1,0,0:0:0:0:
288,160,12304,1,8,0:0:0:0:
288,160,12449,1,8,0:0:0:0:
288,160,12739,1,0,0:0:0:0:
288,160,12956,1,0,0:0:0:0:
288,160,13173,1,8,0:0:0:0:
288,160,13318,1,8,0:0:0:0:
288,160,13463,1,8,0:0:0:0:
288,160,13608,1,0,0:0:0:0:
288,160,13898,1,0,0:0:0:0:
288,160,14116,1,0,0:0:0:0:
288,160,14333,1,8,0:0:0:0:
288,160,14478,1,0,0:0:0:0:
288,160,14623,1,8,0:0:0:0:
288,160,14768,1,8,0:0:0:0:
288,160,15058,1,4,0:0:0:0:
288,160,15637,1,8,0:0:0:0:
288,160,16217,1,0,0:0:0:0:
288,160,16434,1,0,0:0:0:0:
288,160,16652,1,0,0:0:0:0:
288,160,16797,1,8,0:0:0:0:
288,160,17087,1,8,0:0:0:0:
288,160,17231,1,8,0:0:0:0:
288,160,17376,1,4,0:0:0:0:
288,160,17594,1,8,0:0:0:0:
288,160,17811,1,8,0:0:0:0:
288,160,17956,1,8,0:0:0:0:
288,160,18101,1,8,0:0:0:0:
288,160,18246,1,0,0:0:0:0:
288,160,18536,1,0,0:0:0:0:
288,160,18753,1,0,0:0:0:0:
288,160,18971,1,8,0:0:0:0:
288,160,19116,1,8,0:0:0:0:
288,160,19405,1,8,0:0:0:0:
288,160,19478,1,8,0:0:0:0:
288,160,19550,1,8,0:0:0:0:
288,160,19695,1,4,0:0:0:0:
288,160,19985,1,0,0:0:0:0:
288,160,20130,1,0,0:0:0:0:
288,160,20275,1,8,0:0:0:0:
288,160,20565,1,0,0:0:0:0:
288,160,20637,1,0,0:0:0:0:
288,160,20710,1,0,0:0:0:0:
288,160,20855,1,12,0:0:0:0:
288,160,21144,1,0,0:0:0:0:
288,160,21434,1,0,0:0:0:0:
288,160,21579,1,8,0:0:0:0:
288,160,21724,1,8,0:0:0:0:
288,160,21869,1,8,0:0:0:0:
288,160,22014,1,12,0:0:0:0:
288,160,22594,1,12,0:0:0:0:
288,160,23173,1,12,0:0:0:0:
288,160,23463,1,12,0:0:0:0:
288,160,23608,1,12,0:0:0:0:
288,160,23753,1,12,0:0:0:0:
288,160,24043,1,0,0:0:0:0:
288,160,24333,1,12,0:0:0:0:
288,160,24478,1,8,0:0:0:0:
288,160,24550,1,8,0:0:0:0:
288,160,24623,1,8,0:0:0:0:
288,160,24913,1,8,0:0:0:0:
288,160,25058,1,8,0:0:0:0:
288,160,25130,1,8,0:0:0:0:
288,160,25202,1,8,0:0:0:0:
288,160,25492,1,8,0:0:0:0:
288,160,25637,1,8,0:0:0:0:
288,160,25710,1,8,0:0:0:0:
288,160,25782,1,8,0:0:0:0:
288,160,26072,1,8,0:0:0:0:
288,160,26507,1,0,0:0:0:0:
288,160,26652,1,8,0:0:0:0:
288,160,26797,1,8,0:0:0:0:
288,160,26869,1,8,0:0:0:0:
288,160,26942,1,8,0:0:0:0:
288,160,27231,1,8,0:0:0:0:
288,160,27376,1,8,0:0:0:0:
288,160,27449,1,8,0:0:0:0:
288,160,27521,1,8,0:0:0:0:
288,160,27811,1,8,0:0:0:0:
288,160,27956,1,8,0:0:0:0:
288,160,28029,1,8,0:0:0:0:
288,160,28101,1,8,0:0:0:0:
288,160,28391,1,0,0:0:0:0:
288,160,28681,1,0,0:0:0:0:
288,160,28971,1,8,0:0:0:0:
288,160,29116,1,8,0:0:0:0:
288,160,29188,1,8,0:0:0:0:
288,160,29260,1,8,0:0:0:0:
288,160,29550,1,8,0:0:0:0:
288,160,29695,1,8,0:0:0:0:
288,160,29768,1,8,0:0:0:0:
288,160,29840,1,8,0:0:0:0:
288,160,30130,1,8,0:0:0:0:
288,160,30275,1,8,0:0:0:0:
288,160,30347,1,8,0:0:0:0:
288,160,30420,1,8,0:0:0:0:
288,160,30710,1,0,0:0:0:0:
288,160,30855,1,8,0:0:0:0:
288,160,31000,1,8,0:0:0:0:
288,160,31289,1,4,0:0:0:0:
288,160,31724,1,0,0:0:0:0:
288,160,31869,1,12,0:0:0:0:
288,160,32304,1,0,0:0:0:0:
288,160,32449,1,4,0:0:0:0:
288,160,32739,1,8,0:0:0:0:
288,160,32884,1,0,0:0:0:0:
288,160,33029,1,8,0:0:0:0:
288,160,33318,1,0,0:0:0:0:
288,160,33608,1,12,0:0:0:0:
288,160,33753,1,8,0:0:0:0:
288,160,33826,1,8,0:0:0:0:
288,160,33898,1,8,0:0:0:0:
288,160,34188,1,8,0:0:0:0:
288,160,34333,1,8,0:0:0:0:
288,160,34405,1,8,0:0:0:0:
288,160,34478,1,8,0:0:0:0:
288,160,34768,1,8,0:0:0:0:
288,160,34913,1,0,0:0:0:0:
288,160,35058,1,0,0:0:0:0:
288,160,35202,1,8,0:0:0:0:
288,160,35347,1,0,0:0:0:0:
288,160,35927,1,8,0:0:0:0:
288,160,36072,1,8,0:0:0:0:
288,160,36144,1,8,0:0:0:0:
288,160,36217,1,8,0:0:0:0:
288,160,36507,1,8,0:0:0:0:
288,160,36652,1,8,0:0:0:0:
288,160,36724,1,8,0:0:0:0:
288,160,36797,1,8,0:0:0:0:
288,160,37087,1,0,0:0:0:0:
288,160,37231,1,0,0:0:0:0:
288,160,37376,1,0,0:0:0:0:
288,160,37666,1,8,0:0:0:0:
288,160,37811,1,8,0:0:0:0:
288,160,37956,1,12,0:0:0:0:
288,160,38246,1,8,0:0:0:0:
288,160,38391,1,8,0:0:0:0:
288,160,38463,1,8,0:0:0:0:
288,160,38536,1,8,0:0:0:0:
288,160,38826,1,8,0:0:0:0:
288,160,38971,1,8,0:0:0:0:
288,160,39043,1,8,0:0:0:0:
288,160,39116,1,8,0:0:0:0:
288,160,39405,1,8,0:0:0:0:
288,160,39550,1,8,0:0:0:0:
288,160,39623,1,8,0:0:0:0:
288,160,39695,1,8,0:0:0:0:
288,160,39985,1,0,0:0:0:0:
288,160,40130,1,0,0:0:0:0:
288,160,40275,1,8,0:0:0:0:
288,160,40420,1,8,0:0:0:0:
288,160,40565,1,4,0:0:0:0:
288,160,41000,1,0,0:0:0:0:
288,160,41144,1,12,0:0:0:0:
288,160,41579,1,0,0:0:0:0:
288,160,41724,1,12,0:0:0:0:
288,160,42014,1,12,0:0:0:0:
288,160,42304,1,4,0:0:0:0:
288,160,42594,1,4,0:0:0:0:
288,160,42884,1,12,0:0:0:0:
288,160,43318,1,0,0:0:0:0:
288,160,43463,1,8,0:0:0:0:
288,160,43753,1,0,0:0:0:0:
288,160,43898,1,8,0:0:0:0:
288,160,44043,1,0,0:0:0:0:
288,160,44188,1,8,0:0:0:0:
288,160,44333,1,0,0:0:0:0:
288,160,44623,1,8,0:0:0:0:
288,160,44913,1,8,0:0:0:0:
288,160,44985,1,8,0:0:0:0:
288,160,45058,1,8,0:0:0:0:
288,160,45202,1,0,0:0:0:0:
288,160,45492,1,8,0:0:0:0:
288,160,45637,1,0,0:0:0:0:
288,160,45782,1,8,0:0:0:0:
288,160,46072,1,0,0:0:0:0:
288,160,46217,1,8,0:0:0:0:
288,160,46362,1,8,0:0:0:0:
288,160,46507,1,0,0:0:0:0:
288,160,46652,1,8,0:0:0:0:
288,160,46797,1,8,0:0:0:0:
288,160,46942,1,0,0:0:0:0:
288,160,47087,1,0,0:0:0:0:
288,160,47231,1,12,0:0:0:0:
288,160,47521,1,4,0:0:0:0:
288,160,47956,1,0,0:0:0:0:
288,160,48101,1,8,0:0:0:0:
288,160,48391,1,0,0:0:0:0:
288,160,48681,1,0,0:0:0:0:
288,160,48753,1,0,0:0:0:0:
288,160,48826,1,0,0:0:0:0:
288,160,48971,1,8,0:0:0:0:
288,160,49260,1,8,0:0:0:0:
288,160,49405,1,0,0:0:0:0:
288,160,49550,1,8,0:0:0:0:
288,160,49840,1,0,0:0:0:0:
288,160,49985,1,0,0:0:0:0:
288,160,50130,1,0,0:0:0:0:
288,160,50420,1,0,0:0:0:0:
288,160,50710,1,0,0:0:0:0:
288,160,51000,1,8,0:0:0:0:
288,160,51289,1,0,0:0:0:0:
288,160,51579,1,8,0:0:0:0:
288,160,51724,1,8,0:0:0:0:
288,160,51869,1,8,0:0:0:0:
288,160,52159,1,4,0:0:0:0:
288,160,52739,1,8,0:0:0:0:
288,160,53029,1,8,0:0:0:0:
288,160,53173,1,8,0:0:0:0:
288,160,53318,1,0,0:0:0:0:
288,160,53753,1,0,0:0:0:0:
288,160,53898,1,8,0:0:0:0:
288,160,54188,1,0,0:0:0:0:
288,160,54260,1,0,0:0:0:0:
288,160,54333,1,0,0:0:0:0:
288,160,54478,1,8,0:0:0:0:
288,160,55058,1,8,0:0:0:0:
288,160,55637,1,0,0:0:0:0:
288,160,55782,1,8,0:0:0:0:
288,160,56072,1,0,0:0:0:0:
288,160,56217,1,8,0:0:0:0:
288,160,56797,1,4,0:0:0:0:
288,160,57087,1,8,0:0:0:0:
288,160,57231,1,0,0:0:0:0:
288,160,57376,1,8,0:0:0:0:
288,160,57666,1,8,0:0:0:0:
288,160,57956,1,0,0:0:0:0:
288,160,58246,1,0,0:0:0:0:
288,160,58391,1,0,0:0:0:0:
288,160,58536,1,8,0:0:0:0:
288,160,59116,1,0,0:0:0:0:
288,160,59550,1,0,0:0:0:0:
288,160,59695,1,8,0:0:0:0:
288,160,59985,1,0,0:0:0:0:
288,160,60130,1,0,0:0:0:0:
288,160,60275,1,8,0:0:0:0:
288,160,60492,1,0,0:0:0:0:
288,160,60710,1,0,0:0:0:0:
288,160,60855,1,8,0:0:0:0:
288,160,61144,1,0,0:0:0:0:
288,160,61217,1,0,0:0:0:0:
288,160,61289,1,0,0:0:0:0:
288,160,61434,1,0,0:0:0:0:
288,160,61724,1,8,0:0:0:0:
288,160,61869,1,0,0:0:0:0:
288,160,62014,1,8,0:0:0:0:
288,160,62449,1,0,0:0:0:0:
288,160,62594,1,8,0:0:0:0:
288,160,62739,1,8,0:0:0:0:
288,160,62884,1,0,0:0:0:0:
288,160,63029,1,0,0:0:0:0:
288,160,63173,1,8,0:0:0:0:
288,160,63391,1,8,0:0:0:0:
288,160,63608,1,8,0:0:0:0:
288,160,63753,1,0,0:0:0:0:
288,160,63898,1,0,0:0:0:0:
288,160,64043,1,8,0:0:0:0:
288,160,64333,1,8,0:0:0:0:
288,160,64478,1,0,0:0:0:0:
288,160,64623,1,8,0:0:0:0:
288,160,64913,1,0,0:0:0:0:
288,160,64985,1,0,0:0:0:0:
288,160,65058,1,0,0:0:0:0:
288,160,65202,1,8,0:0:0:0:
288,160,65492,1,8,0:0:0:0:
288,160,65782,1,12,0:0:0:0:
288,160,66072,1,4,0:0:0:0:
288,160,66652,1,8,0:0:0:0:
288,160,67087,1,0,0:0:0:0:
288,160,67231,1,8,0:0:0:0:
288,160,67376,1,0,0:0:0:0:
288,160,67521,1,0,0:0:0:0:
288,160,67666,1,0,0:0:0:0:
288,160,67811,1,8,0:0:0:0:
288,160,68029,1,8,0:0:0:0:
288,160,68246,1,8,0:0:0:0:
288,160,68391,1,0,0:0:0:0:
288,160,68971,1,8,0:0:0:0:
288,160,69405,1,0,0:0:0:0:
288,160,69550,1,4,0:0:0:0:
288,160,69840,1,4,0:0:0:0:
288,160,70130,1,12,0:0:0:0:
288,160,70275,1,12,0:0:0:0:
288,160,70420,1,12,0:0:0:0:
288,160,70710,1,4,0:0:0:0:
288,160,71000,1,8,0:0:0:0:
288,160,71144,1,0,0:0:0:0:
288,160,71289,1,8,0:0:0:0:
288,160,71579,1,0,0:0:0:0:
288,160,71724,1,8,0:0:0:0:
288,160,71869,1,8,0:0:0:0:
288,160,72159,1,8,0:0:0:0:
288,160,72304,1,8,0:0:0:0:
288,160,72449,1,0,0:0:0:0:
288,160,72739,1,0,0:0:0:0:
288,160,72884,1,0,0:0:0:0:
288,160,73029,1,8,0:0:0:0:
288,160,73173,1,0,0:0:0:0:
288,160,73318,1,8,0:0:0:0:
288,160,73608,1,8,0:0:0:0:
288,160,73826,1,8,0:0:0:0:
288,160,73898,1,8,0:0:0:0:
288,160,74043,1,8,0:0:0:0:
288,160,74188,1,0,0:0:0:0:
288,160,74478,1,0,0:0:0:0:
288,160,74623,1,8,0:0:0:0:
288,160,74768,1,0,0:0:0:0:
288,160,75347,1,0,0:0:0:0:
288,160,75637,1,0,0:0:0:0:
288,160,75782,1,8,0:0:0:0:
288,160,75855,1,8,0:0:0:0:
288,160,75927,1,8,0:0:0:0:
288,160,76217,1,0,0:0:0:0:
288,160,76507,1,8,0:0:0:0:
288,160,76652,1,0,0:0:0:0:
288,160,76797,1,8,0:0:0:0:
288,160,76942,1,8,0:0:0:0:
288,160,77087,1,8,0:0:0:0:
288,160,77376,1,0,0:0:0:0:
288,160,77521,1,8,0:0:0:0:
288,160,77666,1,0,0:0:0:0:
288,160,77811,1,0,0:0:0:0:
288,160,77956,1,8,0:0:0:0:
288,160,78246,1,0,0:0:0:0:
288,160,78536,1,8,0:0:0:0:
288,160,78826,1,4,0:0:0:0:
288,160,79116,1,12,0:0:0:0:
288,160,79405,1,4,0:0:0:0:
288,160,79695,1,0,0:0:0:0:
288,160,79840,1,0,0:0:0:0:
288,160,79985,1,8,0:0:0:0:
288,160,80565,1,0,0:0:0:0:
288,160,80855,1,8,0:0:0:0:
288,160,81000,1,0,0:0:0:0:
288,160,81072,1,0,0:0:0:0:
288,160,81144,1,0,0:0:0:0:
288,160,81362,1,8,0:0:0:0:
288,160,81579,1,8,0:0:0:0:
288,160,81724,1,0,0:0:0:0:
288,160,81869,1,0,0:0:0:0:
288,160,81942,1,0,0:0:0:0:
288,160,82014,1,0,0:0:0:0:
288,160,82159,1,8,0:0:0:0:
288,160,82304,1,8,0:0:0:0:
288,160,82594,1,8,0:0:0:0:
288,160,82884,1,8,0:0:0:0:
288,160,83029,1,8,0:0:0:0:
288,160,83173,1,0,0:0:0:0:
288,160,83318,1,8,0:0:0:0:
288,160,83391,1,8,0:0:0:0:
288,160,83753,1,8,0:0:0:0:
288,160,84043,1,0,0:0:0:0:
288,160,84116,1,0,0:0:0:0:
288,160,84188,1,0,0:0:0:0:
288,160,84333,1,0,0:0:0:0:
288,160,84478,1,8,0:0:0:0:
288,160,84623,1,8,0:0:0:0:
288,160,84913,1,8,0:0:0:0:
288,160,85202,1,0,0:0:0:0:
288,160,85492,1,0,0:0:0:0:
288,160,85637,1,8,0:0:0:0:
288,160,85710,1,8,0:0:0:0:
288,160,85782,1,8,0:0:0:0:
288,160,86000,1,8,0:0:0:0:
288,160,86217,1,8,0:0:0:0:
288,160,86362,1,0,0:0:0:0:
288,160,86652,1,8,0:0:0:0:
288,160,86797,1,8,0:0:0:0:
288,160,86942,1,0,0:0:0:0:
288,160,87087,1,0,0:0:0:0:
288,160,87231,1,0,0:0:0:0:
288,160,87376,1,8,0:0:0:0:
288,160,87594,1,8,0:0:0:0:
288,160,87811,1,0,0:0:0:0:
288,160,87956,1,8,0:0:0:0:
288,160,88101,1,0,0:0:0:0:
288,160,88246,1,8,0:0:0:0:
288,160,88391,1,0,0:0:0:0:
288,160,88536,1,0,0:0:0:0:
288,160,88681,1,8,0:0:0:0:
288,160,89260,1,4,0:0:0:0:
288,160,89478,1,0,0:0:0:0:
288,160,89695,1,8,0:0:0:0:
288,160,89840,1,0,0:0:0:0:
288,160,90058,1,0,0:0:0:0:
288,160,90420,1,0,0:0:0:0:
288,160,90637,1,8,0:0:0:0:
288,160,90710,1,8,0:0:0:0:
288,160,90855,1,8,0:0:0:0:
288,160,91000,1,8,0:0:0:0:
288,160,91579,1,0,0:0:0:0:
288,160,91797,1,0,0:0:0:0:
288,160,92014,1,0,0:0:0:0:
288,160,92159,1,8,0:0:0:0:
288,160,92376,1,8,0:0:0:0:
288,160,92739,1,8,0:0:0:0:
288,160,92956,1,8,0:0:0:0:
288,160,93173,1,0,0:0:0:0:
288,160,93318,1,8,0:0:0:0:
288,160,93898,1,0,0:0:0:0:
288,160,94188,1,0,0:0:0:0:
288,160,94260,1,0,0:0:0:0:
288,160,94333,1,0,0:0:0:0:
288,160,94478,1,8,0:0:0:0:
288,160,94695,1,0,0:0:0:0:
288,160,95058,1,0,0:0:0:0:
288,160,95275,1,0,0:0:0:0:
288,160,95492,1,8,0:0:0:0:
288,160,95637,1,8,0:0:0:0:
288,160,95855,1,8,0:0:0:0:
288,160,96217,1,0,0:0:0:0:
288,160,96362,1,0,0:0:0:0:
288,160,96434,1,0,0:0:0:0:
288,160,96507,1,0,0:0:0:0:
288,160,96797,1,0,0:0:0:0:
288,160,96869,1,0,0:0:0:0:
288,160,96942,1,0,0:0:0:0:
288,160,97087,1,0,0:0:0:0:
288,160,97376,1,0,0:0:0:0:
288,160,97521,1,8,0:0:0:0:
288,160,97594,1,8,0:0:0:0:
288,160,97666,1,8,0:0:0:0:
288,160,97811,1,8,0:0:0:0:
288,160,97956,1,8,0:0:0:0:
288,160,98246,1,12,0:0:0:0:
288,160,98536,1,4,0:0:0:0:
288,160,100565,1,0,0:0:0:0:
288,160,100855,1,0,0:0:0:0:
288,160,103173,1,0,0:0:0:0:
288,160,103753,1,0,0:0:0:0:
288,160,104333,1,0,0:0:0:0:
288,160,104913,1,0,0:0:0:0:
288,160,105492,1,0,0:0:0:0:
288,160,105782,1,0,0:0:0:0:
288,160,106072,1,0,0:0:0:0:
288,160,106144,1,0,0:0:0:0:
288,160,106217,1,0,0:0:0:0:
288,160,106362,1,8,0:0:0:0:
288,160,106434,1,8,0:0:0:0:
288,160,106507,1,8,0:0:0:0:
288,160,106797,1,12,0:0:0:0:
288,160,106942,1,12,0:0:0:0:
288,160,107087,1,4,0:0:0:0:
288,160,107231,1,12,0:0:0:0:
288,160,107811,1,4,0:0:0:0:
288,160,108029,1,8,0:0:0:0:
288,160,108246,1,8,0:0:0:0:
288,160,108391,1,8,0:0:0:0:
288,160,108681,1,0,0:0:0:0:
288,160,108826,1,8,0:0:0:0:
288,160,108971,1,8,0:0:0:0:
288,160,109116,1,0,0:0:0:0:
288,160,109188,1,0,0:0:0:0:
288,160,109260,1,0,0:0:0:0:
288,160,109550,1,0,0:0:0:0:
288,160,109840,1,0,0:0:0:0:
288,160,109985,1,8,0:0:0:0:
288,160,110130,1,0,0:0:0:0:
288,160,110347,1,0,0:0:0:0:
288,160,110565,1,0,0:0:0:0:
288,160,110710,1,8,0:0:0:0:
288,160,110855,1,0,0:0:0:0:
288,160,110927,1,0,0:0:0:0:
288,160,111000,1,0,0:0:0:0:
288,160,111289,1,8,0:0:0:0:
288,160,111434,1,0,0:0:0:0:
288,160,111579,1,8,0:0:0:0:
288,160,112159,1,8,0:0:0:0:
288,160,112304,1,0,0:0:0:0:
288,160,112449,1,0,0:0:0:0:
288,160,112666,1,0,0:0:0:0:
288,160,112884,1,0,0:0:0:0:
288,160,113029,1,8,0:0:0:0:
288,160,113318,1,8,0:0:0:0:
288,160,113391,1,8,0:0:0:0:
288,160,113463,1,8,0:0:0:0:
288,160,113608,1,8,0:0:0:0:
288,160,113826,1,0,0:0:0:0:
288,160,114043,1,8,0:0:0:0:
288,160,114188,1,8,0:0:0:0:
288,160,114333,1,0,0:0:0:0:
288,160,114478,1,8,0:0:0:0:
288,160,114768,1,0,0:0:0:0:
288,160,114985,1,0,0:0:0:0:
288,160,115202,1,0,0:0:0:0:
288,160,115347,1,8,0:0:0:0:
288,160,115637,1,0,0:0:0:0:
288,160,115782,1,8,0:0:0:0:
288,160,115855,1,8,0:0:0:0:
288,160,115927,1,8,0:0:0:0:
288,160,116144,1,8,0:0:0:0:
288,160,116362,1,8,0:0:0:0:
288,160,116507,1,8,0:0:0:0:
288,160,116724,1,0,0:0:0:0:
288,160,116942,1,0,0:0:0:0:
288,160,117087,1,4,0:0:0:0:
288,160,117666,1,8,0:0:0:0:
288,160,118246,1,0,0:0:0:0:
288,160,118681,1,0,0:0:0:0:
288,160,118826,1,8,0:0:0:0:
288,160,119116,1,8,0:0:0:0:
288,160,119260,1,0,0:0:0:0:
288,160,119405,1,12,0:0:0:0:
288,160,119623,1,8,0:0:0:0:
288,160,119695,1,8,0:0:0:0:
288,160,119840,1,0,0:0:0:0:
288,160,119985,1,8,0:0:0:0:
288,160,120130,1,8,0:0:0:0:
288,160,120275,1,8,0:0:0:0:
288,160,120565,1,8,0:0:0:0:
288,160,120710,1,8,0:0:0:0:
288,160,120782,1,8,0:0:0:0:
288,160,120855,1,8,0:0:0:0:
288,160,121144,1,8,0:0:0:0:
288,160,121434,1,0,0:0:0:0:
288,160,121579,1,0,0:0:0:0:
288,160,121724,1,8,0:0:0:0:
288,160,122014,1,0,0:0:0:0:
288,160,122159,1,8,0:0:0:0:
288,160,122304,1,8,0:0:0:0:
288,160,122449,1,8,0:0:0:0:
288,160,122521,1,8,0:0:0:0:
288,160,122594,1,8,0:0:0:0:
288,160,122884,1,8,0:0:0:0:
288,160,123029,1,0,0:0:0:0:
288,160,123101,1,0,0:0:0:0:
288,160,123173,1,0,0:0:0:0:
288,160,123318,1,8,0:0:0:0:
288,160,123463,1,0,0:0:0:0:
288,160,124043,1,0,0:0:0:0:
288,160,124188,1,0,0:0:0:0:
288,160,124260,1,0,0:0:0:0:
288,160,124405,1,8,0:0:0:0:
288,160,124478,1,8,0:0:0:0:
288,160,124623,1,8,0:0:0:0:
288,160,124913,1,8,0:0:0:0:
288,160,125058,1,0,0:0:0:0:
288,160,125202,1,8,0:0:0:0:
288,160,126072,1,8,0:0:0:0:
288,160,126217,1,0,0:0:0:0:
288,160,126362,1,0,0:0:0:0:
288,160,126579,1,0,0:0:0:0:
288,160,126797,1,0,0:0:0:0:
288,160,126942,1,0,0:0:0:0:
288,160,127087,1,8,0:0:0:0:
288,160,127159,1,8,0:0:0:0:
288,160,127231,1,8,0:0:0:0:
288,160,127521,1,0,0:0:0:0:
288,160,127666,1,0,0:0:0:0:
288,160,127739,1,0,0:0:0:0:
288,160,127811,1,0,0:0:0:0:
288,160,128101,1,0,0:0:0:0:
288,160,128173,1,0,0:0:0:0:
288,160,128246,1,0,0:0:0:0:
288,160,128391,1,8,0:0:0:0:
288,160,128681,1,12,0:0:0:0:
288,160,128898,1,8,0:0:0:0:
288,160,129116,1,0,0:0:0:0:
288,160,129260,1,8,0:0:0:0:
288,160,129478,1,8,0:0:0:0:
288,160,129695,1,0,0:0:0:0:
288,160,129840,1,8,0:0:0:0:
288,160,129985,1,8,0:0:0:0:
288,160,130058,1,8,0:0:0:0:
288,160,130130,1,8,0:0:0:0:
288,160,130420,1,8,0:0:0:0:
288,160,130855,1,0,0:0:0:0:
288,160,131000,1,8,0:0:0:0:
288,160,131217,1,8,0:0:0:0:
288,160,131434,1,0,0:0:0:0:
288,160,131579,1,8,0:0:0:0:
288,160,131797,1,8,0:0:0:0:
288,160,132014,1,0,0:0:0:0:
288,160,132159,1,8,0:0:0:0:
288,160,132304,1,8,0:0:0:0:
288,160,132376,1,8,0:0:0:0:
288,160,132449,1,8,0:0:0:0:
288,160,132739,1,8,0:0:0:0:
288,160,133029,1,0,0:0:0:0:
288,160,133318,1,4,0:0:0:0:
