osu file format v14

[General]
AudioFilename: audio.mp3
AudioLeadIn: 0
PreviewTime: 103173
Countdown: 0
SampleSet: Soft
StackLeniency: 0.7
Mode: 2
LetterboxInBreaks: 0
WidescreenStoryboard: 1

[Editor]
Bookmarks: 3463,15058,24333,33608,42884,52159,61434,70710,79985,89260,98536,107811,117087,128681,133318
DistanceSpacing: 2.8
BeatDivisor: 4
GridSize: 32
TimelineZoom: 2.899999

[Metadata]
Title:Urushi
TitleUnicode:漆
Artist:katagiri
ArtistUnicode:かたぎり
Creator:Jemzuu
Version:Salad
Source:
Tags:featured artist mappers' guild fa mg ajamez rew0825 nelly phob electronic instrumental oriental 世界の合言葉はかたぎり miso-nicomi records MISO-017 うるし SFES2019 J-core 新発売!鬱ハンドスピナー寿司の怪 with 指定暴力団 hardcore core dubstep drum and n bass dnb d&b
BeatmapID:3047731
BeatmapSetID:1482723

[Difficulty]
HPDrainRate:4
CircleSize:3
OverallDifficulty:7.2
ApproachRate:7.2
SliderMultiplier:1.4
SliderTickRate:0.5

[Events]
//Background and Video events
0,0,"0946f7fc05c8ee387f96fe0bcd2af20984948761_s2_n1.jpg",0,0
//Break Periods
2,98736,102273
//Storyboard Layer 0 (Background)
//Storyboard Layer 1 (Fail)
//Storyboard Layer 2 (Pass)
//Storyboard Layer 3 (Foreground)
//Storyboard Layer 4 (Overlay)
//Storyboard Sound Samples

[TimingPoints]
1145,289.855072463768,4,2,1,70,1,0
3463,-100,4,2,1,80,0,0
5782,-100,4,2,1,70,0,0
8101,-100,4,2,1,80,0,0
15058,-100,4,2,1,70,0,0
17087,-100,4,2,1,80,0,0
26652,-100,4,2,2,80,0,0
26724,-100,4,2,1,80,0,0
28246,-100,4,2,2,80,0,0
28318,-100,4,2,1,80,0,0
28971,-100,4,2,3,80,0,0
29043,-100,4,2,1,80,0,0
30855,-100,4,2,2,80,0,0
31072,-100,4,2,1,80,0,0
31869,-100,4,2,2,80,0,0
31942,-100,4,2,1,80,0,0
32739,-100,4,2,2,80,0,0
32884,-100,4,2,1,80,0,0
33029,-100,4,2,3,80,0,0
33102,-100,4,2,1,80,0,0
33608,-100,4,2,2,80,0,0
33681,-100,4,2,1,80,0,0
33898,-100,4,2,3,80,0,0
33971,-100,4,2,1,80,0,0
34478,-100,4,2,3,80,0,0
34551,-100,4,2,1,80,0,0
35058,-100,4,2,3,80,0,0
35131,-100,4,2,1,80,0,0
35492,-100,4,2,2,80,0,0
35710,-100,4,2,1,80,0,0
36217,-100,4,2,3,80,0,0
36290,-100,4,2,1,80,0,0
36797,-100,4,2,3,80,0,0
36870,-100,4,2,1,80,0,0
37376,-100,4,2,3,80,0,0
37449,-100,4,2,1,80,0,0
38535,-100,4,2,3,80,0,0
38608,-100,4,2,1,80,0,0
39115,-100,4,2,3,80,0,0
39188,-100,4,2,1,80,0,0
39695,-100,4,2,3,80,0,0
39768,-100,4,2,1,80,0,0
42884,-100,4,2,1,80,0,1
45202,-100,4,2,2,80,0,1
45275,-100,4,2,1,80,0,1
47231,-100,4,2,1,80,0,1
47521,-100,4,2,1,80,0,1
49840,-100,4,2,2,80,0,1
50420,-100,4,2,1,80,0,1
52159,-100,4,2,1,80,0,0
54478,-100,4,2,2,80,0,0
54550,-100,4,2,1,80,0,0
56797,-100,4,2,2,80,0,0
56869,-100,4,2,1,80,0,0
60275,-100,4,2,2,80,0,0
60347,-100,4,2,1,80,0,0
61434,-100,4,2,1,70,0,0
65927,-100,4,2,2,70,0,0
66072,-100,4,2,1,70,0,0
89260,-100,4,2,1,80,0,1
96217,-100,4,2,2,80,0,1
96434,-100,4,2,1,80,0,1
96507,-100,4,2,2,80,0,1
96652,-100,4,2,1,80,0,1
96724,-100,4,2,2,80,0,1
96942,-100,4,2,1,80,0,1
97376,-100,4,2,2,80,0,1
98246,-100,4,2,1,80,0,1
98536,-100,4,2,1,70,0,0
99550,-100,4,3,0,70,0,0
100275,-100,4,2,1,70,0,0
100855,-100,4,2,2,70,0,0
101434,-100,4,2,3,70,0,0
101724,-100,4,3,0,70,0,0
102594,-100,4,2,1,50,0,0
104333,-100,4,2,1,55,0,0
105202,-100,4,2,1,60,0,0
105492,-100,4,2,1,100,0,0
105782,-100,4,2,1,69,0,0
106072,-100,4,2,1,72,0,0
106217,-100,4,2,1,78,0,0
106362,-100,4,2,1,82,0,0
106507,-100,4,2,1,87,0,0
106797,-100,4,2,1,80,0,0
107811,-100,4,2,1,80,0,1
117087,-100,4,2,1,70,0,0
119405,-100,4,2,1,80,0,1
128681,-100,4,2,1,80,0,0
133391,-100,4,2,1,10,0,0
135637,-100,4,2,1,5,0,0

[Colours]
Combo1 : 255,255,128
Combo2 : 40,255,169
Combo3 : 3,165,113
Combo4 : 117,186,255

[HitObjects]
256,192,1145,12,0,2884,0:0:0:0:
252,200,3318,5,2,0:0:0:0:
403,228,3463,6,0,L|488:131,2,105,2|2|0,1:2|1:2|1:2,0:0:0:0:
330,242,4043,2,0,L|210:233,2,105,2|2|0,1:2|1:2|1:2,0:0:0:0:
472,342,4623,6,0,L|478:263,1,70,2|0,1:2|1:2,0:0:0:0:
410,217,4913,2,0,L|330:208,1,70,2|0,1:2|1:2,0:0:0:0:
265,152,5202,2,0,L|342:115,1,70,2|0,1:2|3:2,0:0:0:0:
405,113,5492,1,0,3:2:0:0:
150,41,5782,6,0,P|108:42|79:197,1,210,6|2,1:2|0:0,0:0:0:0:
133,213,6362,2,0,L|354:281,1,210,0|2,0:0|0:0,0:0:0:0:
259,311,6942,6,0,L|109:332,1,140,0|2,1:2|0:0,0:0:0:0:
54,313,7375,1,0,1:2:0:0:
27,251,7520,1,2,0:0:0:0:
58,191,7665,1,0,3:2:0:0:
125,178,7810,1,0,3:2:0:0:
385,90,8101,6,0,L|475:159,2,105,4|2|2,1:2|0:0|0:0,0:0:0:0:
308,135,8681,2,0,L|381:158,1,70,0|2,1:2|0:0,0:0:0:0:
450,209,8971,1,8,0:0:0:0:
305,224,9260,6,0,L|194:174,2,105,0|2|2,1:2|0:0|0:0,0:0:0:0:
369,203,9839,1,0,1:2:0:0:
395,141,9984,1,0,3:2:0:0:
364,81,10129,1,8,3:2:0:0:
297,67,10274,1,0,1:2:0:0:
143,156,10420,6,0,L|46:106,2,105,4|2|2,1:2|0:0|0:0,0:0:0:0:
215,164,11000,1,0,1:2:0:0:
70,252,11289,2,0,L|63:334,1,70,8|2,0:0|0:0,0:0:0:0:
215,348,11579,6,0,L|301:333,1,70,0|2,1:2|0:0,0:0:0:0:
212,320,11869,2,0,L|123:309,1,70,8|2,0:0|0:0,0:0:0:0:
70,320,12159,2,0,P|37:280|98:200,1,140,0|8,1:2|3:2,0:0:0:0:
143,312,12594,1,2,0:0:0:0:
224,263,12739,6,0,L|126:215,2,105,0|2|2,1:2|0:0|0:0,0:0:0:0:
298,224,13318,2,0,L|442:202,1,140,0|8,1:2|0:0,0:0:0:0:
283,140,13898,6,0,L|217:37,2,105,0|2|2,1:2|0:0|0:0,0:0:0:0:
362,178,14478,2,0,L|292:228,1,70,0|4,1:2|3:3,0:0:0:0:
229,226,14768,2,0,L|132:233,1,70,4|0,3:3|1:2,0:0:0:0:
317,339,15058,6,0,P|361:328|309:216,1,210,4|2,1:2|0:0,0:0:0:0:
246,189,15637,2,0,L|44:84,1,210,8|2,0:0|0:0,0:0:0:0:
133,64,16217,6,0,L|247:93,2,105,2|0|0,1:2|1:2|1:2,0:0:0:0:
59,68,16797,2,0,P|40:105|121:162,1,140,10|0,0:2|3:2,0:0:0:0:
166,180,17231,1,2,1:2:0:0:
316,266,17376,6,0,L|437:315,2,105,4|2|2,1:2|0:0|0:0,0:0:0:0:
245,249,17956,2,0,L|205:189,2,70,0|2|8,1:2|0:0|0:0,0:0:0:0:
391,242,18536,6,0,L|398:132,1,105,0|2,1:2|0:0,0:0:0:0:
290,109,18971,1,2,0:0:0:0:
219,89,19116,2,0,L|302:74,1,70,0|0,1:2|3:2,0:0:0:0:
359,37,19405,2,0,L|281:24,1,70,0|2,3:2|1:2,0:0:0:0:
137,116,19695,6,0,L|33:144,2,105,12|2|2,0:2|0:0|0:0,0:0:0:0:
212,131,20275,2,0,P|266:152|254:239,1,140,8|8,0:0|0:0,0:0:0:0:
195,251,20710,1,2,0:0:0:0:
44,291,20855,6,0,P|28:227|100:178,1,140,12|8,0:0|0:0,0:0:0:0:
146,166,21289,1,2,0:0:0:0:
220,168,21434,2,0,L|222:89,1,70,8|4,1:2|3:3,0:0:0:0:
142,115,21724,2,0,L|132:22,1,70,4|4,3:3|3:3,0:0:0:0:
292,54,22014,5,4,3:3:0:0:
438,199,22449,2,0,L|342:221,1,70,2|4,0:0|3:3,0:0:0:0:
172,362,23029,2,0,L|264:364,1,70,2|4,0:0|3:3,0:0:0:0:
312,326,23318,1,4,3:3:0:0:
241,363,23463,2,0,L|155:351,1,70,4|4,3:3|3:3,0:0:0:0:
327,239,23753,6,0,L|497:211,1,140,4|8,3:3|0:0,0:0:0:0:
207,222,24333,6,0,L|200:69,1,140,4|0,1:2|1:2,0:0:0:0:
359,49,24913,2,0,L|374:196,1,140,0|0,1:2|1:2,0:0:0:0:
303,209,25347,1,2,0:0:0:0:
230,242,25492,6,0,L|386:269,1,140,2|0,1:3|1:2,0:0:0:0:
217,364,26072,1,2,1:2:0:0:
150,355,26216,1,8,2:3:0:0:
118,296,26361,1,2,1:2:0:0:
150,236,26506,1,8,2:3:0:0:
301,183,26652,6,0,L|440:131,1,140,2|0,1:2|1:2,0:0:0:0:
285,98,27231,1,2,1:2:0:0:
281,167,27375,1,2,0:0:0:0:
277,237,27520,1,0,1:2:0:0:
130,292,27811,6,0,L|9:204,1,140,0|0,1:2|1:2,0:0:0:0:
88,168,28246,1,8,2:3:0:0:
165,165,28391,2,0,L|166:82,1,70,8|0,1:3|1:2,0:0:0:0:
88,104,28681,2,0,L|83:23,1,70,8|0,1:3|1:2,0:0:0:0:
233,44,28971,6,0,L|370:101,1,140,2|0,1:2|1:2,0:0:0:0:
213,156,29550,2,0,L|207:300,1,140,0|0,1:2|1:2,0:0:0:0:
280,318,29985,1,2,0:0:0:0:
360,291,30130,6,0,L|199:265,1,140,2|0,1:3|1:2,0:0:0:0:
368,195,30710,2,0,L|441:154,1,70,0|8,1:2|0:0,0:0:0:0:
368,195,31000,2,0,L|288:163,1,70,8|0,1:2|1:2,0:0:0:0:
150,278,31289,6,0,P|125:218|234:144,1,210,0|0,1:2|0:0,0:0:0:0:
297,138,31869,2,0,P|337:128|288:17,1,210,8|0,1:2|0:0,0:0:0:0:
217,28,32449,6,0,L|60:66,1,140,0|8,1:2|0:0,0:0:0:0:
228,145,33029,1,8,0:2:0:0:
295,150,33173,1,0,1:2:0:0:
329,208,33318,1,0,1:2:0:0:
301,269,33463,1,0,1:2:0:0:
154,306,33608,6,0,L|15:237,1,140,4|8,1:2|1:2,0:0:0:0:
175,213,34188,2,0,L|179:62,1,140,0|8,1:2|1:2,0:0:0:0:
328,59,34768,6,0,L|472:89,1,140,0|8,1:2|1:2,0:0:0:0:
324,161,35347,1,0,1:2:0:0:
320,230,35491,1,8,2:3:0:0:
317,300,35636,1,8,2:3:0:0:
56,319,35927,6,0,L|216:284,1,140,0|8,1:2|1:2,0:0:0:0:
338,188,36507,2,0,L|179:167,1,140,0|8,1:2|1:2,0:0:0:0:
54,132,37087,2,0,L|24:59,2,70,0|0|8,1:2|1:2|1:2,0:0:0:0:
210,238,37666,2,0,L|63:273,1,140,4|10,0:3|1:2,0:0:0:0:
144,302,38101,1,0,1:2:0:0:
294,335,38246,6,0,L|436:304,1,140,4|8,1:2|1:2,0:0:0:0:
284,233,38826,2,0,L|281:85,1,140,0|8,1:2|1:2,0:0:0:0:
134,45,39405,6,0,L|13:121,1,140,0|8,1:2|1:2,0:0:0:0:
163,188,39985,2,0,L|256:204,1,70,0|8,1:2|1:2,0:0:0:0:
163,188,40275,2,0,L|79:210,1,70,10|10,1:2|1:2,0:0:0:0:
245,300,40565,6,0,L|411:172,1,210,2|4,1:2|0:3,0:0:0:0:
336,131,41144,2,0,L|112:52,1,210,10|0,1:2|1:1,0:0:0:0:
294,29,41724,6,0,L|440:68,1,140,2|10,1:2|1:2,0:0:0:0:
288,171,42304,1,10,1:2:0:0:
219,187,42448,1,0,1:2:0:0:
151,203,42593,1,8,1:3:0:0:
405,326,42884,6,0,P|430:261|321:189,1,210,6|4,1:2|0:3,0:0:0:0:
266,184,43463,1,8,1:2:0:0:
119,75,43753,2,0,L|205:62,1,70,2|10,1:2|1:2,0:0:0:0:
342,75,44043,5,4,0:3:0:0:
407,91,44187,1,10,1:2:0:0:
436,153,44332,1,2,1:2:0:0:
407,214,44477,1,0,1:0:0:0:
341,231,44622,1,2,1:2:0:0:
470,313,44913,2,0,L|470:223,1,70,2|2,0:3|0:3,0:0:0:0:
321,335,45202,6,0,L|161:293,1,140,6|2,1:2|0:0,0:0:0:0:
257,258,45637,1,0,1:0:0:0:
332,258,45782,2,0,L|338:107,1,140,10|2,1:2|1:2,0:0:0:0:
194,93,46217,6,0,L|50:44,1,140,10|2,1:2|0:0,0:0:0:0:
137,20,46652,2,0,L|283:62,1,140,10|2,0:0|1:2,0:0:0:0:
202,103,47087,1,8,1:2:0:0:
124,126,47231,1,10,1:2:0:0:
386,128,47521,6,0,P|411:173|299:258,1,210,6|0,1:2|1:0,0:0:0:0:
246,291,48101,1,8,1:2:0:0:
384,349,48391,2,0,L|467:339,1,70,2|8,0:0|1:2,0:0:0:0:
303,241,48681,6,0,L|266:168,2,70,2|8|2,1:2|1:2|1:3,0:0:0:0:
448,256,49260,2,0,P|466:182|399:154,1,140,10|2,1:2|1:2,0:0:0:0:
351,144,49695,1,2,1:2:0:0:
200,64,49840,6,0,L|126:59,2,70,6|0|0,1:2|1:2|1:2,0:0:0:0:
344,232,50420,2,0,L|210:275,1,140,2|0,1:2|1:0,0:0:0:0:
61,160,51000,6,0,L|219:129,1,140,2|10,1:2|1:2,0:0:0:0:
264,145,51433,1,0,1:0:0:0:
295,205,51578,1,2,1:2:0:0:
267,266,51723,1,0,1:0:0:0:
201,280,51868,1,10,1:2:0:0:
458,65,52159,6,0,P|478:124|352:212,1,210,4|0,1:2|0:0,0:0:0:0:
311,217,52739,2,0,L|210:149,2,105,8|0|2,0:2|0:0|0:0,0:0:0:0:
396,228,53318,5,0,1:0:0:0:
254,302,53608,1,2,0:3:0:0:
213,223,53753,1,0,1:0:0:0:
254,302,53898,2,0,L|419:283,1,140,8|2,0:2|0:3,0:0:0:0:
123,51,54478,6,0,P|66:61|91:202,1,210,2|0,1:2|0:0,0:0:0:0:
134,212,55058,2,0,L|245:251,2,105,10|2|2,0:2|0:2|0:2,0:0:0:0:
57,236,55637,5,2,1:3:0:0:
133,213,55782,2,0,L|279:188,1,140,8|2,0:0|0:3,0:0:0:0:
200,146,56217,1,10,0:0:0:0:
124,153,56362,2,0,P|99:108|143:31,1,140,2|0,0:0|0:0,0:0:0:0:
286,60,56797,6,0,L|432:90,1,140,6|2,1:2|0:3,0:0:0:0:
283,147,57376,2,0,L|222:250,2,105,10|2|2,0:0|0:0|0:0,0:0:0:0:
357,131,57956,6,0,L|509:186,1,140,0|2,1:3|0:3,0:0:0:0:
349,248,58536,2,0,L|439:306,2,105,10|2|2,0:2|0:2|0:2,0:0:0:0:
201,309,59116,6,0,P|145:296|174:168,1,210,0|0,1:0|1:0,0:0:0:0:
231,151,59695,2,0,L|377:97,1,140,8|0,0:0|1:0,0:0:0:0:
292,80,60130,1,0,1:0:0:0:
139,98,60275,6,0,L|27:63,2,105,4|0|0,1:2|1:0|1:2,0:0:0:0:
212,67,60855,2,0,L|63:64,1,140,8|8,0:2|1:3,0:0:0:0:
348,245,61434,5,4,1:2:0:0:
455,336,61869,2,0,L|370:334,1,70,2|8,0:0|0:0,0:0:0:0:
215,202,62449,1,0,1:0:0:0:
286,164,62594,6,0,L|450:138,1,140,2|0,0:0|1:0,0:0:0:0:
276,74,63173,2,0,L|160:51,2,105,8|2|2,0:0|0:0|0:0,0:0:0:0:
424,142,63753,6,0,L|458:78,2,70,0|0|0,1:0|0:0|0:0,0:0:0:0:
269,213,64333,2,0,L|235:149,2,70,8|0|0,0:0|0:0|0:0,0:0:0:0:
344,216,64768,6,0,P|354:118|265:76,1,210,0|0,1:0|0:0,0:0:0:0:
195,78,65347,1,0,1:0:0:0:
123,85,65492,1,8,0:0:0:0:
268,181,65782,2,0,L|359:181,1,70,0|8,1:0|0:0,0:0:0:0:
186,297,66072,6,0,P|152:253|252:170,1,210,0|2,1:0|0:0,0:0:0:0:
311,162,66652,1,8,0:0:0:0:
485,62,67087,1,0,1:0:0:0:
414,40,67231,6,0,L|258:75,1,140,2|0,0:0|1:0,0:0:0:0:
286,211,67811,2,0,L|406:203,2,105,8|2|2,0:0|0:0|0:0,0:0:0:0:
134,248,68391,5,0,1:0:0:0:
22,340,68826,1,0,0:0:0:0:
95,342,68971,2,0,L|257:295,1,140,8|2,0:0|0:0,0:0:0:0:
301,290,69405,1,0,1:0:0:0:
150,196,69550,6,0,L|12:129,1,140,2|2,1:2|1:2,0:0:0:0:
172,92,70130,1,8,1:3:0:0:
104,74,70274,1,8,1:3:0:0:
36,56,70419,1,8,1:3:0:0:
303,56,70710,6,0,L|458:108,1,140,4|8,1:2|1:2,0:0:0:0:
366,149,71144,1,0,0:0:0:0:
293,169,71289,2,0,L|290:318,1,140,0|8,1:2|1:2,0:0:0:0:
437,345,71869,5,2,1:2:0:0:
371,328,72013,1,2,1:2:0:0:
341,268,72158,1,10,1:2:0:0:
370,206,72303,1,2,1:2:0:0:
435,189,72448,1,2,1:2:0:0:
319,98,72739,2,0,L|237:90,1,70,10|2,1:2|1:2,0:0:0:0:
96,186,73029,6,0,L|60:122,2,70,2|0|8,1:2|1:2|1:2,0:0:0:0:
241,237,73608,2,0,L|345:194,2,105,2|2|2,1:2|0:0|0:0,0:0:0:0:
170,249,74188,5,2,1:2:0:0:
233,223,74332,1,2,0:2:0:0:
259,160,74477,1,10,1:2:0:0:
233,223,74622,1,2,0:2:0:0:
170,249,74768,2,0,L|33:210,1,140,2|10,1:2|1:2,0:0:0:0:
106,258,75202,1,2,1:2:0:0:
258,338,75347,6,0,L|424:316,1,140,0|8,1:0|1:2,0:0:0:0:
241,249,75927,2,0,L|236:107,1,140,2|10,1:2|1:2,0:0:0:0:
310,88,76362,1,2,0:2:0:0:
383,110,76507,6,0,L|220:100,1,140,2|10,1:2|1:2,0:0:0:0:
203,164,76942,1,2,0:2:0:0:
243,101,77087,2,0,L|397:113,1,140,2|10,1:2|1:2,0:0:0:0:
454,118,77521,1,2,1:2:0:0:
306,242,77666,6,0,L|266:171,2,70,2|0|8,1:2|1:0|1:2,0:0:0:0:
450,317,78246,2,0,L|454:174,1,140,2|10,1:2|1:2,0:0:0:0:
384,171,78681,1,2,0:2:0:0:
234,93,78826,5,14,1:2:0:0:
91,57,79116,1,12,1:2:0:0:
234,93,79405,1,12,1:2:0:0:
386,57,79695,2,0,L|310:46,1,70,0|0,1:2|1:2,0:0:0:0:
163,232,79985,6,0,L|26:190,2,140,4|8|0,1:2|1:2|1:2,0:0:0:0:
227,212,80709,1,2,0:2:0:0:
256,150,80854,1,8,1:2:0:0:
228,88,80999,1,2,0:2:0:0:
163,69,81144,6,0,L|57:66,2,105,0|2|2,1:2|0:2|0:2,0:0:0:0:
235,86,81724,2,0,L|388:127,1,140,0|8,1:2|1:2,0:0:0:0:
301,170,82159,1,0,1:2:0:0:
225,182,82304,6,0,L|180:288,2,105,0|0|2,1:2|0:0|0:2,0:0:0:0:
298,162,82884,1,2,1:2:0:0:
446,300,83173,1,10,1:2:0:0:
375,306,83318,6,0,L|220:278,1,140,2|0,0:2|0:0,0:0:0:0:
166,251,83753,1,8,1:2:0:0:
316,207,84043,2,0,L|350:132,2,70,0|0|8,1:2|1:2|1:2,0:0:0:0:
243,224,84478,1,0,1:2:0:0:
91,184,84623,6,0,L|68:41,1,140,2|8,1:2|1:2,0:0:0:0:
218,124,85202,2,0,L|66:97,1,140,0|10,1:2|1:2,0:0:0:0:
150,71,85637,1,2,0:2:0:0:
225,64,85782,6,0,L|334:90,2,105,2|2|2,1:2|0:2|0:0,0:0:0:0:
150,71,86362,2,0,L|148:229,1,140,2|10,1:2|1:2,0:0:0:0:
220,228,86797,1,2,1:2:0:0:
296,266,86942,6,0,L|219:293,1,70,0|0,1:2|1:2,0:0:0:0:
161,306,87231,1,10,1:2:0:0:
88,314,87376,2,0,L|33:222,2,105,2|2|8,0:2|0:2|1:2,0:0:0:0:
237,255,88101,6,0,L|169:217,1,70,2|2,1:2|1:2,0:0:0:0:
101,211,88391,1,10,1:2:0:0:
353,127,88681,2,0,L|393:53,2,70,10|0|8,1:2|1:2|1:2,0:0:0:0:
96,55,89260,6,0,L|203:69,2,105,6|2|2,1:2|1:2|1:2,0:0:0:0:
170,107,89840,2,0,L|298:124,1,105,2|2,1:2|1:2,0:0:0:0:
281,228,90275,1,2,1:2:0:0:
131,289,90420,6,0,L|19:265,2,105,2|2|2,1:2|1:2|1:2,0:0:0:0:
206,331,91000,2,0,L|85:366,2,105,2|2|2,1:2|1:2|1:2,0:0:0:0:
360,330,91579,6,0,L|419:231,2,105,2|2|2,1:2|1:2|1:2,0:0:0:0:
285,335,92159,2,0,L|168:299,2,105,2|2|2,1:2|1:2|1:2,0:0:0:0:
437,342,92739,6,0,L|443:217,1,105,2|2,1:2|1:2,0:0:0:0:
335,208,93173,1,2,1:2:0:0:
259,184,93318,6,0,L|375:156,1,105,2|2,1:2|1:2,0:0:0:0:
465,120,93753,1,2,1:2:0:0:
315,61,93898,6,0,L|168:24,1,140,2|0,1:2|1:0,0:0:0:0:
252,95,94333,1,2,1:2:0:0:
328,129,94478,2,0,L|432:168,2,105,2|2|2,1:2|1:2|1:2,0:0:0:0:
175,186,95058,6,0,L|116:279,2,105,2|2|2,1:2|1:2|1:2,0:0:0:0:
254,169,95637,2,0,L|379:140,2,105,2|2|2,1:2|1:2|1:2,0:0:0:0:
102,200,96217,6,0,P|45:180|55:93,1,140,4|0,1:2|1:2,0:0:0:0:
114,80,96652,2,0,L|258:99,1,140,2|2,1:2|1:2,0:0:0:0:
325,167,97087,2,0,L|252:178,1,70,2|2,1:2|1:2,0:0:0:0:
105,290,97376,6,0,L|15:229,2,105,4|8|8,1:2|1:3|1:3,0:0:0:0:
181,299,97956,1,8,1:3:0:0:
37,359,98246,1,8,1:2:0:0:
304,333,98536,5,4,1:2:0:0:
459,298,103173,6,0,L|463:139,1,140,0|0,1:0|1:0,0:0:0:0:
392,148,103608,1,0,0:0:0:0:
319,142,103753,2,0,L|159:121,1,140,2|0,1:3|1:0,0:0:0:0:
328,48,104333,5,0,1:0:0:0:
390,74,104477,1,0,0:0:0:0:
416,137,104622,1,0,1:0:0:0:
388,199,104767,1,0,0:0:0:0:
324,223,104912,1,2,1:3:0:0:
178,248,105202,2,0,L|108:260,1,70,0|0,1:0|1:0,0:0:0:0:
187,286,105492,6,0,L|266:292,2,70,8|0|0,1:2|1:0|1:0,0:0:0:0:
41,149,106072,2,0,L|123:131,1,70,8|0,1:2|1:0,0:0:0:0:
179,89,106362,2,0,L|92:82,1,70,8|0,1:2|1:0,0:0:0:0:
367,257,106797,6,0,L|421:169,2,70,0|0|0,1:0|1:0|1:0,0:0:0:0:
294,266,107231,2,0,L|140:244,1,140,0|0,1:0|3:0,0:0:0:0:
422,356,107811,6,0,L|480:256,2,105,6|2|2,1:2|0:2|0:2,0:0:0:0:
347,360,108391,2,0,L|192:331,1,140,2|10,1:2|1:2,0:0:0:0:
282,306,108826,1,2,0:2:0:0:
433,302,108971,6,0,P|448:251|368:189,1,140,2|10,1:2|1:2,0:0:0:0:
250,168,109550,2,0,L|406:154,1,140,2|10,1:2|1:2,0:0:0:0:
318,120,109985,1,2,1:2:0:0:
165,90,110130,6,0,L|60:66,2,105,2|2|2,1:2|0:2|0:2,0:0:0:0:
244,102,110710,2,0,P|265:162|214:232,1,140,2|10,1:2|1:2,0:0:0:0:
81,277,111289,2,0,L|166:296,1,70,2|2,1:2|0:2,0:0:0:0:
299,339,111579,6,0,L|393:221,1,140,10|0,1:2|1:2,0:0:0:0:
253,232,112159,2,0,L|339:224,1,70,10|2,1:2|1:2,0:0:0:0:
474,228,112449,6,0,L|492:158,2,70,2|0|8,1:2|1:2|1:2,0:0:0:0:
332,143,113029,2,0,L|478:112,1,140,2|8,1:2|1:2,0:0:0:0:
225,126,113608,5,0,1:2:0:0:
155,153,113753,2,0,P|133:197|178:275,1,140,0|2,0:0|0:0,0:0:0:0:
242,293,114188,1,0,1:2:0:0:
313,310,114333,2,0,L|351:239,2,70,2|8|0,0:0|1:2|1:2,0:0:0:0:
167,368,114768,6,0,L|51:332,2,105,2|2|2,1:2|0:0|0:0,0:0:0:0:
241,351,115347,2,0,L|315:257,2,105,2|2|2,1:2|0:0|0:2,0:0:0:0:
88,336,115927,6,0,P|35:309|68:221,1,140,0|8,1:2|1:2,0:0:0:0:
288,186,116507,2,0,L|404:162,2,105,2|2|2,1:2|1:2|1:2,0:0:0:0:
133,219,117087,6,0,P|97:183|217:57,1,280,4|10,1:2|0:2,0:0:0:0:
339,244,117956,2,0,L|262:260,1,70,2|2,0:2|0:2,0:0:0:0:
194,297,118246,6,0,L|337:345,1,140,2|2,1:2|0:2,0:0:0:0:
364,281,118681,1,2,1:2:0:0:
325,342,118826,2,0,L|166:331,1,140,10|8,1:2|1:2,0:0:0:0:
255,301,119260,1,0,1:2:0:0:
409,240,119405,6,0,L|485:217,2,70,6|2|10,1:2|1:2|1:2,0:0:0:0:
259,266,119985,2,0,P|240:206|315:148,1,140,2|10,1:2|1:2,0:0:0:0:
435,149,120565,6,0,P|451:95|374:54,1,140,2|10,1:2|1:2,0:0:0:0:
321,46,121000,1,2,0:2:0:0:
246,84,121144,2,0,L|385:125,1,140,2|10,1:2|1:2,0:0:0:0:
308,160,121579,1,2,1:2:0:0:
156,186,121724,6,0,L|35:269,1,140,6|10,1:2|1:2,0:0:0:0:
112,295,122159,1,2,0:2:0:0:
186,314,122304,2,0,L|54:270,1,140,2|10,1:2|1:2,0:0:0:0:
303,284,122884,6,0,P|363:255|372:188,1,140,6|10,1:2|1:2,0:0:0:0:
301,162,123318,1,2,0:2:0:0:
229,144,123463,2,0,L|85:93,1,140,2|10,1:2|1:2,0:0:0:0:
361,171,124043,6,0,L|479:222,2,105,6|2|2,1:2|0:2|0:2,0:0:0:0:
286,166,124623,2,0,P|258:213|312:275,1,140,2|10,1:2|1:2,0:0:0:0:
375,297,125058,1,10,1:2:0:0:
223,339,125202,6,0,L|145:306,2,70,6|8|0,1:2|1:2|1:2,0:0:0:0:
468,349,125782,2,0,P|475:285|406:230,1,140,8|2,1:2|1:2,0:0:0:0:
353,224,126217,1,2,1:2:0:0:
199,192,126362,6,0,L|94:167,2,105,6|2|2,1:2|1:2|1:2,0:0:0:0:
274,208,126942,2,0,P|307:167|263:98,1,140,10|2,1:2|1:2,0:0:0:0:
198,91,127376,1,2,1:2:0:0:
45,111,127521,6,0,L|42:263,1,140,2|8,1:2|1:2,0:0:0:0:
113,270,127956,2,0,L|192:256,2,70,0|0|8,1:2|1:2|1:2,0:0:0:0:
42,250,128391,1,0,1:2:0:0:
298,334,128681,6,0,L|412:285,2,105,6|2|0,1:2|1:2|1:2,0:0:0:0:
226,329,129260,2,0,L|127:254,2,105,2|2|2,1:2|1:2|1:2,0:0:0:0:
382,343,129840,6,0,L|447:279,1,70,2|0,1:2|1:2,0:0:0:0:
359,249,130130,2,0,L|268:220,1,70,2|0,1:2|1:2,0:0:0:0:
366,204,130420,2,0,L|445:167,2,70,2|0|0,1:2|3:2|3:2,0:0:0:0:
105,100,131000,6,0,L|99:220,1,105,6|2,1:2|1:2,0:0:0:0:
195,248,131434,1,0,1:2:0:0:
346,289,131579,2,0,L|471:246,2,105,2|2|0,1:2|1:2|1:2,0:0:0:0:
193,350,132159,5,2,1:2:0:0:
160,291,132303,1,0,0:0:0:0:
193,232,132448,1,0,0:0:0:0:
260,230,132593,1,0,0:0:0:0:
412,261,132739,2,0,P|425:217|354:164,1,140,2|0,1:2|3:2,0:0:0:0:
291,152,133173,1,2,0:0:0:0:
133,150,133318,5,6,1:2:0:0:
256,192,133608,12,0,135637,0:0:0:0:
