osu file format v14

[General]
AudioFilename: audio.mp3
AudioLeadIn: 0
PreviewTime: 103173
Countdown: 0
SampleSet: Soft
StackLeniency: 0.7
Mode: 2
LetterboxInBreaks: 0
WidescreenStoryboard: 1

[Editor]
Bookmarks: 3463,15058,24333,33608,42884,52159,61434,70710,79985,89260,98536,107811,117087,128681,133318
DistanceSpacing: 2.8
BeatDivisor: 4
GridSize: 32
TimelineZoom: 2.899999

[Metadata]
Title:Urushi
TitleUnicode:漆
Artist:katagiri
ArtistUnicode:かたぎり
Creator:Jemzuu
Version:Rain
Source:
Tags:featured artist mappers' guild fa mg ajamez rew0825 nelly phob electronic instrumental oriental 世界の合言葉はかたぎり miso-nicomi records MISO-017 うるし SFES2019 J-core 新発売!鬱ハンドスピナー寿司の怪 with 指定暴力団 hardcore core dubstep drum and n bass dnb d&b
BeatmapID:3046612
BeatmapSetID:1482723

[Difficulty]
HPDrainRate:6
CircleSize:3.8
OverallDifficulty:9.2
ApproachRate:9.2
SliderMultiplier:1.81
SliderTickRate:2

[Events]
//Background and Video events
0,0,"0946f7fc05c8ee387f96fe0bcd2af20984948761_s2_n1.jpg",0,0
//Break Periods
//Storyboard Layer 0 (Background)
//Storyboard Layer 1 (Fail)
//Storyboard Layer 2 (Pass)
//Storyboard Layer 3 (Foreground)
//Storyboard Layer 4 (Overlay)
//Storyboard Sound Samples

[TimingPoints]
1145,289.855072463768,4,2,1,70,1,0
3463,-100,4,2,1,80,0,0
5782,-100,4,2,1,70,0,0
8101,-100,4,2,1,80,0,0
15058,-100,4,2,1,70,0,0
17087,-100,4,2,1,80,0,0
26652,-100,4,2,2,80,0,0
26724,-100,4,2,1,80,0,0
28246,-100,4,2,2,80,0,0
28318,-100,4,2,1,80,0,0
28971,-100,4,2,3,80,0,0
29043,-100,4,2,1,80,0,0
30855,-100,4,2,2,80,0,0
31072,-100,4,2,1,80,0,0
31869,-100,4,2,2,80,0,0
31942,-100,4,2,1,80,0,0
32739,-100,4,2,2,80,0,0
32884,-100,4,2,1,80,0,0
33029,-100,4,2,3,80,0,0
33102,-100,4,2,1,80,0,0
33608,-100,4,2,2,80,0,0
33681,-100,4,2,1,80,0,0
33898,-100,4,2,3,80,0,0
33971,-100,4,2,1,80,0,0
34478,-100,4,2,3,80,0,0
34551,-100,4,2,1,80,0,0
35058,-100,4,2,3,80,0,0
35131,-100,4,2,1,80,0,0
35492,-100,4,2,2,80,0,0
35710,-100,4,2,1,80,0,0
36217,-100,4,2,3,80,0,0
36290,-100,4,2,1,80,0,0
36797,-100,4,2,3,80,0,0
36870,-100,4,2,1,80,0,0
37376,-100,4,2,3,80,0,0
37449,-100,4,2,1,80,0,0
38535,-100,4,2,3,80,0,0
38608,-100,4,2,1,80,0,0
39115,-100,4,2,3,80,0,0
39188,-100,4,2,1,80,0,0
39695,-100,4,2,3,80,0,0
39768,-100,4,2,1,80,0,0
42884,-100,4,2,1,80,0,1
45202,-100,4,2,2,80,0,1
45275,-100,4,2,1,80,0,1
47231,-100,4,2,1,80,0,1
47521,-100,4,2,1,80,0,1
49840,-100,4,2,2,80,0,1
50420,-100,4,2,1,80,0,1
52159,-100,4,2,1,80,0,0
54478,-100,4,2,2,80,0,0
54550,-100,4,2,1,80,0,0
56797,-100,4,2,2,80,0,0
56869,-100,4,2,1,80,0,0
60275,-100,4,2,2,80,0,0
60347,-100,4,2,1,80,0,0
61434,-100,4,2,1,70,0,0
65927,-100,4,2,2,70,0,0
66072,-100,4,2,1,70,0,0
89260,-100,4,2,1,80,0,1
96217,-100,4,2,2,80,0,1
96434,-100,4,2,1,80,0,1
96507,-100,4,2,2,80,0,1
96652,-100,4,2,1,80,0,1
96724,-100,4,2,2,80,0,1
96942,-100,4,2,1,80,0,1
97376,-100,4,2,2,80,0,1
98246,-100,4,2,1,80,0,1
98536,-100,4,2,1,70,0,0
99550,-100,4,3,0,70,0,0
100275,-100,4,2,1,70,0,0
100855,-100,4,2,2,70,0,0
101434,-100,4,2,3,70,0,0
101724,-100,4,3,0,70,0,0
102594,-100,4,2,1,50,0,0
104333,-100,4,2,1,55,0,0
105202,-100,4,2,1,60,0,0
105492,-100,4,2,1,100,0,0
105782,-100,4,2,1,69,0,0
106072,-100,4,2,1,72,0,0
106217,-100,4,2,1,78,0,0
106362,-100,4,2,1,82,0,0
106507,-100,4,2,1,87,0,0
106797,-100,4,2,1,80,0,0
107811,-100,4,2,1,80,0,1
117087,-100,4,2,1,70,0,0
119405,-100,4,2,1,80,0,1
128681,-100,4,2,1,80,0,0
133391,-100,4,2,1,10,0,0
135637,-100,4,2,1,5,0,0

[Colours]
Combo1 : 255,255,128
Combo2 : 40,255,169
Combo3 : 3,165,113
Combo4 : 117,186,255

[HitObjects]
256,192,1145,12,0,3173,0:0:0:0:
238,162,3318,6,0,L|293:159,1,45.25,2|2,0:0|0:0,0:0:0:0:
142,317,3463,6,0,L|37:301,1,90.5,2|0,1:2|0:0,0:0:0:0:
99,267,3681,2,0,L|195:256,1,90.5,2|0,1:2|0:0,0:0:0:0:
239,246,3898,1,0,1:2:0:0:
461,113,4043,6,0,L|359:98,1,90.5,2|0,1:2|0:0,0:0:0:0:
319,78,4260,2,0,L|435:56,1,90.5,2|0,1:2|0:0,0:0:0:0:
459,57,4478,1,0,1:2:0:0:
232,164,4623,6,0,L|222:54,1,90.5,2|0,1:2|1:2,0:0:0:0:
273,61,4840,1,0,1:2:0:0:
326,55,4913,2,0,L|436:51,1,90.5,2|0,1:2|1:2,0:0:0:0:
166,271,5202,6,0,L|47:266,1,90.5,2|0,1:2|3:2,0:0:0:0:
191,351,5492,2,0,L|297:349,1,90.5,0|2,3:2|0:0,0:0:0:0:
232,328,5710,1,2,0:0:0:0:
62,347,5782,6,0,P|35:291|159:208,1,226.25,6|0,1:2|0:0,0:0:0:0:
190,197,6217,1,2,0:0:0:0:
312,248,6362,2,0,P|328:186|166:91,1,271.5,0|2,0:0|0:0,0:0:0:0:
418,49,6942,6,0,L|422:172,1,90.5,0|2,1:2|0:0,0:0:0:0:
373,168,7159,1,2,0:0:0:0:
324,181,7231,1,2,0:0:0:0:
434,249,7376,1,0,1:2:0:0:
315,283,7521,2,0,L|218:283,1,90.5,2|0,0:0|3:2,0:0:0:0:
453,358,7811,2,0,L|458:247,1,90.5,0|2,3:2|0:0,0:0:0:0:
211,191,8101,6,0,L|101:188,1,90.5,4|0,1:2|0:0,0:0:0:0:
176,154,8318,2,0,L|278:148,1,90.5,2|0,0:0|0:0,0:0:0:0:
318,125,8536,1,2,0:0:0:0:
196,71,8681,2,0,L|74:64,1,90.5,0|2,1:2|0:0,0:0:0:0:
239,15,8971,2,0,L|243:137,1,90.5,8|2,0:0|0:0,0:0:0:0:
21,256,9260,6,0,L|122:254,1,90.5,0|0,1:2|0:0,0:0:0:0:
159,253,9478,1,2,0:0:0:0:
208,256,9550,1,8,0:0:0:0:
92,344,9695,1,2,0:0:0:0:
310,361,9840,2,0,L|314:253,1,90.5,0|0,1:2|3:2,0:0:0:0:
177,264,10130,2,0,L|161:135,1,90.5,8|0,3:2|1:2,0:0:0:0:
391,116,10420,6,0,L|286:94,1,90.5,4|0,1:2|0:0,0:0:0:0:
250,59,10637,2,0,L|350:43,1,90.5,2|0,0:0|0:0,0:0:0:0:
392,42,10855,2,0,L|397:99,1,45.25,2|2,0:0|0:0,0:0:0:0:
244,150,11000,2,0,L|235:266,1,90.5,0|2,1:2|0:0,0:0:0:0:
358,278,11289,2,0,L|413:271,1,45.25,8|2,0:0|0:0,0:0:0:0:
358,278,11434,2,0,L|298:276,1,45.25,2|2,0:0|0:0,0:0:0:0:
161,356,11579,6,0,L|51:347,1,90.5,0|2,1:2|0:0,0:0:0:0:
198,274,11869,2,0,L|329:264,1,90.5,8|2,0:0|0:0,0:0:0:0:
65,239,12159,2,0,L|49:116,1,90.5,0|0,1:2|3:2,0:0:0:0:
173,119,12449,1,8,3:2:0:0:
51,63,12594,1,2,0:0:0:0:
283,53,12739,6,0,L|403:62,1,90.5,0|0,1:2|0:0,0:0:0:0:
324,98,12956,2,0,L|220:117,1,90.5,2|0,0:0|0:0,0:0:0:0:
285,148,13173,1,2,0:0:0:0:
419,193,13318,2,0,L|424:294,1,90.5,0|2,1:2|0:0,0:0:0:0:
296,348,13608,2,0,L|401:348,1,90.5,8|2,0:0|0:0,0:0:0:0:
165,283,13898,6,0,L|42:283,1,90.5,0|0,1:2|0:0,0:0:0:0:
122,245,14116,1,2,0:0:0:0:
174,229,14188,1,8,0:0:0:0:
287,221,14333,1,2,0:0:0:0:
63,180,14478,2,0,L|57:76,1,90.5,0|4,1:2|3:3,0:0:0:0:
111,68,14695,1,0,1:2:0:0:
256,53,14768,2,0,L|351:53,1,90.5,4|0,3:3|1:2,0:0:0:0:
105,340,15058,6,0,P|50:306|159:193,1,271.5,4|2,1:2|0:0,0:0:0:0:
276,183,15637,2,0,P|247:129|39:77,1,271.5,8|2,0:0|0:0,0:0:0:0:
303,290,16217,6,0,L|463:268,2,135.75,2|0|0,1:2|1:2|1:2,0:0:0:0:
170,308,16797,2,0,L|164:217,1,90.5,10|0,0:2|0:0,0:0:0:0:
391,183,17087,1,0,3:2:0:0:
404,141,17159,1,0,1:2:0:0:
384,102,17231,1,2,1:2:0:0:
342,90,17304,1,2,1:2:0:0:
175,94,17376,6,0,L|63:82,1,90.5,4|0,1:2|0:0,0:0:0:0:
131,54,17594,2,0,L|231:49,1,90.5,2|0,0:0|0:0,0:0:0:0:
271,50,17811,1,2,0:0:0:0:
151,145,17956,1,0,1:2:0:0:
105,258,18101,1,2,0:0:0:0:
151,145,18246,1,8,0:0:0:0:
274,55,18391,1,2,0:0:0:0:
49,100,18536,6,0,L|35:209,1,90.5,0|0,1:2|0:0,0:0:0:0:
88,219,18753,1,2,0:0:0:0:
146,231,18826,1,8,0:0:0:0:
30,312,18971,1,2,0:0:0:0:
259,348,19116,6,0,L|367:338,1,90.5,0|0,1:2|3:2,0:0:0:0:
206,280,19406,1,0,3:2:0:0:
185,241,19478,1,0,1:2:0:0:
203,201,19550,1,2,1:2:0:0:
245,192,19623,1,2,1:2:0:0:
421,216,19695,6,0,L|425:111,1,90.5,12|0,0:2|0:0,0:0:0:0:
372,109,19913,1,2,0:0:0:0:
316,99,19985,1,8,0:0:0:0:
435,37,20130,2,0,L|506:33,1,45.25,2|2,0:0|0:0,0:0:0:0:
324,211,20275,6,0,L|220:204,1,90.5,8|2,0:0|0:0,0:0:0:0:
363,338,20565,1,8,0:0:0:0:
383,299,20637,1,2,0:0:0:0:
365,259,20709,1,2,0:0:0:0:
323,250,20782,1,2,0:0:0:0:
155,263,20855,6,0,L|50:258,1,90.5,12|2,0:0|0:0,0:0:0:0:
188,173,21144,2,0,L|294:159,1,90.5,8|2,0:0|0:0,0:0:0:0:
48,129,21434,2,0,L|24:81,2,45.25,8|0|4,1:2|1:2|3:3,0:0:0:0:
173,170,21724,1,4,3:3:0:0:
45,227,21869,1,4,3:3:0:0:
301,289,22014,5,4,3:3:0:0:
394,333,22449,1,2,0:0:0:0:
126,357,22594,1,4,3:3:0:0:
56,276,23029,1,2,0:0:0:0:
308,248,23173,6,0,L|309:149,1,90.5,4|4,3:3|3:3,0:0:0:0:
254,146,23391,1,4,3:3:0:0:
197,143,23463,2,0,L|95:152,1,90.5,4|4,3:3|3:3,0:0:0:0:
345,58,23753,2,0,L|494:173,1,181,4|8,3:3|0:0,0:0:0:0:
209,343,24333,6,0,L|210:233,1,90.5,4|2,1:2|0:0,0:0:0:0:
260,237,24550,1,2,0:0:0:0:
318,234,24623,2,0,L|324:141,1,90.5,0|2,1:2|0:0,0:0:0:0:
196,213,24913,2,0,L|197:103,1,90.5,0|2,1:2|0:0,0:0:0:0:
247,107,25130,1,2,0:0:0:0:
305,104,25203,2,0,L|311:11,1,90.5,0|2,1:2|0:0,0:0:0:0:
172,43,25492,6,0,L|59:64,1,90.5,2|2,1:3|0:0,0:0:0:0:
130,91,25710,1,2,0:0:0:0:
186,110,25782,2,0,L|305:117,1,90.5,0|2,1:2|0:0,0:0:0:0:
50,288,26072,2,0,L|41:189,1,90.5,2|8,1:2|2:3,0:0:0:0:
168,187,26362,2,0,L|49:185,1,90.5,2|8,1:2|2:3,0:0:0:0:
299,316,26652,6,0,L|395:304,1,90.5,2|2,1:2|0:0,0:0:0:0:
338,282,26869,1,2,0:0:0:0:
283,275,26942,2,0,L|162:268,1,90.5,0|2,1:2|0:0,0:0:0:0:
245,248,27159,1,0,0:0:0:0:
397,157,27231,6,0,L|499:146,1,90.5,2|2,1:2|0:0,0:0:0:0:
358,203,27521,1,0,1:2:0:0:
356,157,27593,1,0,0:0:0:0:
354,112,27665,1,2,0:0:0:0:
132,63,27811,6,0,L|18:55,1,90.5,0|2,1:2|0:0,0:0:0:0:
172,165,28101,2,0,L|286:142,1,90.5,0|8,1:2|2:3,0:0:0:0:
44,301,28391,2,0,L|35:202,1,90.5,8|0,1:3|1:2,0:0:0:0:
170,235,28681,2,0,L|179:109,1,90.5,8|0,1:3|1:2,0:0:0:0:
403,84,28971,6,0,L|286:86,1,90.5,2|2,1:2|0:0,0:0:0:0:
288,117,29188,1,2,0:0:0:0:
312,85,29260,1,0,1:2:0:0:
430,178,29405,1,2,0:0:0:0:
296,288,29550,6,0,L|413:290,1,90.5,0|2,1:2|0:0,0:0:0:0:
410,321,29767,1,2,0:0:0:0:
386,289,29839,1,0,1:2:0:0:
341,282,29913,1,0,0:0:0:0:
293,281,29985,1,2,0:0:0:0:
75,333,30130,6,0,L|70:233,1,90.5,2|2,1:3|0:0,0:0:0:0:
120,221,30347,1,2,0:0:0:0:
177,213,30420,2,0,L|305:188,1,90.5,0|2,1:2|0:0,0:0:0:0:
213,174,30637,1,0,1:2:0:0:
52,151,30710,6,0,L|21:98,2,45.25,0|0|8,1:2|1:2|0:0,0:0:0:0:
180,86,31000,1,8,1:2:0:0:
51,154,31144,1,0,1:2:0:0:
292,293,31289,5,0,1:2:0:0:
397,329,31434,2,0,P|412:267|313:198,1,181,0|0,0:0|0:0,0:0:0:0:
216,171,31869,1,8,1:2:0:0:
99,111,32014,2,0,L|299:64,1,181,0|0,0:0|0:0,0:0:0:0:
423,117,32449,6,0,L|430:241,1,90.5,0|0,1:2|0:0,0:0:0:0:
298,260,32739,1,8,0:0:0:0:
254,254,32811,1,8,0:0:0:0:
209,249,32883,1,0,1:2:0:0:
438,356,33029,2,0,L|442:251,1,90.5,8|0,0:2|1:2,0:0:0:0:
312,260,33318,1,0,1:2:0:0:
441,268,33463,1,0,1:2:0:0:
206,351,33608,6,0,L|89:338,1,90.5,4|2,1:2|0:0,0:0:0:0:
170,318,33826,1,2,0:0:0:0:
225,316,33898,2,0,L|328:298,1,90.5,8|2,1:2|0:0,0:0:0:0:
184,242,34188,2,0,L|177:137,1,90.5,0|2,1:2|0:0,0:0:0:0:
231,137,34405,1,2,0:0:0:0:
292,135,34478,2,0,L|297:18,1,90.5,8|2,1:2|0:0,0:0:0:0:
158,40,34768,6,0,L|63:54,1,90.5,0|2,1:2|0:0,0:0:0:0:
172,131,35058,1,8,1:2:0:0:
285,150,35202,1,2,0:0:0:0:
65,308,35347,2,0,L|58:206,1,90.5,0|8,1:2|2:3,0:0:0:0:
188,258,35637,2,0,L|308:258,1,90.5,8|2,2:3|0:0,0:0:0:0:
230,242,35855,1,2,0:0:0:0:
75,234,35927,6,0,L|65:144,1,90.5,0|2,1:2|0:0,0:0:0:0:
117,133,36144,1,2,0:0:0:0:
175,138,36217,2,0,L|181:38,1,90.5,8|2,1:2|0:0,0:0:0:0:
322,50,36507,2,0,L|206:68,1,90.5,0|2,1:2|0:0,0:0:0:0:
208,40,36724,1,2,0:0:0:0:
232,63,36797,1,8,1:2:0:0:
355,139,36942,1,2,0:0:0:0:
135,293,37087,6,0,L|248:309,1,90.5,0|0,1:2|1:2,0:0:0:0:
345,234,37376,2,0,L|245:214,1,90.5,8|2,1:2|0:0,0:0:0:0:
128,194,37666,2,0,L|97:144,2,45.25,4|0|2,0:3|0:0|0:0,0:0:0:0:
351,93,37956,2,0,L|456:86,1,90.5,10|0,1:2|1:2,0:0:0:0:
206,334,38246,6,0,L|197:216,1,90.5,4|2,1:2|0:0,0:0:0:0:
254,238,38463,1,2,0:0:0:0:
315,239,38536,2,0,L|321:129,1,90.5,8|2,1:2|0:0,0:0:0:0:
186,205,38826,2,0,L|181:88,1,90.5,0|2,1:2|0:0,0:0:0:0:
128,108,39043,1,2,0:0:0:0:
73,108,39116,2,0,L|67:-2,1,90.5,8|2,1:2|0:0,0:0:0:0:
205,27,39405,6,0,L|209:127,1,90.5,0|2,1:2|0:0,0:0:0:0:
261,141,39623,1,2,0:0:0:0:
314,158,39695,2,0,L|412:149,1,90.5,8|2,1:2|0:0,0:0:0:0:
188,245,39985,2,0,L|186:342,1,90.5,0|8,1:2|1:2,0:0:0:0:
236,353,40202,1,4,0:3:0:0:
389,358,40275,2,0,L|485:355,1,90.5,10|10,1:2|1:2,0:0:0:0:
236,353,40565,6,0,P|195:293|337:211,1,271.5,2|4,1:2|0:3,0:0:0:0:
79,259,41144,2,0,P|46:179|195:100,1,271.5,10|0,1:2|1:1,0:0:0:0:
225,92,41652,1,0,1:1:0:0:
394,309,41724,6,0,L|406:189,1,90.5,2|0,1:2|0:0,0:0:0:0:
168,327,42014,2,0,L|158:227,1,90.5,10|0,1:2|0:0,0:0:0:0:
297,244,42304,2,0,L|303:152,1,90.5,10|0,1:2|1:2,0:0:0:0:
250,147,42521,1,0,1:2:0:0:
101,86,42594,2,0,L|-2:79,1,90.5,8|0,1:3|0:0,0:0:0:0:
245,38,42884,6,0,P|272:87|126:200,1,271.5,6|4,1:2|0:3,0:0:0:0:
282,309,43463,2,0,P|298:259|213:205,1,135.75,8|0,1:2|0:0,0:0:0:0:
198,200,43753,1,2,1:2:0:0:
80,163,43898,1,10,1:2:0:0:
303,117,44043,6,0,L|426:109,1,90.5,4|10,0:3|1:2,0:0:0:0:
269,29,44333,2,0,L|156:38,1,90.5,2|0,1:2|1:0,0:0:0:0:
398,199,44623,2,0,L|406:315,1,90.5,2|0,1:2|0:0,0:0:0:0:
279,357,44913,2,0,L|220:352,1,45.25,2|2,0:3|0:3,0:0:0:0:
285,339,45058,2,0,L|331:343,1,45.25,2|2,0:3|0:3,0:0:0:0:
183,356,45202,5,6,1:2:0:0:
80,344,45347,2,0,L|259:276,1,181,0|0,0:0|1:0,0:0:0:0:
251,259,45710,1,0,1:0:0:0:
99,202,45782,2,0,L|85:85,1,90.5,10|0,1:2|2:3,0:0:0:0:
141,88,46000,1,0,2:3:0:0:
199,82,46072,1,2,1:2:0:0:
419,54,46217,6,0,L|325:121,1,90.5,10|2,1:2|0:0,0:0:0:0:
226,128,46507,1,2,0:0:0:0:
451,222,46652,2,0,L|474:180,2,45.25,10|0|2,0:0|0:0|0:0,0:0:0:0:
324,270,46942,1,2,1:2:0:0:
454,223,47087,1,8,1:2:0:0:
231,339,47231,2,0,L|126:333,1,90.5,10|0,1:2|0:0,0:0:0:0:
381,354,47521,6,0,P|413:283|274:188,1,271.5,6|0,1:2|1:0,0:0:0:0:
151,233,48101,2,0,P|135:173|206:138,1,135.75,8|0,1:2|0:0,0:0:0:0:
237,128,48391,2,0,L|311:126,2,45.25,2|0|8,0:0|0:0|1:2,0:0:0:0:
20,31,48681,5,2,1:2:0:0:
65,35,48753,1,0,0:0:0:0:
110,39,48825,1,8,1:2:0:0:
161,43,48898,1,0,0:0:0:0:
217,51,48971,2,0,L|229:177,1,90.5,2|0,1:3|1:0,0:0:0:0:
97,169,49260,2,0,L|95:270,1,90.5,10|2,1:2|0:0,0:0:0:0:
328,339,49550,5,2,1:2:0:0:
345,298,49622,1,0,1:2:0:0:
325,259,49694,1,2,1:2:0:0:
283,248,49767,1,0,1:2:0:0:
132,347,49840,6,0,L|19:338,1,90.5,6|0,1:2|1:2,0:0:0:0:
268,345,50130,2,0,L|272:244,1,90.5,0|0,1:2|1:2,0:0:0:0:
147,263,50420,2,0,L|140:157,1,90.5,2|0,1:2|0:0,0:0:0:0:
268,162,50710,2,0,L|274:40,1,90.5,0|2,1:0|0:0,0:0:0:0:
490,215,51000,6,0,L|291:144,1,181,2|10,1:2|1:2,0:0:0:0:
421,171,51434,1,0,1:0:0:0:
206,318,51579,2,0,L|192:217,1,90.5,2|0,1:2|1:0,0:0:0:0:
408,342,51869,2,0,L|421:240,1,90.5,10|0,1:2|0:0,0:0:0:0:
182,351,52159,6,0,P|156:283|303:201,1,271.5,4|0,1:2|0:0,0:0:0:0:
171,152,52739,2,0,L|5:129,1,135.75,8|0,0:2|0:0,0:0:0:0:
82,102,53029,1,2,0:0:0:0:
185,84,53173,1,2,0:0:0:0:
299,97,53318,6,0,L|304:242,1,135.75,0|0,1:0|0:0,0:0:0:0:
258,239,53608,1,2,0:3:0:0:
214,246,53680,1,0,0:0:0:0:
169,253,53753,1,0,1:0:0:0:
388,354,53898,6,0,L|492:343,1,90.5,8|0,0:2|0:0,0:0:0:0:
357,282,54188,2,0,L|281:280,1,45.25,2|2,0:3|0:3,0:0:0:0:
357,282,54333,2,0,L|414:285,1,45.25,2|2,0:3|0:3,0:0:0:0:
254,206,54478,6,0,L|61:139,1,181,2|2,1:2|0:3,0:0:0:0:
185,109,54913,1,0,0:0:0:0:
307,125,55058,2,0,P|325:178|235:208,1,135.75,10|2,0:2|0:2,0:0:0:0:
225,226,55347,1,0,0:0:0:0:
114,333,55492,2,0,L|170:340,1,45.25,2|0,0:2|0:0,0:0:0:0:
315,353,55637,6,0,L|414:342,1,90.5,2|8,1:3|0:0,0:0:0:0:
286,278,55927,2,0,L|278:228,1,45.25,2|2,0:3|0:3,0:0:0:0:
341,235,56072,2,0,L|347:172,1,45.25,2|2,0:3|0:3,0:0:0:0:
193,226,56217,5,10,0:0:0:0:
100,271,56362,2,0,P|74:226|170:150,1,181,2|0,0:0|0:0,0:0:0:0:
383,87,56797,6,0,L|194:44,1,181,6|2,1:2|0:3,0:0:0:0:
182,85,57159,1,2,0:3:0:0:
206,46,57231,1,2,0:3:0:0:
255,44,57304,1,2,0:3:0:0:
408,177,57376,6,0,P|423:229|335:256,1,135.75,10|2,0:0|0:0,0:0:0:0:
317,276,57666,1,0,0:0:0:0:
192,355,57811,2,0,L|259:340,1,45.25,2|0,0:0|0:0,0:0:0:0:
290,348,57956,6,0,L|295:249,1,90.5,0|0,1:3|0:0,0:0:0:0:
166,235,58246,2,0,L|41:217,1,90.5,2|0,0:3|1:0,0:0:0:0:
122,199,58463,1,0,0:0:0:0:
274,168,58536,2,0,L|444:158,2,135.75,10|2|2,0:2|0:2|0:2,0:0:0:0:
42,120,59116,6,0,L|222:60,1,181,0|2,1:0|0:3,0:0:0:0:
110,37,59550,1,0,1:0:0:0:
325,318,59695,2,0,P|342:261|235:205,1,181,8|0,0:0|1:0,0:0:0:0:
143,209,60130,1,0,1:0:0:0:
375,128,60275,6,0,L|500:115,1,90.5,4|8,1:2|0:2,0:0:0:0:
410,90,60492,2,0,L|288:89,1,90.5,0|0,1:0|0:0,0:0:0:0:
268,85,60710,1,0,1:2:0:0:
397,42,60855,2,0,L|404:160,1,90.5,8|8,0:2|0:3,0:0:0:0:
179,276,61144,5,8,1:3:0:0:
136,270,61216,1,0,1:3:0:0:
114,230,61288,1,0,1:3:0:0:
136,270,61361,1,0,1:3:0:0:
306,356,61434,6,0,P|377:344|380:157,1,271.5,4|2,1:2|0:0,0:0:0:0:
277,215,62014,2,0,L|261:93,1,90.5,8|0,0:0|0:0,0:0:0:0:
137,99,62304,2,0,L|187:58,1,45.25,0|0,0:0|0:0,0:0:0:0:
230,66,62449,1,0,1:0:0:0:
358,105,62594,5,2,0:0:0:0:
315,112,62666,1,0,0:0:0:0:
295,151,62738,1,0,0:0:0:0:
315,189,62811,1,0,0:0:0:0:
358,197,62884,2,0,L|454:204,1,90.5,0|0,1:0|0:0,0:0:0:0:
317,291,63173,2,0,L|210:300,1,90.5,8|0,0:0|0:0,0:0:0:0:
282,328,63391,2,0,L|391:335,1,90.5,2|0,0:0|0:0,0:0:0:0:
322,309,63608,1,2,0:0:0:0:
106,306,63753,6,0,L|12:296,1,90.5,0|0,1:0|0:0,0:0:0:0:
137,296,64043,2,0,L|141:192,1,90.5,0|0,0:0|0:0,0:0:0:0:
267,169,64333,2,0,L|143:158,1,90.5,8|0,0:0|0:0,0:0:0:0:
151,123,64550,1,0,0:0:0:0:
176,161,64623,2,0,L|283:172,1,90.5,0|0,0:0|1:0,0:0:0:0:
135,279,64913,5,0,0:0:0:0:
92,268,64985,1,0,0:0:0:0:
73,229,65057,1,0,0:0:0:0:
92,189,65130,1,0,0:0:0:0:
135,180,65202,1,0,0:0:0:0:
248,197,65347,1,0,1:0:0:0:
371,105,65492,2,0,L|264:97,1,90.5,8|0,0:0|0:0,0:0:0:0:
69,44,65782,2,0,L|196:30,1,90.5,0|8,1:0|0:0,0:0:0:0:
410,32,66072,6,0,P|430:91|275:188,1,271.5,0|2,1:0|0:0,0:0:0:0:
410,217,66652,2,0,L|419:328,1,90.5,8|0,0:0|0:0,0:0:0:0:
293,355,66942,2,0,L|400:352,1,90.5,0|0,0:0|1:0,0:0:0:0:
332,328,67159,1,0,0:0:0:0:
280,323,67231,6,0,L|243:258,2,45.25,2|0|0,0:0|0:0|0:0,0:0:0:0:
337,328,67449,1,0,0:0:0:0:
280,323,67521,2,0,L|175:321,1,90.5,0|0,1:0|0:0,0:0:0:0:
76,148,67811,2,0,L|172:128,1,90.5,8|0,0:0|0:0,0:0:0:0:
215,108,68029,2,0,L|88:90,1,90.5,2|0,0:0|0:0,0:0:0:0:
74,91,68246,1,2,0:0:0:0:
288,23,68391,6,0,P|314:87|210:136,1,181,0|0,1:0|0:0,0:0:0:0:
117,202,68826,2,0,L|175:212,1,45.25,0|0,0:0|0:0,0:0:0:0:
213,212,68971,2,0,L|218:314,1,90.5,8|0,0:0|0:0,0:0:0:0:
347,339,69260,2,0,L|468:350,1,90.5,2|0,0:0|1:0,0:0:0:0:
197,358,69550,6,0,L|185:258,1,90.5,2|2,1:2|0:2,0:0:0:0:
320,233,69840,2,0,L|425:227,1,90.5,2|2,1:2|0:2,0:0:0:0:
172,174,70130,2,0,L|142:117,2,45.25,8|0|8,1:3|1:0|1:3,0:0:0:0:
299,194,70420,1,8,1:3:0:0:
172,176,70565,1,2,0:0:0:0:
409,351,70710,6,0,P|462:337|452:209,1,181,4|8,1:2|1:2,0:0:0:0:
362,192,71144,2,0,L|312:185,1,45.25,0|0,0:0|0:0,0:0:0:0:
264,194,71289,2,0,L|248:94,1,90.5,0|0,1:2|0:0,0:0:0:0:
304,93,71507,1,0,0:0:0:0:
358,118,71579,2,0,L|367:9,1,90.5,8|0,1:2|0:0,0:0:0:0:
224,24,71869,5,2,1:2:0:0:
309,39,72013,1,2,1:2:0:0:
347,118,72158,1,10,1:2:0:0:
307,195,72303,1,2,1:2:0:0:
215,210,72449,2,0,L|109:210,1,90.5,2|0,1:2|0:0,0:0:0:0:
233,293,72739,1,10,1:2:0:0:
353,312,72884,1,2,1:2:0:0:
125,65,73029,6,0,L|15:77,1,90.5,2|0,1:2|1:2,0:0:0:0:
260,143,73318,2,0,L|266:254,1,90.5,8|0,1:2|0:0,0:0:0:0:
215,255,73536,1,0,0:0:0:0:
158,270,73608,2,0,L|18:248,2,135.75,2|2|2,1:2|0:0|0:0,0:0:0:0:
389,131,74188,6,0,L|286:122,1,90.5,2|2,1:2|0:2,0:0:0:0:
174,48,74478,2,0,L|267:37,1,90.5,10|2,1:2|0:2,0:0:0:0:
394,44,74768,2,0,P|405:102|303:159,1,181,2|10,1:2|1:2,0:0:0:0:
203,171,75202,1,2,1:2:0:0:
446,313,75347,6,0,P|465:255|370:197,1,181,0|8,1:0|1:2,0:0:0:0:
257,228,75782,2,0,L|227:180,1,45.25,0|0,0:0|0:0,0:0:0:0:
257,228,75927,2,0,L|364:221,1,90.5,2|2,1:2|0:2,0:0:0:0:
472,87,76217,2,0,L|357:89,1,90.5,10|2,1:2|0:2,0:0:0:0:
248,106,76507,6,0,L|237:217,1,90.5,2|2,1:2|0:2,0:0:0:0:
290,209,76724,1,0,0:0:0:0:
347,222,76797,2,0,L|363:332,1,90.5,10|2,1:2|0:2,0:0:0:0:
136,366,77087,2,0,P|117:296|215:255,1,181,2|10,1:2|1:2,0:0:0:0:
315,262,77521,1,2,1:2:0:0:
110,113,77666,6,0,L|2:105,1,90.5,2|0,1:2|1:0,0:0:0:0:
248,46,77956,2,0,P|277:104|190:158,1,181,8|2,1:2|1:2,0:0:0:0:
78,204,78391,1,2,0:2:0:0:
33,298,78536,1,10,1:2:0:0:
78,204,78681,1,2,0:2:0:0:
318,223,78826,6,0,L|415:228,1,90.5,14|0,1:2|0:0,0:0:0:0:
162,126,79116,2,0,L|162:20,1,90.5,12|0,1:2|0:0,0:0:0:0:
397,101,79405,2,0,L|290:95,1,90.5,12|0,1:2|0:0,0:0:0:0:
194,182,79695,2,0,L|139:193,1,45.25,0|0,1:2|1:2,0:0:0:0:
301,258,79840,2,0,L|357:255,1,45.25,0|0,1:2|1:2,0:0:0:0:
181,343,79985,6,0,L|21:237,1,181,4|8,1:2|1:2,0:0:0:0:
134,215,80420,1,0,0:0:0:0:
252,223,80565,2,0,L|260:105,1,90.5,0|2,1:2|0:2,0:0:0:0:
210,140,80782,1,2,0:2:0:0:
174,170,80854,1,8,1:2:0:0:
161,213,80927,1,2,0:2:0:0:
175,256,80999,1,2,0:2:0:0:
212,285,81072,1,2,0:2:0:0:
260,292,81144,6,0,L|361:302,1,90.5,0|2,1:2|0:2,0:0:0:0:
298,347,81362,2,0,L|200:349,1,90.5,2|0,0:2|0:0,0:0:0:0:
155,328,81579,1,2,0:2:0:0:
283,272,81724,2,0,L|286:171,1,90.5,0|0,1:2|0:0,0:0:0:0:
232,173,81942,1,0,0:0:0:0:
176,172,82014,2,0,L|152:124,2,45.25,8|0|0,1:2|0:0|1:2,0:0:0:0:
302,119,82304,6,0,L|175:55,1,135.75,0|0,1:2|0:0,0:0:0:0:
230,48,82594,1,8,1:2:0:0:
348,26,82739,1,2,0:2:0:0:
130,237,82884,2,0,L|29:231,2,90.5,2|2|10,1:2|0:2|1:2,0:0:0:0:
252,313,83318,5,2,0:2:0:0:
299,337,83391,2,0,L|134:345,1,135.75,2|0,0:2|0:0,0:0:0:0:
48,260,83753,2,0,L|153:252,1,90.5,8|0,1:2|1:2,0:0:0:0:
186,251,83971,1,0,1:2:0:0:
234,240,84043,2,0,L|262:186,2,45.25,0|0|0,1:2|1:2|1:2,0:0:0:0:
120,141,84333,1,8,1:2:0:0:
234,240,84478,1,0,1:2:0:0:
467,327,84623,6,0,P|479:278|374:212,1,181,2|8,1:2|1:2,0:0:0:0:
284,224,85058,1,0,0:0:0:0:
168,205,85202,2,0,L|160:87,1,90.5,0|0,1:2|0:0,0:0:0:0:
210,122,85419,1,2,0:2:0:0:
246,152,85491,1,10,1:2:0:0:
263,195,85564,1,2,0:2:0:0:
245,238,85636,1,2,0:2:0:0:
200,268,85709,1,2,0:2:0:0:
146,273,85782,6,0,L|34:262,1,90.5,2|2,1:2|0:2,0:0:0:0:
110,223,86000,2,0,L|214:215,1,90.5,2|2,0:2|0:2,0:0:0:0:
252,197,86217,1,2,0:0:0:0:
124,224,86362,2,0,P|103:170|201:111,1,181,2|10,1:2|1:2,0:0:0:0:
308,115,86797,1,2,1:2:0:0:
82,343,86942,6,0,L|70:232,1,90.5,0|0,1:2|1:2,0:0:0:0:
202,222,87231,2,0,L|94:220,1,90.5,10|2,1:2|0:2,0:0:0:0:
65,208,87449,1,2,0:2:0:0:
177,135,87594,2,0,L|309:129,1,90.5,2|0,0:2|0:0,0:0:0:0:
313,118,87811,2,0,L|339:72,2,45.25,8|0|2,1:2|0:0|0:2,0:0:0:0:
90,186,88101,6,0,L|85:86,1,90.5,2|2,1:2|1:2,0:0:0:0:
134,80,88318,1,0,1:2:0:0:
187,72,88391,1,10,1:2:0:0:
72,51,88536,1,2,1:2:0:0:
297,173,88681,2,0,L|401:182,1,90.5,10|0,1:2|1:2,0:0:0:0:
169,286,88971,2,0,L|56:295,1,90.5,8|0,1:2|1:2,0:0:0:0:
330,346,89260,6,0,L|441:339,1,90.5,6|0,1:2|0:0,0:0:0:0:
371,308,89478,2,0,L|269:326,1,90.5,2|0,1:2|0:0,0:0:0:0:
230,308,89695,1,2,1:2:0:0:
457,267,89840,6,0,L|461:168,1,90.5,2|0,1:2|0:0,0:0:0:0:
413,175,90058,2,0,L|504:161,1,90.5,2|0,1:2|0:0,0:0:0:0:
455,137,90275,1,2,1:2:0:0:
237,93,90420,6,0,L|126:84,1,90.5,2|0,1:2|0:0,0:0:0:0:
200,55,90637,1,2,1:2:0:0:
260,52,90710,1,2,0:2:0:0:
377,62,90855,1,2,1:2:0:0:
151,233,91000,2,0,L|19:188,2,135.75,2|2|2,1:2|1:2|1:2,0:0:0:0:
197,235,91507,1,0,0:0:0:0:
350,331,91579,6,0,L|459:319,1,90.5,2|0,1:2|0:0,0:0:0:0:
387,291,91797,2,0,L|282:287,1,90.5,2|0,1:2|0:0,0:0:0:0:
243,277,92014,1,2,1:2:0:0:
465,237,92159,2,0,L|472:132,1,90.5,2|0,1:2|0:0,0:0:0:0:
419,116,92376,2,0,L|323:110,1,90.5,2|0,1:2|0:0,0:0:0:0:
181,170,92594,2,0,L|175:110,1,45.25,2|2,1:2|1:2,0:0:0:0:
321,87,92739,6,0,L|419:71,1,90.5,2|0,1:2|0:0,0:0:0:0:
461,41,92956,2,0,L|350:40,1,90.5,2|0,1:2|0:0,0:0:0:0:
319,42,93173,1,2,1:2:0:0:
97,340,93318,2,0,L|261:308,2,135.75,2|2|2,1:2|1:2|1:2,0:0:0:0:
50,338,93826,1,2,1:2:0:0:
202,232,93898,6,0,L|299:229,1,90.5,2|0,1:2|1:0,0:0:0:0:
244,201,94116,2,0,L|192:200,2,45.25,2|0|0,1:2|1:0|1:0,0:0:0:0:
385,158,94333,2,0,L|439:154,1,45.25,2|0,1:2|0:0,0:0:0:0:
276,107,94478,6,0,L|164:88,1,90.5,2|0,1:2|0:0,0:0:0:0:
235,55,94695,2,0,L|339:49,1,90.5,2|0,1:2|0:0,0:0:0:0:
378,45,94913,1,2,1:2:0:0:
145,205,95058,6,0,L|137:313,1,90.5,2|0,1:2|1:0,0:0:0:0:
191,311,95275,1,2,1:2:0:0:
250,319,95347,1,0,0:0:0:0:
130,360,95492,1,2,1:2:0:0:
354,359,95637,2,0,L|461:346,1,90.5,2|0,1:2|0:0,0:0:0:0:
492,320,95855,2,0,L|390:299,1,90.5,2|0,1:2|0:0,0:0:0:0:
351,298,96072,1,2,1:2:0:0:
129,211,96217,6,0,L|156:106,1,90.5,4|0,1:2|1:2,0:0:0:0:
204,103,96434,1,2,1:2:0:0:
263,100,96507,1,0,1:2:0:0:
42,135,96652,6,0,L|69:30,1,90.5,2|4,1:2|1:2,0:0:0:0:
117,27,96869,1,0,1:2:0:0:
176,24,96942,1,2,1:2:0:0:
398,256,97087,2,0,L|285:252,1,90.5,2|2,1:2|1:2,0:0:0:0:
72,359,97376,6,0,L|188:344,1,90.5,4|8,1:2|1:3,0:0:0:0:
213,334,97594,1,8,1:3:0:0:
274,333,97666,1,8,1:3:0:0:
154,279,97811,1,8,1:3:0:0:
389,281,97956,2,0,L|390:188,1,90.5,8|0,1:3|0:0,0:0:0:0:
147,164,98246,2,0,L|32:164,1,90.5,8|0,1:2|0:0,0:0:0:0:
352,98,98536,6,0,P|371:165|224:276,1,271.5,4|0,1:2|0:0,0:0:0:0:
124,312,99116,2,0,P|105:245|252:134,1,271.5,2|0,0:3|0:2,0:0:0:0:
362,184,99695,5,2,0:2:0:0:
410,107,99840,1,0,0:0:0:0:
362,184,99985,1,2,0:2:0:0:
241,132,100130,1,0,0:0:0:0:
362,184,100275,1,2,0:3:0:0:
425,331,100565,2,0,L|329:329,1,90.5,0|0,1:3|0:0,0:0:0:0:
199,364,100855,6,0,P|219:313|412:235,1,271.5,2|0,1:2|0:0,0:0:0:0:
289,246,101434,2,0,P|221:241|190:58,1,271.5,2|0,0:2|0:0,0:0:0:0:
299,60,102014,5,2,0:2:0:0:
346,150,102159,1,2,0:2:0:0:
299,60,102304,1,0,0:0:0:0:
177,73,102449,1,2,0:2:0:0:
307,80,102594,1,2,0:3:0:0:
120,204,102884,2,0,L|12:214,1,90.5,0|0,1:3|0:0,0:0:0:0:
261,348,103173,6,0,P|278:293|183:243,1,181,0|0,1:0|1:0,0:0:0:0:
79,231,103608,1,0,0:0:0:0:
193,208,103753,2,0,L|195:94,1,90.5,2|0,1:3|0:0,0:0:0:0:
322,135,104043,2,0,L|330:34,1,90.5,0|0,1:0|0:0,0:0:0:0:
204,29,104333,5,0,1:0:0:0:
155,129,104478,1,0,0:0:0:0:
204,29,104623,1,0,1:0:0:0:
329,44,104768,1,0,0:0:0:0:
188,163,104913,2,0,L|27:262,1,181,2|0,1:3|1:0,0:0:0:0:
145,301,105347,1,0,1:0:0:0:
370,335,105492,6,0,L|473:326,1,90.5,8|0,1:2|1:0,0:0:0:0:
329,255,105782,2,0,L|437:246,1,90.5,0|0,1:0|1:0,0:0:0:0:
177,246,106072,1,8,1:2:0:0:
156,207,106144,1,0,1:0:0:0:
173,167,106216,1,0,1:0:0:0:
216,156,106289,1,0,1:0:0:0:
359,141,106362,2,0,L|405:139,1,45.25,8|0,1:2|1:0,0:0:0:0:
257,75,106507,2,0,L|190:71,1,45.25,0|0,1:0|1:0,0:0:0:0:
52,53,106797,6,0,L|39:158,1,90.5,0|0,1:0|1:0,0:0:0:0:
147,184,107087,1,0,1:0:0:0:
372,311,107231,2,0,L|273:323,1,90.5,0|0,1:0|0:0,0:0:0:0:
61,309,107521,2,0,L|159:296,1,90.5,0|0,3:0|0:0,0:0:0:0:
397,226,107811,6,0,L|391:109,1,90.5,6|0,1:2|0:0,0:0:0:0:
337,115,108029,2,0,L|214:115,1,90.5,2|0,0:2|0:0,0:0:0:0:
195,101,108246,1,2,0:2:0:0:
421,35,108391,2,0,L|429:137,1,90.5,2|0,1:2|0:0,0:0:0:0:
377,148,108608,1,0,0:0:0:0:
323,159,108681,1,10,1:2:0:0:
441,224,108826,1,2,0:2:0:0:
217,273,108971,6,0,L|123:259,1,90.5,2|0,1:2|0:0,0:0:0:0:
178,226,109188,1,0,0:0:0:0:
233,221,109260,2,0,L|345:212,1,90.5,10|0,1:2|0:0,0:0:0:0:
189,160,109550,2,0,L|175:68,1,90.5,2|0,1:2|0:0,0:0:0:0:
231,56,109768,1,0,0:0:0:0:
292,52,109840,1,10,1:2:0:0:
168,28,109985,1,2,1:2:0:0:
397,120,110130,6,0,L|500:135,1,90.5,2|0,1:2|0:0,0:0:0:0:
437,174,110347,2,0,L|332:189,1,90.5,2|0,0:2|0:0,0:0:0:0:
293,199,110565,1,2,0:2:0:0:
69,353,110710,2,0,L|179:338,1,90.5,2|2,1:2|0:2,0:0:0:0:
210,337,110927,1,0,0:0:0:0:
270,340,111000,2,0,L|275:242,1,90.5,10|2,1:2|0:2,0:0:0:0:
41,236,111289,6,0,L|31:138,1,90.5,2|2,1:2|0:2,0:0:0:0:
264,97,111579,2,0,L|59:74,1,181,10|0,1:2|1:2,0:0:0:0:
190,42,112014,1,0,0:0:0:0:
406,268,112159,2,0,L|512:266,1,90.5,10|2,1:2|1:2,0:0:0:0:
253,318,112449,5,2,1:2:0:0:
134,306,112594,1,0,1:2:0:0:
361,360,112739,2,0,L|369:234,1,90.5,8|2,1:2|0:2,0:0:0:0:
230,237,113029,2,0,L|218:131,1,90.5,2|0,1:2|0:0,0:0:0:0:
270,130,113246,1,0,0:0:0:0:
417,169,113318,5,8,1:2:0:0:
437,130,113390,1,0,0:0:0:0:
419,90,113462,1,2,0:0:0:0:
376,81,113535,1,0,0:0:0:0:
212,57,113608,6,0,L|141:52,2,45.25,0|2|0,1:2|0:0|0:0,0:0:0:0:
264,80,113826,2,0,L|360:87,1,90.5,2|0,0:0|0:0,0:0:0:0:
304,133,114043,1,2,0:0:0:0:
88,240,114188,5,0,1:2:0:0:
194,275,114333,2,0,L|316:282,1,90.5,2|8,0:0|1:2,0:0:0:0:
239,315,114550,1,0,1:2:0:0:
90,350,114623,2,0,L|16:351,1,45.25,0|0,1:2|1:2,0:0:0:0:
205,278,114768,6,0,L|311:260,1,90.5,2|0,1:2|0:0,0:0:0:0:
242,239,114985,2,0,L|132:229,1,90.5,2|0,0:0|0:0,0:0:0:0:
200,210,115202,1,2,0:0:0:0:
335,195,115347,2,0,L|337:100,1,90.5,2|0,1:2|0:0,0:0:0:0:
285,99,115565,2,0,L|391:91,1,90.5,2|0,0:0|0:0,0:0:0:0:
431,50,115782,2,0,L|368:42,1,45.25,2|2,0:2|0:2,0:0:0:0:
232,41,115927,6,0,L|121:60,1,90.5,0|2,1:2|0:2,0:0:0:0:
190,84,116144,1,2,0:2:0:0:
339,222,116217,2,0,L|356:198,2,22.625,8|0|0,1:2|0:0|0:0,0:0:0:0:
291,249,116362,1,2,0:2:0:0:
242,255,116434,1,0,0:0:0:0:
94,343,116507,6,0,L|82:239,1,90.5,2|0,1:2|0:0,0:0:0:0:
242,255,116724,2,0,L|257:145,1,90.5,2|0,1:2|0:0,0:0:0:0:
96,113,116942,2,0,L|30:110,1,45.25,2|0,1:2|0:0,0:0:0:0:
214,49,117087,6,0,L|348:1,2,135.75,4|2|2,1:2|0:2|0:2,0:0:0:0:
82,108,117666,2,0,L|77:205,1,90.5,10|0,0:2|0:0,0:0:0:0:
130,217,117884,1,0,0:0:0:0:
188,229,117956,1,2,0:2:0:0:
71,299,118101,1,2,0:2:0:0:
297,351,118246,6,0,L|405:348,1,90.5,2|2,1:2|0:2,0:0:0:0:
337,318,118463,1,0,0:0:0:0:
280,306,118536,1,2,0:2:0:0:
167,308,118681,1,2,1:2:0:0:
391,241,118826,2,0,L|505:226,1,90.5,10|0,1:2|1:2,0:0:0:0:
430,210,119043,1,0,1:2:0:0:
264,174,119116,2,0,L|155:173,1,90.5,8|0,1:2|1:2,0:0:0:0:
415,74,119405,6,0,L|299:70,1,90.5,6|2,1:2|1:2,0:0:0:0:
301,43,119623,1,0,0:0:0:0:
324,70,119695,1,10,1:2:0:0:
448,129,119840,1,0,0:0:0:0:
212,197,119985,2,0,L|206:302,1,90.5,2|0,1:2|0:0,0:0:0:0:
257,309,120202,1,0,0:0:0:0:
314,323,120275,2,0,L|412:325,1,90.5,10|2,1:2|0:2,0:0:0:0:
168,365,120565,6,0,L|42:368,1,90.5,2|0,1:2|0:0,0:0:0:0:
127,346,120782,1,0,0:0:0:0:
273,220,120855,2,0,L|384:211,1,90.5,10|2,1:2|0:2,0:0:0:0:
130,249,121144,2,0,P|110:180|219:164,1,181,2|10,1:2|1:2,0:0:0:0:
312,140,121579,1,2,1:2:0:0:
64,342,121724,6,0,L|52:227,1,90.5,6|0,1:2|0:0,0:0:0:0:
108,222,121942,1,0,0:0:0:0:
166,217,122014,1,10,1:2:0:0:
41,163,122159,1,2,0:2:0:0:
262,134,122304,2,0,L|354:129,1,90.5,2|0,1:2|0:0,0:0:0:0:
297,104,122521,1,0,0:0:0:0:
237,95,122594,2,0,L|109:97,1,90.5,10|2,1:2|0:2,0:0:0:0:
386,41,122884,6,0,L|397:158,1,90.5,6|0,1:2|0:0,0:0:0:0:
340,157,123101,1,0,0:0:0:0:
284,167,123173,1,10,1:2:0:0:
413,231,123318,1,2,0:2:0:0:
183,357,123463,2,0,P|162:305|265:245,1,181,2|10,1:2|1:2,0:0:0:0:
366,246,123898,1,10,1:2:0:0:
146,143,124043,6,0,L|30:140,1,90.5,6|0,1:2|0:0,0:0:0:0:
108,106,124260,2,0,L|208:106,1,90.5,2|0,0:2|0:0,0:0:0:0:
253,93,124478,1,2,0:2:0:0:
33,313,124623,2,0,P|26:254|129:204,1,181,2|10,1:2|1:2,0:0:0:0:
232,215,125058,1,10,1:2:0:0:
461,98,125202,6,0,L|348:97,1,90.5,6|8,1:2|1:2,0:0:0:0:
240,102,125492,2,0,L|208:46,2,45.25,0|0|0,1:2|0:0|0:0,0:0:0:0:
462,325,125782,2,0,L|471:226,1,90.5,8|0,1:2|1:2,0:0:0:0:
419,224,126000,1,0,1:2:0:0:
261,309,126072,2,0,L|159:309,1,90.5,2|2,1:2|1:2,0:0:0:0:
410,114,126362,6,0,L|309:103,1,90.5,6|0,1:2|0:0,0:0:0:0:
267,80,126579,2,0,L|369:65,1,90.5,2|0,1:2|0:0,0:0:0:0:
410,60,126797,1,2,1:2:0:0:
175,218,126942,2,0,L|52:209,1,90.5,10|0,1:2|1:2,0:0:0:0:
137,188,127159,1,0,1:2:0:0:
289,254,127231,2,0,L|385:255,1,90.5,2|2,1:2|1:2,0:0:0:0:
145,355,127521,5,2,1:2:0:0:
101,352,127593,1,0,1:2:0:0:
80,314,127665,1,0,1:2:0:0:
102,276,127738,1,0,1:2:0:0:
253,266,127811,1,8,1:2:0:0:
354,242,127956,5,0,1:2:0:0:
375,204,128029,1,0,1:2:0:0:
354,166,128101,1,0,1:2:0:0:
311,163,128173,1,0,1:2:0:0:
153,144,128246,1,8,1:2:0:0:
48,166,128391,2,0,L|36:65,1,90.5,0|2,1:2|0:2,0:0:0:0:
87,65,128608,1,2,0:2:0:0:
255,56,128681,6,0,L|354:73,1,90.5,6|0,1:2|0:0,0:0:0:0:
291,111,128898,2,0,L|188:129,1,90.5,2|0,1:2|0:0,0:0:0:0:
151,130,129116,1,0,1:2:0:0:
364,185,129260,2,0,L|375:295,1,90.5,2|0,1:2|0:0,0:0:0:0:
322,319,129478,2,0,L|412:312,1,90.5,2|0,1:2|0:0,0:0:0:0:
461,317,129695,1,2,1:2:0:0:
232,229,129840,6,0,L|98:224,1,90.5,2|0,1:2|1:2,0:0:0:0:
196,193,130058,1,0,1:2:0:0:
252,181,130130,2,0,L|359:177,1,90.5,2|0,1:2|1:2,0:0:0:0:
115,110,130420,2,0,L|20:101,1,90.5,2|0,1:2|3:2,0:0:0:0:
158,39,130710,2,0,L|269:37,1,90.5,0|2,3:2|0:0,0:0:0:0:
199,84,130927,1,2,0:0:0:0:
43,182,131000,6,0,L|41:284,1,90.5,6|0,1:2|0:0,0:0:0:0:
92,300,131217,2,0,L|200:324,1,90.5,2|0,1:2|0:0,0:0:0:0:
232,328,131434,1,0,1:2:0:0:
450,207,131579,6,0,L|350:203,1,90.5,2|0,1:2|0:0,0:0:0:0:
306,168,131797,2,0,L|415:160,1,90.5,2|0,1:2|0:0,0:0:0:0:
451,153,132014,1,0,1:2:0:0:
226,98,132159,2,0,L|116:100,1,90.5,2|0,1:2|1:2,0:0:0:0:
184,75,132376,1,0,1:2:0:0:
331,60,132449,2,0,L|432:53,1,90.5,2|0,1:2|1:2,0:0:0:0:
158,281,132739,6,0,L|45:268,1,90.5,2|0,1:2|3:2,0:0:0:0:
122,236,132956,1,0,0:0:0:0:
183,228,133029,1,0,3:2:0:0:
57,179,133173,1,2,0:0:0:0:
309,174,133318,5,6,1:2:0:0:
256,192,133463,12,0,135637,0:0:0:0:
