osu file format v14

[General]
AudioFilename: audio.mp3
AudioLeadIn: 0
PreviewTime: 103173
Countdown: 0
SampleSet: Soft
StackLeniency: 0.7
Mode: 2
LetterboxInBreaks: 0
WidescreenStoryboard: 1

[Editor]
Bookmarks: 79985
DistanceSpacing: 3.7
BeatDivisor: 4
GridSize: 32
TimelineZoom: 2.899999

[Metadata]
Title:Urushi
TitleUnicode:漆
Artist:katagiri
ArtistUnicode:かたぎり
Creator:Jemzuu
Version:Jemzuu & Nelly's Overdose
Source:
Tags:featured artist mappers' guild fa mg ajamez rew0825 nelly phob electronic instrumental oriental 世界の合言葉はかたぎり miso-nicomi records MISO-017 うるし SFES2019 J-core 新発売!鬱ハンドスピナー寿司の怪 with 指定暴力団 hardcore core dubstep drum and n bass dnb d&b
BeatmapID:3046611
BeatmapSetID:1482723

[Difficulty]
HPDrainRate:6
CircleSize:4
OverallDifficulty:9.4
ApproachRate:9.4
SliderMultiplier:2.1
SliderTickRate:2

[Events]
//Background and Video events
0,0,"0946f7fc05c8ee387f96fe0bcd2af20984948761_s2_n1.jpg",0,0
//Break Periods
//Storyboard Layer 0 (Background)
//Storyboard Layer 1 (Fail)
//Storyboard Layer 2 (Pass)
//Storyboard Layer 3 (Foreground)
//Storyboard Layer 4 (Overlay)
//Storyboard Sound Samples

[TimingPoints]
1145,289.855072463768,4,2,1,70,1,0
3463,-100,4,2,1,80,0,0
5782,-100,4,2,1,70,0,0
8101,-100,4,2,1,80,0,0
15058,-100,4,2,1,70,0,0
17087,-100,4,2,1,80,0,0
26652,-100,4,2,2,80,0,0
26724,-100,4,2,1,80,0,0
28246,-100,4,2,2,80,0,0
28318,-100,4,2,1,80,0,0
28971,-100,4,2,3,80,0,0
29043,-100,4,2,1,80,0,0
30855,-100,4,2,2,80,0,0
31072,-100,4,2,1,80,0,0
31869,-100,4,2,2,80,0,0
31942,-100,4,2,1,80,0,0
32739,-100,4,2,2,80,0,0
32884,-100,4,2,1,80,0,0
33029,-100,4,2,3,80,0,0
33102,-100,4,2,1,80,0,0
33608,-100,4,2,2,80,0,0
33681,-100,4,2,1,80,0,0
33898,-100,4,2,3,80,0,0
33971,-100,4,2,1,80,0,0
34478,-100,4,2,3,80,0,0
34551,-100,4,2,1,80,0,0
35058,-100,4,2,3,80,0,0
35131,-100,4,2,1,80,0,0
35492,-100,4,2,2,80,0,0
35710,-100,4,2,1,80,0,0
36217,-100,4,2,3,80,0,0
36290,-100,4,2,1,80,0,0
36797,-100,4,2,3,80,0,0
36870,-100,4,2,1,80,0,0
37376,-100,4,2,3,80,0,0
37449,-100,4,2,1,80,0,0
38535,-100,4,2,3,80,0,0
38608,-100,4,2,1,80,0,0
39115,-100,4,2,3,80,0,0
39188,-100,4,2,1,80,0,0
39695,-100,4,2,3,80,0,0
39768,-100,4,2,1,80,0,0
42884,-100,4,2,1,80,0,1
45202,-100,4,2,2,80,0,1
45275,-100,4,2,1,80,0,1
47231,-100,4,2,1,80,0,1
47521,-100,4,2,1,80,0,1
49840,-100,4,2,2,80,0,1
50420,-100,4,2,1,80,0,1
52159,-100,4,2,1,80,0,0
54478,-100,4,2,2,80,0,0
54550,-100,4,2,1,80,0,0
56797,-100,4,2,2,80,0,0
56869,-100,4,2,1,80,0,0
60275,-100,4,2,2,80,0,0
60347,-100,4,2,1,80,0,0
61434,-100,4,2,1,70,0,0
65927,-100,4,2,2,70,0,0
66072,-100,4,2,1,70,0,0
79985,-111.111111111111,4,2,1,70,0,0
89260,-100,4,2,1,80,0,1
96217,-100,4,2,2,80,0,1
96434,-100,4,2,1,80,0,1
96507,-100,4,2,2,80,0,1
96652,-100,4,2,1,80,0,1
96724,-100,4,2,2,80,0,1
96942,-100,4,2,1,80,0,1
97376,-100,4,2,2,80,0,1
98246,-100,4,2,1,80,0,1
98536,-111.111111111111,4,2,1,70,0,0
99550,-111.111111111111,4,3,0,70,0,0
100275,-111.111111111111,4,2,1,70,0,0
100855,-111.111111111111,4,2,2,70,0,0
101434,-111.111111111111,4,2,3,70,0,0
101724,-111.111111111111,4,3,0,70,0,0
102594,-111.111111111111,4,2,1,50,0,0
104333,-111.111111111111,4,2,1,55,0,0
105202,-111.111111111111,4,2,1,60,0,0
105492,-111.111111111111,4,2,1,100,0,0
105782,-111.111111111111,4,2,1,69,0,0
106072,-111.111111111111,4,2,1,72,0,0
106217,-111.111111111111,4,2,1,78,0,0
106362,-111.111111111111,4,2,1,82,0,0
106507,-111.111111111111,4,2,1,87,0,0
106797,-111.111111111111,4,2,1,80,0,0
107811,-100,4,2,1,80,0,1
117087,-111.111111111111,4,2,1,70,0,0
119405,-100,4,2,1,80,0,1
128681,-100,4,2,1,80,0,0
133391,-100,4,2,1,10,0,0
135637,-100,4,2,1,5,0,0

[Colours]
Combo1 : 255,255,128
Combo2 : 40,255,169
Combo3 : 3,165,113
Combo4 : 117,186,255

[HitObjects]
256,192,1145,12,0,3173,0:0:0:0:
151,202,3318,6,0,L|203:199,1,52.5,2|2,0:0|0:0,0:0:0:0:
392,117,3463,6,0,L|230:112,2,157.5,2|2|0,1:2|1:2|1:2,0:0:0:0:
120,308,4043,2,0,L|277:303,2,157.5,2|2|0,1:2|1:2|1:2,0:0:0:0:
411,332,4623,5,2,1:2:0:0:
285,312,4768,1,0,1:2:0:0:
283,266,4840,1,0,1:2:0:0:
282,221,4912,1,2,1:2:0:0:
155,187,5058,1,0,1:2:0:0:
384,127,5202,1,2,1:2:0:0:
155,187,5347,1,0,3:2:0:0:
273,168,5492,1,0,3:2:0:0:
155,187,5637,2,0,L|102:183,1,52.5,2|2,0:0|0:0,0:0:0:0:
309,340,5782,6,0,P|400:330|345:161,1,315,6|2,1:2|0:0,0:0:0:0:
228,249,6362,2,0,P|285:245|327:38,1,315,0|2,0:0|0:0,0:0:0:0:
82,43,6942,5,0,1:2:0:0:
211,135,7087,1,2,0:0:0:0:
185,134,7123,1,0,0:0:0:0:
159,133,7159,1,2,0:0:0:0:
107,131,7231,1,2,0:0:0:0:
357,258,7376,1,0,1:2:0:0:
230,248,7521,1,2,0:0:0:0:
357,258,7666,1,0,3:2:0:0:
121,176,7811,1,0,3:2:0:0:
359,152,7956,2,0,L|411:148,1,52.5,2|2,0:0|0:0,0:0:0:0:
149,339,8101,6,0,P|110:320|149:241,1,105,4|0,1:2|0:0,0:0:0:0:
171,237,8318,1,2,0:0:0:0:
235,163,8391,2,0,L|127:159,1,105,8|2,0:0|0:0,0:0:0:0:
367,66,8681,1,0,1:2:0:0:
283,283,8826,2,0,L|287:174,1,105,2|8,0:0|0:0,0:0:0:0:
415,143,9116,1,2,0:0:0:0:
164,167,9260,5,0,1:2:0:0:
248,79,9405,2,0,L|255:27,2,52.5,0|2|8,0:0|0:0|0:0,0:0:0:0:
121,85,9695,1,2,0:0:0:0:
371,249,9840,1,0,1:2:0:0:
245,246,9985,1,0,3:2:0:0:
476,166,10130,1,8,3:2:0:0:
247,155,10275,2,0,L|188:151,1,52.5,0|2,1:2|0:0,0:0:0:0:
363,339,10420,6,0,P|402:320|363:241,1,105,4|0,1:2|0:0,0:0:0:0:
341,237,10637,1,2,0:0:0:0:
277,163,10710,2,0,L|385:159,1,105,8|2,0:0|0:0,0:0:0:0:
318,119,10927,1,2,0:0:0:0:
145,107,11000,2,0,L|37:103,1,105,0|2,1:2|0:0,0:0:0:0:
167,279,11289,2,0,L|171:226,1,52.5,8|2,0:0|0:0,0:0:0:0:
97,243,11434,2,0,L|101:190,1,52.5,2|2,0:0|0:0,0:0:0:0:
323,157,11579,5,0,1:2:0:0:
196,111,11724,1,2,0:0:0:0:
220,86,11760,1,0,0:0:0:0:
245,73,11796,1,2,0:0:0:0:
404,71,11869,2,0,L|297:67,1,105,8|2,0:0|0:0,0:0:0:0:
65,61,12159,1,0,1:2:0:0:
296,149,12304,1,0,3:2:0:0:
168,158,12449,1,8,3:2:0:0:
400,262,12594,2,0,L|453:258,1,52.5,2|2,0:0|0:0,0:0:0:0:
252,253,12739,6,0,L|249:147,1,105,0|0,1:2|0:0,0:0:0:0:
317,127,12956,1,2,0:0:0:0:
477,73,13029,2,0,L|425:57,1,52.5,8|0,0:0|0:0,0:0:0:0:
367,55,13173,1,2,0:0:0:0:
110,92,13318,1,0,1:2:0:0:
371,185,13463,1,2,0:0:0:0:
247,232,13608,1,8,0:0:0:0:
116,236,13753,1,2,0:0:0:0:
410,313,13898,5,0,1:2:0:0:
284,256,14043,2,0,L|282:200,1,52.5,0|2,0:0|0:0,0:0:0:0:
430,159,14188,2,0,L|485:164,2,52.5,8|0|2,0:0|0:0|0:0,0:0:0:0:
173,170,14478,1,0,1:2:0:0:
410,313,14623,2,0,L|356:310,1,52.5,4|0,3:3|1:2,0:0:0:0:
206,300,14768,1,4,3:3:0:0:
438,207,14913,2,0,L|492:204,1,52.5,0|0,1:2|0:0,0:0:0:0:
213,365,15058,6,0,P|170:353|137:127,1,315,4|2,1:2|0:0,0:0:0:0:
384,301,15637,2,0,L|176:54,1,315,8|2,0:0|0:0,0:0:0:0:
453,319,16217,6,0,L|457:214,1,105,2|2,1:2|0:0,0:0:0:0:
285,245,16434,2,0,L|289:140,1,105,0|0,1:2|0:0,0:0:0:0:
364,116,16652,1,0,1:2:0:0:
89,166,16797,2,0,L|85:61,1,105,10|0,0:2|0:0,0:0:0:0:
306,183,17087,2,0,L|361:178,1,52.5,0|0,3:2|1:2,0:0:0:0:
169,270,17231,2,0,L|114:265,1,52.5,2|2,1:2|1:2,0:0:0:0:
306,334,17376,6,0,L|414:327,1,105,4|0,1:2|0:0,0:0:0:0:
389,271,17594,1,2,0:0:0:0:
337,255,17666,2,0,L|229:248,1,105,8|2,0:0|0:0,0:0:0:0:
477,166,17956,1,0,1:2:0:0:
371,150,18101,2,0,L|366:46,1,105,2|8,0:0|0:0,0:0:0:0:
492,20,18391,1,2,0:0:0:0:
213,194,18536,5,0,1:2:0:0:
319,178,18681,2,0,L|330:125,2,52.5,0|2|8,0:0|0:0|0:0,0:0:0:0:
192,110,18971,1,2,0:0:0:0:
442,332,19116,2,0,L|447:228,1,105,0|0,1:2|3:2,0:0:0:0:
201,170,19405,2,0,L|253:163,1,52.5,0|0,3:2|1:2,0:0:0:0:
402,139,19550,2,0,L|454:132,1,52.5,2|2,1:2|1:2,0:0:0:0:
252,280,19695,6,0,L|146:275,1,105,12|0,0:2|0:0,0:0:0:0:
385,244,19985,1,8,0:0:0:0:
430,204,20057,1,0,0:0:0:0:
421,144,20129,1,2,0:0:0:0:
366,119,20202,1,2,0:0:0:0:
196,38,20275,2,0,L|302:33,1,105,8|2,0:0|0:0,0:0:0:0:
67,143,20565,2,0,L|12:138,1,52.5,8|2,0:0|0:0,0:0:0:0:
204,230,20709,2,0,L|259:225,1,52.5,2|2,0:0|0:0,0:0:0:0:
60,302,20855,5,12,0:0:0:0:
166,226,21000,1,2,0:0:0:0:
133,223,21036,1,0,0:0:0:0:
102,221,21072,1,2,0:0:0:0:
40,217,21144,1,8,0:0:0:0:
291,139,21289,1,2,0:0:0:0:
48,60,21434,1,8,1:2:0:0:
100,57,21506,1,0,1:2:0:0:
152,54,21578,1,4,3:3:0:0:
407,81,21724,1,4,3:3:0:0:
153,149,21869,1,4,3:3:0:0:
444,282,22014,6,0,L|448:175,1,105,4|0,3:3|0:0,0:0:0:0:
219,256,22449,1,2,0:0:0:0:
464,266,22594,6,0,L|468:159,1,105,4|0,3:3|0:0,0:0:0:0:
308,101,23029,1,2,0:0:0:0:
61,93,23173,5,4,3:3:0:0:
310,202,23318,2,0,L|362:197,2,52.5,4|4|4,3:3|3:3|3:3,0:0:0:0:
183,186,23608,1,4,3:3:0:0:
429,353,23753,2,0,L|433:246,1,105,4|0,3:3|0:0,0:0:0:0:
180,228,24043,1,8,0:0:0:0:
429,184,24333,5,4,1:2:0:0:
186,146,24478,2,0,L|177:93,2,52.5,2|2|0,0:0|0:0|1:2,0:0:0:0:
314,154,24768,1,2,0:0:0:0:
72,313,24913,1,0,1:2:0:0:
315,275,25058,2,0,L|324:222,2,52.5,2|2|0,0:0|0:0|1:2,0:0:0:0:
187,283,25348,1,2,0:0:0:0:
429,184,25492,5,2,1:3:0:0:
186,146,25637,2,0,L|177:93,2,52.5,2|2|0,0:0|0:0|1:2,0:0:0:0:
314,154,25927,1,2,0:0:0:0:
72,239,26072,1,2,1:2:0:0:
314,262,26217,1,8,2:3:0:0:
187,273,26362,1,2,1:2:0:0:
314,262,26507,1,8,2:3:0:0:
83,184,26652,5,2,1:2:0:0:
326,146,26797,2,0,L|335:93,2,52.5,2|2|0,0:0|0:0|1:2,0:0:0:0:
198,154,27087,1,2,0:0:0:0:
438,328,27231,1,2,1:2:0:0:
195,290,27376,2,0,L|192:231,1,52.5,2|0,0:0|0:0,0:0:0:0:
248,298,27521,1,0,1:2:0:0:
374,283,27666,1,2,0:0:0:0:
83,184,27811,5,0,1:2:0:0:
326,146,27956,2,0,L|335:93,2,52.5,2|2|0,0:0|0:0|1:2,0:0:0:0:
198,154,28246,1,8,2:3:0:0:
440,307,28391,5,8,1:3:0:0:
471,307,28427,1,0,0:0:0:0:
440,307,28463,1,0,0:0:0:0:
471,307,28499,1,0,0:0:0:0:
440,307,28536,1,0,1:2:0:0:
471,307,28572,1,0,0:0:0:0:
440,307,28608,1,0,0:0:0:0:
376,245,28681,5,8,1:3:0:0:
401,238,28717,1,0,0:0:0:0:
419,220,28753,1,0,0:0:0:0:
426,195,28789,1,0,0:0:0:0:
419,170,28825,1,0,1:2:0:0:
400,152,28862,1,0,0:0:0:0:
375,146,28898,1,0,0:0:0:0:
153,145,28971,5,2,1:2:0:0:
279,132,29116,1,2,0:0:0:0:
282,79,29188,1,2,0:0:0:0:
285,27,29260,1,0,1:2:0:0:
411,15,29405,1,2,0:0:0:0:
153,332,29550,1,0,1:2:0:0:
279,319,29695,1,2,0:0:0:0:
282,266,29767,1,2,0:0:0:0:
285,214,29839,1,0,1:2:0:0:
411,202,29984,1,2,0:0:0:0:
153,145,30130,5,2,1:3:0:0:
279,132,30275,1,2,0:0:0:0:
282,79,30347,1,2,0:0:0:0:
285,27,30419,1,0,1:2:0:0:
411,15,30565,2,0,L|359:11,1,52.5,2|0,0:0|1:2,0:0:0:0:
189,129,30710,2,0,L|241:125,1,52.5,0|0,1:2|1:2,0:0:0:0:
310,116,30855,1,8,0:0:0:0:
68,299,31000,2,0,L|63:192,1,105,8|0,1:2|1:2,0:0:0:0:
326,335,31289,6,0,P|331:300|152:127,1,315,0|0,1:2|0:0,0:0:0:0:
397,285,31869,2,0,P|432:275|398:69,1,315,8|0,1:2|0:0,0:0:0:0:
156,273,32449,6,0,L|151:167,1,105,0|0,1:2|0:0,0:0:0:0:
279,137,32739,2,0,L|283:104,2,26.25,8|0|8,0:0|0:0|0:0,0:0:0:0:
131,159,32884,1,0,1:2:0:0:
373,327,33029,2,0,L|379:221,1,105,8|0,0:2|1:2,0:0:0:0:
137,167,33318,1,0,1:2:0:0:
379,150,33463,1,0,1:2:0:0:
137,268,33608,5,4,1:2:0:0:
263,223,33753,1,2,0:0:0:0:
261,170,33825,1,2,0:0:0:0:
259,118,33897,1,8,1:2:0:0:
132,96,34043,1,2,0:0:0:0:
375,268,34188,1,0,1:2:0:0:
249,223,34333,1,2,0:0:0:0:
251,170,34405,1,2,0:0:0:0:
253,118,34477,1,8,1:2:0:0:
380,96,34623,1,2,0:0:0:0:
138,174,34768,5,0,1:2:0:0:
380,161,34913,1,2,0:0:0:0:
254,150,35058,1,8,1:2:0:0:
380,161,35202,1,2,0:0:0:0:
107,286,35347,1,0,1:2:0:0:
212,262,35492,2,0,L|215:235,1,26.25,8|0,2:3|0:0,0:0:0:0:
104,212,35637,2,0,L|101:185,1,26.25,8|0,2:3|0:0,0:0:0:0:
212,128,35782,2,0,L|266:123,1,52.5,2|2,0:0|0:0,0:0:0:0:
435,203,35927,5,0,1:2:0:0:
193,215,36072,2,0,L|182:266,2,52.5,2|2|8,0:0|0:0|1:2,0:0:0:0:
320,191,36362,1,2,0:0:0:0:
77,203,36507,5,0,1:2:0:0:
319,215,36652,2,0,L|329:266,2,52.5,2|2|8,0:0|0:0|1:2,0:0:0:0:
192,191,36942,1,2,0:0:0:0:
435,172,37087,6,0,L|440:117,1,52.5,0|0,1:2|0:0,0:0:0:0:
247,82,37231,1,0,1:2:0:0:
373,69,37376,1,8,1:2:0:0:
131,35,37521,1,2,0:0:0:0:
374,189,37666,2,0,L|426:184,2,52.5,4|0|2,0:3|0:0|0:0,0:0:0:0:
131,275,37956,1,10,1:2:0:0:
374,296,38101,1,0,1:2:0:0:
100,194,38246,5,4,1:2:0:0:
226,181,38391,1,2,0:0:0:0:
227,128,38463,1,2,0:0:0:0:
228,76,38535,1,8,1:2:0:0:
356,52,38681,1,2,0:0:0:0:
100,194,38826,1,0,1:2:0:0:
226,181,38971,1,2,0:0:0:0:
227,128,39043,1,2,0:0:0:0:
228,76,39115,1,8,1:2:0:0:
356,52,39261,1,2,0:0:0:0:
100,194,39405,5,0,1:2:0:0:
226,181,39550,1,2,0:0:0:0:
227,128,39622,1,2,0:0:0:0:
228,76,39694,1,0,0:0:0:0:
356,52,39840,1,2,0:0:0:0:
111,305,39985,1,0,1:2:0:0:
343,220,40130,1,8,1:2:0:0:
290,218,40202,1,4,0:3:0:0:
238,217,40274,1,10,1:2:0:0:
473,152,40420,1,10,1:2:0:0:
208,341,40565,6,0,P|178:308|289:117,1,315,2|4,1:2|0:3,0:0:0:0:
47,317,41144,2,0,L|229:116,1,262.5,10|0,1:2|0:0,0:0:0:0:
394,74,41579,2,0,L|341:71,1,52.5,0|0,1:1|1:1,0:0:0:0:
168,316,41724,6,0,P|144:284|204:201,1,157.5,2|0,1:2|0:0,0:0:0:0:
339,248,42014,2,0,P|363:216|303:133,1,157.5,10|0,1:2|0:0,0:0:0:0:
113,59,42304,2,0,L|167:56,1,52.5,10|0,1:2|0:0,0:0:0:0:
302,48,42449,2,0,L|356:45,1,52.5,0|0,1:2|1:2,0:0:0:0:
120,200,42594,2,0,L|14:194,1,105,8|0,1:3|0:0,0:0:0:0:
289,361,42884,5,6,1:2:0:0:
315,361,42920,1,0,0:0:0:0:
340,356,42956,1,0,0:0:0:0:
365,347,42992,1,0,0:0:0:0:
387,333,43028,1,0,0:0:0:0:
407,315,43065,1,0,0:0:0:0:
423,295,43101,1,0,0:0:0:0:
435,271,43137,1,0,0:0:0:0:
442,246,43173,1,0,0:0:0:0:
444,220,43210,1,0,0:0:0:0:
442,194,43246,1,0,0:0:0:0:
435,169,43282,1,0,0:0:0:0:
423,145,43318,1,4,0:3:0:0:
189,103,43463,5,8,1:2:0:0:
156,103,43500,1,0,0:0:0:0:
189,103,43536,1,0,0:0:0:0:
156,103,43573,1,0,0:0:0:0:
189,103,43608,1,0,0:0:0:0:
156,103,43645,1,0,0:0:0:0:
189,103,43681,1,0,0:0:0:0:
336,215,43753,1,2,1:2:0:0:
210,214,43898,1,10,1:2:0:0:
453,308,44043,6,0,L|457:278,1,26.25,4|0,0:3|0:0,0:0:0:0:
346,229,44188,1,10,1:2:0:0:
115,214,44333,2,0,L|88:210,1,26.25,2|0,1:2|0:0,0:0:0:0:
200,144,44478,1,0,1:0:0:0:
463,246,44623,2,0,L|465:139,1,105,2|0,1:2|0:0,0:0:0:0:
317,176,44913,1,2,0:3:0:0:
317,143,44949,1,0,0:0:0:0:
323,113,44985,1,2,0:3:0:0:
363,66,45057,1,2,0:3:0:0:
423,52,45130,1,2,0:3:0:0:
183,50,45202,5,6,1:2:0:0:
154,59,45238,1,0,0:0:0:0:
141,87,45274,1,0,0:0:0:0:
154,115,45310,1,0,0:0:0:0:
183,125,45346,1,0,0:0:0:0:
247,125,45420,1,0,0:0:0:0:
448,302,45492,2,0,L|452:194,1,105,2|0,0:0|1:0,0:0:0:0:
387,174,45710,1,0,1:0:0:0:
197,158,45782,1,10,1:2:0:0:
317,143,45927,2,0,L|321:91,1,52.5,0|0,2:3|2:3,0:0:0:0:
130,59,46072,6,0,L|100:56,1,26.25,2|0,1:2|0:0,0:0:0:0:
22,181,46217,2,0,L|22:149,1,26.25,10|0,1:2|0:0,0:0:0:0:
104,245,46362,2,0,L|134:242,1,26.25,2|0,0:0|0:0,0:0:0:0:
351,218,46507,2,0,L|381:215,1,26.25,2|0,0:0|0:0,0:0:0:0:
172,287,46652,6,0,L|161:341,2,52.5,10|0|2,0:0|0:0|0:0,0:0:0:0:
298,220,46942,1,2,1:2:0:0:
176,202,47087,1,8,1:2:0:0:
425,319,47231,2,0,P|458:308|425:220,1,157.5,10|0,1:2|0:0,0:0:0:0:
172,257,47521,5,6,1:2:0:0:
164,232,47557,1,0,0:0:0:0:
160,206,47593,1,0,0:0:0:0:
161,179,47629,1,0,0:0:0:0:
167,154,47665,1,0,0:0:0:0:
177,129,47702,1,0,0:0:0:0:
190,107,47738,1,0,0:0:0:0:
208,88,47774,1,0,0:0:0:0:
229,72,47810,1,0,0:0:0:0:
252,59,47847,1,0,0:0:0:0:
277,51,47883,1,0,0:0:0:0:
303,48,47919,1,0,0:0:0:0:
329,48,47955,1,0,1:0:0:0:
74,59,48101,5,8,1:2:0:0:
41,59,48138,1,0,0:0:0:0:
74,59,48174,1,0,0:0:0:0:
41,59,48211,1,0,0:0:0:0:
74,59,48246,1,0,0:0:0:0:
41,59,48283,1,0,0:0:0:0:
74,59,48319,1,0,0:0:0:0:
245,263,48391,2,0,L|250:210,1,52.5,2|0,0:0|0:0,0:0:0:0:
176,228,48536,2,0,L|181:175,1,52.5,8|0,1:2|0:0,0:0:0:0:
381,131,48681,6,0,L|327:124,1,52.5,2|0,1:2|0:0,0:0:0:0:
191,101,48826,2,0,L|137:94,1,52.5,8|0,1:2|0:0,0:0:0:0:
330,240,48971,2,0,L|436:236,1,105,2|0,1:3|1:0,0:0:0:0:
183,328,49260,2,0,L|77:324,1,105,10|2,1:2|0:0,0:0:0:0:
226,248,49550,2,0,L|231:195,1,52.5,2|0,1:2|1:2,0:0:0:0:
157,213,49695,2,0,L|162:160,1,52.5,2|0,1:2|1:2,0:0:0:0:
342,88,49840,5,6,1:2:0:0:
216,89,49985,1,0,1:2:0:0:
483,320,50130,2,0,L|488:215,1,105,0|0,1:2|1:2,0:0:0:0:
254,274,50420,2,0,L|259:169,1,105,2|0,1:2|0:0,0:0:0:0:
26,224,50710,2,0,L|31:119,1,105,0|2,1:0|0:0,0:0:0:0:
285,55,51000,6,0,L|389:49,1,105,2|0,1:2|0:0,0:0:0:0:
137,236,51289,2,0,L|33:230,1,105,10|0,1:2|1:0,0:0:0:0:
278,336,51579,1,2,1:2:0:0:
152,331,51724,1,0,1:0:0:0:
402,303,51869,2,0,P|442:290|403:212,1,157.5,10|0,1:2|0:0,0:0:0:0:
221,212,52159,6,0,P|197:183|276:64,1,210,4|2,1:2|0:3,0:0:0:0:
402,64,52594,1,0,0:0:0:0:
165,342,52739,2,0,L|160:182,1,157.5,8|0,0:2|0:0,0:0:0:0:
234,159,53029,1,2,0:0:0:0:
109,150,53173,1,2,0:0:0:0:
378,296,53318,6,0,P|419:283|379:207,1,157.5,0|0,1:0|0:0,0:0:0:0:
305,126,53608,1,2,0:3:0:0:
357,123,53680,1,0,0:0:0:0:
409,120,53752,1,0,1:0:0:0:
165,268,53898,2,0,L|161:156,1,105,8|0,0:2|0:0,0:0:0:0:
289,125,54188,2,0,L|284:72,1,52.5,2|2,0:3|0:3,0:0:0:0:
210,91,54333,2,0,L|205:38,1,52.5,2|2,0:3|0:3,0:0:0:0:
397,307,54478,6,0,P|444:308|443:183,1,210,2|2,1:2|0:3,0:0:0:0:
318,163,54913,1,0,0:0:0:0:
84,97,55058,2,0,L|244:87,2,157.5,10|2|2,0:2|0:2|0:2,0:0:0:0:
147,169,55565,1,0,0:0:0:0:
314,273,55637,6,0,L|209:269,1,105,2|8,1:3|0:0,0:0:0:0:
452,336,55927,2,0,L|460:282,3,52.5,2|2|2|2,0:3|0:3|0:3|0:3,0:0:0:0:
293,174,56217,2,0,L|453:164,2,157.5,10|0|0,0:0|0:0|0:0,0:0:0:0:
46,256,56797,6,0,L|256:269,1,210,6|2,1:2|0:3,0:0:0:0:
181,218,57159,2,0,L|169:167,2,52.5,2|2|2,0:3|0:3|0:3,0:0:0:0:
406,319,57376,2,0,P|420:286|347:208,1,157.5,10|2,0:0|0:0,0:0:0:0:
274,138,57666,2,0,L|383:132,1,105,0|2,0:0|0:0,0:0:0:0:
127,330,57956,6,0,P|73:312|128:212,1,210,0|2,1:3|0:3,0:0:0:0:
191,141,58318,1,0,0:0:0:0:
128,137,58390,1,0,1:0:0:0:
65,133,58462,1,0,0:0:0:0:
236,42,58536,2,0,L|78:51,2,157.5,10|2|2,0:2|0:2|0:2,0:0:0:0:
479,292,59116,5,0,1:0:0:0:
488,267,59152,1,0,0:0:0:0:
493,241,59188,1,0,0:0:0:0:
492,215,59224,1,0,0:0:0:0:
485,190,59260,1,0,0:0:0:0:
474,166,59297,1,0,0:0:0:0:
457,146,59333,1,0,0:0:0:0:
437,129,59369,1,0,0:0:0:0:
414,117,59405,1,2,0:3:0:0:
389,110,59442,1,0,0:0:0:0:
362,109,59478,1,0,0:0:0:0:
196,113,59550,2,0,L|143:117,1,52.5,0|0,1:0|0:0,0:0:0:0:
313,239,59695,5,8,0:0:0:0:
344,239,59731,1,0,0:0:0:0:
313,239,59768,1,0,0:0:0:0:
344,239,59804,1,0,0:0:0:0:
313,239,59840,1,0,0:0:0:0:
344,239,59876,1,0,0:0:0:0:
313,239,59913,1,0,0:0:0:0:
166,217,59985,2,0,L|170:162,1,52.5,0|0,1:0|0:0,0:0:0:0:
244,186,60130,2,0,L|248:131,1,52.5,0|0,1:0|0:0,0:0:0:0:
116,80,60275,6,0,L|11:75,1,105,4|8,1:2|0:2,0:0:0:0:
175,176,60492,2,0,L|37:173,1,105,0|0,1:0|0:0,0:0:0:0:
130,220,60710,1,0,1:2:0:0:
360,346,60855,5,8,0:2:0:0:
234,300,61000,1,8,0:3:0:0:
360,346,61144,1,8,1:3:0:0:
413,349,61216,1,0,1:3:0:0:
255,341,61288,1,0,1:3:0:0:
202,339,61361,1,0,1:3:0:0:
379,265,61434,6,0,L|382:160,1,105,4|0,1:2|0:0,0:0:0:0:
255,102,61724,1,0,0:0:0:0:
381,95,61869,1,2,0:0:0:0:
149,234,62014,2,0,L|44:231,1,105,8|0,0:0|0:0,0:0:0:0:
192,152,62304,2,0,L|196:99,1,52.5,0|0,0:0|0:0,0:0:0:0:
122,117,62449,2,0,L|126:64,1,52.5,0|0,1:0|0:0,0:0:0:0:
286,67,62594,6,0,L|242:39,1,52.5,2|0,0:0|0:0,0:0:0:0:
187,26,62739,2,0,L|132:21,1,52.5,0|0,0:0|0:0,0:0:0:0:
297,133,62884,2,0,L|352:128,1,52.5,0|0,1:0|0:0,0:0:0:0:
297,213,63029,2,0,L|242:208,1,52.5,0|0,0:0|0:0,0:0:0:0:
412,349,63173,6,0,L|411:216,1,105,8|0,0:0|0:0,0:0:0:0:
334,244,63391,2,0,L|438:248,1,105,2|0,0:0|0:0,0:0:0:0:
374,175,63608,1,2,0:0:0:0:
132,58,63753,6,0,L|236:54,1,105,0|0,1:0|0:0,0:0:0:0:
105,223,64043,2,0,L|100:118,1,105,0|0,0:0|0:0,0:0:0:0:
354,165,64333,2,0,L|250:161,1,105,8|0,0:0|0:0,0:0:0:0:
397,339,64623,1,0,0:0:0:0:
440,296,64695,1,0,0:0:0:0:
428,237,64767,1,0,1:0:0:0:
372,215,64840,1,0,0:0:0:0:
224,203,64913,6,0,L|169:207,1,52.5,0|0,0:0|0:0,0:0:0:0:
224,123,65058,2,0,L|279:128,1,52.5,0|0,0:0|0:0,0:0:0:0:
88,329,65202,2,0,L|83:224,1,105,0|0,0:0|1:0,0:0:0:0:
148,206,65420,1,0,0:0:0:0:
315,129,65492,2,0,L|211:125,1,105,8|0,0:0|0:0,0:0:0:0:
464,332,65782,2,0,L|469:227,1,105,0|8,1:0|0:0,0:0:0:0:
215,182,66072,6,0,L|110:178,1,105,0|0,1:0|0:0,0:0:0:0:
258,94,66362,1,0,0:0:0:0:
111,84,66507,1,2,0:0:0:0:
364,320,66652,2,0,L|369:215,1,105,8|0,0:0|0:0,0:0:0:0:
221,227,66942,2,0,L|218:174,1,52.5,0|0,0:0|0:0,0:0:0:0:
293,184,67087,2,0,L|290:131,1,52.5,0|0,1:0|0:0,0:0:0:0:
111,84,67231,5,2,0:0:0:0:
68,126,67303,1,0,0:0:0:0:
80,186,67375,1,0,0:0:0:0:
136,208,67448,1,0,0:0:0:0:
295,325,67521,2,0,L|245:293,1,52.5,0|0,1:0|0:0,0:0:0:0:
191,283,67666,2,0,L|135:278,1,52.5,0|0,0:0|0:0,0:0:0:0:
303,237,67811,6,0,L|408:233,1,105,8|0,0:0|0:0,0:0:0:0:
338,204,68029,2,0,L|443:200,1,105,2|0,0:0|0:0,0:0:0:0:
267,117,68246,2,0,L|213:113,1,52.5,2|0,0:0|0:0,0:0:0:0:
384,269,68391,6,0,L|489:265,2,105,0|0|0,1:0|0:0|0:0,0:0:0:0:
260,242,68826,2,0,L|257:171,1,52.5,0|0,0:0|0:0,0:0:0:0:
422,94,68971,2,0,L|317:90,1,105,8|0,0:0|0:0,0:0:0:0:
69,120,69260,2,0,L|59:171,3,52.5,2|0|0|0,0:0|0:0|1:0|0:0,0:0:0:0:
254,53,69550,6,0,L|361:49,1,105,2|2,1:2|0:2,0:0:0:0:
115,199,69840,2,0,L|8:195,1,105,2|2,1:2|0:2,0:0:0:0:
264,311,70130,1,8,1:3:0:0:
138,297,70275,1,8,1:3:0:0:
411,252,70420,2,0,P|444:247|412:167,1,157.5,8|0,1:3|0:0,0:0:0:0:
210,82,70710,6,0,L|421:76,1,210,4|8,1:2|1:2,0:0:0:0:
294,185,71144,2,0,L|242:182,1,52.5,0|0,0:0|0:0,0:0:0:0:
422,315,71289,2,0,P|443:293|383:210,1,157.5,0|0,1:2|0:0,0:0:0:0:
310,143,71579,2,0,L|416:138,1,105,8|0,1:2|0:0,0:0:0:0:
161,45,71869,6,0,L|265:49,2,105,2|2|10,1:2|1:2|1:2,0:0:0:0:
416,177,72304,1,2,1:2:0:0:
164,226,72449,2,0,L|56:222,1,105,2|0,1:2|0:0,0:0:0:0:
302,142,72739,1,10,1:2:0:0:
176,139,72884,1,2,1:2:0:0:
428,322,73029,6,0,L|433:217,1,105,2|0,1:2|1:2,0:0:0:0:
181,170,73318,1,8,1:2:0:0:
307,104,73463,2,0,L|252:101,1,52.5,0|0,0:0|0:0,0:0:0:0:
76,91,73608,2,0,P|55:113|114:196,1,157.5,2|2,1:2|0:0,0:0:0:0:
188,262,73898,2,0,L|81:267,1,105,8|2,1:2|0:0,0:0:0:0:
337,178,74188,6,0,L|443:183,1,105,2|2,1:2|0:2,0:0:0:0:
294,268,74478,1,10,1:2:0:0:
441,265,74623,1,2,0:2:0:0:
189,224,74768,2,0,L|184:119,1,105,2|0,1:2|0:0,0:0:0:0:
311,39,75058,1,10,1:2:0:0:
185,39,75203,1,2,1:2:0:0:
435,137,75347,6,0,L|330:132,1,105,0|0,1:0|0:0,0:0:0:0:
203,234,75637,2,0,L|307:229,1,105,8|0,1:2|0:0,0:0:0:0:
254,281,75855,1,0,0:0:0:0:
56,294,75927,1,2,1:2:0:0:
161,204,76072,2,0,L|215:201,1,52.5,2|0,0:2|0:0,0:0:0:0:
361,117,76217,2,0,L|257:112,1,105,10|2,1:2|0:2,0:0:0:0:
499,243,76507,5,2,1:2:0:0:
373,225,76652,2,0,L|364:173,2,52.5,2|0|10,0:2|0:0|1:2,0:0:0:0:
499,243,76942,1,2,0:2:0:0:
247,322,77087,2,0,L|141:316,1,105,2|0,1:2|0:0,0:0:0:0:
289,230,77376,1,10,1:2:0:0:
142,223,77521,1,2,1:2:0:0:
394,132,77666,6,0,L|288:126,1,105,2|0,1:2|1:0,0:0:0:0:
35,213,77956,1,8,1:2:0:0:
161,311,78101,1,0,0:0:0:0:
108,309,78173,1,0,0:0:0:0:
56,307,78245,1,2,1:2:0:0:
310,200,78391,2,0,L|205:202,2,105,2|10|2,0:2|1:2|0:2,0:0:0:0:
56,224,78826,6,0,L|51:119,1,105,14|0,1:2|0:0,0:0:0:0:
296,188,79116,2,0,L|291:83,1,105,12|0,1:2|0:0,0:0:0:0:
47,62,79405,1,12,1:2:0:0:
152,127,79550,2,0,L|206:124,1,52.5,0|0,0:0|0:0,0:0:0:0:
374,127,79695,1,0,1:2:0:0:
417,131,79744,1,0,0:0:0:0:
374,127,79792,1,0,0:0:0:0:
206,210,79840,2,0,L|153:207,1,52.5,0|0,1:2|1:2,0:0:0:0:
353,310,79985,6,0,P|416:301|399:176,1,188.999994232178,4|8,1:2|1:2,0:0:0:0:
327,164,80420,1,0,0:0:0:0:
214,159,80565,1,0,1:2:0:0:
330,122,80710,2,0,L|383:115,1,47.2499985580445,2|2,0:2|0:2,0:0:0:0:
214,72,80855,2,0,L|158:62,1,47.2499985580445,8|2,1:2|0:2,0:0:0:0:
223,54,81000,2,0,L|291:47,1,47.2499985580445,2|2,0:2|0:2,0:0:0:0:
90,28,81144,6,0,L|85:142,1,94.499997116089,0|2,1:2|0:2,0:0:0:0:
147,153,81362,2,0,L|254:158,1,94.499997116089,2|0,0:2|0:0,0:0:0:0:
302,166,81579,1,2,0:2:0:0:
167,261,81724,2,0,L|51:269,1,94.499997116089,0|0,1:2|0:0,0:0:0:0:
126,297,81942,1,0,0:0:0:0:
293,346,82014,2,0,L|301:282,1,47.2499985580445,8|0,1:2|0:0,0:0:0:0:
228,293,82159,2,0,L|219:239,1,47.2499985580445,0|0,1:2|0:0,0:0:0:0:
390,223,82304,6,0,L|513:209,1,94.499997116089,0|0,1:2|0:0,0:0:0:0:
419,173,82521,2,0,L|316:169,1,94.499997116089,0|0,0:0|0:0,0:0:0:0:
176,155,82739,2,0,L|165:86,1,47.2499985580445,2|0,0:2|0:0,0:0:0:0:
325,66,82884,2,0,L|428:61,1,94.499997116089,2|2,1:2|0:2,0:0:0:0:
180,24,83173,1,10,1:2:0:0:
309,95,83318,5,2,0:2:0:0:
259,124,83391,2,0,L|160:137,1,94.499997116089,2|0,0:2|0:0,0:0:0:0:
112,142,83608,1,0,0:0:0:0:
242,226,83753,1,8,1:2:0:0:
108,319,83898,2,0,L|155:314,1,47.2499985580445,0|0,1:2|1:2,0:0:0:0:
342,226,84043,2,0,L|281:193,1,47.2499985580445,0|0,1:2|1:2,0:0:0:0:
237,195,84188,1,0,1:2:0:0:
364,150,84333,6,0,L|370:87,1,47.2499985580445,8|0,1:2|0:0,0:0:0:0:
196,56,84478,1,0,1:2:0:0:
164,54,84526,1,0,0:0:0:0:
133,53,84574,1,0,0:0:0:0:
299,24,84623,6,0,L|485:89,1,188.999994232178,2|8,1:2|1:2,0:0:0:0:
378,142,85058,1,0,0:0:0:0:
263,166,85202,1,0,1:2:0:0:
390,242,85347,2,0,L|397:315,1,47.2499985580445,0|2,0:0|0:2,0:0:0:0:
233,336,85492,2,0,L|170:338,1,47.2499985580445,10|2,1:2|0:2,0:0:0:0:
241,318,85637,2,0,L|309:311,1,47.2499985580445,2|2,0:2|0:2,0:0:0:0:
113,243,85782,6,0,L|6:228,1,94.499997116089,2|2,1:2|0:2,0:0:0:0:
180,177,86000,2,0,L|294:166,1,94.499997116089,2|2,0:2|0:2,0:0:0:0:
204,149,86217,2,0,L|199:85,1,47.2499985580445,2|0,0:0|0:0,0:0:0:0:
383,160,86362,2,0,P|398:102|280:48,1,188.999994232178,2|10,1:2|1:2,0:0:0:0:
185,54,86797,1,2,1:2:0:0:
419,169,86942,5,0,1:2:0:0:
188,293,87087,1,0,1:2:0:0:
297,329,87231,2,0,L|303:223,1,94.499997116089,10|2,1:2|0:2,0:0:0:0:
245,215,87449,1,2,0:2:0:0:
125,156,87594,2,0,L|236:133,1,94.499997116089,2|0,0:2|0:0,0:0:0:0:
381,123,87811,2,0,L|412:73,2,47.2499985580445,8|0|2,1:2|0:0|0:2,0:0:0:0:
159,56,88101,5,2,1:2:0:0:
273,81,88246,2,0,L|280:150,1,47.2499985580445,2|0,1:2|1:2,0:0:0:0:
85,182,88391,2,0,L|77:302,1,94.499997116089,10|2,1:2|1:2,0:0:0:0:
297,334,88681,2,0,L|175:339,1,94.499997116089,10|0,1:2|1:2,0:0:0:0:
424,283,88971,1,8,1:2:0:0:
197,249,89116,1,0,1:2:0:0:
458,192,89260,6,0,L|470:60,1,105,6|0,1:2|0:0,0:0:0:0:
294,73,89478,2,0,L|159:64,1,105,2|0,1:2|0:0,0:0:0:0:
348,193,89695,2,0,L|419:190,1,52.5,2|0,1:2|0:0,0:0:0:0:
230,284,89840,6,0,L|101:266,1,105,2|0,1:2|0:0,0:0:0:0:
299,226,90058,2,0,L|301:115,1,105,2|0,1:2|0:0,0:0:0:0:
126,97,90275,2,0,L|188:86,1,52.5,2|0,1:2|0:0,0:0:0:0:
345,35,90420,6,0,L|459:40,1,105,2|0,1:2|0:0,0:0:0:0:
287,198,90637,2,0,L|199:202,1,52.5,2|2,1:2|0:2,0:0:0:0:
350,281,90855,1,2,1:2:0:0:
108,349,91000,2,0,L|268:300,2,157.5,2|2|2,1:2|1:2|1:2,0:0:0:0:
54,351,91507,1,0,0:0:0:0:
228,360,91579,6,0,L|351:346,1,105,2|0,1:2|0:0,0:0:0:0:
166,288,91797,2,0,L|165:161,1,105,2|0,1:2|0:0,0:0:0:0:
325,163,92014,2,0,L|386:159,1,52.5,2|0,1:2|0:0,0:0:0:0:
198,97,92159,6,0,L|73:80,1,105,2|0,1:2|0:0,0:0:0:0:
266,38,92376,2,0,L|400:20,1,105,2|0,1:2|0:0,0:0:0:0:
201,250,92594,2,0,L|192:313,1,52.5,2|2,1:2|1:2,0:0:0:0:
366,330,92739,6,0,L|497:316,1,105,2|0,1:2|0:0,0:0:0:0:
303,248,92956,2,0,L|296:96,1,105,2|0,1:2|0:0,0:0:0:0:
466,105,93173,2,0,L|385:99,1,52.5,2|0,1:2|0:0,0:0:0:0:
246,56,93318,6,0,L|400:9,2,157.5,2|2|2,1:2|1:2|1:2,0:0:0:0:
192,62,93826,1,2,1:2:0:0:
21,240,93898,6,0,L|154:257,1,105,2|0,1:2|1:0,0:0:0:0:
292,272,94116,2,0,L|328:217,2,52.5,2|0|0,1:2|1:0|1:0,0:0:0:0:
125,354,94333,2,0,L|59:361,1,52.5,2|0,1:2|0:0,0:0:0:0:
258,364,94478,6,0,L|381:350,1,105,2|0,1:2|0:0,0:0:0:0:
190,309,94695,2,0,L|178:195,1,105,2|0,1:2|0:0,0:0:0:0:
351,178,94913,2,0,L|418:170,1,52.5,2|0,1:2|0:0,0:0:0:0:
223,112,95058,6,0,L|105:105,1,105,2|0,1:2|1:0,0:0:0:0:
297,42,95275,2,0,L|375:35,1,52.5,2|0,1:2|0:0,0:0:0:0:
232,28,95492,1,2,1:2:0:0:
452,199,95637,2,0,L|274:267,2,157.5,2|2|2,1:2|1:2|1:2,0:0:0:0:
397,188,96144,1,0,0:0:0:0:
201,278,96217,6,0,L|185:157,1,105,4|0,1:2|1:2,0:0:0:0:
353,115,96434,2,0,L|421:104,1,52.5,2|0,1:2|1:2,0:0:0:0:
167,173,96652,2,0,L|201:48,1,105,2|4,1:2|1:2,0:0:0:0:
363,32,96869,2,0,L|419:29,1,52.5,0|2,1:2|1:2,0:0:0:0:
186,156,97087,2,0,L|324:151,1,105,2|2,1:2|1:2,0:0:0:0:
48,259,97376,6,0,L|41:121,1,105,4|8,1:2|1:3,0:0:0:0:
100,133,97594,1,8,1:3:0:0:
280,69,97666,2,0,L|143:62,1,105,8|8,1:3|1:3,0:0:0:0:
411,24,97956,6,0,P|441:86|350:126,1,157.5,8|0,1:3|0:0,0:0:0:0:
199,174,98246,1,8,1:2:0:0:
171,181,98282,1,0,0:0:0:0:
159,204,98318,1,0,0:0:0:0:
171,227,98354,1,0,0:0:0:0:
198,235,98391,2,0,L|261:235,1,52.5,0|0,0:0|0:0,0:0:0:0:
458,322,98536,6,0,P|479:259|314:154,1,283.499991348267,4|0,1:2|0:0,0:0:0:0:
200,183,99116,2,0,P|179:246|344:351,1,283.499991348267,2|0,0:3|0:2,0:0:0:0:
204,357,99695,1,2,0:2:0:0:
154,240,99840,1,0,0:0:0:0:
204,357,99985,1,2,0:2:0:0:
326,358,100130,1,0,0:0:0:0:
204,357,100275,1,2,0:3:0:0:
25,123,100565,2,0,L|125:112,1,94.499997116089,0|0,1:3|0:0,0:0:0:0:
258,240,100855,6,0,P|283:177|121:59,1,283.499991348267,2|0,1:2|0:0,0:0:0:0:
287,61,101434,2,0,P|312:124|150:242,1,283.499991348267,2|0,0:2|0:0,0:0:0:0:
299,269,102014,1,2,0:2:0:0:
347,164,102159,1,2,0:2:0:0:
299,269,102304,1,0,0:0:0:0:
172,251,102449,1,2,0:2:0:0:
299,269,102594,1,2,0:3:0:0:
489,360,102884,2,0,L|376:354,1,94.499997116089,0|0,1:3|0:0,0:0:0:0:
155,369,103173,6,0,L|142:243,1,94.499997116089,0|0,1:0|0:0,0:0:0:0:
276,272,103463,2,0,L|276:159,1,94.499997116089,0|0,1:0|0:0,0:0:0:0:
421,178,103753,2,0,L|294:158,1,94.499997116089,2|0,1:3|0:0,0:0:0:0:
200,79,104043,2,0,L|309:64,1,94.499997116089,0|0,1:0|0:0,0:0:0:0:
80,305,104333,5,0,1:0:0:0:
37,224,104477,1,0,0:0:0:0:
75,141,104622,1,0,1:0:0:0:
164,120,104767,1,0,0:0:0:0:
300,173,104913,2,0,L|308:53,1,94.499997116089,2|0,1:3|0:0,0:0:0:0:
103,39,105202,2,0,L|208:35,1,94.499997116089,0|0,1:0|1:0,0:0:0:0:
436,257,105492,6,0,L|324:265,1,94.499997116089,8|0,1:2|1:0,0:0:0:0:
218,311,105782,1,0,1:0:0:0:
343,265,105927,1,0,1:0:0:0:
114,357,106072,2,0,L|158:316,1,47.2499985580445,8|0,1:2|1:0,0:0:0:0:
206,304,106217,2,0,L|276:295,1,47.2499985580445,0|0,1:0|1:0,0:0:0:0:
63,266,106362,2,0,L|55:201,1,47.2499985580445,8|0,1:2|1:0,0:0:0:0:
255,199,106507,2,0,L|263:131,1,47.2499985580445,0|0,1:0|1:0,0:0:0:0:
449,63,106797,6,0,L|335:80,1,94.499997116089,0|0,1:0|1:0,0:0:0:0:
478,180,107087,1,0,1:0:0:0:
228,307,107231,2,0,L|217:181,1,94.499997116089,0|0,1:0|0:0,0:0:0:0:
485,281,107521,2,0,L|358:267,1,94.499997116089,0|0,3:0|0:0,0:0:0:0:
129,135,107811,6,0,L|255:123,1,105,6|0,1:2|0:0,0:0:0:0:
291,82,108029,2,0,L|164:67,1,105,2|0,0:2|0:0,0:0:0:0:
30,142,108246,2,0,L|20:71,1,52.5,2|0,0:2|0:0,0:0:0:0:
196,227,108391,2,0,L|332:247,1,105,2|0,1:2|0:0,0:0:0:0:
72,350,108681,2,0,L|183:337,1,105,10|2,1:2|0:2,0:0:0:0:
414,300,108971,6,0,L|359:204,1,105,2|0,1:2|0:0,0:0:0:0:
302,190,109188,1,0,0:0:0:0:
241,189,109260,1,10,1:2:0:0:
372,151,109405,1,0,0:0:0:0:
130,174,109550,6,0,L|185:78,1,105,2|0,1:2|0:0,0:0:0:0:
242,64,109767,1,0,0:0:0:0:
303,63,109839,1,10,1:2:0:0:
84,54,109985,1,2,1:2:0:0:
315,225,110130,6,0,L|195:249,1,105,2|0,1:2|0:0,0:0:0:0:
273,287,110347,2,0,L|395:300,1,105,2|0,0:2|0:0,0:0:0:0:
217,362,110565,2,0,L|212:297,1,52.5,2|0,0:2|0:0,0:0:0:0:
380,249,110710,2,0,L|496:236,1,105,2|2,1:2|0:2,0:0:0:0:
426,205,110927,1,0,0:0:0:0:
366,202,111000,1,10,1:2:0:0:
490,157,111144,1,2,0:2:0:0:
263,128,111289,2,0,L|373:114,1,105,2|2,1:2|0:2,0:0:0:0:
123,246,111579,6,0,P|57:233|89:107,1,210,10|0,1:2|1:2,0:0:0:0:
179,95,112014,1,0,0:0:0:0:
398,60,112159,1,10,1:2:0:0:
179,60,112304,1,2,1:2:0:0:
406,181,112449,6,0,L|277:194,1,105,2|0,1:2|1:2,0:0:0:0:
436,302,112739,2,0,L|443:194,1,105,8|2,1:2|0:2,0:0:0:0:
207,345,113029,2,0,L|196:222,1,105,2|0,1:2|0:0,0:0:0:0:
251,226,113246,1,0,0:0:0:0:
406,217,113318,2,0,L|408:146,1,52.5,8|0,1:2|0:0,0:0:0:0:
252,144,113463,2,0,L|248:82,1,52.5,2|0,0:0|0:0,0:0:0:0:
85,93,113608,6,0,L|137:60,1,52.5,0|2,1:2|0:0,0:0:0:0:
187,58,113753,1,0,0:0:0:0:
245,108,113826,2,0,L|116:125,1,105,2|0,0:0|0:0,0:0:0:0:
304,231,114043,2,0,L|370:233,1,52.5,2|0,0:0|0:0,0:0:0:0:
177,333,114188,1,0,1:2:0:0:
292,348,114333,2,0,L|298:211,1,105,2|8,0:0|1:2,0:0:0:0:
241,239,114550,1,0,1:2:0:0:
72,187,114623,2,0,L|134:176,1,52.5,0|0,1:2|1:2,0:0:0:0:
303,139,114768,6,0,L|415:131,1,105,2|0,1:2|0:0,0:0:0:0:
344,100,114985,2,0,L|229:91,1,105,2|0,0:0|0:0,0:0:0:0:
168,60,115202,2,0,L|233:48,1,52.5,2|0,0:0|0:0,0:0:0:0:
392,74,115347,2,0,L|405:192,1,105,2|0,1:2|0:0,0:0:0:0:
242,211,115565,2,0,L|233:334,1,105,2|0,0:0|0:0,0:0:0:0:
74,347,115782,2,0,L|10:354,1,52.5,2|2,0:2|0:2,0:0:0:0:
201,303,115927,6,0,L|334:291,1,105,0|2,1:2|0:2,0:0:0:0:
251,273,116144,1,2,0:2:0:0:
72,258,116217,2,0,L|52:218,2,26.25,8|0|0,1:2|0:0|0:0,0:0:0:0:
254,188,116362,1,2,0:2:0:0:
280,185,116398,1,0,0:0:0:0:
306,182,116434,1,0,0:0:0:0:
128,166,116507,6,0,L|115:52,1,105,2|0,1:2|0:0,0:0:0:0:
301,42,116724,2,0,L|412:53,1,105,2|0,1:2|0:0,0:0:0:0:
237,117,116942,2,0,L|234:193,1,52.5,2|0,1:2|0:0,0:0:0:0:
424,262,117087,6,0,L|263:326,2,141.749995674133,4|2|2,1:2|0:2|0:2,0:0:0:0:
305,244,117666,1,10,0:2:0:0:
260,234,117738,1,0,0:0:0:0:
240,193,117810,1,0,0:0:0:0:
260,152,117883,1,0,0:0:0:0:
305,142,117956,2,0,L|425:133,1,94.499997116089,2|2,0:2|0:2,0:0:0:0:
175,80,118246,6,0,L|300:60,1,94.499997116089,2|2,1:2|0:2,0:0:0:0:
294,100,118463,1,0,0:0:0:0:
268,65,118536,1,2,0:2:0:0:
143,168,118681,1,2,1:2:0:0:
383,335,118826,2,0,L|387:212,1,94.499997116089,10|0,1:2|1:2,0:0:0:0:
334,235,119043,1,0,1:2:0:0:
157,254,119116,1,8,1:2:0:0:
375,329,119260,1,0,1:2:0:0:
135,359,119405,6,0,L|16:336,1,105,6|2,1:2|1:2,0:0:0:0:
86,311,119623,1,0,0:0:0:0:
257,188,119695,2,0,L|376:182,1,105,10|0,1:2|0:0,0:0:0:0:
127,195,119985,2,0,L|113:72,1,105,2|0,1:2|0:0,0:0:0:0:
141,88,120166,1,0,0:0:0:0:
167,87,120202,1,0,0:0:0:0:
348,40,120275,2,0,L|228:27,1,105,10|2,1:2|0:2,0:0:0:0:
474,31,120565,6,0,L|483:162,1,105,2|0,1:2|0:0,0:0:0:0:
446,139,120758,1,0,0:0:0:0:
411,143,120806,1,0,0:0:0:0:
248,247,120855,2,0,L|129:242,1,105,10|2,1:2|0:2,0:0:0:0:
375,336,121144,6,0,L|497:329,1,105,2|0,1:2|0:0,0:0:0:0:
256,325,121434,1,10,1:2:0:0:
482,331,121579,1,2,1:2:0:0:
226,210,121724,6,0,L|86:205,1,105,6|0,1:2|0:0,0:0:0:0:
181,174,121942,1,0,0:0:0:0:
246,166,122014,1,10,1:2:0:0:
24,119,122159,1,2,0:2:0:0:
248,79,122304,6,0,L|389:73,1,105,2|0,1:2|0:0,0:0:0:0:
366,50,122485,1,0,0:0:0:0:
352,74,122521,1,0,0:0:0:0:
165,92,122594,2,0,L|51:91,1,105,10|2,1:2|0:2,0:0:0:0:
301,214,122884,6,0,L|172:215,1,105,6|0,1:2|0:0,0:0:0:0:
250,252,123101,1,0,0:0:0:0:
430,282,123173,2,0,L|433:162,1,105,10|2,1:2|0:2,0:0:0:0:
198,347,123463,2,0,L|316:338,1,105,2|0,1:2|0:0,0:0:0:0:
82,300,123753,1,10,1:2:0:0:
303,337,123898,1,10,1:2:0:0:
65,353,124043,6,0,L|51:223,1,105,6|0,1:2|0:0,0:0:0:0:
119,224,124260,2,0,L|244:204,1,105,2|0,0:2|0:0,0:0:0:0:
390,187,124478,2,0,L|396:125,1,52.5,2|0,0:2|0:0,0:0:0:0:
226,102,124623,2,0,L|90:93,1,105,2|0,1:2|0:0,0:0:0:0:
366,44,124913,2,0,L|497:29,1,105,10|10,1:2|1:2,0:0:0:0:
228,195,125202,5,6,1:2:0:0:
355,231,125347,1,8,1:2:0:0:
228,195,125492,1,0,1:2:0:0:
175,197,125564,1,0,0:0:0:0:
123,199,125636,1,0,0:0:0:0:
371,352,125782,6,0,L|376:248,1,105,8|0,1:2|1:2,0:0:0:0:
321,239,126000,1,0,1:2:0:0:
147,286,126072,1,2,1:2:0:0:
361,345,126217,1,2,1:2:0:0:
131,367,126362,6,0,L|8:358,1,105,6|0,1:2|0:0,0:0:0:0:
210,221,126579,2,0,L|324:216,1,105,2|0,1:2|0:0,0:0:0:0:
132,139,126797,2,0,L|54:135,1,52.5,2|0,1:2|0:0,0:0:0:0:
267,102,126942,6,0,L|381:84,1,105,10|0,1:2|1:2,0:0:0:0:
312,64,127159,1,0,1:2:0:0:
129,54,127231,1,2,1:2:0:0:
354,133,127376,1,2,1:2:0:0:
105,191,127521,5,2,1:2:0:0:
80,235,127593,1,0,1:2:0:0:
105,279,127665,1,0,1:2:0:0:
155,282,127738,1,0,1:2:0:0:
330,320,127811,1,8,1:2:0:0:
213,363,127956,6,0,L|277:353,1,52.5,0|0,1:2|1:2,0:0:0:0:
432,230,128101,2,0,L|363:228,1,52.5,0|0,1:2|1:2,0:0:0:0:
212,203,128246,1,8,1:2:0:0:
457,175,128391,2,0,L|462:62,1,105,0|2,1:2|0:2,0:0:0:0:
408,62,128608,1,2,0:2:0:0:
230,91,128681,6,0,L|94:96,1,105,6|0,1:2|0:0,0:0:0:0:
299,179,128898,2,0,L|303:298,1,105,2|0,1:2|0:0,0:0:0:0:
132,322,129116,2,0,L|63:334,1,52.5,0|0,1:2|0:0,0:0:0:0:
261,355,129260,6,0,L|381:342,1,105,2|0,1:2|0:0,0:0:0:0:
192,252,129478,2,0,L|67:237,1,105,2|0,1:2|0:0,0:0:0:0:
257,189,129695,2,0,L|257:130,1,52.5,2|0,1:2|0:0,0:0:0:0:
68,140,129840,6,0,L|57:24,1,105,2|0,1:2|1:2,0:0:0:0:
112,31,130058,1,0,1:2:0:0:
287,111,130130,2,0,L|163:119,1,105,2|0,1:2|1:2,0:0:0:0:
415,190,130420,6,0,L|421:316,1,105,2|0,1:2|3:2,0:0:0:0:
179,332,130710,2,0,L|168:211,1,105,0|2,3:2|0:0,0:0:0:0:
225,214,130927,1,2,0:0:0:0:
402,110,131000,6,0,L|280:87,1,105,6|0,1:2|0:0,0:0:0:0:
127,35,131217,2,0,L|230:17,1,105,2|0,1:2|0:0,0:0:0:0:
402,83,131434,2,0,L|412:158,1,52.5,0|0,1:2|0:0,0:0:0:0:
225,214,131579,6,0,L|115:231,1,105,2|0,1:2|0:0,0:0:0:0:
305,297,131797,2,0,L|432:303,1,105,2|0,1:2|0:0,0:0:0:0:
231,368,132014,2,0,L|157:364,1,52.5,0|0,1:2|0:0,0:0:0:0:
366,361,132159,6,0,L|372:246,1,105,2|0,1:2|1:2,0:0:0:0:
316,245,132376,1,0,1:2:0:0:
145,210,132449,1,2,1:2:0:0:
367,158,132594,1,0,1:2:0:0:
133,107,132739,6,0,L|15:97,1,105,2|0,1:2|3:2,0:0:0:0:
88,69,132956,1,0,0:0:0:0:
151,61,133029,1,0,3:2:0:0:
23,188,133173,1,2,0:0:0:0:
293,238,133318,5,6,1:2:0:0:
256,192,133391,12,0,135637,0:0:0:0:
