osu file format v14

[General]
AudioFilename: audio.ogg
AudioLeadIn: 0
PreviewTime: 157864
Countdown: 0
SampleSet: Normal
StackLeniency: 0.7
Mode: 3
LetterboxInBreaks: 0
SpecialStyle: 0
WidescreenStoryboard: 0

[Editor]
Bookmarks: 13864,27578,34435,48364,61864,116721,130435,144149,199007
DistanceSpacing: 1.5
BeatDivisor: 4
GridSize: 4
TimelineZoom: 2.1

[Metadata]
Title:STRONG 280
TitleUnicode:STRONG 280
Artist:katagiri
ArtistUnicode:かたぎり
Creator:Nicknem_
Version:Conflagration
Source:
Tags:kakusatsu shoujo 核殺少女 fake type. volstead bar feat. maxbet feat.maxbet electronic breakcore japanese speed stamina speedcore 1st FULL ALBUM FAKE BOX lolicore
BeatmapID:3798537
BeatmapSetID:1849145

[Difficulty]
HPDrainRate:8.5
CircleSize:4
OverallDifficulty:8.5
ApproachRate:5
SliderMultiplier:1.4
SliderTickRate:1

[Events]
//Background and Video events
0,0,"DY53xVU.jpg",0,0
//Break Periods
//Storyboard Layer 0 (Background)
//Storyboard Layer 1 (Fail)
//Storyboard Layer 2 (Pass)
//Storyboard Layer 3 (Foreground)
//Storyboard Layer 4 (Overlay)
//Storyboard Sound Samples

[TimingPoints]
150,214.285714285714,4,1,1,50,1,0
75578,-100,4,1,1,50,0,1
103007,-100,4,1,1,50,0,0
157864,-100,4,1,1,50,0,1
185292,-100,4,1,1,50,0,0
212721,-100,4,1,1,50,0,1
240149,-100,4,1,1,50,0,0

[HitObjects]
64,192,150,5,0,0:0:0:0:
64,192,364,1,0,0:0:0:0:
320,192,507,128,0,578:0:0:0:0:
64,192,578,128,0,685:0:0:0:0:
192,192,685,1,0,0:0:0:0:
448,192,792,128,0,1007:0:0:0:0:
320,192,1007,1,0,0:0:0:0:
64,192,1221,1,0,0:0:0:0:
320,192,1364,128,0,1435:0:0:0:0:
64,192,1435,128,0,1542:0:0:0:0:
192,192,1542,1,0,0:0:0:0:
448,192,1649,128,0,1864:0:0:0:0:
320,192,1864,1,0,0:0:0:0:
448,192,2078,1,0,0:0:0:0:
64,192,2185,1,0,0:0:0:0:
192,192,2292,1,0,0:0:0:0:
320,192,2399,1,0,0:0:0:0:
192,192,2453,1,0,0:0:0:0:
64,192,2507,128,0,2721:0:0:0:0:
320,192,2614,1,0,0:0:0:0:
448,192,2721,1,0,0:0:0:0:
192,192,2935,1,0,0:0:0:0:
448,192,3149,1,0,0:0:0:0:
448,192,3257,1,0,0:0:0:0:
64,192,3364,1,0,0:0:0:0:
64,192,3471,1,0,0:0:0:0:
448,192,3578,5,0,0:0:0:0:
448,192,3792,1,0,0:0:0:0:
320,192,3935,128,0,4007:0:0:0:0:
448,192,4007,128,0,4114:0:0:0:0:
192,192,4114,1,0,0:0:0:0:
64,192,4221,128,0,4435:0:0:0:0:
448,192,4435,1,0,0:0:0:0:
448,192,4649,1,0,0:0:0:0:
320,192,4792,128,0,4864:0:0:0:0:
448,192,4864,128,0,4971:0:0:0:0:
192,192,4971,1,0,0:0:0:0:
64,192,5078,128,0,5292:0:0:0:0:
320,192,5292,1,0,0:0:0:0:
64,192,5507,1,0,0:0:0:0:
192,192,5614,1,0,0:0:0:0:
320,192,5667,1,0,0:0:0:0:
448,192,5721,1,0,0:0:0:0:
448,192,5828,1,0,0:0:0:0:
320,192,5882,1,0,0:0:0:0:
192,192,5935,1,0,0:0:0:0:
192,192,6042,1,0,0:0:0:0:
64,192,6149,1,0,0:0:0:0:
320,192,6364,1,0,0:0:0:0:
448,192,6471,1,0,0:0:0:0:
64,192,6578,1,0,0:0:0:0:
192,192,6685,1,0,0:0:0:0:
320,192,6792,1,0,0:0:0:0:
64,192,6899,1,0,0:0:0:0:
448,192,7007,5,0,0:0:0:0:
320,192,7007,1,0,0:0:0:0:
64,192,7221,1,0,0:0:0:0:
320,192,7364,128,0,7435:0:0:0:0:
64,192,7435,1,0,0:0:0:0:
192,192,7435,128,0,7542:0:0:0:0:
320,192,7542,1,0,0:0:0:0:
448,192,7649,128,0,7864:0:0:0:0:
64,192,7649,1,0,0:0:0:0:
320,192,7757,1,0,0:0:0:0:
64,192,7864,1,0,0:0:0:0:
192,192,7864,1,0,0:0:0:0:
448,192,8078,1,0,0:0:0:0:
320,192,8221,128,0,8292:0:0:0:0:
64,192,8292,1,0,0:0:0:0:
192,192,8292,128,0,8399:0:0:0:0:
320,192,8399,1,0,0:0:0:0:
448,192,8507,128,0,8721:0:0:0:0:
64,192,8560,1,0,0:0:0:0:
192,192,8614,1,0,0:0:0:0:
192,192,8721,1,0,0:0:0:0:
64,192,8721,1,0,0:0:0:0:
448,192,8935,1,0,0:0:0:0:
64,192,8935,1,0,0:0:0:0:
320,192,9042,1,0,0:0:0:0:
192,192,9096,1,0,0:0:0:0:
64,192,9149,1,0,0:0:0:0:
64,192,9257,1,0,0:0:0:0:
192,192,9310,1,0,0:0:0:0:
320,192,9364,1,0,0:0:0:0:
320,192,9471,1,0,0:0:0:0:
448,192,9578,1,0,0:0:0:0:
64,192,9578,1,0,0:0:0:0:
192,192,9792,1,0,0:0:0:0:
64,192,9792,1,0,0:0:0:0:
320,192,9899,1,0,0:0:0:0:
192,192,9899,1,0,0:0:0:0:
448,192,10007,1,0,0:0:0:0:
64,192,10007,1,0,0:0:0:0:
320,192,10060,1,0,0:0:0:0:
192,192,10114,1,0,0:0:0:0:
64,192,10221,1,0,0:0:0:0:
448,192,10328,1,0,0:0:0:0:
320,192,10328,1,0,0:0:0:0:
64,192,10435,1,0,0:0:0:0:
192,192,10435,1,0,0:0:0:0:
448,192,10649,1,0,0:0:0:0:
320,192,10649,1,0,0:0:0:0:
192,192,10792,128,0,10864:0:0:0:0:
320,192,10864,128,0,10971:0:0:0:0:
448,192,10864,1,0,0:0:0:0:
64,192,10971,1,0,0:0:0:0:
192,192,10971,1,0,0:0:0:0:
64,192,11078,128,0,11292:0:0:0:0:
448,192,11078,1,0,0:0:0:0:
320,192,11185,1,0,0:0:0:0:
448,192,11292,1,0,0:0:0:0:
192,192,11292,1,0,0:0:0:0:
448,192,11507,1,0,0:0:0:0:
64,192,11507,1,0,0:0:0:0:
192,192,11649,128,0,11721:0:0:0:0:
448,192,11721,1,0,0:0:0:0:
320,192,11721,128,0,11828:0:0:0:0:
192,192,11828,1,0,0:0:0:0:
64,192,11828,1,0,0:0:0:0:
64,192,11935,128,0,12149:0:0:0:0:
448,192,11989,1,0,0:0:0:0:
320,192,12042,1,0,0:0:0:0:
320,192,12149,1,0,0:0:0:0:
448,192,12149,1,0,0:0:0:0:
64,192,12364,1,0,0:0:0:0:
320,192,12471,1,0,0:0:0:0:
192,192,12524,1,0,0:0:0:0:
64,192,12578,1,0,0:0:0:0:
64,192,12685,1,0,0:0:0:0:
192,192,12739,1,0,0:0:0:0:
448,192,12792,128,0,13007:0:0:0:0:
320,192,12792,1,0,0:0:0:0:
64,192,12899,1,0,0:0:0:0:
192,192,13007,1,0,0:0:0:0:
64,192,13007,1,0,0:0:0:0:
320,192,13114,1,0,0:0:0:0:
448,192,13114,1,0,0:0:0:0:
64,192,13221,1,0,0:0:0:0:
320,192,13221,1,0,0:0:0:0:
320,192,13328,1,0,0:0:0:0:
192,192,13328,1,0,0:0:0:0:
448,192,13435,1,0,0:0:0:0:
64,192,13435,1,0,0:0:0:0:
192,192,13435,1,0,0:0:0:0:
320,192,13435,1,0,0:0:0:0:
448,192,13864,1,0,0:0:0:0:
192,192,13864,1,0,0:0:0:0:
64,192,13864,1,0,0:0:0:0:
320,192,13864,1,0,0:0:0:0:
192,192,13971,1,0,0:0:0:0:
320,192,14078,1,0,0:0:0:0:
64,192,14185,1,0,0:0:0:0:
320,192,14292,1,0,0:0:0:0:
448,192,14292,1,0,0:0:0:0:
192,192,14292,1,0,0:0:0:0:
320,192,14399,1,0,0:0:0:0:
64,192,14507,1,0,0:0:0:0:
448,192,14614,1,0,0:0:0:0:
64,192,14721,1,0,0:0:0:0:
192,192,14721,1,0,0:0:0:0:
320,192,14721,1,0,0:0:0:0:
64,192,14828,1,0,0:0:0:0:
320,192,14935,1,0,0:0:0:0:
64,192,15042,1,0,0:0:0:0:
192,192,15042,1,0,0:0:0:0:
448,192,15042,1,0,0:0:0:0:
320,192,15149,1,0,0:0:0:0:
320,192,15257,1,0,0:0:0:0:
192,192,15257,1,0,0:0:0:0:
192,192,15364,1,0,0:0:0:0:
64,192,15364,1,0,0:0:0:0:
448,192,15364,1,0,0:0:0:0:
64,192,15471,1,0,0:0:0:0:
448,192,15578,1,0,0:0:0:0:
192,192,15578,1,0,0:0:0:0:
320,192,15578,1,0,0:0:0:0:
448,192,15685,1,0,0:0:0:0:
192,192,15792,1,0,0:0:0:0:
64,192,15792,1,0,0:0:0:0:
448,192,15899,1,0,0:0:0:0:
320,192,15899,1,0,0:0:0:0:
448,192,16007,1,0,0:0:0:0:
192,192,16007,1,0,0:0:0:0:
64,192,16007,1,0,0:0:0:0:
192,192,16114,1,0,0:0:0:0:
320,192,16221,1,0,0:0:0:0:
448,192,16221,1,0,0:0:0:0:
64,192,16328,1,0,0:0:0:0:
192,192,16328,1,0,0:0:0:0:
448,192,16435,1,0,0:0:0:0:
320,192,16435,1,0,0:0:0:0:
192,192,16435,1,0,0:0:0:0:
320,192,16542,1,0,0:0:0:0:
192,192,16649,1,0,0:0:0:0:
64,192,16649,1,0,0:0:0:0:
448,192,16703,1,0,0:0:0:0:
320,192,16703,1,0,0:0:0:0:
64,192,16757,1,0,0:0:0:0:
192,192,16757,1,0,0:0:0:0:
320,192,16810,1,0,0:0:0:0:
448,192,16810,1,0,0:0:0:0:
64,192,16864,1,0,0:0:0:0:
192,192,16864,1,0,0:0:0:0:
448,192,16971,1,0,0:0:0:0:
320,192,16971,1,0,0:0:0:0:
64,192,17078,1,0,0:0:0:0:
448,192,17078,1,0,0:0:0:0:
320,192,17078,1,0,0:0:0:0:
64,192,17185,1,0,0:0:0:0:
192,192,17292,1,0,0:0:0:0:
448,192,17292,1,0,0:0:0:0:
320,192,17292,1,0,0:0:0:0:
192,192,17399,1,0,0:0:0:0:
448,192,17507,1,0,0:0:0:0:
64,192,17507,1,0,0:0:0:0:
320,192,17614,1,0,0:0:0:0:
192,192,17721,1,0,0:0:0:0:
64,192,17721,1,0,0:0:0:0:
448,192,17721,1,0,0:0:0:0:
192,192,17828,1,0,0:0:0:0:
64,192,17935,1,0,0:0:0:0:
448,192,17935,1,0,0:0:0:0:
320,192,17935,1,0,0:0:0:0:
320,192,18042,1,0,0:0:0:0:
192,192,18042,1,0,0:0:0:0:
192,192,18149,1,0,0:0:0:0:
64,192,18149,1,0,0:0:0:0:
448,192,18149,1,0,0:0:0:0:
64,192,18257,1,0,0:0:0:0:
448,192,18364,1,0,0:0:0:0:
320,192,18364,1,0,0:0:0:0:
192,192,18364,1,0,0:0:0:0:
192,192,18471,1,0,0:0:0:0:
64,192,18471,1,0,0:0:0:0:
320,192,18578,1,0,0:0:0:0:
448,192,18578,1,0,0:0:0:0:
192,192,18632,1,0,0:0:0:0:
64,192,18632,1,0,0:0:0:0:
320,192,18685,1,0,0:0:0:0:
448,192,18685,1,0,0:0:0:0:
64,192,18792,1,0,0:0:0:0:
192,192,18792,1,0,0:0:0:0:
448,192,18792,1,0,0:0:0:0:
448,192,19007,1,0,0:0:0:0:
192,192,19007,1,0,0:0:0:0:
320,192,19007,1,0,0:0:0:0:
192,192,19114,1,0,0:0:0:0:
320,192,19221,1,0,0:0:0:0:
64,192,19328,1,0,0:0:0:0:
192,192,19328,1,0,0:0:0:0:
320,192,19382,1,0,0:0:0:0:
448,192,19382,1,0,0:0:0:0:
192,192,19435,1,0,0:0:0:0:
64,192,19435,1,0,0:0:0:0:
320,192,19542,1,0,0:0:0:0:
192,192,19649,1,0,0:0:0:0:
64,192,19649,1,0,0:0:0:0:
448,192,19649,1,0,0:0:0:0:
448,192,19757,1,0,0:0:0:0:
64,192,19864,1,0,0:0:0:0:
192,192,19864,1,0,0:0:0:0:
320,192,19864,1,0,0:0:0:0:
192,192,19971,1,0,0:0:0:0:
64,192,19971,1,0,0:0:0:0:
320,192,20078,1,0,0:0:0:0:
64,192,20185,1,0,0:0:0:0:
192,192,20185,1,0,0:0:0:0:
448,192,20185,1,0,0:0:0:0:
320,192,20292,1,0,0:0:0:0:
192,192,20292,1,0,0:0:0:0:
64,192,20346,1,0,0:0:0:0:
320,192,20399,1,0,0:0:0:0:
448,192,20399,1,0,0:0:0:0:
192,192,20507,1,0,0:0:0:0:
64,192,20507,1,0,0:0:0:0:
320,192,20614,1,0,0:0:0:0:
448,192,20614,1,0,0:0:0:0:
192,192,20667,1,0,0:0:0:0:
64,192,20667,1,0,0:0:0:0:
448,192,20721,1,0,0:0:0:0:
320,192,20721,1,0,0:0:0:0:
192,192,20828,1,0,0:0:0:0:
64,192,20935,1,0,0:0:0:0:
448,192,20935,1,0,0:0:0:0:
320,192,21042,1,0,0:0:0:0:
448,192,21149,1,0,0:0:0:0:
192,192,21149,1,0,0:0:0:0:
64,192,21149,1,0,0:0:0:0:
192,192,21257,1,0,0:0:0:0:
320,192,21364,1,0,0:0:0:0:
448,192,21364,1,0,0:0:0:0:
64,192,21471,1,0,0:0:0:0:
448,192,21578,1,0,0:0:0:0:
320,192,21578,1,0,0:0:0:0:
192,192,21578,1,0,0:0:0:0:
320,192,21685,1,0,0:0:0:0:
192,192,21792,1,0,0:0:0:0:
448,192,21899,1,0,0:0:0:0:
320,192,21899,1,0,0:0:0:0:
64,192,21899,1,0,0:0:0:0:
64,192,22007,1,0,0:0:0:0:
192,192,22007,1,0,0:0:0:0:
320,192,22060,1,0,0:0:0:0:
448,192,22114,1,0,0:0:0:0:
192,192,22167,1,0,0:0:0:0:
448,192,22221,1,0,0:0:0:0:
320,192,22221,1,0,0:0:0:0:
64,192,22328,1,0,0:0:0:0:
64,192,22435,1,0,0:0:0:0:
448,192,22435,1,0,0:0:0:0:
192,192,22435,1,0,0:0:0:0:
448,192,22542,1,0,0:0:0:0:
192,192,22649,1,0,0:0:0:0:
448,192,22757,1,0,0:0:0:0:
320,192,22810,1,0,0:0:0:0:
448,192,22864,1,0,0:0:0:0:
192,192,22864,1,0,0:0:0:0:
64,192,22864,1,0,0:0:0:0:
64,192,22971,1,0,0:0:0:0:
320,192,23078,1,0,0:0:0:0:
448,192,23078,1,0,0:0:0:0:
64,192,23185,1,0,0:0:0:0:
192,192,23185,1,0,0:0:0:0:
320,192,23292,1,0,0:0:0:0:
192,192,23292,1,0,0:0:0:0:
64,192,23346,1,0,0:0:0:0:
320,192,23399,1,0,0:0:0:0:
448,192,23399,1,0,0:0:0:0:
192,192,23453,1,0,0:0:0:0:
448,192,23507,1,0,0:0:0:0:
64,192,23507,1,0,0:0:0:0:
320,192,23560,1,0,0:0:0:0:
192,192,23614,1,0,0:0:0:0:
320,192,23667,1,0,0:0:0:0:
64,192,23721,1,0,0:0:0:0:
192,192,23721,1,0,0:0:0:0:
320,192,23774,1,0,0:0:0:0:
448,192,23774,1,0,0:0:0:0:
192,192,23828,1,0,0:0:0:0:
64,192,23828,1,0,0:0:0:0:
320,192,23882,1,0,0:0:0:0:
448,192,23882,1,0,0:0:0:0:
192,192,23935,1,0,0:0:0:0:
64,192,23935,1,0,0:0:0:0:
448,192,24042,1,0,0:0:0:0:
320,192,24042,1,0,0:0:0:0:
320,192,24149,1,0,0:0:0:0:
448,192,24149,1,0,0:0:0:0:
192,192,24149,1,0,0:0:0:0:
192,192,24257,1,0,0:0:0:0:
448,192,24364,1,0,0:0:0:0:
320,192,24364,1,0,0:0:0:0:
192,192,24417,1,0,0:0:0:0:
64,192,24417,1,0,0:0:0:0:
320,192,24471,1,0,0:0:0:0:
448,192,24471,1,0,0:0:0:0:
192,192,24524,1,0,0:0:0:0:
64,192,24524,1,0,0:0:0:0:
448,192,24578,1,0,0:0:0:0:
320,192,24578,1,0,0:0:0:0:
64,192,24685,1,0,0:0:0:0:
448,192,24792,1,0,0:0:0:0:
320,192,24792,1,0,0:0:0:0:
64,192,24899,1,0,0:0:0:0:
192,192,24899,1,0,0:0:0:0:
192,192,25007,1,0,0:0:0:0:
320,192,25007,1,0,0:0:0:0:
448,192,25007,1,0,0:0:0:0:
448,192,25114,1,0,0:0:0:0:
320,192,25114,1,0,0:0:0:0:
64,192,25221,1,0,0:0:0:0:
192,192,25221,1,0,0:0:0:0:
320,192,25328,1,0,0:0:0:0:
448,192,25328,1,0,0:0:0:0:
64,192,25435,1,0,0:0:0:0:
192,192,25542,1,0,0:0:0:0:
320,192,25542,1,0,0:0:0:0:
448,192,25649,1,0,0:0:0:0:
320,192,25649,1,0,0:0:0:0:
192,192,25649,1,0,0:0:0:0:
64,192,25864,1,0,0:0:0:0:
320,192,25864,1,0,0:0:0:0:
192,192,25864,1,0,0:0:0:0:
448,192,25971,1,0,0:0:0:0:
192,192,26078,1,0,0:0:0:0:
64,192,26078,1,0,0:0:0:0:
448,192,26185,1,0,0:0:0:0:
320,192,26185,1,0,0:0:0:0:
192,192,26239,1,0,0:0:0:0:
64,192,26239,1,0,0:0:0:0:
320,192,26292,1,0,0:0:0:0:
448,192,26292,1,0,0:0:0:0:
192,192,26399,1,0,0:0:0:0:
320,192,26507,1,0,0:0:0:0:
448,192,26507,1,0,0:0:0:0:
64,192,26507,1,0,0:0:0:0:
64,192,26614,1,0,0:0:0:0:
448,192,26721,1,0,0:0:0:0:
320,192,26721,1,0,0:0:0:0:
192,192,26721,1,0,0:0:0:0:
448,192,26828,1,0,0:0:0:0:
192,192,26935,1,0,0:0:0:0:
64,192,26935,1,0,0:0:0:0:
448,192,27042,1,0,0:0:0:0:
64,192,27042,1,0,0:0:0:0:
448,192,27149,1,0,0:0:0:0:
320,192,27149,1,0,0:0:0:0:
192,192,27203,1,0,0:0:0:0:
448,192,27257,1,0,0:0:0:0:
320,192,27257,1,0,0:0:0:0:
192,192,27310,1,0,0:0:0:0:
320,192,27364,1,0,0:0:0:0:
448,192,27364,1,0,0:0:0:0:
192,192,27417,1,0,0:0:0:0:
320,192,27471,1,0,0:0:0:0:
448,192,27471,1,0,0:0:0:0:
192,192,27524,1,0,0:0:0:0:
64,192,27578,1,0,0:0:0:0:
448,192,27578,1,0,0:0:0:0:
192,192,28007,1,0,0:0:0:0:
192,192,28435,1,0,0:0:0:0:
192,192,28864,1,0,0:0:0:0:
64,192,29078,1,0,0:0:0:0:
448,192,29292,1,0,0:0:0:0:
448,192,29721,1,0,0:0:0:0:
448,192,30149,1,0,0:0:0:0:
320,192,30364,1,0,0:0:0:0:
64,192,30471,1,0,0:0:0:0:
448,192,30578,1,0,0:0:0:0:
192,192,30685,1,0,0:0:0:0:
320,192,30792,1,0,0:0:0:0:
448,192,31007,1,0,0:0:0:0:
448,192,31435,1,0,0:0:0:0:
448,192,31864,1,0,0:0:0:0:
448,192,32292,1,0,0:0:0:0:
448,192,32399,1,0,0:0:0:0:
64,192,32507,1,0,0:0:0:0:
320,192,32721,1,0,0:0:0:0:
448,192,32721,1,0,0:0:0:0:
320,192,33149,1,0,0:0:0:0:
448,192,33149,1,0,0:0:0:0:
320,192,33578,1,0,0:0:0:0:
448,192,33578,1,0,0:0:0:0:
448,192,34007,128,0,34221:0:0:0:0:
64,192,34007,1,0,0:0:0:0:
320,192,34060,128,0,34221:0:0:0:0:
192,192,34221,1,0,0:0:0:0:
320,192,34328,1,0,0:0:0:0:
64,192,34435,1,0,0:0:0:0:
192,192,34435,1,0,0:0:0:0:
448,192,34435,1,0,0:0:0:0:
448,192,34542,1,0,0:0:0:0:
64,192,34649,1,0,0:0:0:0:
320,192,34757,1,0,0:0:0:0:
64,192,34757,1,0,0:0:0:0:
192,192,34757,1,0,0:0:0:0:
320,192,34864,1,0,0:0:0:0:
448,192,34971,1,0,0:0:0:0:
192,192,35078,1,0,0:0:0:0:
320,192,35078,1,0,0:0:0:0:
448,192,35078,1,0,0:0:0:0:
192,192,35185,1,0,0:0:0:0:
64,192,35292,1,0,0:0:0:0:
320,192,35292,1,0,0:0:0:0:
448,192,35292,1,0,0:0:0:0:
64,192,35399,1,0,0:0:0:0:
192,192,35507,1,0,0:0:0:0:
448,192,35614,1,0,0:0:0:0:
320,192,35614,1,0,0:0:0:0:
64,192,35721,1,0,0:0:0:0:
192,192,35721,1,0,0:0:0:0:
320,192,35828,1,0,0:0:0:0:
448,192,35828,1,0,0:0:0:0:
192,192,35882,1,0,0:0:0:0:
64,192,35935,1,0,0:0:0:0:
320,192,35935,1,0,0:0:0:0:
448,192,35935,1,0,0:0:0:0:
192,192,36042,1,0,0:0:0:0:
64,192,36042,1,0,0:0:0:0:
64,192,36149,1,0,0:0:0:0:
448,192,36149,1,0,0:0:0:0:
320,192,36149,1,0,0:0:0:0:
320,192,36257,1,0,0:0:0:0:
448,192,36364,1,0,0:0:0:0:
192,192,36364,1,0,0:0:0:0:
64,192,36364,1,0,0:0:0:0:
192,192,36471,1,0,0:0:0:0:
64,192,36578,1,0,0:0:0:0:
448,192,36578,1,0,0:0:0:0:
320,192,36632,1,0,0:0:0:0:
192,192,36685,1,0,0:0:0:0:
64,192,36685,1,0,0:0:0:0:
448,192,36792,1,0,0:0:0:0:
320,192,36792,1,0,0:0:0:0:
192,192,36792,1,0,0:0:0:0:
448,192,36899,1,0,0:0:0:0:
192,192,37007,1,0,0:0:0:0:
320,192,37007,1,0,0:0:0:0:
64,192,37007,1,0,0:0:0:0:
320,192,37114,1,0,0:0:0:0:
192,192,37221,1,0,0:0:0:0:
64,192,37221,1,0,0:0:0:0:
448,192,37221,1,0,0:0:0:0:
192,192,37328,1,0,0:0:0:0:
320,192,37328,1,0,0:0:0:0:
64,192,37382,1,0,0:0:0:0:
448,192,37435,1,0,0:0:0:0:
320,192,37435,1,0,0:0:0:0:
192,192,37489,1,0,0:0:0:0:
64,192,37542,1,0,0:0:0:0:
448,192,37542,1,0,0:0:0:0:
320,192,37596,1,0,0:0:0:0:
64,192,37649,1,0,0:0:0:0:
192,192,37649,1,0,0:0:0:0:
320,192,37703,1,0,0:0:0:0:
448,192,37757,1,0,0:0:0:0:
64,192,37810,1,0,0:0:0:0:
192,192,37864,1,0,0:0:0:0:
448,192,37864,1,0,0:0:0:0:
320,192,37864,1,0,0:0:0:0:
64,192,38078,1,0,0:0:0:0:
192,192,38078,1,0,0:0:0:0:
448,192,38078,1,0,0:0:0:0:
320,192,38185,1,0,0:0:0:0:
320,192,38292,1,0,0:0:0:0:
64,192,38292,1,0,0:0:0:0:
64,192,38399,1,0,0:0:0:0:
192,192,38507,1,0,0:0:0:0:
448,192,38507,1,0,0:0:0:0:
320,192,38507,1,0,0:0:0:0:
448,192,38614,1,0,0:0:0:0:
64,192,38721,1,0,0:0:0:0:
320,192,38721,1,0,0:0:0:0:
192,192,38721,1,0,0:0:0:0:
192,192,38828,1,0,0:0:0:0:
320,192,38935,1,0,0:0:0:0:
448,192,38935,1,0,0:0:0:0:
448,192,39042,1,0,0:0:0:0:
320,192,39042,1,0,0:0:0:0:
192,192,39042,1,0,0:0:0:0:
64,192,39149,1,0,0:0:0:0:
192,192,39203,1,0,0:0:0:0:
448,192,39257,1,0,0:0:0:0:
320,192,39257,1,0,0:0:0:0:
192,192,39310,1,0,0:0:0:0:
64,192,39364,1,0,0:0:0:0:
448,192,39364,1,0,0:0:0:0:
320,192,39364,1,0,0:0:0:0:
192,192,39471,1,0,0:0:0:0:
64,192,39471,1,0,0:0:0:0:
448,192,39578,1,0,0:0:0:0:
320,192,39578,1,0,0:0:0:0:
320,192,39685,1,0,0:0:0:0:
192,192,39792,1,0,0:0:0:0:
448,192,39792,1,0,0:0:0:0:
64,192,39792,1,0,0:0:0:0:
192,192,39899,1,0,0:0:0:0:
320,192,39899,1,0,0:0:0:0:
64,192,40007,1,0,0:0:0:0:
448,192,40007,1,0,0:0:0:0:
320,192,40007,1,0,0:0:0:0:
64,192,40114,1,0,0:0:0:0:
320,192,40221,1,0,0:0:0:0:
448,192,40221,1,0,0:0:0:0:
192,192,40221,1,0,0:0:0:0:
64,192,40328,1,0,0:0:0:0:
320,192,40435,1,0,0:0:0:0:
192,192,40435,1,0,0:0:0:0:
448,192,40435,1,0,0:0:0:0:
64,192,40542,1,0,0:0:0:0:
192,192,40596,1,0,0:0:0:0:
320,192,40649,1,0,0:0:0:0:
448,192,40649,1,0,0:0:0:0:
192,192,40757,1,0,0:0:0:0:
64,192,40810,1,0,0:0:0:0:
320,192,40864,1,0,0:0:0:0:
448,192,40864,1,0,0:0:0:0:
192,192,40917,1,0,0:0:0:0:
64,192,40971,1,0,0:0:0:0:
448,192,40971,1,0,0:0:0:0:
320,192,41024,1,0,0:0:0:0:
192,192,41078,1,0,0:0:0:0:
448,192,41078,1,0,0:0:0:0:
64,192,41078,1,0,0:0:0:0:
320,192,41185,1,0,0:0:0:0:
192,192,41292,1,0,0:0:0:0:
64,192,41292,1,0,0:0:0:0:
448,192,41292,1,0,0:0:0:0:
192,192,41399,1,0,0:0:0:0:
320,192,41507,1,0,0:0:0:0:
320,192,41614,1,0,0:0:0:0:
448,192,41614,1,0,0:0:0:0:
64,192,41614,1,0,0:0:0:0:
64,192,41721,1,0,0:0:0:0:
448,192,41828,1,0,0:0:0:0:
320,192,41882,1,0,0:0:0:0:
192,192,41935,1,0,0:0:0:0:
64,192,41935,1,0,0:0:0:0:
448,192,41935,1,0,0:0:0:0:
192,192,42042,1,0,0:0:0:0:
320,192,42042,1,0,0:0:0:0:
448,192,42149,1,0,0:0:0:0:
64,192,42149,1,0,0:0:0:0:
320,192,42149,1,0,0:0:0:0:
192,192,42257,1,0,0:0:0:0:
448,192,42364,1,0,0:0:0:0:
64,192,42364,1,0,0:0:0:0:
320,192,42471,1,0,0:0:0:0:
192,192,42471,1,0,0:0:0:0:
64,192,42578,1,0,0:0:0:0:
192,192,42578,1,0,0:0:0:0:
320,192,42685,1,0,0:0:0:0:
448,192,42685,1,0,0:0:0:0:
192,192,42739,1,0,0:0:0:0:
64,192,42739,1,0,0:0:0:0:
320,192,42792,1,0,0:0:0:0:
448,192,42792,1,0,0:0:0:0:
192,192,42899,1,0,0:0:0:0:
64,192,42899,1,0,0:0:0:0:
320,192,42899,1,0,0:0:0:0:
64,192,43007,1,0,0:0:0:0:
448,192,43007,1,0,0:0:0:0:
192,192,43042,1,0,0:0:0:0:
320,192,43078,1,0,0:0:0:0:
448,192,43114,1,0,0:0:0:0:
64,192,43149,1,0,0:0:0:0:
192,192,43185,1,0,0:0:0:0:
320,192,43221,1,0,0:0:0:0:
448,192,43221,1,0,0:0:0:0:
192,192,43328,1,0,0:0:0:0:
448,192,43435,1,0,0:0:0:0:
64,192,43435,1,0,0:0:0:0:
320,192,43471,1,0,0:0:0:0:
192,192,43507,1,0,0:0:0:0:
448,192,43542,1,0,0:0:0:0:
64,192,43542,1,0,0:0:0:0:
320,192,43649,1,0,0:0:0:0:
448,192,43649,1,0,0:0:0:0:
192,192,43649,1,0,0:0:0:0:
320,192,43757,1,0,0:0:0:0:
192,192,43757,1,0,0:0:0:0:
64,192,43757,1,0,0:0:0:0:
448,192,43864,1,0,0:0:0:0:
64,192,43864,1,0,0:0:0:0:
448,192,43971,1,0,0:0:0:0:
64,192,44078,1,0,0:0:0:0:
320,192,44078,1,0,0:0:0:0:
192,192,44132,1,0,0:0:0:0:
448,192,44185,1,0,0:0:0:0:
64,192,44185,1,0,0:0:0:0:
320,192,44292,1,0,0:0:0:0:
192,192,44292,1,0,0:0:0:0:
64,192,44346,1,0,0:0:0:0:
320,192,44399,1,0,0:0:0:0:
448,192,44399,1,0,0:0:0:0:
192,192,44453,1,0,0:0:0:0:
448,192,44507,1,0,0:0:0:0:
64,192,44507,1,0,0:0:0:0:
320,192,44614,1,0,0:0:0:0:
64,192,44721,1,0,0:0:0:0:
192,192,44721,1,0,0:0:0:0:
448,192,44721,1,0,0:0:0:0:
448,192,44935,1,0,0:0:0:0:
320,192,44935,1,0,0:0:0:0:
192,192,44989,1,0,0:0:0:0:
64,192,44989,1,0,0:0:0:0:
320,192,45042,1,0,0:0:0:0:
448,192,45042,1,0,0:0:0:0:
192,192,45096,1,0,0:0:0:0:
64,192,45096,1,0,0:0:0:0:
320,192,45149,1,0,0:0:0:0:
448,192,45149,1,0,0:0:0:0:
192,192,45257,1,0,0:0:0:0:
64,192,45364,1,0,0:0:0:0:
448,192,45364,1,0,0:0:0:0:
320,192,45471,1,0,0:0:0:0:
448,192,45471,1,0,0:0:0:0:
64,192,45578,1,0,0:0:0:0:
192,192,45578,1,0,0:0:0:0:
320,192,45578,1,0,0:0:0:0:
64,192,45792,1,0,0:0:0:0:
192,192,45792,1,0,0:0:0:0:
448,192,45864,1,0,0:0:0:0:
320,192,45864,1,0,0:0:0:0:
64,192,45935,1,0,0:0:0:0:
192,192,45935,1,0,0:0:0:0:
448,192,46007,1,0,0:0:0:0:
320,192,46007,1,0,0:0:0:0:
64,192,46060,1,0,0:0:0:0:
192,192,46114,1,0,0:0:0:0:
320,192,46114,1,0,0:0:0:0:
448,192,46221,1,0,0:0:0:0:
192,192,46221,1,0,0:0:0:0:
64,192,46221,1,0,0:0:0:0:
320,192,46328,1,0,0:0:0:0:
448,192,46328,1,0,0:0:0:0:
64,192,46328,1,0,0:0:0:0:
320,192,46435,1,0,0:0:0:0:
448,192,46435,1,0,0:0:0:0:
192,192,46435,1,0,0:0:0:0:
192,192,46542,1,0,0:0:0:0:
64,192,46542,1,0,0:0:0:0:
320,192,46542,1,0,0:0:0:0:
448,192,46649,1,0,0:0:0:0:
192,192,46649,1,0,0:0:0:0:
64,192,46649,1,0,0:0:0:0:
64,192,46757,1,0,0:0:0:0:
192,192,46864,1,0,0:0:0:0:
320,192,46864,1,0,0:0:0:0:
192,192,46971,5,0,0:0:0:0:
64,192,47078,1,0,0:0:0:0:
320,192,47078,1,0,0:0:0:0:
448,192,47078,1,0,0:0:0:0:
320,192,47185,1,0,0:0:0:0:
192,192,47292,1,0,0:0:0:0:
64,192,47292,1,0,0:0:0:0:
448,192,47292,1,0,0:0:0:0:
192,192,47399,1,0,0:0:0:0:
320,192,47507,1,0,0:0:0:0:
448,192,47507,1,0,0:0:0:0:
192,192,47614,1,0,0:0:0:0:
64,192,47614,1,0,0:0:0:0:
320,192,47721,1,0,0:0:0:0:
448,192,47721,1,0,0:0:0:0:
64,192,47721,1,0,0:0:0:0:
320,192,47828,1,0,0:0:0:0:
448,192,47828,1,0,0:0:0:0:
192,192,47882,1,0,0:0:0:0:
64,192,47882,1,0,0:0:0:0:
320,192,47935,1,0,0:0:0:0:
448,192,47935,1,0,0:0:0:0:
192,192,48042,1,0,0:0:0:0:
64,192,48042,1,0,0:0:0:0:
64,192,48149,5,0,0:0:0:0:
192,192,48149,1,0,0:0:0:0:
448,192,48149,1,0,0:0:0:0:
320,192,48257,1,0,0:0:0:0:
192,192,48257,1,0,0:0:0:0:
320,192,48364,1,0,0:0:0:0:
448,192,48364,1,0,0:0:0:0:
192,192,48471,1,0,0:0:0:0:
64,192,48471,1,0,0:0:0:0:
448,192,48471,1,0,0:0:0:0:
192,192,48578,1,0,0:0:0:0:
320,192,48578,1,0,0:0:0:0:
448,192,48685,1,0,0:0:0:0:
192,192,48792,1,0,0:0:0:0:
320,192,48792,1,0,0:0:0:0:
64,192,48792,1,0,0:0:0:0:
64,192,48899,1,0,0:0:0:0:
448,192,49007,1,0,0:0:0:0:
320,192,49007,1,0,0:0:0:0:
192,192,49060,1,0,0:0:0:0:
64,192,49114,1,0,0:0:0:0:
448,192,49167,1,0,0:0:0:0:
320,192,49221,1,0,0:0:0:0:
64,192,49274,1,0,0:0:0:0:
192,192,49328,1,0,0:0:0:0:
320,192,49328,1,0,0:0:0:0:
448,192,49435,1,0,0:0:0:0:
64,192,49435,1,0,0:0:0:0:
320,192,49542,1,0,0:0:0:0:
448,192,49542,1,0,0:0:0:0:
192,192,49596,1,0,0:0:0:0:
64,192,49596,1,0,0:0:0:0:
320,192,49649,1,0,0:0:0:0:
448,192,49649,1,0,0:0:0:0:
192,192,49757,1,0,0:0:0:0:
320,192,49757,1,0,0:0:0:0:
64,192,49757,1,0,0:0:0:0:
448,192,49864,1,0,0:0:0:0:
64,192,49864,1,0,0:0:0:0:
192,192,49864,1,0,0:0:0:0:
320,192,49971,1,0,0:0:0:0:
448,192,49971,1,0,0:0:0:0:
192,192,50078,1,0,0:0:0:0:
320,192,50185,1,0,0:0:0:0:
192,192,50185,1,0,0:0:0:0:
64,192,50185,1,0,0:0:0:0:
64,192,50292,1,0,0:0:0:0:
448,192,50399,1,0,0:0:0:0:
320,192,50399,1,0,0:0:0:0:
192,192,50507,1,0,0:0:0:0:
64,192,50507,1,0,0:0:0:0:
320,192,50507,1,0,0:0:0:0:
64,192,50614,1,0,0:0:0:0:
448,192,50614,1,0,0:0:0:0:
192,192,50614,1,0,0:0:0:0:
448,192,50721,1,0,0:0:0:0:
320,192,50721,1,0,0:0:0:0:
192,192,50774,1,0,0:0:0:0:
64,192,50828,1,0,0:0:0:0:
448,192,50882,1,0,0:0:0:0:
64,192,50935,1,0,0:0:0:0:
192,192,50935,1,0,0:0:0:0:
320,192,50989,1,0,0:0:0:0:
448,192,50989,1,0,0:0:0:0:
64,192,51042,1,0,0:0:0:0:
192,192,51042,1,0,0:0:0:0:
320,192,51096,1,0,0:0:0:0:
448,192,51096,1,0,0:0:0:0:
192,192,51149,1,0,0:0:0:0:
64,192,51149,1,0,0:0:0:0:
448,192,51257,1,0,0:0:0:0:
320,192,51257,1,0,0:0:0:0:
64,192,51310,1,0,0:0:0:0:
320,192,51364,1,0,0:0:0:0:
192,192,51364,1,0,0:0:0:0:
192,192,51471,1,0,0:0:0:0:
320,192,51578,1,0,0:0:0:0:
448,192,51578,1,0,0:0:0:0:
64,192,51578,1,0,0:0:0:0:
320,192,51792,1,0,0:0:0:0:
448,192,51792,1,0,0:0:0:0:
192,192,51899,1,0,0:0:0:0:
320,192,51899,1,0,0:0:0:0:
64,192,51899,1,0,0:0:0:0:
64,192,52007,1,0,0:0:0:0:
192,192,52007,1,0,0:0:0:0:
320,192,52114,1,0,0:0:0:0:
448,192,52114,1,0,0:0:0:0:
192,192,52221,1,0,0:0:0:0:
64,192,52221,1,0,0:0:0:0:
320,192,52274,1,0,0:0:0:0:
448,192,52274,1,0,0:0:0:0:
192,192,52328,1,0,0:0:0:0:
64,192,52328,1,0,0:0:0:0:
448,192,52435,1,0,0:0:0:0:
320,192,52435,1,0,0:0:0:0:
64,192,52489,1,0,0:0:0:0:
192,192,52542,1,0,0:0:0:0:
448,192,52542,1,0,0:0:0:0:
320,192,52596,1,0,0:0:0:0:
64,192,52649,1,0,0:0:0:0:
192,192,52649,1,0,0:0:0:0:
448,192,52703,1,0,0:0:0:0:
320,192,52757,1,0,0:0:0:0:
192,192,52810,1,0,0:0:0:0:
448,192,52864,1,0,0:0:0:0:
64,192,52864,1,0,0:0:0:0:
320,192,52917,1,0,0:0:0:0:
192,192,52971,1,0,0:0:0:0:
448,192,53024,1,0,0:0:0:0:
64,192,53078,1,0,0:0:0:0:
192,192,53078,1,0,0:0:0:0:
448,192,53185,1,0,0:0:0:0:
320,192,53185,1,0,0:0:0:0:
64,192,53185,1,0,0:0:0:0:
448,192,53292,1,0,0:0:0:0:
320,192,53292,1,0,0:0:0:0:
192,192,53292,1,0,0:0:0:0:
64,192,53399,1,0,0:0:0:0:
320,192,53507,1,0,0:0:0:0:
448,192,53507,1,0,0:0:0:0:
192,192,53560,1,0,0:0:0:0:
64,192,53560,1,0,0:0:0:0:
320,192,53614,1,0,0:0:0:0:
448,192,53614,1,0,0:0:0:0:
64,192,53721,1,0,0:0:0:0:
192,192,53828,1,0,0:0:0:0:
320,192,53828,1,0,0:0:0:0:
320,192,53935,1,0,0:0:0:0:
448,192,53935,1,0,0:0:0:0:
64,192,53935,1,0,0:0:0:0:
64,192,54042,1,0,0:0:0:0:
192,192,54042,1,0,0:0:0:0:
448,192,54042,1,0,0:0:0:0:
320,192,54149,1,0,0:0:0:0:
192,192,54149,1,0,0:0:0:0:
64,192,54203,1,0,0:0:0:0:
320,192,54257,1,0,0:0:0:0:
448,192,54310,1,0,0:0:0:0:
64,192,54364,1,0,0:0:0:0:
192,192,54417,1,0,0:0:0:0:
320,192,54471,1,0,0:0:0:0:
64,192,54524,1,0,0:0:0:0:
320,192,54578,1,0,0:0:0:0:
448,192,54578,1,0,0:0:0:0:
192,192,54632,1,0,0:0:0:0:
448,192,54685,1,0,0:0:0:0:
320,192,54739,1,0,0:0:0:0:
192,192,54792,1,0,0:0:0:0:
64,192,54792,1,0,0:0:0:0:
192,192,54899,1,0,0:0:0:0:
320,192,54899,1,0,0:0:0:0:
320,192,55007,1,0,0:0:0:0:
448,192,55007,1,0,0:0:0:0:
64,192,55007,1,0,0:0:0:0:
448,192,55114,1,0,0:0:0:0:
64,192,55221,1,0,0:0:0:0:
320,192,55328,1,0,0:0:0:0:
448,192,55328,1,0,0:0:0:0:
192,192,55328,1,0,0:0:0:0:
192,192,55435,1,0,0:0:0:0:
448,192,55542,1,0,0:0:0:0:
320,192,55596,1,0,0:0:0:0:
64,192,55649,1,0,0:0:0:0:
192,192,55649,1,0,0:0:0:0:
448,192,55649,1,0,0:0:0:0:
320,192,55757,1,0,0:0:0:0:
192,192,55810,1,0,0:0:0:0:
320,192,55864,1,0,0:0:0:0:
448,192,55864,1,0,0:0:0:0:
192,192,55917,1,0,0:0:0:0:
64,192,55971,1,0,0:0:0:0:
448,192,56024,1,0,0:0:0:0:
320,192,56078,1,0,0:0:0:0:
64,192,56132,1,0,0:0:0:0:
192,192,56185,1,0,0:0:0:0:
320,192,56185,1,0,0:0:0:0:
64,192,56292,1,0,0:0:0:0:
448,192,56292,1,0,0:0:0:0:
320,192,56346,1,0,0:0:0:0:
192,192,56399,1,0,0:0:0:0:
64,192,56453,1,0,0:0:0:0:
448,192,56507,1,0,0:0:0:0:
320,192,56507,1,0,0:0:0:0:
192,192,56614,1,0,0:0:0:0:
64,192,56614,1,0,0:0:0:0:
320,192,56614,1,0,0:0:0:0:
448,192,56721,1,0,0:0:0:0:
320,192,56757,1,0,0:0:0:0:
192,192,56792,1,0,0:0:0:0:
64,192,56828,1,0,0:0:0:0:
448,192,56864,1,0,0:0:0:0:
320,192,56899,1,0,0:0:0:0:
64,192,56935,1,0,0:0:0:0:
192,192,56935,1,0,0:0:0:0:
448,192,57042,1,0,0:0:0:0:
64,192,57149,1,0,0:0:0:0:
192,192,57149,1,0,0:0:0:0:
320,192,57257,1,0,0:0:0:0:
448,192,57257,1,0,0:0:0:0:
192,192,57310,1,0,0:0:0:0:
64,192,57310,1,0,0:0:0:0:
320,192,57364,1,0,0:0:0:0:
448,192,57364,1,0,0:0:0:0:
320,192,57471,1,0,0:0:0:0:
192,192,57471,1,0,0:0:0:0:
448,192,57578,1,0,0:0:0:0:
64,192,57578,1,0,0:0:0:0:
320,192,57632,1,0,0:0:0:0:
192,192,57685,1,0,0:0:0:0:
448,192,57739,1,0,0:0:0:0:
320,192,57792,1,0,0:0:0:0:
192,192,57792,1,0,0:0:0:0:
64,192,57846,1,0,0:0:0:0:
448,192,57899,1,0,0:0:0:0:
320,192,57953,1,0,0:0:0:0:
192,192,58007,1,0,0:0:0:0:
64,192,58007,1,0,0:0:0:0:
448,192,58060,1,0,0:0:0:0:
320,192,58114,1,0,0:0:0:0:
192,192,58114,1,0,0:0:0:0:
64,192,58167,1,0,0:0:0:0:
320,192,58221,1,0,0:0:0:0:
448,192,58221,1,0,0:0:0:0:
192,192,58328,1,0,0:0:0:0:
448,192,58435,1,0,0:0:0:0:
64,192,58435,1,0,0:0:0:0:
320,192,58435,1,0,0:0:0:0:
320,192,58649,1,0,0:0:0:0:
448,192,58649,1,0,0:0:0:0:
64,192,58649,1,0,0:0:0:0:
192,192,58757,1,0,0:0:0:0:
64,192,58810,1,0,0:0:0:0:
320,192,58864,1,0,0:0:0:0:
448,192,58864,1,0,0:0:0:0:
192,192,58971,1,0,0:0:0:0:
64,192,58971,1,0,0:0:0:0:
448,192,59078,1,0,0:0:0:0:
320,192,59078,1,0,0:0:0:0:
192,192,59185,1,0,0:0:0:0:
64,192,59185,1,0,0:0:0:0:
320,192,59239,1,0,0:0:0:0:
448,192,59239,1,0,0:0:0:0:
64,192,59292,1,0,0:0:0:0:
192,192,59292,1,0,0:0:0:0:
320,192,59346,1,0,0:0:0:0:
448,192,59399,1,0,0:0:0:0:
64,192,59453,1,0,0:0:0:0:
448,192,59507,1,0,0:0:0:0:
320,192,59507,1,0,0:0:0:0:
64,192,59578,1,0,0:0:0:0:
192,192,59578,1,0,0:0:0:0:
448,192,59649,1,0,0:0:0:0:
320,192,59649,1,0,0:0:0:0:
192,192,59721,1,0,0:0:0:0:
64,192,59721,1,0,0:0:0:0:
320,192,59774,1,0,0:0:0:0:
64,192,59828,1,0,0:0:0:0:
192,192,59828,1,0,0:0:0:0:
448,192,59828,1,0,0:0:0:0:
320,192,59935,1,0,0:0:0:0:
448,192,59935,1,0,0:0:0:0:
64,192,59935,1,0,0:0:0:0:
320,192,60042,1,0,0:0:0:0:
192,192,60042,1,0,0:0:0:0:
448,192,60042,1,0,0:0:0:0:
192,192,60149,1,0,0:0:0:0:
320,192,60149,1,0,0:0:0:0:
64,192,60149,1,0,0:0:0:0:
64,192,60257,1,0,0:0:0:0:
320,192,60364,1,0,0:0:0:0:
448,192,60364,1,0,0:0:0:0:
192,192,60364,1,0,0:0:0:0:
320,192,60471,1,0,0:0:0:0:
64,192,60578,1,0,0:0:0:0:
192,192,60578,1,0,0:0:0:0:
448,192,60578,1,0,0:0:0:0:
64,192,60685,1,0,0:0:0:0:
192,192,60792,1,0,0:0:0:0:
320,192,60792,1,0,0:0:0:0:
448,192,60792,1,0,0:0:0:0:
64,192,60899,1,0,0:0:0:0:
192,192,60899,1,0,0:0:0:0:
320,192,61007,1,0,0:0:0:0:
448,192,61007,1,0,0:0:0:0:
192,192,61060,1,0,0:0:0:0:
64,192,61114,1,0,0:0:0:0:
320,192,61167,1,0,0:0:0:0:
448,192,61221,1,0,0:0:0:0:
64,192,61274,1,0,0:0:0:0:
192,192,61328,1,0,0:0:0:0:
320,192,61328,1,0,0:0:0:0:
64,192,61435,1,0,0:0:0:0:
192,192,61435,1,0,0:0:0:0:
448,192,61489,1,0,0:0:0:0:
320,192,61542,1,0,0:0:0:0:
64,192,61596,1,0,0:0:0:0:
192,192,61649,1,0,0:0:0:0:
448,192,61649,1,0,0:0:0:0:
192,192,61757,1,0,0:0:0:0:
320,192,61757,1,0,0:0:0:0:
64,192,61864,1,0,0:0:0:0:
448,192,61864,1,0,0:0:0:0:
320,192,61864,1,0,0:0:0:0:
448,192,61971,1,0,0:0:0:0:
64,192,62078,1,0,0:0:0:0:
192,192,62078,1,0,0:0:0:0:
320,192,62078,1,0,0:0:0:0:
192,192,62185,1,0,0:0:0:0:
320,192,62185,1,0,0:0:0:0:
448,192,62185,1,0,0:0:0:0:
448,192,62292,1,0,0:0:0:0:
320,192,62399,1,0,0:0:0:0:
192,192,62453,1,0,0:0:0:0:
320,192,62507,1,0,0:0:0:0:
448,192,62507,1,0,0:0:0:0:
64,192,62507,1,0,0:0:0:0:
192,192,62614,1,0,0:0:0:0:
64,192,62721,1,0,0:0:0:0:
192,192,62721,1,0,0:0:0:0:
448,192,62774,1,0,0:0:0:0:
320,192,62828,1,0,0:0:0:0:
192,192,62882,1,0,0:0:0:0:
448,192,62935,1,0,0:0:0:0:
320,192,62989,1,0,0:0:0:0:
64,192,63042,1,0,0:0:0:0:
192,192,63096,1,0,0:0:0:0:
64,192,63149,1,0,0:0:0:0:
448,192,63149,1,0,0:0:0:0:
320,192,63149,1,0,0:0:0:0:
320,192,63257,1,0,0:0:0:0:
192,192,63364,1,0,0:0:0:0:
64,192,63364,1,0,0:0:0:0:
448,192,63364,1,0,0:0:0:0:
320,192,63471,1,0,0:0:0:0:
448,192,63471,1,0,0:0:0:0:
64,192,63471,1,0,0:0:0:0:
192,192,63578,1,0,0:0:0:0:
320,192,63578,1,0,0:0:0:0:
448,192,63632,1,0,0:0:0:0:
64,192,63632,1,0,0:0:0:0:
320,192,63685,1,0,0:0:0:0:
192,192,63685,1,0,0:0:0:0:
64,192,63792,1,0,0:0:0:0:
192,192,63792,1,0,0:0:0:0:
448,192,63792,1,0,0:0:0:0:
320,192,63899,1,0,0:0:0:0:
320,192,64007,1,0,0:0:0:0:
448,192,64007,1,0,0:0:0:0:
192,192,64007,1,0,0:0:0:0:
64,192,64114,1,0,0:0:0:0:
320,192,64167,1,0,0:0:0:0:
448,192,64221,1,0,0:0:0:0:
64,192,64221,1,0,0:0:0:0:
192,192,64221,1,0,0:0:0:0:
448,192,64328,1,0,0:0:0:0:
192,192,64435,1,0,0:0:0:0:
320,192,64435,1,0,0:0:0:0:
64,192,64435,1,0,0:0:0:0:
448,192,64542,1,0,0:0:0:0:
320,192,64649,1,0,0:0:0:0:
192,192,64649,1,0,0:0:0:0:
64,192,64649,1,0,0:0:0:0:
64,192,64757,1,0,0:0:0:0:
192,192,64757,1,0,0:0:0:0:
320,192,64864,1,0,0:0:0:0:
448,192,64864,1,0,0:0:0:0:
192,192,64917,1,0,0:0:0:0:
64,192,64917,1,0,0:0:0:0:
320,192,64971,1,0,0:0:0:0:
448,192,64971,1,0,0:0:0:0:
64,192,65078,1,0,0:0:0:0:
192,192,65078,1,0,0:0:0:0:
448,192,65078,1,0,0:0:0:0:
192,192,65185,1,0,0:0:0:0:
320,192,65185,1,0,0:0:0:0:
320,192,65292,1,0,0:0:0:0:
448,192,65292,1,0,0:0:0:0:
64,192,65292,1,0,0:0:0:0:
320,192,65399,1,0,0:0:0:0:
448,192,65399,1,0,0:0:0:0:
192,192,65453,1,0,0:0:0:0:
64,192,65453,1,0,0:0:0:0:
320,192,65507,1,0,0:0:0:0:
448,192,65507,1,0,0:0:0:0:
192,192,65614,1,0,0:0:0:0:
64,192,65721,1,0,0:0:0:0:
192,192,65721,1,0,0:0:0:0:
448,192,65721,1,0,0:0:0:0:
320,192,65828,1,0,0:0:0:0:
192,192,65935,1,0,0:0:0:0:
320,192,65935,1,0,0:0:0:0:
448,192,65935,1,0,0:0:0:0:
192,192,66042,1,0,0:0:0:0:
64,192,66042,1,0,0:0:0:0:
64,192,66149,1,0,0:0:0:0:
448,192,66149,1,0,0:0:0:0:
192,192,66257,1,0,0:0:0:0:
320,192,66257,1,0,0:0:0:0:
448,192,66257,1,0,0:0:0:0:
64,192,66364,1,0,0:0:0:0:
192,192,66471,1,0,0:0:0:0:
320,192,66471,1,0,0:0:0:0:
64,192,66471,1,0,0:0:0:0:
448,192,66578,1,0,0:0:0:0:
192,192,66685,1,0,0:0:0:0:
64,192,66685,1,0,0:0:0:0:
320,192,66739,1,0,0:0:0:0:
448,192,66739,1,0,0:0:0:0:
192,192,66792,1,0,0:0:0:0:
64,192,66792,1,0,0:0:0:0:
320,192,66899,1,0,0:0:0:0:
192,192,66899,1,0,0:0:0:0:
448,192,66899,1,0,0:0:0:0:
448,192,67007,1,0,0:0:0:0:
320,192,67007,1,0,0:0:0:0:
64,192,67007,1,0,0:0:0:0:
64,192,67114,1,0,0:0:0:0:
192,192,67114,1,0,0:0:0:0:
448,192,67114,1,0,0:0:0:0:
192,192,67221,1,0,0:0:0:0:
320,192,67221,1,0,0:0:0:0:
320,192,67328,1,0,0:0:0:0:
64,192,67435,1,0,0:0:0:0:
192,192,67435,1,0,0:0:0:0:
448,192,67542,1,0,0:0:0:0:
320,192,67578,1,0,0:0:0:0:
192,192,67614,1,0,0:0:0:0:
64,192,67649,1,0,0:0:0:0:
448,192,67649,1,0,0:0:0:0:
192,192,67757,1,0,0:0:0:0:
448,192,67864,1,0,0:0:0:0:
320,192,67864,1,0,0:0:0:0:
64,192,67864,1,0,0:0:0:0:
192,192,67971,1,0,0:0:0:0:
320,192,68078,1,0,0:0:0:0:
448,192,68078,1,0,0:0:0:0:
192,192,68185,1,0,0:0:0:0:
320,192,68239,1,0,0:0:0:0:
192,192,68292,1,0,0:0:0:0:
64,192,68292,1,0,0:0:0:0:
320,192,68346,1,0,0:0:0:0:
192,192,68399,1,0,0:0:0:0:
64,192,68399,1,0,0:0:0:0:
320,192,68453,1,0,0:0:0:0:
448,192,68453,1,0,0:0:0:0:
192,192,68507,1,0,0:0:0:0:
64,192,68507,1,0,0:0:0:0:
448,192,68614,1,0,0:0:0:0:
64,192,68614,1,0,0:0:0:0:
320,192,68614,1,0,0:0:0:0:
320,192,68721,1,0,0:0:0:0:
192,192,68721,1,0,0:0:0:0:
448,192,68721,1,0,0:0:0:0:
64,192,68828,1,0,0:0:0:0:
64,192,68935,1,0,0:0:0:0:
192,192,68935,1,0,0:0:0:0:
320,192,68935,1,0,0:0:0:0:
192,192,69042,1,0,0:0:0:0:
320,192,69042,1,0,0:0:0:0:
448,192,69042,1,0,0:0:0:0:
64,192,69149,1,0,0:0:0:0:
448,192,69149,1,0,0:0:0:0:
192,192,69257,1,0,0:0:0:0:
64,192,69257,1,0,0:0:0:0:
320,192,69257,1,0,0:0:0:0:
448,192,69364,1,0,0:0:0:0:
320,192,69364,1,0,0:0:0:0:
192,192,69364,1,0,0:0:0:0:
64,192,69471,1,0,0:0:0:0:
192,192,69471,1,0,0:0:0:0:
448,192,69471,1,0,0:0:0:0:
64,192,69578,1,0,0:0:0:0:
320,192,69578,1,0,0:0:0:0:
320,192,69685,1,0,0:0:0:0:
448,192,69685,1,0,0:0:0:0:
64,192,69792,1,0,0:0:0:0:
192,192,69792,1,0,0:0:0:0:
448,192,69792,1,0,0:0:0:0:
64,192,69899,1,0,0:0:0:0:
192,192,69953,1,0,0:0:0:0:
320,192,70007,1,0,0:0:0:0:
448,192,70007,1,0,0:0:0:0:
64,192,70114,1,0,0:0:0:0:
192,192,70114,1,0,0:0:0:0:
64,192,70221,1,0,0:0:0:0:
448,192,70221,1,0,0:0:0:0:
320,192,70221,1,0,0:0:0:0:
320,192,70328,1,0,0:0:0:0:
448,192,70328,1,0,0:0:0:0:
192,192,70328,1,0,0:0:0:0:
64,192,70435,1,0,0:0:0:0:
448,192,70435,1,0,0:0:0:0:
320,192,70435,1,0,0:0:0:0:
64,192,70542,1,0,0:0:0:0:
320,192,70649,1,0,0:0:0:0:
448,192,70649,1,0,0:0:0:0:
192,192,70649,1,0,0:0:0:0:
320,192,70757,1,0,0:0:0:0:
64,192,70864,1,0,0:0:0:0:
192,192,70864,1,0,0:0:0:0:
448,192,70917,1,0,0:0:0:0:
320,192,70971,1,0,0:0:0:0:
192,192,71024,1,0,0:0:0:0:
64,192,71078,1,0,0:0:0:0:
448,192,71078,1,0,0:0:0:0:
320,192,71078,1,0,0:0:0:0:
192,192,71185,1,0,0:0:0:0:
64,192,71185,1,0,0:0:0:0:
448,192,71185,1,0,0:0:0:0:
320,192,71292,1,0,0:0:0:0:
448,192,71292,1,0,0:0:0:0:
64,192,71292,1,0,0:0:0:0:
192,192,71399,1,0,0:0:0:0:
320,192,71507,1,0,0:0:0:0:
448,192,71507,1,0,0:0:0:0:
192,192,71560,1,0,0:0:0:0:
64,192,71560,1,0,0:0:0:0:
320,192,71614,1,0,0:0:0:0:
448,192,71614,1,0,0:0:0:0:
64,192,71721,1,0,0:0:0:0:
192,192,71721,1,0,0:0:0:0:
320,192,71721,1,0,0:0:0:0:
192,192,71828,1,0,0:0:0:0:
64,192,71828,1,0,0:0:0:0:
448,192,71828,1,0,0:0:0:0:
320,192,71935,1,0,0:0:0:0:
448,192,71935,1,0,0:0:0:0:
64,192,71935,1,0,0:0:0:0:
192,192,71989,1,0,0:0:0:0:
64,192,72042,1,0,0:0:0:0:
448,192,72096,1,0,0:0:0:0:
320,192,72149,1,0,0:0:0:0:
192,192,72149,1,0,0:0:0:0:
192,192,72257,1,0,0:0:0:0:
448,192,72364,1,0,0:0:0:0:
64,192,72364,1,0,0:0:0:0:
320,192,72417,1,0,0:0:0:0:
192,192,72471,1,0,0:0:0:0:
448,192,72524,1,0,0:0:0:0:
320,192,72578,1,0,0:0:0:0:
64,192,72578,1,0,0:0:0:0:
192,192,72578,1,0,0:0:0:0:
64,192,72685,5,0,0:0:0:0:
320,192,72792,1,0,0:0:0:0:
448,192,72792,1,0,0:0:0:0:
320,192,72899,1,0,0:0:0:0:
192,192,72899,1,0,0:0:0:0:
64,192,73007,1,0,0:0:0:0:
192,192,73007,1,0,0:0:0:0:
448,192,73007,1,0,0:0:0:0:
64,192,73114,1,0,0:0:0:0:
448,192,73221,1,0,0:0:0:0:
320,192,73221,1,0,0:0:0:0:
192,192,73274,1,0,0:0:0:0:
320,192,73328,1,0,0:0:0:0:
448,192,73328,1,0,0:0:0:0:
64,192,73435,1,0,0:0:0:0:
192,192,73435,1,0,0:0:0:0:
320,192,73489,1,0,0:0:0:0:
448,192,73489,1,0,0:0:0:0:
192,192,73542,1,0,0:0:0:0:
64,192,73542,1,0,0:0:0:0:
448,192,73649,1,0,0:0:0:0:
320,192,73649,1,0,0:0:0:0:
64,192,73649,1,0,0:0:0:0:
192,192,73757,1,0,0:0:0:0:
320,192,73757,1,0,0:0:0:0:
64,192,73864,5,0,0:0:0:0:
192,192,73864,1,0,0:0:0:0:
448,192,73864,1,0,0:0:0:0:
320,192,74078,1,0,0:0:0:0:
448,192,74114,1,0,0:0:0:0:
192,192,74292,1,0,0:0:0:0:
320,192,74328,1,0,0:0:0:0:
64,192,74507,1,0,0:0:0:0:
320,192,74614,1,0,0:0:0:0:
448,192,74649,1,0,0:0:0:0:
192,192,74721,1,0,0:0:0:0:
320,192,74828,1,0,0:0:0:0:
448,192,74864,1,0,0:0:0:0:
192,192,74935,1,0,0:0:0:0:
64,192,74971,1,0,0:0:0:0:
320,192,75042,1,0,0:0:0:0:
192,192,75078,1,0,0:0:0:0:
64,192,75149,1,0,0:0:0:0:
320,192,75149,1,0,0:0:0:0:
448,192,75149,1,0,0:0:0:0:
192,192,75364,1,0,0:0:0:0:
320,192,75364,1,0,0:0:0:0:
64,192,75364,1,0,0:0:0:0:
64,192,75578,5,0,0:0:0:0:
192,192,75578,1,0,0:0:0:0:
320,192,75578,1,0,0:0:0:0:
448,192,75578,1,0,0:0:0:0:
320,192,75685,1,0,0:0:0:0:
448,192,75685,1,0,0:0:0:0:
64,192,75792,1,0,0:0:0:0:
192,192,75792,1,0,0:0:0:0:
192,192,75899,1,0,0:0:0:0:
320,192,75899,1,0,0:0:0:0:
64,192,76007,1,0,0:0:0:0:
320,192,76007,1,0,0:0:0:0:
448,192,76007,1,0,0:0:0:0:
448,192,76114,1,0,0:0:0:0:
192,192,76221,1,0,0:0:0:0:
320,192,76221,1,0,0:0:0:0:
64,192,76221,1,0,0:0:0:0:
320,192,76328,1,0,0:0:0:0:
448,192,76328,1,0,0:0:0:0:
192,192,76328,1,0,0:0:0:0:
64,192,76435,1,0,0:0:0:0:
448,192,76435,1,0,0:0:0:0:
192,192,76435,1,0,0:0:0:0:
320,192,76489,1,0,0:0:0:0:
64,192,76542,1,0,0:0:0:0:
448,192,76596,1,0,0:0:0:0:
320,192,76649,1,0,0:0:0:0:
192,192,76649,1,0,0:0:0:0:
64,192,76703,1,0,0:0:0:0:
448,192,76757,1,0,0:0:0:0:
320,192,76810,1,0,0:0:0:0:
192,192,76864,1,0,0:0:0:0:
64,192,76864,1,0,0:0:0:0:
320,192,76917,1,0,0:0:0:0:
192,192,76971,1,0,0:0:0:0:
448,192,77078,1,0,0:0:0:0:
320,192,77078,1,0,0:0:0:0:
192,192,77132,1,0,0:0:0:0:
64,192,77132,1,0,0:0:0:0:
448,192,77185,1,0,0:0:0:0:
320,192,77185,1,0,0:0:0:0:
64,192,77292,1,0,0:0:0:0:
192,192,77292,1,0,0:0:0:0:
320,192,77399,1,0,0:0:0:0:
64,192,77507,1,0,0:0:0:0:
448,192,77507,1,0,0:0:0:0:
320,192,77507,1,0,0:0:0:0:
192,192,77614,1,0,0:0:0:0:
448,192,77614,1,0,0:0:0:0:
64,192,77614,1,0,0:0:0:0:
192,192,77721,1,0,0:0:0:0:
320,192,77828,1,0,0:0:0:0:
64,192,77828,1,0,0:0:0:0:
448,192,77828,1,0,0:0:0:0:
64,192,77935,1,0,0:0:0:0:
192,192,77935,1,0,0:0:0:0:
320,192,77989,1,0,0:0:0:0:
448,192,77989,1,0,0:0:0:0:
192,192,78042,1,0,0:0:0:0:
64,192,78042,1,0,0:0:0:0:
320,192,78149,1,0,0:0:0:0:
64,192,78149,1,0,0:0:0:0:
448,192,78149,1,0,0:0:0:0:
320,192,78257,1,0,0:0:0:0:
64,192,78364,1,0,0:0:0:0:
192,192,78364,1,0,0:0:0:0:
320,192,78417,1,0,0:0:0:0:
448,192,78417,1,0,0:0:0:0:
64,192,78471,1,0,0:0:0:0:
320,192,78524,1,0,0:0:0:0:
192,192,78524,1,0,0:0:0:0:
64,192,78578,1,0,0:0:0:0:
448,192,78578,1,0,0:0:0:0:
192,192,78685,1,0,0:0:0:0:
448,192,78792,1,0,0:0:0:0:
64,192,78792,1,0,0:0:0:0:
320,192,78792,1,0,0:0:0:0:
192,192,78899,1,0,0:0:0:0:
320,192,78899,1,0,0:0:0:0:
64,192,79007,1,0,0:0:0:0:
192,192,79007,1,0,0:0:0:0:
448,192,79007,1,0,0:0:0:0:
320,192,79060,1,0,0:0:0:0:
448,192,79114,1,0,0:0:0:0:
64,192,79221,1,0,0:0:0:0:
320,192,79221,1,0,0:0:0:0:
192,192,79221,1,0,0:0:0:0:
192,192,79328,1,0,0:0:0:0:
448,192,79328,1,0,0:0:0:0:
64,192,79435,1,0,0:0:0:0:
448,192,79435,1,0,0:0:0:0:
320,192,79435,1,0,0:0:0:0:
192,192,79489,1,0,0:0:0:0:
320,192,79542,1,0,0:0:0:0:
64,192,79649,1,0,0:0:0:0:
448,192,79649,1,0,0:0:0:0:
192,192,79649,1,0,0:0:0:0:
64,192,79757,1,0,0:0:0:0:
192,192,79757,1,0,0:0:0:0:
320,192,79757,1,0,0:0:0:0:
320,192,79864,1,0,0:0:0:0:
448,192,79864,1,0,0:0:0:0:
64,192,79864,1,0,0:0:0:0:
192,192,79971,1,0,0:0:0:0:
448,192,80078,1,0,0:0:0:0:
64,192,80078,1,0,0:0:0:0:
320,192,80078,1,0,0:0:0:0:
192,192,80132,1,0,0:0:0:0:
64,192,80185,1,0,0:0:0:0:
448,192,80292,1,0,0:0:0:0:
320,192,80292,1,0,0:0:0:0:
192,192,80292,1,0,0:0:0:0:
64,192,80346,1,0,0:0:0:0:
448,192,80399,1,0,0:0:0:0:
320,192,80453,1,0,0:0:0:0:
192,192,80507,1,0,0:0:0:0:
64,192,80507,1,0,0:0:0:0:
448,192,80614,1,0,0:0:0:0:
320,192,80614,1,0,0:0:0:0:
192,192,80667,1,0,0:0:0:0:
320,192,80721,1,0,0:0:0:0:
448,192,80721,1,0,0:0:0:0:
64,192,80721,1,0,0:0:0:0:
192,192,80774,1,0,0:0:0:0:
64,192,80828,1,0,0:0:0:0:
448,192,80882,1,0,0:0:0:0:
320,192,80935,1,0,0:0:0:0:
64,192,81042,1,0,0:0:0:0:
448,192,81042,1,0,0:0:0:0:
192,192,81042,1,0,0:0:0:0:
320,192,81096,1,0,0:0:0:0:
448,192,81149,1,0,0:0:0:0:
64,192,81203,1,0,0:0:0:0:
192,192,81257,1,0,0:0:0:0:
320,192,81364,1,0,0:0:0:0:
448,192,81364,1,0,0:0:0:0:
192,192,81417,1,0,0:0:0:0:
64,192,81417,1,0,0:0:0:0:
320,192,81471,1,0,0:0:0:0:
448,192,81471,1,0,0:0:0:0:
64,192,81578,1,0,0:0:0:0:
192,192,81578,1,0,0:0:0:0:
320,192,81632,1,0,0:0:0:0:
448,192,81685,1,0,0:0:0:0:
64,192,81739,1,0,0:0:0:0:
320,192,81792,1,0,0:0:0:0:
448,192,81792,1,0,0:0:0:0:
192,192,81846,1,0,0:0:0:0:
64,192,81846,1,0,0:0:0:0:
320,192,81899,1,0,0:0:0:0:
448,192,81899,1,0,0:0:0:0:
64,192,81953,1,0,0:0:0:0:
192,192,81953,1,0,0:0:0:0:
320,192,82007,1,0,0:0:0:0:
448,192,82007,1,0,0:0:0:0:
64,192,82060,1,0,0:0:0:0:
192,192,82114,1,0,0:0:0:0:
320,192,82167,1,0,0:0:0:0:
64,192,82221,1,0,0:0:0:0:
192,192,82221,1,0,0:0:0:0:
448,192,82221,1,0,0:0:0:0:
320,192,82274,1,0,0:0:0:0:
448,192,82328,1,0,0:0:0:0:
64,192,82328,1,0,0:0:0:0:
192,192,82382,1,0,0:0:0:0:
64,192,82435,1,0,0:0:0:0:
320,192,82435,1,0,0:0:0:0:
448,192,82435,1,0,0:0:0:0:
320,192,82542,1,0,0:0:0:0:
64,192,82649,1,0,0:0:0:0:
192,192,82649,1,0,0:0:0:0:
320,192,82703,1,0,0:0:0:0:
448,192,82703,1,0,0:0:0:0:
192,192,82757,1,0,0:0:0:0:
64,192,82757,1,0,0:0:0:0:
320,192,82810,1,0,0:0:0:0:
448,192,82810,1,0,0:0:0:0:
192,192,82864,1,0,0:0:0:0:
64,192,82864,1,0,0:0:0:0:
320,192,82917,1,0,0:0:0:0:
448,192,82971,1,0,0:0:0:0:
64,192,83024,1,0,0:0:0:0:
320,192,83078,1,0,0:0:0:0:
192,192,83078,1,0,0:0:0:0:
448,192,83078,1,0,0:0:0:0:
64,192,83185,1,0,0:0:0:0:
192,192,83185,1,0,0:0:0:0:
320,192,83292,1,0,0:0:0:0:
448,192,83292,1,0,0:0:0:0:
192,192,83346,1,0,0:0:0:0:
64,192,83399,1,0,0:0:0:0:
448,192,83453,1,0,0:0:0:0:
320,192,83507,1,0,0:0:0:0:
192,192,83507,1,0,0:0:0:0:
64,192,83560,1,0,0:0:0:0:
448,192,83614,1,0,0:0:0:0:
320,192,83667,1,0,0:0:0:0:
192,192,83721,1,0,0:0:0:0:
64,192,83721,1,0,0:0:0:0:
320,192,83774,1,0,0:0:0:0:
448,192,83828,1,0,0:0:0:0:
64,192,83828,1,0,0:0:0:0:
192,192,83882,1,0,0:0:0:0:
320,192,83935,1,0,0:0:0:0:
448,192,83935,1,0,0:0:0:0:
192,192,84042,1,0,0:0:0:0:
192,192,84149,1,0,0:0:0:0:
64,192,84149,1,0,0:0:0:0:
320,192,84149,1,0,0:0:0:0:
448,192,84203,1,0,0:0:0:0:
320,192,84257,1,0,0:0:0:0:
192,192,84364,1,0,0:0:0:0:
64,192,84364,1,0,0:0:0:0:
320,192,84417,1,0,0:0:0:0:
448,192,84417,1,0,0:0:0:0:
192,192,84471,1,0,0:0:0:0:
64,192,84471,1,0,0:0:0:0:
320,192,84578,1,0,0:0:0:0:
192,192,84632,1,0,0:0:0:0:
320,192,84685,1,0,0:0:0:0:
448,192,84685,1,0,0:0:0:0:
64,192,84685,1,0,0:0:0:0:
192,192,84792,1,0,0:0:0:0:
320,192,84792,1,0,0:0:0:0:
448,192,84792,1,0,0:0:0:0:
64,192,84846,1,0,0:0:0:0:
192,192,84899,1,0,0:0:0:0:
320,192,84953,1,0,0:0:0:0:
448,192,85007,1,0,0:0:0:0:
64,192,85007,1,0,0:0:0:0:
320,192,85060,1,0,0:0:0:0:
192,192,85114,1,0,0:0:0:0:
320,192,85221,1,0,0:0:0:0:
448,192,85221,1,0,0:0:0:0:
192,192,85274,1,0,0:0:0:0:
64,192,85274,1,0,0:0:0:0:
320,192,85328,1,0,0:0:0:0:
192,192,85382,1,0,0:0:0:0:
64,192,85382,1,0,0:0:0:0:
320,192,85435,1,0,0:0:0:0:
448,192,85435,1,0,0:0:0:0:
192,192,85542,1,0,0:0:0:0:
64,192,85542,1,0,0:0:0:0:
448,192,85542,1,0,0:0:0:0:
64,192,85649,1,0,0:0:0:0:
448,192,85649,1,0,0:0:0:0:
320,192,85649,1,0,0:0:0:0:
192,192,85703,1,0,0:0:0:0:
320,192,85757,1,0,0:0:0:0:
448,192,85864,1,0,0:0:0:0:
64,192,85864,1,0,0:0:0:0:
192,192,85864,1,0,0:0:0:0:
448,192,85971,1,0,0:0:0:0:
320,192,86024,1,0,0:0:0:0:
64,192,86078,1,0,0:0:0:0:
192,192,86078,1,0,0:0:0:0:
192,192,86185,1,0,0:0:0:0:
320,192,86185,1,0,0:0:0:0:
448,192,86185,1,0,0:0:0:0:
64,192,86292,1,0,0:0:0:0:
320,192,86292,1,0,0:0:0:0:
448,192,86292,1,0,0:0:0:0:
192,192,86399,1,0,0:0:0:0:
320,192,86453,1,0,0:0:0:0:
192,192,86507,1,0,0:0:0:0:
64,192,86507,1,0,0:0:0:0:
448,192,86507,1,0,0:0:0:0:
320,192,86614,1,0,0:0:0:0:
192,192,86667,1,0,0:0:0:0:
320,192,86721,1,0,0:0:0:0:
448,192,86721,1,0,0:0:0:0:
64,192,86721,1,0,0:0:0:0:
448,192,86828,1,0,0:0:0:0:
64,192,86935,1,0,0:0:0:0:
192,192,86935,1,0,0:0:0:0:
448,192,87042,1,0,0:0:0:0:
320,192,87042,1,0,0:0:0:0:
64,192,87042,1,0,0:0:0:0:
192,192,87149,1,0,0:0:0:0:
320,192,87149,1,0,0:0:0:0:
64,192,87203,1,0,0:0:0:0:
320,192,87257,1,0,0:0:0:0:
448,192,87310,1,0,0:0:0:0:
64,192,87364,1,0,0:0:0:0:
192,192,87364,1,0,0:0:0:0:
320,192,87417,1,0,0:0:0:0:
448,192,87471,1,0,0:0:0:0:
192,192,87524,1,0,0:0:0:0:
64,192,87578,1,0,0:0:0:0:
448,192,87578,1,0,0:0:0:0:
320,192,87578,1,0,0:0:0:0:
192,192,87685,1,0,0:0:0:0:
64,192,87685,1,0,0:0:0:0:
320,192,87739,1,0,0:0:0:0:
448,192,87792,1,0,0:0:0:0:
64,192,87846,1,0,0:0:0:0:
320,192,87899,1,0,0:0:0:0:
448,192,87899,1,0,0:0:0:0:
192,192,87953,1,0,0:0:0:0:
64,192,87953,1,0,0:0:0:0:
320,192,88007,1,0,0:0:0:0:
448,192,88007,1,0,0:0:0:0:
192,192,88060,1,0,0:0:0:0:
64,192,88114,1,0,0:0:0:0:
448,192,88167,1,0,0:0:0:0:
64,192,88221,1,0,0:0:0:0:
192,192,88221,1,0,0:0:0:0:
448,192,88274,1,0,0:0:0:0:
320,192,88274,1,0,0:0:0:0:
64,192,88328,1,0,0:0:0:0:
192,192,88328,1,0,0:0:0:0:
320,192,88382,1,0,0:0:0:0:
64,192,88435,1,0,0:0:0:0:
192,192,88435,1,0,0:0:0:0:
448,192,88542,1,0,0:0:0:0:
320,192,88542,1,0,0:0:0:0:
192,192,88649,1,0,0:0:0:0:
448,192,88649,1,0,0:0:0:0:
64,192,88649,1,0,0:0:0:0:
64,192,88864,1,0,0:0:0:0:
320,192,88864,1,0,0:0:0:0:
192,192,88864,1,0,0:0:0:0:
448,192,88917,1,0,0:0:0:0:
192,192,88971,1,0,0:0:0:0:
320,192,89024,1,0,0:0:0:0:
64,192,89078,1,0,0:0:0:0:
448,192,89078,1,0,0:0:0:0:
192,192,89078,1,0,0:0:0:0:
448,192,89185,1,0,0:0:0:0:
320,192,89185,1,0,0:0:0:0:
192,192,89239,1,0,0:0:0:0:
320,192,89292,1,0,0:0:0:0:
448,192,89292,1,0,0:0:0:0:
64,192,89292,1,0,0:0:0:0:
64,192,89399,1,0,0:0:0:0:
192,192,89507,1,0,0:0:0:0:
320,192,89542,1,0,0:0:0:0:
448,192,89578,1,0,0:0:0:0:
192,192,89614,1,0,0:0:0:0:
64,192,89614,1,0,0:0:0:0:
320,192,89667,1,0,0:0:0:0:
448,192,89667,1,0,0:0:0:0:
64,192,89721,1,0,0:0:0:0:
192,192,89721,1,0,0:0:0:0:
64,192,89828,1,0,0:0:0:0:
448,192,89828,1,0,0:0:0:0:
320,192,89935,1,0,0:0:0:0:
448,192,89935,1,0,0:0:0:0:
192,192,90042,1,0,0:0:0:0:
64,192,90042,1,0,0:0:0:0:
64,192,90149,1,0,0:0:0:0:
448,192,90149,1,0,0:0:0:0:
192,192,90149,1,0,0:0:0:0:
320,192,90203,1,0,0:0:0:0:
192,192,90257,1,0,0:0:0:0:
448,192,90310,1,0,0:0:0:0:
320,192,90364,1,0,0:0:0:0:
64,192,90364,1,0,0:0:0:0:
192,192,90417,1,0,0:0:0:0:
448,192,90471,1,0,0:0:0:0:
320,192,90524,1,0,0:0:0:0:
192,192,90578,1,0,0:0:0:0:
64,192,90578,1,0,0:0:0:0:
448,192,90632,1,0,0:0:0:0:
320,192,90685,1,0,0:0:0:0:
64,192,90792,1,0,0:0:0:0:
192,192,90792,1,0,0:0:0:0:
320,192,90846,1,0,0:0:0:0:
448,192,90846,1,0,0:0:0:0:
64,192,90899,1,0,0:0:0:0:
192,192,90899,1,0,0:0:0:0:
320,192,91007,1,0,0:0:0:0:
448,192,91007,1,0,0:0:0:0:
192,192,91114,1,0,0:0:0:0:
64,192,91221,1,0,0:0:0:0:
448,192,91221,1,0,0:0:0:0:
320,192,91221,1,0,0:0:0:0:
192,192,91328,1,0,0:0:0:0:
64,192,91328,1,0,0:0:0:0:
448,192,91382,1,0,0:0:0:0:
320,192,91382,1,0,0:0:0:0:
192,192,91435,1,0,0:0:0:0:
64,192,91435,1,0,0:0:0:0:
320,192,91542,1,0,0:0:0:0:
64,192,91542,1,0,0:0:0:0:
448,192,91542,1,0,0:0:0:0:
448,192,91649,1,0,0:0:0:0:
320,192,91649,1,0,0:0:0:0:
192,192,91703,1,0,0:0:0:0:
64,192,91703,1,0,0:0:0:0:
320,192,91757,1,0,0:0:0:0:
448,192,91757,1,0,0:0:0:0:
192,192,91864,1,0,0:0:0:0:
64,192,91864,1,0,0:0:0:0:
448,192,91864,1,0,0:0:0:0:
320,192,91971,1,0,0:0:0:0:
64,192,92078,1,0,0:0:0:0:
192,192,92078,1,0,0:0:0:0:
192,192,92185,1,0,0:0:0:0:
320,192,92239,1,0,0:0:0:0:
448,192,92239,1,0,0:0:0:0:
64,192,92292,1,0,0:0:0:0:
192,192,92292,1,0,0:0:0:0:
64,192,92399,1,0,0:0:0:0:
320,192,92399,1,0,0:0:0:0:
448,192,92399,1,0,0:0:0:0:
64,192,92614,1,0,0:0:0:0:
448,192,92614,1,0,0:0:0:0:
192,192,92614,1,0,0:0:0:0:
64,192,92721,1,0,0:0:0:0:
192,192,92721,1,0,0:0:0:0:
448,192,92721,1,0,0:0:0:0:
320,192,92774,1,0,0:0:0:0:
448,192,92828,1,0,0:0:0:0:
64,192,92935,1,0,0:0:0:0:
320,192,92935,1,0,0:0:0:0:
192,192,92935,1,0,0:0:0:0:
192,192,93042,1,0,0:0:0:0:
448,192,93042,1,0,0:0:0:0:
64,192,93149,1,0,0:0:0:0:
448,192,93149,1,0,0:0:0:0:
320,192,93149,1,0,0:0:0:0:
192,192,93203,1,0,0:0:0:0:
320,192,93257,1,0,0:0:0:0:
64,192,93364,1,0,0:0:0:0:
448,192,93364,1,0,0:0:0:0:
192,192,93364,1,0,0:0:0:0:
64,192,93471,1,0,0:0:0:0:
192,192,93471,1,0,0:0:0:0:
320,192,93471,1,0,0:0:0:0:
320,192,93578,1,0,0:0:0:0:
448,192,93578,1,0,0:0:0:0:
64,192,93578,1,0,0:0:0:0:
192,192,93685,1,0,0:0:0:0:
448,192,93792,1,0,0:0:0:0:
64,192,93792,1,0,0:0:0:0:
320,192,93792,1,0,0:0:0:0:
192,192,93846,1,0,0:0:0:0:
64,192,93899,1,0,0:0:0:0:
448,192,93953,1,0,0:0:0:0:
320,192,94007,1,0,0:0:0:0:
192,192,94007,1,0,0:0:0:0:
64,192,94060,1,0,0:0:0:0:
448,192,94114,1,0,0:0:0:0:
320,192,94167,1,0,0:0:0:0:
192,192,94221,1,0,0:0:0:0:
64,192,94221,1,0,0:0:0:0:
320,192,94274,1,0,0:0:0:0:
448,192,94274,1,0,0:0:0:0:
192,192,94328,1,0,0:0:0:0:
64,192,94328,1,0,0:0:0:0:
320,192,94382,1,0,0:0:0:0:
192,192,94435,1,0,0:0:0:0:
448,192,94435,1,0,0:0:0:0:
64,192,94435,1,0,0:0:0:0:
320,192,94489,1,0,0:0:0:0:
192,192,94542,1,0,0:0:0:0:
448,192,94596,1,0,0:0:0:0:
320,192,94649,1,0,0:0:0:0:
64,192,94757,1,0,0:0:0:0:
448,192,94757,1,0,0:0:0:0:
192,192,94757,1,0,0:0:0:0:
320,192,94810,1,0,0:0:0:0:
448,192,94864,1,0,0:0:0:0:
64,192,94917,1,0,0:0:0:0:
192,192,94971,1,0,0:0:0:0:
320,192,95078,1,0,0:0:0:0:
448,192,95078,1,0,0:0:0:0:
64,192,95078,1,0,0:0:0:0:
192,192,95132,1,0,0:0:0:0:
64,192,95185,1,0,0:0:0:0:
320,192,95239,1,0,0:0:0:0:
192,192,95292,1,0,0:0:0:0:
448,192,95292,1,0,0:0:0:0:
64,192,95399,1,0,0:0:0:0:
448,192,95453,1,0,0:0:0:0:
192,192,95507,1,0,0:0:0:0:
64,192,95507,1,0,0:0:0:0:
320,192,95560,1,0,0:0:0:0:
448,192,95560,1,0,0:0:0:0:
192,192,95614,1,0,0:0:0:0:
64,192,95614,1,0,0:0:0:0:
448,192,95667,1,0,0:0:0:0:
320,192,95667,1,0,0:0:0:0:
192,192,95721,1,0,0:0:0:0:
64,192,95721,1,0,0:0:0:0:
448,192,95774,1,0,0:0:0:0:
320,192,95828,1,0,0:0:0:0:
192,192,95882,1,0,0:0:0:0:
448,192,95935,1,0,0:0:0:0:
320,192,95935,1,0,0:0:0:0:
64,192,95935,1,0,0:0:0:0:
192,192,95989,1,0,0:0:0:0:
64,192,96042,1,0,0:0:0:0:
448,192,96042,1,0,0:0:0:0:
320,192,96096,1,0,0:0:0:0:
448,192,96149,1,0,0:0:0:0:
192,192,96149,1,0,0:0:0:0:
64,192,96149,1,0,0:0:0:0:
320,192,96257,1,0,0:0:0:0:
448,192,96257,1,0,0:0:0:0:
192,192,96257,1,0,0:0:0:0:
64,192,96364,1,0,0:0:0:0:
192,192,96364,1,0,0:0:0:0:
320,192,96364,1,0,0:0:0:0:
64,192,96471,1,0,0:0:0:0:
448,192,96471,1,0,0:0:0:0:
192,192,96524,1,0,0:0:0:0:
320,192,96524,1,0,0:0:0:0:
448,192,96578,1,0,0:0:0:0:
64,192,96578,1,0,0:0:0:0:
64,192,96792,1,0,0:0:0:0:
192,192,96792,1,0,0:0:0:0:
448,192,96792,1,0,0:0:0:0:
192,192,96899,1,0,0:0:0:0:
320,192,96899,1,0,0:0:0:0:
64,192,96899,1,0,0:0:0:0:
448,192,97007,1,0,0:0:0:0:
320,192,97007,1,0,0:0:0:0:
64,192,97114,1,0,0:0:0:0:
192,192,97114,1,0,0:0:0:0:
448,192,97114,1,0,0:0:0:0:
192,192,97221,1,0,0:0:0:0:
64,192,97221,1,0,0:0:0:0:
320,192,97221,1,0,0:0:0:0:
448,192,97328,1,0,0:0:0:0:
320,192,97328,1,0,0:0:0:0:
192,192,97328,1,0,0:0:0:0:
64,192,97435,1,0,0:0:0:0:
448,192,97435,1,0,0:0:0:0:
320,192,97435,1,0,0:0:0:0:
64,192,97542,1,0,0:0:0:0:
448,192,97649,1,0,0:0:0:0:
320,192,97649,1,0,0:0:0:0:
192,192,97703,1,0,0:0:0:0:
64,192,97703,1,0,0:0:0:0:
448,192,97757,1,0,0:0:0:0:
320,192,97757,1,0,0:0:0:0:
64,192,97864,1,0,0:0:0:0:
192,192,97864,1,0,0:0:0:0:
448,192,97917,1,0,0:0:0:0:
320,192,97917,1,0,0:0:0:0:
192,192,97971,1,0,0:0:0:0:
320,192,98024,1,0,0:0:0:0:
448,192,98024,1,0,0:0:0:0:
192,192,98078,1,0,0:0:0:0:
64,192,98078,1,0,0:0:0:0:
320,192,98185,1,0,0:0:0:0:
448,192,98185,1,0,0:0:0:0:
64,192,98185,1,0,0:0:0:0:
192,192,98292,1,0,0:0:0:0:
320,192,98399,1,0,0:0:0:0:
448,192,98399,1,0,0:0:0:0:
192,192,98453,1,0,0:0:0:0:
64,192,98453,1,0,0:0:0:0:
320,192,98507,1,0,0:0:0:0:
448,192,98507,1,0,0:0:0:0:
320,192,98614,1,0,0:0:0:0:
448,192,98614,1,0,0:0:0:0:
64,192,98614,1,0,0:0:0:0:
64,192,98721,1,0,0:0:0:0:
192,192,98721,1,0,0:0:0:0:
320,192,98774,1,0,0:0:0:0:
448,192,98828,1,0,0:0:0:0:
192,192,98935,1,0,0:0:0:0:
64,192,98935,1,0,0:0:0:0:
320,192,98989,1,0,0:0:0:0:
448,192,98989,1,0,0:0:0:0:
192,192,99042,1,0,0:0:0:0:
320,192,99096,1,0,0:0:0:0:
448,192,99096,1,0,0:0:0:0:
64,192,99149,1,0,0:0:0:0:
192,192,99149,1,0,0:0:0:0:
320,192,99257,1,0,0:0:0:0:
448,192,99257,1,0,0:0:0:0:
64,192,99364,1,0,0:0:0:0:
320,192,99364,1,0,0:0:0:0:
448,192,99364,1,0,0:0:0:0:
192,192,99471,1,0,0:0:0:0:
320,192,99524,1,0,0:0:0:0:
64,192,99578,1,0,0:0:0:0:
448,192,99578,1,0,0:0:0:0:
192,192,99632,1,0,0:0:0:0:
320,192,99685,1,0,0:0:0:0:
64,192,99739,1,0,0:0:0:0:
448,192,99792,1,0,0:0:0:0:
320,192,99792,1,0,0:0:0:0:
192,192,99846,1,0,0:0:0:0:
448,192,99899,1,0,0:0:0:0:
320,192,99953,1,0,0:0:0:0:
64,192,100007,5,0,0:0:0:0:
192,192,100007,1,0,0:0:0:0:
320,192,100060,1,0,0:0:0:0:
448,192,100060,1,0,0:0:0:0:
192,192,100114,1,0,0:0:0:0:
64,192,100114,1,0,0:0:0:0:
320,192,100167,1,0,0:0:0:0:
448,192,100167,1,0,0:0:0:0:
192,192,100221,1,0,0:0:0:0:
64,192,100221,1,0,0:0:0:0:
448,192,100328,1,0,0:0:0:0:
320,192,100328,1,0,0:0:0:0:
192,192,100435,1,0,0:0:0:0:
64,192,100435,1,0,0:0:0:0:
320,192,100542,1,0,0:0:0:0:
448,192,100542,1,0,0:0:0:0:
64,192,100596,1,0,0:0:0:0:
448,192,100649,1,0,0:0:0:0:
320,192,100649,1,0,0:0:0:0:
192,192,100703,1,0,0:0:0:0:
64,192,100757,1,0,0:0:0:0:
448,192,100757,1,0,0:0:0:0:
64,192,100864,1,0,0:0:0:0:
192,192,100864,1,0,0:0:0:0:
320,192,100917,1,0,0:0:0:0:
448,192,100917,1,0,0:0:0:0:
192,192,100971,1,0,0:0:0:0:
64,192,100971,1,0,0:0:0:0:
320,192,101024,1,0,0:0:0:0:
448,192,101024,1,0,0:0:0:0:
192,192,101078,1,0,0:0:0:0:
64,192,101078,1,0,0:0:0:0:
320,192,101132,1,0,0:0:0:0:
448,192,101185,1,0,0:0:0:0:
64,192,101185,1,0,0:0:0:0:
448,192,101292,1,0,0:0:0:0:
320,192,101292,1,0,0:0:0:0:
64,192,101346,1,0,0:0:0:0:
192,192,101346,1,0,0:0:0:0:
448,192,101399,1,0,0:0:0:0:
320,192,101399,1,0,0:0:0:0:
192,192,101453,1,0,0:0:0:0:
64,192,101453,1,0,0:0:0:0:
320,192,101507,1,0,0:0:0:0:
448,192,101507,1,0,0:0:0:0:
192,192,101614,1,0,0:0:0:0:
64,192,101614,1,0,0:0:0:0:
320,192,101667,1,0,0:0:0:0:
448,192,101667,1,0,0:0:0:0:
192,192,101721,1,0,0:0:0:0:
64,192,101721,1,0,0:0:0:0:
320,192,101774,1,0,0:0:0:0:
448,192,101774,1,0,0:0:0:0:
192,192,101828,1,0,0:0:0:0:
64,192,101828,1,0,0:0:0:0:
448,192,101935,1,0,0:0:0:0:
320,192,101935,1,0,0:0:0:0:
192,192,101989,1,0,0:0:0:0:
64,192,101989,1,0,0:0:0:0:
320,192,102042,1,0,0:0:0:0:
448,192,102042,1,0,0:0:0:0:
192,192,102096,1,0,0:0:0:0:
64,192,102096,1,0,0:0:0:0:
448,192,102149,1,0,0:0:0:0:
320,192,102149,1,0,0:0:0:0:
64,192,102257,1,0,0:0:0:0:
192,192,102257,1,0,0:0:0:0:
64,192,102364,1,0,0:0:0:0:
320,192,102364,1,0,0:0:0:0:
448,192,102364,1,0,0:0:0:0:
192,192,102417,1,0,0:0:0:0:
320,192,102471,1,0,0:0:0:0:
192,192,102524,1,0,0:0:0:0:
320,192,102578,1,0,0:0:0:0:
448,192,102578,1,0,0:0:0:0:
64,192,102578,1,0,0:0:0:0:
192,192,102632,1,0,0:0:0:0:
448,192,102685,1,0,0:0:0:0:
320,192,102685,1,0,0:0:0:0:
192,192,102739,1,0,0:0:0:0:
64,192,102739,1,0,0:0:0:0:
320,192,102792,1,0,0:0:0:0:
448,192,102792,1,0,0:0:0:0:
64,192,102846,1,0,0:0:0:0:
192,192,102846,1,0,0:0:0:0:
448,192,102899,1,0,0:0:0:0:
320,192,102899,1,0,0:0:0:0:
192,192,102953,1,0,0:0:0:0:
64,192,102953,1,0,0:0:0:0:
320,192,103007,1,0,0:0:0:0:
448,192,103007,1,0,0:0:0:0:
192,192,103114,1,0,0:0:0:0:
64,192,103221,1,0,0:0:0:0:
448,192,103221,1,0,0:0:0:0:
320,192,103328,1,0,0:0:0:0:
64,192,103435,1,0,0:0:0:0:
192,192,103435,1,0,0:0:0:0:
448,192,103435,1,0,0:0:0:0:
448,192,103542,1,0,0:0:0:0:
64,192,103649,1,0,0:0:0:0:
448,192,103757,1,0,0:0:0:0:
320,192,103757,1,0,0:0:0:0:
192,192,103757,1,0,0:0:0:0:
320,192,103864,1,0,0:0:0:0:
192,192,103864,1,0,0:0:0:0:
64,192,103864,1,0,0:0:0:0:
448,192,103971,1,0,0:0:0:0:
64,192,103971,1,0,0:0:0:0:
192,192,104078,1,0,0:0:0:0:
320,192,104185,1,0,0:0:0:0:
448,192,104185,1,0,0:0:0:0:
64,192,104185,1,0,0:0:0:0:
64,192,104292,1,0,0:0:0:0:
320,192,104399,1,0,0:0:0:0:
448,192,104399,1,0,0:0:0:0:
192,192,104507,1,0,0:0:0:0:
64,192,104507,1,0,0:0:0:0:
320,192,104560,1,0,0:0:0:0:
448,192,104614,1,0,0:0:0:0:
320,192,104667,1,0,0:0:0:0:
448,192,104721,1,0,0:0:0:0:
64,192,104721,1,0,0:0:0:0:
192,192,104721,1,0,0:0:0:0:
320,192,104828,1,0,0:0:0:0:
64,192,104935,1,0,0:0:0:0:
192,192,104935,1,0,0:0:0:0:
320,192,105042,1,0,0:0:0:0:
448,192,105042,1,0,0:0:0:0:
192,192,105096,1,0,0:0:0:0:
64,192,105096,1,0,0:0:0:0:
320,192,105149,1,0,0:0:0:0:
448,192,105149,1,0,0:0:0:0:
192,192,105203,1,0,0:0:0:0:
64,192,105257,1,0,0:0:0:0:
448,192,105364,1,0,0:0:0:0:
320,192,105364,1,0,0:0:0:0:
64,192,105364,1,0,0:0:0:0:
320,192,105471,1,0,0:0:0:0:
192,192,105471,1,0,0:0:0:0:
192,192,105578,1,0,0:0:0:0:
64,192,105578,1,0,0:0:0:0:
448,192,105578,1,0,0:0:0:0:
320,192,105685,1,0,0:0:0:0:
64,192,105792,1,0,0:0:0:0:
192,192,105792,1,0,0:0:0:0:
320,192,105846,1,0,0:0:0:0:
448,192,105846,1,0,0:0:0:0:
192,192,105899,1,0,0:0:0:0:
64,192,105899,1,0,0:0:0:0:
320,192,105953,1,0,0:0:0:0:
448,192,105953,1,0,0:0:0:0:
192,192,106007,1,0,0:0:0:0:
64,192,106007,1,0,0:0:0:0:
192,192,106114,1,0,0:0:0:0:
320,192,106114,1,0,0:0:0:0:
448,192,106221,1,0,0:0:0:0:
320,192,106221,1,0,0:0:0:0:
64,192,106221,1,0,0:0:0:0:
192,192,106328,1,0,0:0:0:0:
64,192,106328,1,0,0:0:0:0:
320,192,106435,1,0,0:0:0:0:
448,192,106435,1,0,0:0:0:0:
192,192,106435,1,0,0:0:0:0:
320,192,106542,1,0,0:0:0:0:
448,192,106649,1,0,0:0:0:0:
64,192,106649,1,0,0:0:0:0:
192,192,106757,1,0,0:0:0:0:
448,192,106864,1,0,0:0:0:0:
64,192,106864,1,0,0:0:0:0:
320,192,106864,1,0,0:0:0:0:
448,192,106971,1,0,0:0:0:0:
192,192,107078,1,0,0:0:0:0:
64,192,107078,1,0,0:0:0:0:
320,192,107078,1,0,0:0:0:0:
192,192,107185,1,0,0:0:0:0:
64,192,107185,1,0,0:0:0:0:
448,192,107185,1,0,0:0:0:0:
448,192,107292,1,0,0:0:0:0:
320,192,107292,1,0,0:0:0:0:
64,192,107346,1,0,0:0:0:0:
192,192,107346,1,0,0:0:0:0:
320,192,107399,1,0,0:0:0:0:
448,192,107399,1,0,0:0:0:0:
192,192,107507,1,0,0:0:0:0:
64,192,107507,1,0,0:0:0:0:
192,192,107614,1,0,0:0:0:0:
64,192,107614,1,0,0:0:0:0:
320,192,107614,1,0,0:0:0:0:
320,192,107721,1,0,0:0:0:0:
448,192,107721,1,0,0:0:0:0:
192,192,107774,1,0,0:0:0:0:
448,192,107828,1,0,0:0:0:0:
64,192,107828,1,0,0:0:0:0:
320,192,107935,1,0,0:0:0:0:
192,192,107935,1,0,0:0:0:0:
64,192,107935,1,0,0:0:0:0:
192,192,108042,1,0,0:0:0:0:
64,192,108149,1,0,0:0:0:0:
448,192,108149,1,0,0:0:0:0:
320,192,108149,1,0,0:0:0:0:
320,192,108257,1,0,0:0:0:0:
192,192,108364,1,0,0:0:0:0:
64,192,108364,1,0,0:0:0:0:
320,192,108471,1,0,0:0:0:0:
448,192,108471,1,0,0:0:0:0:
192,192,108524,1,0,0:0:0:0:
64,192,108524,1,0,0:0:0:0:
320,192,108578,1,0,0:0:0:0:
448,192,108578,1,0,0:0:0:0:
64,192,108685,1,0,0:0:0:0:
192,192,108685,1,0,0:0:0:0:
320,192,108792,1,0,0:0:0:0:
192,192,108792,1,0,0:0:0:0:
448,192,108792,1,0,0:0:0:0:
320,192,108899,1,0,0:0:0:0:
64,192,109007,1,0,0:0:0:0:
192,192,109007,1,0,0:0:0:0:
448,192,109007,1,0,0:0:0:0:
64,192,109114,1,0,0:0:0:0:
320,192,109221,1,0,0:0:0:0:
192,192,109221,1,0,0:0:0:0:
64,192,109221,1,0,0:0:0:0:
320,192,109328,1,0,0:0:0:0:
448,192,109328,1,0,0:0:0:0:
64,192,109435,1,0,0:0:0:0:
448,192,109435,1,0,0:0:0:0:
192,192,109435,1,0,0:0:0:0:
192,192,109542,1,0,0:0:0:0:
64,192,109649,1,0,0:0:0:0:
448,192,109649,1,0,0:0:0:0:
320,192,109649,1,0,0:0:0:0:
192,192,109757,1,0,0:0:0:0:
320,192,109810,1,0,0:0:0:0:
448,192,109864,1,0,0:0:0:0:
192,192,109864,1,0,0:0:0:0:
64,192,109864,1,0,0:0:0:0:
320,192,109971,1,0,0:0:0:0:
64,192,110078,1,0,0:0:0:0:
448,192,110078,1,0,0:0:0:0:
192,192,110185,1,0,0:0:0:0:
64,192,110292,1,0,0:0:0:0:
320,192,110292,1,0,0:0:0:0:
448,192,110292,1,0,0:0:0:0:
448,192,110399,1,0,0:0:0:0:
64,192,110507,1,0,0:0:0:0:
192,192,110507,1,0,0:0:0:0:
448,192,110614,1,0,0:0:0:0:
320,192,110614,1,0,0:0:0:0:
320,192,110721,1,0,0:0:0:0:
192,192,110721,1,0,0:0:0:0:
64,192,110721,1,0,0:0:0:0:
64,192,110828,1,0,0:0:0:0:
192,192,110935,1,0,0:0:0:0:
320,192,110935,1,0,0:0:0:0:
320,192,111042,1,0,0:0:0:0:
448,192,111042,1,0,0:0:0:0:
64,192,111042,1,0,0:0:0:0:
64,192,111149,1,0,0:0:0:0:
192,192,111149,1,0,0:0:0:0:
448,192,111203,1,0,0:0:0:0:
320,192,111203,1,0,0:0:0:0:
192,192,111257,1,0,0:0:0:0:
64,192,111257,1,0,0:0:0:0:
320,192,111310,1,0,0:0:0:0:
448,192,111310,1,0,0:0:0:0:
192,192,111364,1,0,0:0:0:0:
64,192,111364,1,0,0:0:0:0:
320,192,111471,1,0,0:0:0:0:
320,192,111578,1,0,0:0:0:0:
448,192,111578,1,0,0:0:0:0:
64,192,111578,1,0,0:0:0:0:
448,192,111685,1,0,0:0:0:0:
64,192,111792,1,0,0:0:0:0:
192,192,111792,1,0,0:0:0:0:
320,192,111899,1,0,0:0:0:0:
448,192,111899,1,0,0:0:0:0:
192,192,111953,1,0,0:0:0:0:
64,192,111953,1,0,0:0:0:0:
320,192,112007,1,0,0:0:0:0:
448,192,112007,1,0,0:0:0:0:
64,192,112114,1,0,0:0:0:0:
192,192,112114,1,0,0:0:0:0:
448,192,112221,1,0,0:0:0:0:
320,192,112221,1,0,0:0:0:0:
64,192,112221,1,0,0:0:0:0:
320,192,112328,1,0,0:0:0:0:
192,192,112328,1,0,0:0:0:0:
192,192,112435,1,0,0:0:0:0:
64,192,112435,1,0,0:0:0:0:
448,192,112435,1,0,0:0:0:0:
320,192,112489,1,0,0:0:0:0:
448,192,112542,1,0,0:0:0:0:
192,192,112596,1,0,0:0:0:0:
448,192,112649,1,0,0:0:0:0:
320,192,112649,1,0,0:0:0:0:
192,192,112703,1,0,0:0:0:0:
64,192,112703,1,0,0:0:0:0:
320,192,112757,1,0,0:0:0:0:
192,192,112810,1,0,0:0:0:0:
320,192,112864,1,0,0:0:0:0:
448,192,112864,1,0,0:0:0:0:
192,192,112917,1,0,0:0:0:0:
64,192,112917,1,0,0:0:0:0:
320,192,112971,1,0,0:0:0:0:
448,192,112971,1,0,0:0:0:0:
448,192,113078,1,0,0:0:0:0:
320,192,113078,1,0,0:0:0:0:
64,192,113078,1,0,0:0:0:0:
192,192,113185,1,0,0:0:0:0:
448,192,113292,1,0,0:0:0:0:
192,192,113292,1,0,0:0:0:0:
64,192,113292,1,0,0:0:0:0:
448,192,113399,1,0,0:0:0:0:
64,192,113507,1,0,0:0:0:0:
192,192,113507,1,0,0:0:0:0:
448,192,113560,1,0,0:0:0:0:
64,192,113614,1,0,0:0:0:0:
192,192,113614,1,0,0:0:0:0:
320,192,113667,1,0,0:0:0:0:
448,192,113721,1,0,0:0:0:0:
64,192,113721,1,0,0:0:0:0:
192,192,113721,1,0,0:0:0:0:
320,192,113828,1,0,0:0:0:0:
192,192,113935,1,0,0:0:0:0:
64,192,113935,1,0,0:0:0:0:
448,192,113935,1,0,0:0:0:0:
320,192,114042,1,0,0:0:0:0:
192,192,114042,1,0,0:0:0:0:
64,192,114042,1,0,0:0:0:0:
448,192,114149,1,0,0:0:0:0:
320,192,114149,1,0,0:0:0:0:
64,192,114149,1,0,0:0:0:0:
448,192,114257,1,0,0:0:0:0:
192,192,114364,1,0,0:0:0:0:
64,192,114364,1,0,0:0:0:0:
320,192,114417,1,0,0:0:0:0:
192,192,114471,1,0,0:0:0:0:
64,192,114471,1,0,0:0:0:0:
448,192,114471,1,0,0:0:0:0:
448,192,114578,1,0,0:0:0:0:
320,192,114578,1,0,0:0:0:0:
192,192,114685,1,0,0:0:0:0:
64,192,114685,1,0,0:0:0:0:
320,192,114792,1,0,0:0:0:0:
448,192,114792,1,0,0:0:0:0:
64,192,114792,1,0,0:0:0:0:
320,192,114899,1,0,0:0:0:0:
64,192,115007,1,0,0:0:0:0:
448,192,115007,1,0,0:0:0:0:
192,192,115007,1,0,0:0:0:0:
320,192,115114,1,0,0:0:0:0:
192,192,115221,1,0,0:0:0:0:
64,192,115221,1,0,0:0:0:0:
320,192,115328,1,0,0:0:0:0:
448,192,115328,1,0,0:0:0:0:
192,192,115382,1,0,0:0:0:0:
64,192,115382,1,0,0:0:0:0:
320,192,115435,1,0,0:0:0:0:
448,192,115435,1,0,0:0:0:0:
64,192,115542,1,0,0:0:0:0:
192,192,115542,1,0,0:0:0:0:
320,192,115649,1,0,0:0:0:0:
192,192,115649,1,0,0:0:0:0:
448,192,115649,1,0,0:0:0:0:
320,192,115757,1,0,0:0:0:0:
64,192,115864,1,0,0:0:0:0:
192,192,115864,1,0,0:0:0:0:
448,192,115864,1,0,0:0:0:0:
448,192,115971,1,0,0:0:0:0:
320,192,116078,1,0,0:0:0:0:
192,192,116078,1,0,0:0:0:0:
64,192,116078,1,0,0:0:0:0:
448,192,116185,1,0,0:0:0:0:
320,192,116239,1,0,0:0:0:0:
64,192,116292,1,0,0:0:0:0:
192,192,116292,1,0,0:0:0:0:
448,192,116292,1,0,0:0:0:0:
192,192,116399,1,0,0:0:0:0:
320,192,116399,1,0,0:0:0:0:
64,192,116507,1,0,0:0:0:0:
448,192,116507,1,0,0:0:0:0:
320,192,116507,1,0,0:0:0:0:
192,192,116614,1,0,0:0:0:0:
448,192,116614,1,0,0:0:0:0:
64,192,116721,1,0,0:0:0:0:
192,192,116721,1,0,0:0:0:0:
320,192,116721,1,0,0:0:0:0:
320,192,116828,1,0,0:0:0:0:
64,192,116935,1,0,0:0:0:0:
448,192,117042,1,0,0:0:0:0:
192,192,117149,1,0,0:0:0:0:
320,192,117257,1,0,0:0:0:0:
192,192,117310,1,0,0:0:0:0:
64,192,117364,1,0,0:0:0:0:
448,192,117471,1,0,0:0:0:0:
320,192,117578,1,0,0:0:0:0:
192,192,117578,1,0,0:0:0:0:
64,192,117578,1,0,0:0:0:0:
64,192,117685,1,0,0:0:0:0:
448,192,117792,1,0,0:0:0:0:
320,192,117792,1,0,0:0:0:0:
192,192,118007,1,0,0:0:0:0:
320,192,118114,1,0,0:0:0:0:
64,192,118221,1,0,0:0:0:0:
192,192,118328,1,0,0:0:0:0:
448,192,118435,1,0,0:0:0:0:
320,192,118435,1,0,0:0:0:0:
448,192,118649,1,0,0:0:0:0:
64,192,118649,1,0,0:0:0:0:
192,192,118757,1,0,0:0:0:0:
320,192,118810,1,0,0:0:0:0:
64,192,118864,1,0,0:0:0:0:
192,192,118917,1,0,0:0:0:0:
448,192,118971,1,0,0:0:0:0:
320,192,119024,1,0,0:0:0:0:
192,192,119078,1,0,0:0:0:0:
320,192,119185,1,0,0:0:0:0:
64,192,119292,1,0,0:0:0:0:
192,192,119292,1,0,0:0:0:0:
448,192,119292,1,0,0:0:0:0:
192,192,119399,1,0,0:0:0:0:
64,192,119507,1,0,0:0:0:0:
448,192,119614,1,0,0:0:0:0:
320,192,119721,1,0,0:0:0:0:
192,192,119721,1,0,0:0:0:0:
448,192,119828,1,0,0:0:0:0:
64,192,119935,1,0,0:0:0:0:
320,192,120042,1,0,0:0:0:0:
192,192,120149,1,0,0:0:0:0:
64,192,120149,1,0,0:0:0:0:
320,192,120257,1,0,0:0:0:0:
448,192,120364,1,0,0:0:0:0:
64,192,120471,1,0,0:0:0:0:
320,192,120578,1,0,0:0:0:0:
192,192,120578,1,0,0:0:0:0:
448,192,120685,1,0,0:0:0:0:
64,192,120792,1,0,0:0:0:0:
448,192,120899,1,0,0:0:0:0:
320,192,120953,1,0,0:0:0:0:
192,192,121007,1,0,0:0:0:0:
64,192,121007,1,0,0:0:0:0:
448,192,121007,1,0,0:0:0:0:
320,192,121114,1,0,0:0:0:0:
64,192,121221,1,0,0:0:0:0:
192,192,121221,1,0,0:0:0:0:
448,192,121435,1,0,0:0:0:0:
320,192,121435,1,0,0:0:0:0:
320,192,121542,1,0,0:0:0:0:
64,192,121649,1,0,0:0:0:0:
192,192,121649,1,0,0:0:0:0:
192,192,121757,1,0,0:0:0:0:
64,192,121864,1,0,0:0:0:0:
448,192,121864,1,0,0:0:0:0:
320,192,121917,1,0,0:0:0:0:
192,192,121971,1,0,0:0:0:0:
448,192,122024,1,0,0:0:0:0:
320,192,122078,1,0,0:0:0:0:
64,192,122078,1,0,0:0:0:0:
192,192,122078,1,0,0:0:0:0:
64,192,122185,1,0,0:0:0:0:
448,192,122292,1,0,0:0:0:0:
320,192,122292,1,0,0:0:0:0:
448,192,122399,1,0,0:0:0:0:
64,192,122507,1,0,0:0:0:0:
192,192,122507,1,0,0:0:0:0:
448,192,122614,1,0,0:0:0:0:
192,192,122667,1,0,0:0:0:0:
64,192,122721,1,0,0:0:0:0:
320,192,122721,1,0,0:0:0:0:
448,192,122721,1,0,0:0:0:0:
320,192,122828,1,0,0:0:0:0:
448,192,122935,1,0,0:0:0:0:
192,192,122935,1,0,0:0:0:0:
448,192,123042,1,0,0:0:0:0:
64,192,123149,1,0,0:0:0:0:
192,192,123149,1,0,0:0:0:0:
192,192,123257,1,0,0:0:0:0:
64,192,123257,1,0,0:0:0:0:
320,192,123364,1,0,0:0:0:0:
448,192,123364,1,0,0:0:0:0:
320,192,123471,1,0,0:0:0:0:
448,192,123471,1,0,0:0:0:0:
448,192,123578,1,0,0:0:0:0:
64,192,123578,1,0,0:0:0:0:
192,192,123578,1,0,0:0:0:0:
320,192,123685,1,0,0:0:0:0:
448,192,123792,1,0,0:0:0:0:
64,192,123899,1,0,0:0:0:0:
192,192,124007,1,0,0:0:0:0:
448,192,124114,1,0,0:0:0:0:
320,192,124167,1,0,0:0:0:0:
64,192,124221,1,0,0:0:0:0:
192,192,124274,1,0,0:0:0:0:
448,192,124328,1,0,0:0:0:0:
320,192,124382,1,0,0:0:0:0:
192,192,124435,1,0,0:0:0:0:
64,192,124435,1,0,0:0:0:0:
448,192,124435,1,0,0:0:0:0:
320,192,124649,1,0,0:0:0:0:
192,192,124649,1,0,0:0:0:0:
448,192,124757,1,0,0:0:0:0:
192,192,124864,1,0,0:0:0:0:
320,192,124971,1,0,0:0:0:0:
64,192,125078,1,0,0:0:0:0:
192,192,125185,1,0,0:0:0:0:
448,192,125292,1,0,0:0:0:0:
320,192,125292,1,0,0:0:0:0:
64,192,125399,1,0,0:0:0:0:
192,192,125507,1,0,0:0:0:0:
448,192,125614,1,0,0:0:0:0:
320,192,125721,1,0,0:0:0:0:
64,192,125774,1,0,0:0:0:0:
192,192,125828,1,0,0:0:0:0:
448,192,125882,1,0,0:0:0:0:
320,192,125935,1,0,0:0:0:0:
64,192,125989,1,0,0:0:0:0:
192,192,126042,1,0,0:0:0:0:
448,192,126149,1,0,0:0:0:0:
320,192,126149,1,0,0:0:0:0:
64,192,126149,1,0,0:0:0:0:
192,192,126257,1,0,0:0:0:0:
64,192,126310,1,0,0:0:0:0:
320,192,126364,1,0,0:0:0:0:
192,192,126417,1,0,0:0:0:0:
448,192,126471,1,0,0:0:0:0:
320,192,126524,1,0,0:0:0:0:
64,192,126578,1,0,0:0:0:0:
192,192,126578,1,0,0:0:0:0:
448,192,126685,1,0,0:0:0:0:
320,192,126792,1,0,0:0:0:0:
192,192,126792,1,0,0:0:0:0:
64,192,126899,1,0,0:0:0:0:
320,192,127007,128,0,127114:0:0:0:0:
448,192,127007,128,0,127221:0:0:0:0:
64,192,127114,1,0,0:0:0:0:
192,192,127167,1,0,0:0:0:0:
320,192,127221,1,0,0:0:0:0:
64,192,127274,1,0,0:0:0:0:
320,192,127328,1,0,0:0:0:0:
192,192,127382,1,0,0:0:0:0:
448,192,127435,1,0,0:0:0:0:
448,192,127542,1,0,0:0:0:0:
192,192,127649,1,0,0:0:0:0:
320,192,127703,1,0,0:0:0:0:
64,192,127757,1,0,0:0:0:0:
192,192,127810,1,0,0:0:0:0:
320,192,127864,1,0,0:0:0:0:
448,192,127864,1,0,0:0:0:0:
64,192,127864,1,0,0:0:0:0:
448,192,127971,1,0,0:0:0:0:
192,192,128078,1,0,0:0:0:0:
64,192,128078,1,0,0:0:0:0:
320,192,128185,1,0,0:0:0:0:
448,192,128292,1,0,0:0:0:0:
320,192,128292,1,0,0:0:0:0:
192,192,128399,1,0,0:0:0:0:
64,192,128507,1,0,0:0:0:0:
192,192,128507,1,0,0:0:0:0:
448,192,128614,1,0,0:0:0:0:
320,192,128721,1,0,0:0:0:0:
448,192,128721,1,0,0:0:0:0:
192,192,128828,1,0,0:0:0:0:
64,192,128882,1,0,0:0:0:0:
448,192,128935,1,0,0:0:0:0:
320,192,128935,1,0,0:0:0:0:
192,192,128935,1,0,0:0:0:0:
448,192,129042,1,0,0:0:0:0:
64,192,129149,1,0,0:0:0:0:
192,192,129149,1,0,0:0:0:0:
320,192,129257,1,0,0:0:0:0:
448,192,129310,1,0,0:0:0:0:
64,192,129364,1,0,0:0:0:0:
320,192,129364,1,0,0:0:0:0:
192,192,129364,1,0,0:0:0:0:
64,192,129471,1,0,0:0:0:0:
448,192,129578,1,0,0:0:0:0:
192,192,129578,1,0,0:0:0:0:
320,192,129578,1,0,0:0:0:0:
192,192,129685,1,0,0:0:0:0:
320,192,129792,1,0,0:0:0:0:
448,192,129792,1,0,0:0:0:0:
192,192,129899,1,0,0:0:0:0:
320,192,129899,1,0,0:0:0:0:
64,192,129899,1,0,0:0:0:0:
64,192,130007,1,0,0:0:0:0:
320,192,130114,1,0,0:0:0:0:
64,192,130221,1,0,0:0:0:0:
192,192,130221,1,0,0:0:0:0:
448,192,130221,1,0,0:0:0:0:
192,192,130328,1,0,0:0:0:0:
64,192,130435,5,0,0:0:0:0:
320,192,130435,1,0,0:0:0:0:
448,192,130435,1,0,0:0:0:0:
320,192,130542,1,0,0:0:0:0:
64,192,130649,1,0,0:0:0:0:
192,192,130757,1,0,0:0:0:0:
64,192,130757,1,0,0:0:0:0:
448,192,130757,1,0,0:0:0:0:
320,192,130864,1,0,0:0:0:0:
64,192,130971,1,0,0:0:0:0:
320,192,131078,1,0,0:0:0:0:
192,192,131078,1,0,0:0:0:0:
448,192,131078,1,0,0:0:0:0:
448,192,131185,1,0,0:0:0:0:
64,192,131292,1,0,0:0:0:0:
192,192,131292,1,0,0:0:0:0:
320,192,131346,1,0,0:0:0:0:
448,192,131399,1,0,0:0:0:0:
64,192,131453,1,0,0:0:0:0:
192,192,131507,1,0,0:0:0:0:
448,192,131560,1,0,0:0:0:0:
320,192,131614,1,0,0:0:0:0:
192,192,131614,1,0,0:0:0:0:
64,192,131721,1,0,0:0:0:0:
448,192,131721,1,0,0:0:0:0:
320,192,131774,1,0,0:0:0:0:
192,192,131828,1,0,0:0:0:0:
320,192,131882,1,0,0:0:0:0:
448,192,131935,1,0,0:0:0:0:
64,192,131989,1,0,0:0:0:0:
320,192,132042,1,0,0:0:0:0:
192,192,132042,1,0,0:0:0:0:
192,192,132149,1,0,0:0:0:0:
64,192,132149,1,0,0:0:0:0:
448,192,132149,1,0,0:0:0:0:
64,192,132257,1,0,0:0:0:0:
320,192,132364,1,0,0:0:0:0:
192,192,132471,1,0,0:0:0:0:
320,192,132471,1,0,0:0:0:0:
448,192,132471,1,0,0:0:0:0:
64,192,132578,1,0,0:0:0:0:
448,192,132685,1,0,0:0:0:0:
320,192,132792,1,0,0:0:0:0:
448,192,132792,1,0,0:0:0:0:
192,192,132792,1,0,0:0:0:0:
64,192,132899,1,0,0:0:0:0:
192,192,132899,1,0,0:0:0:0:
448,192,133007,1,0,0:0:0:0:
320,192,133007,1,0,0:0:0:0:
192,192,133060,1,0,0:0:0:0:
320,192,133114,1,0,0:0:0:0:
64,192,133167,1,0,0:0:0:0:
192,192,133221,1,0,0:0:0:0:
448,192,133274,1,0,0:0:0:0:
320,192,133328,1,0,0:0:0:0:
192,192,133328,1,0,0:0:0:0:
64,192,133435,1,0,0:0:0:0:
448,192,133435,1,0,0:0:0:0:
320,192,133489,1,0,0:0:0:0:
192,192,133542,1,0,0:0:0:0:
64,192,133596,1,0,0:0:0:0:
448,192,133649,1,0,0:0:0:0:
320,192,133649,1,0,0:0:0:0:
192,192,133703,1,0,0:0:0:0:
64,192,133757,1,0,0:0:0:0:
192,192,133864,1,0,0:0:0:0:
64,192,133864,1,0,0:0:0:0:
448,192,133864,1,0,0:0:0:0:
448,192,133971,1,0,0:0:0:0:
192,192,134078,1,0,0:0:0:0:
64,192,134078,1,0,0:0:0:0:
320,192,134185,1,0,0:0:0:0:
192,192,134185,1,0,0:0:0:0:
448,192,134185,1,0,0:0:0:0:
448,192,134292,1,0,0:0:0:0:
192,192,134399,1,0,0:0:0:0:
64,192,134399,1,0,0:0:0:0:
320,192,134507,1,0,0:0:0:0:
448,192,134507,1,0,0:0:0:0:
192,192,134507,1,0,0:0:0:0:
320,192,134614,1,0,0:0:0:0:
64,192,134721,1,0,0:0:0:0:
192,192,134721,1,0,0:0:0:0:
448,192,134774,1,0,0:0:0:0:
320,192,134828,1,0,0:0:0:0:
192,192,134882,1,0,0:0:0:0:
448,192,134935,1,0,0:0:0:0:
64,192,134989,1,0,0:0:0:0:
192,192,135042,1,0,0:0:0:0:
320,192,135042,1,0,0:0:0:0:
64,192,135149,1,0,0:0:0:0:
448,192,135149,1,0,0:0:0:0:
192,192,135203,1,0,0:0:0:0:
320,192,135257,1,0,0:0:0:0:
448,192,135310,1,0,0:0:0:0:
192,192,135364,1,0,0:0:0:0:
64,192,135364,1,0,0:0:0:0:
320,192,135364,1,0,0:0:0:0:
448,192,135471,1,0,0:0:0:0:
192,192,135471,1,0,0:0:0:0:
64,192,135578,1,0,0:0:0:0:
448,192,135578,1,0,0:0:0:0:
320,192,135578,1,0,0:0:0:0:
192,192,135685,1,0,0:0:0:0:
320,192,135792,1,0,0:0:0:0:
192,192,135899,1,0,0:0:0:0:
64,192,135899,1,0,0:0:0:0:
320,192,135899,1,0,0:0:0:0:
448,192,136007,1,0,0:0:0:0:
320,192,136114,1,0,0:0:0:0:
192,192,136114,1,0,0:0:0:0:
192,192,136221,1,0,0:0:0:0:
64,192,136221,1,0,0:0:0:0:
448,192,136221,1,0,0:0:0:0:
448,192,136328,1,0,0:0:0:0:
320,192,136328,1,0,0:0:0:0:
64,192,136435,1,0,0:0:0:0:
192,192,136435,1,0,0:0:0:0:
320,192,136489,1,0,0:0:0:0:
448,192,136542,1,0,0:0:0:0:
64,192,136596,1,0,0:0:0:0:
192,192,136596,1,0,0:0:0:0:
320,192,136649,1,0,0:0:0:0:
448,192,136703,1,0,0:0:0:0:
320,192,136757,1,0,0:0:0:0:
192,192,136757,1,0,0:0:0:0:
64,192,136810,1,0,0:0:0:0:
448,192,136864,1,0,0:0:0:0:
320,192,136864,1,0,0:0:0:0:
192,192,136917,1,0,0:0:0:0:
320,192,136971,1,0,0:0:0:0:
448,192,136971,1,0,0:0:0:0:
192,192,137024,1,0,0:0:0:0:
64,192,137024,1,0,0:0:0:0:
320,192,137078,1,0,0:0:0:0:
448,192,137078,1,0,0:0:0:0:
192,192,137185,1,0,0:0:0:0:
192,192,137292,1,0,0:0:0:0:
64,192,137292,1,0,0:0:0:0:
448,192,137292,1,0,0:0:0:0:
64,192,137399,1,0,0:0:0:0:
448,192,137507,1,0,0:0:0:0:
320,192,137507,1,0,0:0:0:0:
192,192,137614,1,0,0:0:0:0:
64,192,137614,1,0,0:0:0:0:
320,192,137614,1,0,0:0:0:0:
448,192,137721,1,0,0:0:0:0:
192,192,137721,1,0,0:0:0:0:
64,192,137828,1,0,0:0:0:0:
448,192,137935,1,0,0:0:0:0:
320,192,137935,1,0,0:0:0:0:
64,192,137935,1,0,0:0:0:0:
192,192,138042,1,0,0:0:0:0:
320,192,138096,1,0,0:0:0:0:
192,192,138149,1,0,0:0:0:0:
64,192,138149,1,0,0:0:0:0:
320,192,138203,1,0,0:0:0:0:
448,192,138257,1,0,0:0:0:0:
64,192,138310,1,0,0:0:0:0:
192,192,138364,1,0,0:0:0:0:
448,192,138417,1,0,0:0:0:0:
320,192,138471,1,0,0:0:0:0:
192,192,138471,1,0,0:0:0:0:
448,192,138578,1,0,0:0:0:0:
64,192,138578,1,0,0:0:0:0:
320,192,138632,1,0,0:0:0:0:
192,192,138685,1,0,0:0:0:0:
64,192,138739,1,0,0:0:0:0:
320,192,138792,1,0,0:0:0:0:
448,192,138792,1,0,0:0:0:0:
192,192,138899,1,0,0:0:0:0:
64,192,139007,1,0,0:0:0:0:
192,192,139007,1,0,0:0:0:0:
448,192,139007,1,0,0:0:0:0:
320,192,139060,1,0,0:0:0:0:
448,192,139114,1,0,0:0:0:0:
64,192,139221,1,0,0:0:0:0:
192,192,139221,1,0,0:0:0:0:
320,192,139328,1,0,0:0:0:0:
192,192,139328,1,0,0:0:0:0:
448,192,139328,1,0,0:0:0:0:
448,192,139435,1,0,0:0:0:0:
64,192,139542,1,0,0:0:0:0:
192,192,139542,1,0,0:0:0:0:
448,192,139649,1,0,0:0:0:0:
320,192,139649,1,0,0:0:0:0:
64,192,139649,1,0,0:0:0:0:
320,192,139757,1,0,0:0:0:0:
64,192,139864,1,0,0:0:0:0:
192,192,139864,1,0,0:0:0:0:
320,192,139917,1,0,0:0:0:0:
448,192,139971,1,0,0:0:0:0:
64,192,140024,1,0,0:0:0:0:
192,192,140078,1,0,0:0:0:0:
448,192,140132,1,0,0:0:0:0:
320,192,140185,1,0,0:0:0:0:
192,192,140185,1,0,0:0:0:0:
64,192,140292,1,0,0:0:0:0:
448,192,140292,1,0,0:0:0:0:
320,192,140346,1,0,0:0:0:0:
192,192,140399,1,0,0:0:0:0:
64,192,140453,1,0,0:0:0:0:
448,192,140507,1,0,0:0:0:0:
320,192,140507,1,0,0:0:0:0:
320,192,140614,1,0,0:0:0:0:
64,192,140721,1,0,0:0:0:0:
448,192,140721,1,0,0:0:0:0:
192,192,140721,1,0,0:0:0:0:
448,192,140828,1,0,0:0:0:0:
64,192,140935,1,0,0:0:0:0:
320,192,141042,1,0,0:0:0:0:
448,192,141042,1,0,0:0:0:0:
192,192,141042,1,0,0:0:0:0:
192,192,141149,1,0,0:0:0:0:
448,192,141257,1,0,0:0:0:0:
64,192,141364,1,0,0:0:0:0:
192,192,141364,1,0,0:0:0:0:
320,192,141364,1,0,0:0:0:0:
320,192,141471,1,0,0:0:0:0:
448,192,141471,1,0,0:0:0:0:
192,192,141578,1,0,0:0:0:0:
64,192,141578,1,0,0:0:0:0:
448,192,141632,1,0,0:0:0:0:
320,192,141685,1,0,0:0:0:0:
192,192,141739,1,0,0:0:0:0:
64,192,141792,1,0,0:0:0:0:
448,192,141846,1,0,0:0:0:0:
320,192,141899,1,0,0:0:0:0:
192,192,141899,1,0,0:0:0:0:
64,192,142007,1,0,0:0:0:0:
448,192,142007,1,0,0:0:0:0:
320,192,142007,1,0,0:0:0:0:
192,192,142114,1,0,0:0:0:0:
192,192,142221,1,0,0:0:0:0:
64,192,142221,1,0,0:0:0:0:
448,192,142221,1,0,0:0:0:0:
320,192,142328,1,0,0:0:0:0:
448,192,142328,1,0,0:0:0:0:
320,192,142435,1,0,0:0:0:0:
192,192,142435,1,0,0:0:0:0:
64,192,142435,1,0,0:0:0:0:
448,192,142542,1,0,0:0:0:0:
64,192,142649,1,0,0:0:0:0:
320,192,142757,1,0,0:0:0:0:
448,192,142757,1,0,0:0:0:0:
192,192,142757,1,0,0:0:0:0:
192,192,142864,1,0,0:0:0:0:
448,192,142971,1,0,0:0:0:0:
448,192,143078,1,0,0:0:0:0:
320,192,143078,1,0,0:0:0:0:
64,192,143078,1,0,0:0:0:0:
192,192,143185,1,0,0:0:0:0:
192,192,143292,1,0,0:0:0:0:
64,192,143292,1,0,0:0:0:0:
320,192,143346,1,0,0:0:0:0:
448,192,143399,1,0,0:0:0:0:
64,192,143453,1,0,0:0:0:0:
192,192,143507,1,0,0:0:0:0:
320,192,143560,1,0,0:0:0:0:
448,192,143614,1,0,0:0:0:0:
192,192,143667,1,0,0:0:0:0:
448,192,143721,1,0,0:0:0:0:
64,192,143721,1,0,0:0:0:0:
320,192,143774,1,0,0:0:0:0:
192,192,143828,1,0,0:0:0:0:
320,192,143882,1,0,0:0:0:0:
448,192,143935,1,0,0:0:0:0:
64,192,143935,1,0,0:0:0:0:
192,192,144042,1,0,0:0:0:0:
320,192,144042,1,0,0:0:0:0:
64,192,144149,1,0,0:0:0:0:
448,192,144149,1,0,0:0:0:0:
192,192,144149,1,0,0:0:0:0:
320,192,144257,1,0,0:0:0:0:
192,192,144364,1,0,0:0:0:0:
64,192,144364,1,0,0:0:0:0:
448,192,144364,1,0,0:0:0:0:
64,192,144471,1,0,0:0:0:0:
192,192,144471,1,0,0:0:0:0:
448,192,144578,1,0,0:0:0:0:
192,192,144685,1,0,0:0:0:0:
320,192,144685,1,0,0:0:0:0:
448,192,144792,1,0,0:0:0:0:
320,192,144792,1,0,0:0:0:0:
64,192,144792,1,0,0:0:0:0:
192,192,144899,1,0,0:0:0:0:
64,192,145007,1,0,0:0:0:0:
192,192,145007,1,0,0:0:0:0:
320,192,145114,1,0,0:0:0:0:
448,192,145114,1,0,0:0:0:0:
192,192,145221,1,0,0:0:0:0:
320,192,145221,1,0,0:0:0:0:
448,192,145221,1,0,0:0:0:0:
64,192,145328,1,0,0:0:0:0:
192,192,145328,1,0,0:0:0:0:
448,192,145435,1,0,0:0:0:0:
192,192,145542,1,0,0:0:0:0:
64,192,145542,1,0,0:0:0:0:
64,192,145649,1,0,0:0:0:0:
192,192,145649,1,0,0:0:0:0:
448,192,145649,1,0,0:0:0:0:
320,192,145757,1,0,0:0:0:0:
320,192,145864,1,0,0:0:0:0:
448,192,145864,1,0,0:0:0:0:
64,192,145971,1,0,0:0:0:0:
448,192,146078,1,0,0:0:0:0:
320,192,146078,1,0,0:0:0:0:
64,192,146078,1,0,0:0:0:0:
320,192,146185,1,0,0:0:0:0:
192,192,146185,1,0,0:0:0:0:
448,192,146292,1,0,0:0:0:0:
192,192,146399,1,0,0:0:0:0:
320,192,146399,1,0,0:0:0:0:
320,192,146507,1,0,0:0:0:0:
448,192,146507,1,0,0:0:0:0:
64,192,146507,1,0,0:0:0:0:
192,192,146614,1,0,0:0:0:0:
64,192,146721,1,0,0:0:0:0:
192,192,146721,1,0,0:0:0:0:
448,192,146828,1,0,0:0:0:0:
320,192,146935,1,0,0:0:0:0:
192,192,146935,1,0,0:0:0:0:
448,192,146935,1,0,0:0:0:0:
192,192,147042,1,0,0:0:0:0:
64,192,147042,1,0,0:0:0:0:
64,192,147149,1,0,0:0:0:0:
320,192,147257,1,0,0:0:0:0:
448,192,147257,1,0,0:0:0:0:
320,192,147364,1,0,0:0:0:0:
192,192,147364,1,0,0:0:0:0:
448,192,147364,1,0,0:0:0:0:
64,192,147471,1,0,0:0:0:0:
192,192,147471,1,0,0:0:0:0:
448,192,147578,1,0,0:0:0:0:
64,192,147578,1,0,0:0:0:0:
192,192,147632,1,0,0:0:0:0:
320,192,147685,1,0,0:0:0:0:
192,192,147792,1,0,0:0:0:0:
64,192,147792,1,0,0:0:0:0:
448,192,147792,1,0,0:0:0:0:
448,192,147899,1,0,0:0:0:0:
64,192,147899,1,0,0:0:0:0:
320,192,148007,1,0,0:0:0:0:
64,192,148114,1,0,0:0:0:0:
192,192,148114,1,0,0:0:0:0:
448,192,148221,1,0,0:0:0:0:
320,192,148221,1,0,0:0:0:0:
64,192,148221,1,0,0:0:0:0:
192,192,148328,1,0,0:0:0:0:
64,192,148435,1,0,0:0:0:0:
448,192,148435,1,0,0:0:0:0:
448,192,148542,1,0,0:0:0:0:
64,192,148649,1,0,0:0:0:0:
192,192,148649,1,0,0:0:0:0:
320,192,148649,1,0,0:0:0:0:
64,192,148757,1,0,0:0:0:0:
192,192,148757,1,0,0:0:0:0:
448,192,148864,1,0,0:0:0:0:
320,192,148917,1,0,0:0:0:0:
192,192,148971,1,0,0:0:0:0:
64,192,148971,1,0,0:0:0:0:
64,192,149078,1,0,0:0:0:0:
320,192,149078,1,0,0:0:0:0:
448,192,149078,1,0,0:0:0:0:
320,192,149185,1,0,0:0:0:0:
64,192,149292,1,0,0:0:0:0:
448,192,149292,1,0,0:0:0:0:
64,192,149399,1,0,0:0:0:0:
320,192,149507,1,0,0:0:0:0:
192,192,149507,1,0,0:0:0:0:
64,192,149507,1,0,0:0:0:0:
448,192,149614,1,0,0:0:0:0:
320,192,149614,1,0,0:0:0:0:
64,192,149667,1,0,0:0:0:0:
192,192,149667,1,0,0:0:0:0:
448,192,149721,1,0,0:0:0:0:
320,192,149721,1,0,0:0:0:0:
320,192,149828,1,0,0:0:0:0:
192,192,149828,1,0,0:0:0:0:
192,192,149935,1,0,0:0:0:0:
448,192,149935,1,0,0:0:0:0:
64,192,149935,1,0,0:0:0:0:
320,192,150042,1,0,0:0:0:0:
64,192,150042,1,0,0:0:0:0:
448,192,150149,1,0,0:0:0:0:
320,192,150149,1,0,0:0:0:0:
448,192,150257,1,0,0:0:0:0:
320,192,150364,1,0,0:0:0:0:
64,192,150364,1,0,0:0:0:0:
192,192,150364,1,0,0:0:0:0:
192,192,150471,1,0,0:0:0:0:
64,192,150471,1,0,0:0:0:0:
320,192,150578,1,0,0:0:0:0:
192,192,150632,1,0,0:0:0:0:
320,192,150685,1,0,0:0:0:0:
192,192,150792,1,0,0:0:0:0:
64,192,150792,1,0,0:0:0:0:
448,192,150792,1,0,0:0:0:0:
64,192,150899,1,0,0:0:0:0:
192,192,150953,1,0,0:0:0:0:
448,192,151007,1,0,0:0:0:0:
320,192,151007,1,0,0:0:0:0:
320,192,151114,1,0,0:0:0:0:
192,192,151114,1,0,0:0:0:0:
192,192,151221,1,0,0:0:0:0:
64,192,151221,1,0,0:0:0:0:
448,192,151221,1,0,0:0:0:0:
320,192,151328,1,0,0:0:0:0:
448,192,151328,1,0,0:0:0:0:
64,192,151435,1,0,0:0:0:0:
448,192,151542,1,0,0:0:0:0:
320,192,151542,1,0,0:0:0:0:
64,192,151649,1,0,0:0:0:0:
192,192,151649,1,0,0:0:0:0:
448,192,151649,1,0,0:0:0:0:
192,192,151757,1,0,0:0:0:0:
448,192,151864,1,0,0:0:0:0:
64,192,151864,1,0,0:0:0:0:
320,192,151971,1,0,0:0:0:0:
192,192,152078,1,0,0:0:0:0:
320,192,152078,1,0,0:0:0:0:
64,192,152078,1,0,0:0:0:0:
448,192,152185,1,0,0:0:0:0:
64,192,152185,1,0,0:0:0:0:
448,192,152292,1,0,0:0:0:0:
320,192,152399,1,0,0:0:0:0:
192,192,152399,1,0,0:0:0:0:
448,192,152507,1,0,0:0:0:0:
320,192,152507,1,0,0:0:0:0:
64,192,152507,1,0,0:0:0:0:
192,192,152614,1,0,0:0:0:0:
192,192,152721,1,0,0:0:0:0:
64,192,152721,1,0,0:0:0:0:
448,192,152721,1,0,0:0:0:0:
64,192,152828,1,0,0:0:0:0:
320,192,152935,1,0,0:0:0:0:
192,192,152935,1,0,0:0:0:0:
448,192,152935,1,0,0:0:0:0:
320,192,153042,1,0,0:0:0:0:
64,192,153042,1,0,0:0:0:0:
448,192,153149,1,0,0:0:0:0:
192,192,153257,1,0,0:0:0:0:
64,192,153257,1,0,0:0:0:0:
192,192,153364,1,0,0:0:0:0:
64,192,153364,1,0,0:0:0:0:
448,192,153364,1,0,0:0:0:0:
320,192,153471,1,0,0:0:0:0:
320,192,153578,1,0,0:0:0:0:
192,192,153578,1,0,0:0:0:0:
192,192,153685,1,0,0:0:0:0:
64,192,153792,1,0,0:0:0:0:
320,192,153792,1,0,0:0:0:0:
448,192,153792,1,0,0:0:0:0:
320,192,153899,1,0,0:0:0:0:
448,192,153899,1,0,0:0:0:0:
192,192,154007,1,0,0:0:0:0:
64,192,154007,1,0,0:0:0:0:
448,192,154114,1,0,0:0:0:0:
320,192,154114,1,0,0:0:0:0:
192,192,154221,1,0,0:0:0:0:
64,192,154221,1,0,0:0:0:0:
448,192,154221,1,0,0:0:0:0:
320,192,154328,1,0,0:0:0:0:
192,192,154328,1,0,0:0:0:0:
64,192,154435,1,0,0:0:0:0:
448,192,154435,1,0,0:0:0:0:
320,192,154435,1,0,0:0:0:0:
192,192,154542,1,0,0:0:0:0:
192,192,154649,1,0,0:0:0:0:
320,192,154649,1,0,0:0:0:0:
64,192,154649,1,0,0:0:0:0:
448,192,154757,1,0,0:0:0:0:
320,192,154757,1,0,0:0:0:0:
192,192,154864,1,0,0:0:0:0:
320,192,154971,1,0,0:0:0:0:
192,192,154971,1,0,0:0:0:0:
448,192,155078,1,0,0:0:0:0:
320,192,155078,1,0,0:0:0:0:
64,192,155078,1,0,0:0:0:0:
192,192,155185,1,0,0:0:0:0:
64,192,155185,1,0,0:0:0:0:
320,192,155292,1,0,0:0:0:0:
448,192,155292,1,0,0:0:0:0:
320,192,155399,1,0,0:0:0:0:
192,192,155507,1,0,0:0:0:0:
64,192,155507,1,0,0:0:0:0:
448,192,155507,1,0,0:0:0:0:
64,192,155614,1,0,0:0:0:0:
192,192,155614,1,0,0:0:0:0:
448,192,155721,1,0,0:0:0:0:
192,192,155828,1,0,0:0:0:0:
320,192,155828,1,0,0:0:0:0:
64,192,155935,1,0,0:0:0:0:
320,192,155935,1,0,0:0:0:0:
448,192,155935,1,0,0:0:0:0:
64,192,156042,1,0,0:0:0:0:
192,192,156042,1,0,0:0:0:0:
448,192,156149,1,0,0:0:0:0:
320,192,156149,1,0,0:0:0:0:
320,192,156257,1,0,0:0:0:0:
64,192,156364,1,0,0:0:0:0:
192,192,156364,1,0,0:0:0:0:
448,192,156364,1,0,0:0:0:0:
64,192,156471,1,0,0:0:0:0:
320,192,156471,1,0,0:0:0:0:
192,192,156578,1,0,0:0:0:0:
320,192,156685,5,0,0:0:0:0:
448,192,156685,1,0,0:0:0:0:
64,192,156792,1,0,0:0:0:0:
192,192,156792,1,0,0:0:0:0:
320,192,156846,1,0,0:0:0:0:
448,192,156846,1,0,0:0:0:0:
192,192,156899,1,0,0:0:0:0:
64,192,156899,1,0,0:0:0:0:
320,192,157007,1,0,0:0:0:0:
448,192,157007,1,0,0:0:0:0:
64,192,157114,1,0,0:0:0:0:
192,192,157221,1,0,0:0:0:0:
64,192,157221,1,0,0:0:0:0:
448,192,157221,1,0,0:0:0:0:
192,192,157328,1,0,0:0:0:0:
320,192,157328,1,0,0:0:0:0:
64,192,157435,1,0,0:0:0:0:
448,192,157449,5,0,0:0:0:0:
320,192,157462,1,0,0:0:0:0:
64,192,157864,5,0,0:0:0:0:
192,192,157864,1,0,0:0:0:0:
448,192,157864,1,0,0:0:0:0:
320,192,157864,1,0,0:0:0:0:
448,192,157971,1,0,0:0:0:0:
320,192,157971,1,0,0:0:0:0:
64,192,158078,1,0,0:0:0:0:
192,192,158078,1,0,0:0:0:0:
448,192,158078,1,0,0:0:0:0:
320,192,158078,1,0,0:0:0:0:
64,192,158185,1,0,0:0:0:0:
192,192,158185,1,0,0:0:0:0:
320,192,158292,1,0,0:0:0:0:
448,192,158292,1,0,0:0:0:0:
64,192,158292,1,0,0:0:0:0:
192,192,158292,1,0,0:0:0:0:
320,192,158399,1,0,0:0:0:0:
192,192,158399,1,0,0:0:0:0:
64,192,158507,1,0,0:0:0:0:
320,192,158507,1,0,0:0:0:0:
448,192,158507,1,0,0:0:0:0:
192,192,158507,1,0,0:0:0:0:
320,192,158614,1,0,0:0:0:0:
448,192,158614,1,0,0:0:0:0:
64,192,158721,1,0,0:0:0:0:
192,192,158721,1,0,0:0:0:0:
320,192,158721,1,0,0:0:0:0:
448,192,158721,1,0,0:0:0:0:
192,192,158828,1,0,0:0:0:0:
64,192,158828,1,0,0:0:0:0:
320,192,158935,1,0,0:0:0:0:
192,192,158935,1,0,0:0:0:0:
64,192,158935,1,0,0:0:0:0:
448,192,158935,1,0,0:0:0:0:
448,192,159042,1,0,0:0:0:0:
320,192,159042,1,0,0:0:0:0:
320,192,159149,1,0,0:0:0:0:
448,192,159149,1,0,0:0:0:0:
192,192,159149,1,0,0:0:0:0:
64,192,159149,1,0,0:0:0:0:
64,192,159364,1,0,0:0:0:0:
192,192,159364,1,0,0:0:0:0:
320,192,159364,1,0,0:0:0:0:
448,192,159364,1,0,0:0:0:0:
448,192,159471,1,0,0:0:0:0:
320,192,159471,1,0,0:0:0:0:
64,192,159471,1,0,0:0:0:0:
64,192,159578,1,0,0:0:0:0:
192,192,159578,1,0,0:0:0:0:
320,192,159578,1,0,0:0:0:0:
448,192,159578,1,0,0:0:0:0:
192,192,159685,1,0,0:0:0:0:
64,192,159685,1,0,0:0:0:0:
448,192,159685,1,0,0:0:0:0:
192,192,159792,1,0,0:0:0:0:
64,192,159792,1,0,0:0:0:0:
320,192,159792,1,0,0:0:0:0:
448,192,159792,1,0,0:0:0:0:
192,192,160007,1,0,0:0:0:0:
320,192,160007,1,0,0:0:0:0:
448,192,160007,1,0,0:0:0:0:
64,192,160007,1,0,0:0:0:0:
320,192,160221,1,0,0:0:0:0:
448,192,160221,1,0,0:0:0:0:
192,192,160221,1,0,0:0:0:0:
64,192,160221,1,0,0:0:0:0:
192,192,160328,1,0,0:0:0:0:
64,192,160328,1,0,0:0:0:0:
448,192,160328,1,0,0:0:0:0:
320,192,160435,1,0,0:0:0:0:
448,192,160435,1,0,0:0:0:0:
192,192,160489,1,0,0:0:0:0:
64,192,160489,1,0,0:0:0:0:
320,192,160542,1,0,0:0:0:0:
448,192,160542,1,0,0:0:0:0:
320,192,160649,1,0,0:0:0:0:
448,192,160649,1,0,0:0:0:0:
192,192,160649,1,0,0:0:0:0:
64,192,160649,1,0,0:0:0:0:
192,192,160757,1,0,0:0:0:0:
64,192,160757,1,0,0:0:0:0:
64,192,160864,1,0,0:0:0:0:
448,192,160864,1,0,0:0:0:0:
320,192,160864,1,0,0:0:0:0:
192,192,160864,1,0,0:0:0:0:
64,192,161078,1,0,0:0:0:0:
320,192,161078,1,0,0:0:0:0:
192,192,161078,1,0,0:0:0:0:
448,192,161078,1,0,0:0:0:0:
448,192,161185,1,0,0:0:0:0:
320,192,161185,1,0,0:0:0:0:
64,192,161185,1,0,0:0:0:0:
320,192,161292,1,0,0:0:0:0:
448,192,161292,1,0,0:0:0:0:
192,192,161292,1,0,0:0:0:0:
64,192,161292,1,0,0:0:0:0:
192,192,161399,1,0,0:0:0:0:
64,192,161399,1,0,0:0:0:0:
448,192,161507,1,0,0:0:0:0:
320,192,161507,1,0,0:0:0:0:
192,192,161507,1,0,0:0:0:0:
64,192,161507,1,0,0:0:0:0:
320,192,161614,1,0,0:0:0:0:
448,192,161614,1,0,0:0:0:0:
64,192,161721,1,0,0:0:0:0:
192,192,161721,1,0,0:0:0:0:
320,192,161721,1,0,0:0:0:0:
448,192,161721,1,0,0:0:0:0:
192,192,161828,1,0,0:0:0:0:
320,192,161828,1,0,0:0:0:0:
64,192,161935,1,0,0:0:0:0:
192,192,161935,1,0,0:0:0:0:
320,192,161935,1,0,0:0:0:0:
448,192,161935,1,0,0:0:0:0:
64,192,162042,1,0,0:0:0:0:
448,192,162042,1,0,0:0:0:0:
64,192,162149,1,0,0:0:0:0:
192,192,162149,1,0,0:0:0:0:
320,192,162149,1,0,0:0:0:0:
448,192,162149,1,0,0:0:0:0:
192,192,162257,1,0,0:0:0:0:
320,192,162257,1,0,0:0:0:0:
64,192,162364,1,0,0:0:0:0:
192,192,162364,1,0,0:0:0:0:
448,192,162364,1,0,0:0:0:0:
320,192,162364,1,0,0:0:0:0:
320,192,162471,1,0,0:0:0:0:
448,192,162471,1,0,0:0:0:0:
448,192,162578,1,0,0:0:0:0:
320,192,162578,1,0,0:0:0:0:
64,192,162578,1,0,0:0:0:0:
192,192,162578,1,0,0:0:0:0:
192,192,162685,1,0,0:0:0:0:
64,192,162685,1,0,0:0:0:0:
192,192,162792,1,0,0:0:0:0:
64,192,162792,1,0,0:0:0:0:
320,192,162792,1,0,0:0:0:0:
448,192,162792,1,0,0:0:0:0:
320,192,162899,1,0,0:0:0:0:
64,192,162899,1,0,0:0:0:0:
448,192,162899,1,0,0:0:0:0:
320,192,163007,1,0,0:0:0:0:
448,192,163007,1,0,0:0:0:0:
192,192,163007,1,0,0:0:0:0:
64,192,163007,1,0,0:0:0:0:
448,192,163114,1,0,0:0:0:0:
192,192,163114,1,0,0:0:0:0:
64,192,163114,1,0,0:0:0:0:
320,192,163221,1,0,0:0:0:0:
448,192,163221,1,0,0:0:0:0:
192,192,163221,1,0,0:0:0:0:
64,192,163221,1,0,0:0:0:0:
320,192,163328,1,0,0:0:0:0:
64,192,163435,1,0,0:0:0:0:
192,192,163435,1,0,0:0:0:0:
448,192,163435,1,0,0:0:0:0:
320,192,163435,1,0,0:0:0:0:
64,192,163649,1,0,0:0:0:0:
192,192,163649,1,0,0:0:0:0:
320,192,163649,1,0,0:0:0:0:
448,192,163649,1,0,0:0:0:0:
320,192,163757,1,0,0:0:0:0:
192,192,163757,1,0,0:0:0:0:
64,192,163757,1,0,0:0:0:0:
192,192,163864,1,0,0:0:0:0:
64,192,163864,1,0,0:0:0:0:
448,192,163864,1,0,0:0:0:0:
320,192,163971,1,0,0:0:0:0:
64,192,163971,1,0,0:0:0:0:
448,192,163971,1,0,0:0:0:0:
192,192,164078,1,0,0:0:0:0:
320,192,164078,1,0,0:0:0:0:
448,192,164078,1,0,0:0:0:0:
64,192,164292,128,0,164399:0:0:0:0:
192,192,164292,128,0,164399:0:0:0:0:
320,192,164292,128,0,164399:0:0:0:0:
448,192,164292,128,0,164399:0:0:0:0:
448,192,164507,1,0,0:0:0:0:
320,192,164507,1,0,0:0:0:0:
192,192,164507,1,0,0:0:0:0:
192,192,164614,1,0,0:0:0:0:
448,192,164614,1,0,0:0:0:0:
64,192,164614,1,0,0:0:0:0:
64,192,164721,5,0,0:0:0:0:
448,192,164721,1,0,0:0:0:0:
192,192,164721,1,0,0:0:0:0:
320,192,164721,1,0,0:0:0:0:
192,192,164828,1,0,0:0:0:0:
320,192,164828,1,0,0:0:0:0:
64,192,164935,1,0,0:0:0:0:
192,192,164935,1,0,0:0:0:0:
448,192,164935,1,0,0:0:0:0:
320,192,164935,1,0,0:0:0:0:
64,192,165042,1,0,0:0:0:0:
448,192,165042,1,0,0:0:0:0:
320,192,165149,1,0,0:0:0:0:
448,192,165149,1,0,0:0:0:0:
64,192,165149,1,0,0:0:0:0:
192,192,165149,1,0,0:0:0:0:
320,192,165257,1,0,0:0:0:0:
192,192,165257,1,0,0:0:0:0:
64,192,165364,1,0,0:0:0:0:
320,192,165364,1,0,0:0:0:0:
448,192,165364,1,0,0:0:0:0:
192,192,165364,1,0,0:0:0:0:
320,192,165471,1,0,0:0:0:0:
448,192,165471,1,0,0:0:0:0:
64,192,165578,1,0,0:0:0:0:
192,192,165578,1,0,0:0:0:0:
320,192,165578,1,0,0:0:0:0:
448,192,165578,1,0,0:0:0:0:
192,192,165685,1,0,0:0:0:0:
64,192,165685,1,0,0:0:0:0:
320,192,165792,1,0,0:0:0:0:
192,192,165792,1,0,0:0:0:0:
64,192,165792,1,0,0:0:0:0:
448,192,165792,1,0,0:0:0:0:
320,192,165899,1,0,0:0:0:0:
448,192,165899,1,0,0:0:0:0:
320,192,166007,1,0,0:0:0:0:
448,192,166007,1,0,0:0:0:0:
192,192,166007,1,0,0:0:0:0:
64,192,166007,1,0,0:0:0:0:
64,192,166221,1,0,0:0:0:0:
192,192,166221,1,0,0:0:0:0:
320,192,166221,1,0,0:0:0:0:
448,192,166221,1,0,0:0:0:0:
448,192,166328,1,0,0:0:0:0:
320,192,166328,1,0,0:0:0:0:
64,192,166328,1,0,0:0:0:0:
64,192,166435,1,0,0:0:0:0:
192,192,166435,1,0,0:0:0:0:
320,192,166435,1,0,0:0:0:0:
448,192,166435,1,0,0:0:0:0:
192,192,166542,1,0,0:0:0:0:
64,192,166542,1,0,0:0:0:0:
448,192,166542,1,0,0:0:0:0:
192,192,166649,1,0,0:0:0:0:
64,192,166649,1,0,0:0:0:0:
320,192,166649,1,0,0:0:0:0:
448,192,166649,1,0,0:0:0:0:
192,192,166864,1,0,0:0:0:0:
320,192,166864,1,0,0:0:0:0:
448,192,166864,1,0,0:0:0:0:
64,192,166864,1,0,0:0:0:0:
320,192,167078,1,0,0:0:0:0:
448,192,167078,1,0,0:0:0:0:
192,192,167078,1,0,0:0:0:0:
64,192,167078,1,0,0:0:0:0:
64,192,167185,1,0,0:0:0:0:
320,192,167185,1,0,0:0:0:0:
448,192,167185,1,0,0:0:0:0:
64,192,167292,1,0,0:0:0:0:
192,192,167292,1,0,0:0:0:0:
320,192,167346,1,0,0:0:0:0:
448,192,167346,1,0,0:0:0:0:
192,192,167399,1,0,0:0:0:0:
64,192,167399,1,0,0:0:0:0:
320,192,167507,1,0,0:0:0:0:
448,192,167507,1,0,0:0:0:0:
64,192,167507,1,0,0:0:0:0:
192,192,167507,1,0,0:0:0:0:
192,192,167614,1,0,0:0:0:0:
320,192,167614,1,0,0:0:0:0:
64,192,167721,1,0,0:0:0:0:
448,192,167721,1,0,0:0:0:0:
192,192,167721,1,0,0:0:0:0:
320,192,167721,1,0,0:0:0:0:
64,192,167935,1,0,0:0:0:0:
192,192,167935,1,0,0:0:0:0:
320,192,167935,1,0,0:0:0:0:
448,192,167935,1,0,0:0:0:0:
448,192,168042,1,0,0:0:0:0:
192,192,168042,1,0,0:0:0:0:
320,192,168042,1,0,0:0:0:0:
320,192,168149,1,0,0:0:0:0:
448,192,168149,1,0,0:0:0:0:
192,192,168149,1,0,0:0:0:0:
64,192,168149,1,0,0:0:0:0:
64,192,168257,1,0,0:0:0:0:
192,192,168257,1,0,0:0:0:0:
448,192,168364,1,0,0:0:0:0:
320,192,168364,1,0,0:0:0:0:
192,192,168364,1,0,0:0:0:0:
64,192,168364,1,0,0:0:0:0:
448,192,168471,1,0,0:0:0:0:
320,192,168471,1,0,0:0:0:0:
64,192,168578,1,0,0:0:0:0:
192,192,168578,1,0,0:0:0:0:
320,192,168578,1,0,0:0:0:0:
448,192,168578,1,0,0:0:0:0:
320,192,168685,1,0,0:0:0:0:
192,192,168685,1,0,0:0:0:0:
64,192,168792,1,0,0:0:0:0:
192,192,168792,1,0,0:0:0:0:
320,192,168792,1,0,0:0:0:0:
448,192,168792,1,0,0:0:0:0:
64,192,169007,1,0,0:0:0:0:
192,192,169007,1,0,0:0:0:0:
320,192,169007,1,0,0:0:0:0:
448,192,169007,1,0,0:0:0:0:
448,192,169114,1,0,0:0:0:0:
320,192,169114,1,0,0:0:0:0:
64,192,169221,1,0,0:0:0:0:
192,192,169221,1,0,0:0:0:0:
448,192,169221,1,0,0:0:0:0:
320,192,169221,1,0,0:0:0:0:
64,192,169328,1,0,0:0:0:0:
192,192,169328,1,0,0:0:0:0:
448,192,169435,1,0,0:0:0:0:
320,192,169435,1,0,0:0:0:0:
64,192,169435,1,0,0:0:0:0:
192,192,169435,1,0,0:0:0:0:
320,192,169542,1,0,0:0:0:0:
448,192,169542,1,0,0:0:0:0:
192,192,169649,1,0,0:0:0:0:
64,192,169649,1,0,0:0:0:0:
320,192,169649,1,0,0:0:0:0:
448,192,169649,1,0,0:0:0:0:
192,192,169757,1,0,0:0:0:0:
64,192,169757,1,0,0:0:0:0:
448,192,169757,1,0,0:0:0:0:
320,192,169864,1,0,0:0:0:0:
448,192,169864,1,0,0:0:0:0:
192,192,169864,1,0,0:0:0:0:
64,192,169864,1,0,0:0:0:0:
320,192,169971,1,0,0:0:0:0:
192,192,169971,1,0,0:0:0:0:
64,192,169971,1,0,0:0:0:0:
320,192,170078,1,0,0:0:0:0:
448,192,170078,1,0,0:0:0:0:
64,192,170078,1,0,0:0:0:0:
192,192,170078,1,0,0:0:0:0:
448,192,170185,1,0,0:0:0:0:
320,192,170292,1,0,0:0:0:0:
448,192,170292,1,0,0:0:0:0:
192,192,170292,1,0,0:0:0:0:
64,192,170292,1,0,0:0:0:0:
64,192,170507,1,0,0:0:0:0:
192,192,170507,1,0,0:0:0:0:
320,192,170507,1,0,0:0:0:0:
448,192,170507,1,0,0:0:0:0:
64,192,170614,1,0,0:0:0:0:
192,192,170614,1,0,0:0:0:0:
192,192,170721,1,0,0:0:0:0:
64,192,170721,1,0,0:0:0:0:
320,192,170721,1,0,0:0:0:0:
448,192,170721,1,0,0:0:0:0:
192,192,170828,1,0,0:0:0:0:
320,192,170828,1,0,0:0:0:0:
448,192,170828,1,0,0:0:0:0:
64,192,170935,1,0,0:0:0:0:
192,192,170935,1,0,0:0:0:0:
320,192,170935,1,0,0:0:0:0:
448,192,170935,1,0,0:0:0:0:
320,192,171042,1,0,0:0:0:0:
448,192,171042,1,0,0:0:0:0:
64,192,171042,1,0,0:0:0:0:
448,192,171149,1,0,0:0:0:0:
64,192,171149,1,0,0:0:0:0:
192,192,171149,1,0,0:0:0:0:
320,192,171149,1,0,0:0:0:0:
192,192,171257,1,0,0:0:0:0:
64,192,171257,1,0,0:0:0:0:
448,192,171257,1,0,0:0:0:0:
192,192,171364,1,0,0:0:0:0:
64,192,171364,1,0,0:0:0:0:
448,192,171417,1,0,0:0:0:0:
320,192,171417,1,0,0:0:0:0:
192,192,171471,1,0,0:0:0:0:
64,192,171471,1,0,0:0:0:0:
448,192,171524,1,0,0:0:0:0:
320,192,171524,1,0,0:0:0:0:
64,192,171578,5,0,0:0:0:0:
192,192,171578,1,0,0:0:0:0:
320,192,171685,1,0,0:0:0:0:
448,192,171685,1,0,0:0:0:0:
448,192,171792,1,0,0:0:0:0:
320,192,171792,1,0,0:0:0:0:
64,192,171792,1,0,0:0:0:0:
192,192,171792,1,0,0:0:0:0:
192,192,171899,1,0,0:0:0:0:
64,192,171899,1,0,0:0:0:0:
192,192,172007,1,0,0:0:0:0:
64,192,172007,1,0,0:0:0:0:
448,192,172007,1,0,0:0:0:0:
320,192,172007,1,0,0:0:0:0:
320,192,172114,1,0,0:0:0:0:
448,192,172114,1,0,0:0:0:0:
448,192,172221,1,0,0:0:0:0:
192,192,172221,1,0,0:0:0:0:
64,192,172221,1,0,0:0:0:0:
320,192,172221,1,0,0:0:0:0:
320,192,172328,1,0,0:0:0:0:
192,192,172328,1,0,0:0:0:0:
448,192,172435,1,0,0:0:0:0:
320,192,172435,1,0,0:0:0:0:
192,192,172435,1,0,0:0:0:0:
64,192,172435,1,0,0:0:0:0:
64,192,172542,1,0,0:0:0:0:
192,192,172542,1,0,0:0:0:0:
192,192,172649,1,0,0:0:0:0:
320,192,172649,1,0,0:0:0:0:
448,192,172649,1,0,0:0:0:0:
64,192,172649,1,0,0:0:0:0:
448,192,172757,1,0,0:0:0:0:
320,192,172757,1,0,0:0:0:0:
192,192,172864,1,0,0:0:0:0:
64,192,172864,1,0,0:0:0:0:
320,192,172864,1,0,0:0:0:0:
448,192,172864,1,0,0:0:0:0:
448,192,173078,1,0,0:0:0:0:
320,192,173078,1,0,0:0:0:0:
192,192,173078,1,0,0:0:0:0:
64,192,173078,1,0,0:0:0:0:
64,192,173185,1,0,0:0:0:0:
192,192,173185,1,0,0:0:0:0:
448,192,173185,1,0,0:0:0:0:
448,192,173292,1,0,0:0:0:0:
320,192,173292,1,0,0:0:0:0:
192,192,173292,1,0,0:0:0:0:
64,192,173292,1,0,0:0:0:0:
320,192,173399,1,0,0:0:0:0:
448,192,173399,1,0,0:0:0:0:
64,192,173399,1,0,0:0:0:0:
320,192,173507,1,0,0:0:0:0:
448,192,173507,1,0,0:0:0:0:
192,192,173507,1,0,0:0:0:0:
64,192,173507,1,0,0:0:0:0:
320,192,173721,1,0,0:0:0:0:
192,192,173721,1,0,0:0:0:0:
64,192,173721,1,0,0:0:0:0:
448,192,173721,1,0,0:0:0:0:
192,192,173935,1,0,0:0:0:0:
64,192,173935,1,0,0:0:0:0:
320,192,173935,1,0,0:0:0:0:
448,192,173935,1,0,0:0:0:0:
320,192,174042,1,0,0:0:0:0:
448,192,174042,1,0,0:0:0:0:
64,192,174042,1,0,0:0:0:0:
192,192,174149,1,0,0:0:0:0:
64,192,174149,1,0,0:0:0:0:
320,192,174203,1,0,0:0:0:0:
448,192,174203,1,0,0:0:0:0:
192,192,174257,1,0,0:0:0:0:
64,192,174257,1,0,0:0:0:0:
192,192,174364,1,0,0:0:0:0:
64,192,174364,1,0,0:0:0:0:
320,192,174364,1,0,0:0:0:0:
448,192,174364,1,0,0:0:0:0:
320,192,174471,1,0,0:0:0:0:
448,192,174471,1,0,0:0:0:0:
448,192,174578,1,0,0:0:0:0:
64,192,174578,1,0,0:0:0:0:
192,192,174578,1,0,0:0:0:0:
320,192,174578,1,0,0:0:0:0:
448,192,174792,1,0,0:0:0:0:
192,192,174792,1,0,0:0:0:0:
320,192,174792,1,0,0:0:0:0:
64,192,174792,1,0,0:0:0:0:
64,192,174899,1,0,0:0:0:0:
192,192,174899,1,0,0:0:0:0:
448,192,174899,1,0,0:0:0:0:
192,192,175007,1,0,0:0:0:0:
64,192,175007,1,0,0:0:0:0:
320,192,175007,1,0,0:0:0:0:
448,192,175007,1,0,0:0:0:0:
320,192,175114,1,0,0:0:0:0:
448,192,175114,1,0,0:0:0:0:
64,192,175221,1,0,0:0:0:0:
192,192,175221,1,0,0:0:0:0:
320,192,175221,1,0,0:0:0:0:
448,192,175221,1,0,0:0:0:0:
192,192,175328,1,0,0:0:0:0:
64,192,175328,1,0,0:0:0:0:
448,192,175435,1,0,0:0:0:0:
320,192,175435,1,0,0:0:0:0:
192,192,175435,1,0,0:0:0:0:
64,192,175435,1,0,0:0:0:0:
320,192,175542,1,0,0:0:0:0:
192,192,175542,1,0,0:0:0:0:
448,192,175649,1,0,0:0:0:0:
320,192,175649,1,0,0:0:0:0:
192,192,175649,1,0,0:0:0:0:
64,192,175649,1,0,0:0:0:0:
448,192,175757,1,0,0:0:0:0:
64,192,175757,1,0,0:0:0:0:
448,192,175864,1,0,0:0:0:0:
320,192,175864,1,0,0:0:0:0:
192,192,175864,1,0,0:0:0:0:
64,192,175864,1,0,0:0:0:0:
320,192,175971,1,0,0:0:0:0:
192,192,175971,1,0,0:0:0:0:
448,192,176078,1,0,0:0:0:0:
320,192,176078,1,0,0:0:0:0:
64,192,176078,1,0,0:0:0:0:
192,192,176078,1,0,0:0:0:0:
192,192,176185,1,0,0:0:0:0:
64,192,176185,1,0,0:0:0:0:
64,192,176292,1,0,0:0:0:0:
192,192,176292,1,0,0:0:0:0:
448,192,176292,1,0,0:0:0:0:
320,192,176292,1,0,0:0:0:0:
320,192,176399,1,0,0:0:0:0:
448,192,176399,1,0,0:0:0:0:
320,192,176507,1,0,0:0:0:0:
448,192,176507,1,0,0:0:0:0:
192,192,176507,1,0,0:0:0:0:
64,192,176507,1,0,0:0:0:0:
192,192,176614,1,0,0:0:0:0:
448,192,176614,1,0,0:0:0:0:
64,192,176614,1,0,0:0:0:0:
192,192,176721,1,0,0:0:0:0:
64,192,176721,1,0,0:0:0:0:
320,192,176721,1,0,0:0:0:0:
448,192,176721,1,0,0:0:0:0:
64,192,176828,1,0,0:0:0:0:
320,192,176828,1,0,0:0:0:0:
448,192,176828,1,0,0:0:0:0:
192,192,176935,1,0,0:0:0:0:
64,192,176935,1,0,0:0:0:0:
320,192,176935,1,0,0:0:0:0:
448,192,176935,1,0,0:0:0:0:
192,192,177042,1,0,0:0:0:0:
448,192,177149,1,0,0:0:0:0:
320,192,177149,1,0,0:0:0:0:
64,192,177149,1,0,0:0:0:0:
192,192,177149,1,0,0:0:0:0:
448,192,177364,5,0,0:0:0:0:
320,192,177364,1,0,0:0:0:0:
192,192,177364,1,0,0:0:0:0:
64,192,177364,1,0,0:0:0:0:
192,192,177471,1,0,0:0:0:0:
64,192,177471,1,0,0:0:0:0:
320,192,177471,1,0,0:0:0:0:
320,192,177578,1,0,0:0:0:0:
448,192,177578,1,0,0:0:0:0:
192,192,177578,1,0,0:0:0:0:
320,192,177685,1,0,0:0:0:0:
448,192,177685,1,0,0:0:0:0:
64,192,177685,1,0,0:0:0:0:
448,192,177792,1,0,0:0:0:0:
192,192,177792,1,0,0:0:0:0:
64,192,177792,1,0,0:0:0:0:
448,192,178007,128,0,178114:0:0:0:0:
64,192,178007,128,0,178114:0:0:0:0:
192,192,178007,128,0,178114:0:0:0:0:
320,192,178007,128,0,178114:0:0:0:0:
64,192,178221,1,0,0:0:0:0:
192,192,178221,1,0,0:0:0:0:
320,192,178221,1,0,0:0:0:0:
320,192,178328,1,0,0:0:0:0:
64,192,178328,1,0,0:0:0:0:
448,192,178328,1,0,0:0:0:0:
448,192,178435,5,0,0:0:0:0:
320,192,178435,1,0,0:0:0:0:
64,192,178435,1,0,0:0:0:0:
192,192,178435,1,0,0:0:0:0:
320,192,178542,1,0,0:0:0:0:
192,192,178542,1,0,0:0:0:0:
448,192,178649,1,0,0:0:0:0:
320,192,178649,1,0,0:0:0:0:
64,192,178649,1,0,0:0:0:0:
192,192,178649,1,0,0:0:0:0:
64,192,178757,1,0,0:0:0:0:
192,192,178757,1,0,0:0:0:0:
320,192,178864,1,0,0:0:0:0:
448,192,178864,1,0,0:0:0:0:
192,192,178864,1,0,0:0:0:0:
64,192,178864,1,0,0:0:0:0:
320,192,178971,1,0,0:0:0:0:
448,192,178971,1,0,0:0:0:0:
64,192,179078,1,0,0:0:0:0:
192,192,179078,1,0,0:0:0:0:
320,192,179078,1,0,0:0:0:0:
448,192,179078,1,0,0:0:0:0:
192,192,179185,1,0,0:0:0:0:
64,192,179185,1,0,0:0:0:0:
448,192,179292,1,0,0:0:0:0:
320,192,179292,1,0,0:0:0:0:
192,192,179292,1,0,0:0:0:0:
64,192,179292,1,0,0:0:0:0:
320,192,179399,1,0,0:0:0:0:
448,192,179399,1,0,0:0:0:0:
192,192,179507,1,0,0:0:0:0:
320,192,179507,1,0,0:0:0:0:
448,192,179507,1,0,0:0:0:0:
64,192,179507,1,0,0:0:0:0:
192,192,179614,1,0,0:0:0:0:
320,192,179614,1,0,0:0:0:0:
192,192,179721,1,0,0:0:0:0:
64,192,179721,1,0,0:0:0:0:
320,192,179721,1,0,0:0:0:0:
448,192,179721,1,0,0:0:0:0:
448,192,179935,1,0,0:0:0:0:
320,192,179935,1,0,0:0:0:0:
192,192,179935,1,0,0:0:0:0:
64,192,179935,1,0,0:0:0:0:
192,192,180042,1,0,0:0:0:0:
320,192,180042,1,0,0:0:0:0:
448,192,180042,1,0,0:0:0:0:
448,192,180149,1,0,0:0:0:0:
320,192,180149,1,0,0:0:0:0:
192,192,180149,1,0,0:0:0:0:
64,192,180149,1,0,0:0:0:0:
320,192,180257,1,0,0:0:0:0:
448,192,180257,1,0,0:0:0:0:
64,192,180257,1,0,0:0:0:0:
320,192,180364,1,0,0:0:0:0:
448,192,180364,1,0,0:0:0:0:
192,192,180364,1,0,0:0:0:0:
64,192,180364,1,0,0:0:0:0:
320,192,180578,1,0,0:0:0:0:
192,192,180578,1,0,0:0:0:0:
64,192,180578,1,0,0:0:0:0:
448,192,180578,1,0,0:0:0:0:
448,192,180685,1,0,0:0:0:0:
320,192,180685,1,0,0:0:0:0:
192,192,180792,1,0,0:0:0:0:
64,192,180792,1,0,0:0:0:0:
320,192,180792,1,0,0:0:0:0:
448,192,180792,1,0,0:0:0:0:
448,192,180899,1,0,0:0:0:0:
192,192,180899,1,0,0:0:0:0:
64,192,180899,1,0,0:0:0:0:
448,192,181007,1,0,0:0:0:0:
320,192,181007,1,0,0:0:0:0:
192,192,181060,1,0,0:0:0:0:
64,192,181060,1,0,0:0:0:0:
320,192,181114,1,0,0:0:0:0:
448,192,181114,1,0,0:0:0:0:
192,192,181221,1,0,0:0:0:0:
64,192,181221,1,0,0:0:0:0:
320,192,181221,1,0,0:0:0:0:
448,192,181221,1,0,0:0:0:0:
192,192,181328,1,0,0:0:0:0:
64,192,181328,1,0,0:0:0:0:
64,192,181435,1,0,0:0:0:0:
192,192,181435,1,0,0:0:0:0:
320,192,181435,1,0,0:0:0:0:
448,192,181435,1,0,0:0:0:0:
448,192,181649,1,0,0:0:0:0:
320,192,181649,1,0,0:0:0:0:
192,192,181649,1,0,0:0:0:0:
64,192,181649,1,0,0:0:0:0:
320,192,181757,1,0,0:0:0:0:
448,192,181757,1,0,0:0:0:0:
192,192,181864,1,0,0:0:0:0:
64,192,181864,1,0,0:0:0:0:
320,192,181864,1,0,0:0:0:0:
448,192,181864,1,0,0:0:0:0:
192,192,181971,1,0,0:0:0:0:
64,192,181971,1,0,0:0:0:0:
64,192,182078,1,0,0:0:0:0:
192,192,182078,1,0,0:0:0:0:
320,192,182078,1,0,0:0:0:0:
448,192,182078,1,0,0:0:0:0:
320,192,182185,1,0,0:0:0:0:
448,192,182185,1,0,0:0:0:0:
64,192,182185,1,0,0:0:0:0:
192,192,182292,1,0,0:0:0:0:
64,192,182292,1,0,0:0:0:0:
320,192,182346,1,0,0:0:0:0:
448,192,182346,1,0,0:0:0:0:
192,192,182399,1,0,0:0:0:0:
64,192,182399,1,0,0:0:0:0:
448,192,182507,1,0,0:0:0:0:
320,192,182507,1,0,0:0:0:0:
192,192,182507,1,0,0:0:0:0:
64,192,182507,1,0,0:0:0:0:
192,192,182614,1,0,0:0:0:0:
320,192,182614,1,0,0:0:0:0:
448,192,182721,1,0,0:0:0:0:
320,192,182721,1,0,0:0:0:0:
192,192,182721,1,0,0:0:0:0:
64,192,182721,1,0,0:0:0:0:
448,192,182828,1,0,0:0:0:0:
64,192,182828,1,0,0:0:0:0:
448,192,182935,1,0,0:0:0:0:
320,192,182935,1,0,0:0:0:0:
64,192,182935,1,0,0:0:0:0:
192,192,182935,1,0,0:0:0:0:
64,192,183042,1,0,0:0:0:0:
320,192,183042,1,0,0:0:0:0:
192,192,183042,1,0,0:0:0:0:
448,192,183149,1,0,0:0:0:0:
320,192,183149,1,0,0:0:0:0:
192,192,183203,1,0,0:0:0:0:
64,192,183203,1,0,0:0:0:0:
320,192,183257,1,0,0:0:0:0:
448,192,183257,1,0,0:0:0:0:
320,192,183364,1,0,0:0:0:0:
448,192,183364,1,0,0:0:0:0:
192,192,183364,1,0,0:0:0:0:
64,192,183364,1,0,0:0:0:0:
64,192,183471,1,0,0:0:0:0:
192,192,183471,1,0,0:0:0:0:
192,192,183578,1,0,0:0:0:0:
64,192,183578,1,0,0:0:0:0:
320,192,183578,1,0,0:0:0:0:
448,192,183578,1,0,0:0:0:0:
320,192,183685,1,0,0:0:0:0:
448,192,183685,1,0,0:0:0:0:
192,192,183685,1,0,0:0:0:0:
448,192,183792,1,0,0:0:0:0:
320,192,183792,1,0,0:0:0:0:
192,192,183899,1,0,0:0:0:0:
320,192,183899,1,0,0:0:0:0:
64,192,183899,1,0,0:0:0:0:
448,192,183899,1,0,0:0:0:0:
192,192,184007,1,0,0:0:0:0:
64,192,184007,1,0,0:0:0:0:
320,192,184007,1,0,0:0:0:0:
192,192,184114,1,0,0:0:0:0:
64,192,184114,1,0,0:0:0:0:
64,192,184221,1,0,0:0:0:0:
192,192,184221,1,0,0:0:0:0:
320,192,184221,1,0,0:0:0:0:
448,192,184221,1,0,0:0:0:0:
320,192,184328,1,0,0:0:0:0:
448,192,184328,1,0,0:0:0:0:
192,192,184435,1,0,0:0:0:0:
64,192,184435,1,0,0:0:0:0:
448,192,184489,1,0,0:0:0:0:
320,192,184489,1,0,0:0:0:0:
192,192,184542,1,0,0:0:0:0:
64,192,184542,1,0,0:0:0:0:
320,192,184596,1,0,0:0:0:0:
448,192,184596,1,0,0:0:0:0:
192,192,184649,1,0,0:0:0:0:
64,192,184649,1,0,0:0:0:0:
320,192,184703,1,0,0:0:0:0:
192,192,184757,1,0,0:0:0:0:
64,192,184757,1,0,0:0:0:0:
448,192,184810,1,0,0:0:0:0:
320,192,184810,1,0,0:0:0:0:
192,192,184864,1,0,0:0:0:0:
64,192,184864,1,0,0:0:0:0:
448,192,184917,1,0,0:0:0:0:
320,192,184917,1,0,0:0:0:0:
192,192,184971,1,0,0:0:0:0:
64,192,184971,1,0,0:0:0:0:
448,192,185024,1,0,0:0:0:0:
64,192,185078,1,0,0:0:0:0:
192,192,185105,1,0,0:0:0:0:
448,192,185132,1,0,0:0:0:0:
320,192,185149,1,0,0:0:0:0:
64,192,185185,1,0,0:0:0:0:
192,192,185212,1,0,0:0:0:0:
448,192,185239,1,0,0:0:0:0:
320,192,185266,1,0,0:0:0:0:
64,192,185292,1,0,0:0:0:0:
192,192,185292,1,0,0:0:0:0:
320,192,185507,1,0,0:0:0:0:
192,192,185614,128,0,185828:0:0:0:0:
64,192,185828,1,0,0:0:0:0:
448,192,185935,128,0,186149:0:0:0:0:
320,192,186042,1,0,0:0:0:0:
64,192,186149,128,0,186364:0:0:0:0:
192,192,186149,1,0,0:0:0:0:
448,192,186364,1,0,0:0:0:0:
320,192,186471,128,0,186685:0:0:0:0:
64,192,186578,1,0,0:0:0:0:
192,192,186685,1,0,0:0:0:0:
448,192,186792,1,0,0:0:0:0:
320,192,186899,1,0,0:0:0:0:
64,192,187007,1,0,0:0:0:0:
192,192,187007,1,0,0:0:0:0:
448,192,187114,1,0,0:0:0:0:
64,192,187221,1,0,0:0:0:0:
448,192,187328,128,0,187542:0:0:0:0:
192,192,187435,1,0,0:0:0:0:
320,192,187542,1,0,0:0:0:0:
64,192,187649,128,0,187864:0:0:0:0:
192,192,187757,128,0,187864:0:0:0:0:
448,192,187864,128,0,188078:0:0:0:0:
320,192,187864,1,0,0:0:0:0:
192,192,187971,1,0,0:0:0:0:
64,192,188078,1,0,0:0:0:0:
320,192,188185,128,0,188399:0:0:0:0:
192,192,188292,1,0,0:0:0:0:
448,192,188399,1,0,0:0:0:0:
64,192,188507,1,0,0:0:0:0:
320,192,188614,1,0,0:0:0:0:
192,192,188721,1,0,0:0:0:0:
448,192,188721,128,0,188828:0:0:0:0:
320,192,188828,1,0,0:0:0:0:
448,192,188935,128,0,189042:0:0:0:0:
64,192,189042,1,0,0:0:0:0:
192,192,189149,128,0,189257:0:0:0:0:
448,192,189257,1,0,0:0:0:0:
192,192,189364,128,0,189578:0:0:0:0:
64,192,189471,128,0,189578:0:0:0:0:
320,192,189578,1,0,0:0:0:0:
448,192,189578,128,0,189792:0:0:0:0:
64,192,189685,1,0,0:0:0:0:
192,192,189792,1,0,0:0:0:0:
320,192,189899,128,0,190114:0:0:0:0:
192,192,190007,1,0,0:0:0:0:
64,192,190114,1,0,0:0:0:0:
448,192,190221,1,0,0:0:0:0:
320,192,190328,1,0,0:0:0:0:
64,192,190435,1,0,0:0:0:0:
192,192,190435,128,0,190649:0:0:0:0:
320,192,190649,1,0,0:0:0:0:
448,192,190757,128,0,190971:0:0:0:0:
64,192,190864,1,0,0:0:0:0:
320,192,190971,1,0,0:0:0:0:
192,192,191078,128,0,191185:0:0:0:0:
320,192,191185,1,0,0:0:0:0:
64,192,191292,1,0,0:0:0:0:
448,192,191292,128,0,191399:0:0:0:0:
192,192,191399,1,0,0:0:0:0:
448,192,191507,1,0,0:0:0:0:
64,192,191507,1,0,0:0:0:0:
320,192,191614,1,0,0:0:0:0:
192,192,191721,1,0,0:0:0:0:
320,192,191828,1,0,0:0:0:0:
448,192,191935,1,0,0:0:0:0:
64,192,191935,128,0,192042:0:0:0:0:
192,192,192042,1,0,0:0:0:0:
448,192,192149,128,0,192257:0:0:0:0:
320,192,192149,1,0,0:0:0:0:
64,192,192257,1,0,0:0:0:0:
192,192,192364,128,0,192471:0:0:0:0:
320,192,192471,1,0,0:0:0:0:
64,192,192578,128,0,192685:0:0:0:0:
448,192,192578,1,0,0:0:0:0:
192,192,192685,1,0,0:0:0:0:
448,192,192792,128,0,192899:0:0:0:0:
320,192,192792,1,0,0:0:0:0:
192,192,192899,1,0,0:0:0:0:
64,192,193007,128,0,193114:0:0:0:0:
448,192,193007,1,0,0:0:0:0:
320,192,193114,1,0,0:0:0:0:
448,192,193221,128,0,193328:0:0:0:0:
64,192,193221,1,0,0:0:0:0:
192,192,193328,1,0,0:0:0:0:
64,192,193435,128,0,193864:0:0:0:0:
320,192,193435,1,0,0:0:0:0:
448,192,193542,1,0,0:0:0:0:
192,192,193649,128,0,193864:0:0:0:0:
448,192,193864,128,0,193971:0:0:0:0:
320,192,193864,1,0,0:0:0:0:
192,192,193971,1,0,0:0:0:0:
320,192,194078,128,0,194185:0:0:0:0:
448,192,194185,1,0,0:0:0:0:
64,192,194292,128,0,194399:0:0:0:0:
192,192,194292,1,0,0:0:0:0:
320,192,194399,1,0,0:0:0:0:
192,192,194507,128,0,194614:0:0:0:0:
64,192,194614,1,0,0:0:0:0:
320,192,194721,128,0,194828:0:0:0:0:
448,192,194721,1,0,0:0:0:0:
192,192,194828,1,0,0:0:0:0:
64,192,194935,128,0,195042:0:0:0:0:
320,192,195042,1,0,0:0:0:0:
448,192,195149,128,0,195578:0:0:0:0:
192,192,195149,1,0,0:0:0:0:
64,192,195257,1,0,0:0:0:0:
320,192,195364,128,0,195578:0:0:0:0:
64,192,195578,128,0,195685:0:0:0:0:
192,192,195578,1,0,0:0:0:0:
448,192,195685,1,0,0:0:0:0:
64,192,195792,128,0,195899:0:0:0:0:
192,192,195899,1,0,0:0:0:0:
448,192,196007,128,0,196221:0:0:0:0:
320,192,196007,1,0,0:0:0:0:
64,192,196114,1,0,0:0:0:0:
192,192,196221,1,0,0:0:0:0:
320,192,196328,1,0,0:0:0:0:
64,192,196435,128,0,196757:0:0:0:0:
448,192,196435,1,0,0:0:0:0:
192,192,196542,128,0,196757:0:0:0:0:
320,192,196649,128,0,196757:0:0:0:0:
448,192,196757,128,0,196971:0:0:0:0:
320,192,196971,1,0,0:0:0:0:
64,192,197078,128,0,197292:0:0:0:0:
192,192,197078,1,0,0:0:0:0:
448,192,197292,128,0,197614:0:0:0:0:
192,192,197292,1,0,0:0:0:0:
320,192,197399,128,0,197614:0:0:0:0:
192,192,197507,128,0,197614:0:0:0:0:
64,192,197614,128,0,197828:0:0:0:0:
320,192,197828,1,0,0:0:0:0:
448,192,197935,128,0,198149:0:0:0:0:
192,192,197935,1,0,0:0:0:0:
64,192,198149,128,0,198471:0:0:0:0:
320,192,198149,1,0,0:0:0:0:
192,192,198257,128,0,198471:0:0:0:0:
320,192,198364,128,0,198471:0:0:0:0:
448,192,198471,128,0,198685:0:0:0:0:
320,192,198685,1,0,0:0:0:0:
64,192,198792,128,0,198899:0:0:0:0:
192,192,198792,1,0,0:0:0:0:
320,192,198899,1,0,0:0:0:0:
448,192,199007,1,0,0:0:0:0:
192,192,199007,1,0,0:0:0:0:
320,192,199007,1,0,0:0:0:0:
64,192,199007,1,0,0:0:0:0:
64,192,199221,1,0,0:0:0:0:
192,192,199328,1,0,0:0:0:0:
448,192,199435,1,0,0:0:0:0:
320,192,199649,1,0,0:0:0:0:
192,192,199757,1,0,0:0:0:0:
64,192,199864,1,0,0:0:0:0:
448,192,199864,1,0,0:0:0:0:
320,192,199864,1,0,0:0:0:0:
192,192,199864,1,0,0:0:0:0:
64,192,200078,1,0,0:0:0:0:
192,192,200292,1,0,0:0:0:0:
320,192,200292,1,0,0:0:0:0:
448,192,200399,1,0,0:0:0:0:
192,192,200507,1,0,0:0:0:0:
64,192,200507,1,0,0:0:0:0:
320,192,200614,1,0,0:0:0:0:
64,192,200721,1,0,0:0:0:0:
448,192,200721,1,0,0:0:0:0:
320,192,200721,1,0,0:0:0:0:
192,192,200721,1,0,0:0:0:0:
320,192,200935,1,0,0:0:0:0:
192,192,201042,1,0,0:0:0:0:
64,192,201149,1,0,0:0:0:0:
192,192,201364,1,0,0:0:0:0:
320,192,201471,1,0,0:0:0:0:
64,192,201578,1,0,0:0:0:0:
192,192,201578,1,0,0:0:0:0:
448,192,201578,1,0,0:0:0:0:
320,192,201578,1,0,0:0:0:0:
448,192,201792,1,0,0:0:0:0:
192,192,201899,1,0,0:0:0:0:
320,192,202007,1,0,0:0:0:0:
448,192,202007,1,0,0:0:0:0:
64,192,202114,1,0,0:0:0:0:
192,192,202221,1,0,0:0:0:0:
448,192,202328,1,0,0:0:0:0:
64,192,202435,1,0,0:0:0:0:
192,192,202435,1,0,0:0:0:0:
320,192,202435,1,0,0:0:0:0:
448,192,202435,1,0,0:0:0:0:
64,192,202542,1,0,0:0:0:0:
192,192,202649,1,0,0:0:0:0:
448,192,202864,1,0,0:0:0:0:
64,192,202864,1,0,0:0:0:0:
320,192,202971,1,0,0:0:0:0:
192,192,203078,1,0,0:0:0:0:
448,192,203185,1,0,0:0:0:0:
192,192,203292,1,0,0:0:0:0:
448,192,203292,1,0,0:0:0:0:
320,192,203292,1,0,0:0:0:0:
64,192,203292,1,0,0:0:0:0:
320,192,203507,1,0,0:0:0:0:
192,192,203721,1,0,0:0:0:0:
64,192,203721,1,0,0:0:0:0:
448,192,203828,1,0,0:0:0:0:
192,192,203935,1,0,0:0:0:0:
320,192,204042,1,0,0:0:0:0:
64,192,204149,1,0,0:0:0:0:
448,192,204149,1,0,0:0:0:0:
192,192,204149,1,0,0:0:0:0:
320,192,204149,1,0,0:0:0:0:
64,192,204257,1,0,0:0:0:0:
192,192,204364,1,0,0:0:0:0:
320,192,204471,1,0,0:0:0:0:
448,192,204578,1,0,0:0:0:0:
64,192,204578,1,0,0:0:0:0:
320,192,204792,1,0,0:0:0:0:
64,192,204899,1,0,0:0:0:0:
192,192,205007,1,0,0:0:0:0:
320,192,205007,1,0,0:0:0:0:
448,192,205007,1,0,0:0:0:0:
64,192,205007,1,0,0:0:0:0:
448,192,205114,1,0,0:0:0:0:
320,192,205221,1,0,0:0:0:0:
64,192,205328,1,0,0:0:0:0:
192,192,205435,1,0,0:0:0:0:
320,192,205435,1,0,0:0:0:0:
64,192,205542,1,0,0:0:0:0:
448,192,205649,1,0,0:0:0:0:
192,192,205757,1,0,0:0:0:0:
192,192,205864,1,0,0:0:0:0:
64,192,205864,1,0,0:0:0:0:
448,192,205864,1,0,0:0:0:0:
320,192,205864,1,0,0:0:0:0:
320,192,206078,1,0,0:0:0:0:
192,192,206078,1,0,0:0:0:0:
192,192,206292,1,0,0:0:0:0:
320,192,206292,1,0,0:0:0:0:
448,192,206292,1,0,0:0:0:0:
64,192,206292,1,0,0:0:0:0:
192,192,206507,1,0,0:0:0:0:
64,192,206507,1,0,0:0:0:0:
64,192,206721,1,0,0:0:0:0:
192,192,206721,1,0,0:0:0:0:
448,192,206721,1,0,0:0:0:0:
320,192,206721,1,0,0:0:0:0:
448,192,206935,1,0,0:0:0:0:
320,192,206935,1,0,0:0:0:0:
64,192,207149,1,0,0:0:0:0:
192,192,207149,1,0,0:0:0:0:
320,192,207149,1,0,0:0:0:0:
448,192,207149,1,0,0:0:0:0:
448,192,207364,1,0,0:0:0:0:
320,192,207364,1,0,0:0:0:0:
192,192,207471,1,0,0:0:0:0:
64,192,207471,1,0,0:0:0:0:
64,192,207578,1,0,0:0:0:0:
192,192,207578,1,0,0:0:0:0:
320,192,207578,1,0,0:0:0:0:
448,192,207578,1,0,0:0:0:0:
448,192,207792,1,0,0:0:0:0:
320,192,207792,1,0,0:0:0:0:
448,192,208007,1,0,0:0:0:0:
320,192,208007,1,0,0:0:0:0:
64,192,208007,1,0,0:0:0:0:
192,192,208007,1,0,0:0:0:0:
320,192,208221,1,0,0:0:0:0:
192,192,208221,1,0,0:0:0:0:
64,192,208435,5,0,0:0:0:0:
192,192,208435,1,0,0:0:0:0:
320,192,208435,1,0,0:0:0:0:
448,192,208435,1,0,0:0:0:0:
192,192,208649,1,0,0:0:0:0:
64,192,208649,1,0,0:0:0:0:
320,192,208757,1,0,0:0:0:0:
448,192,208757,1,0,0:0:0:0:
448,192,208864,1,0,0:0:0:0:
320,192,208864,1,0,0:0:0:0:
64,192,208864,1,0,0:0:0:0:
192,192,208864,1,0,0:0:0:0:
64,192,208971,1,0,0:0:0:0:
192,192,208971,1,0,0:0:0:0:
448,192,209078,1,0,0:0:0:0:
320,192,209185,1,0,0:0:0:0:
192,192,209185,1,0,0:0:0:0:
64,192,209292,5,0,0:0:0:0:
192,192,209292,1,0,0:0:0:0:
320,192,209292,1,0,0:0:0:0:
448,192,209292,1,0,0:0:0:0:
320,192,209507,1,0,0:0:0:0:
448,192,209507,1,0,0:0:0:0:
64,192,209507,1,0,0:0:0:0:
192,192,209721,1,0,0:0:0:0:
320,192,209721,1,0,0:0:0:0:
448,192,209721,1,0,0:0:0:0:
64,192,209721,1,0,0:0:0:0:
192,192,209935,1,0,0:0:0:0:
64,192,209935,1,0,0:0:0:0:
448,192,209935,1,0,0:0:0:0:
64,192,210149,1,0,0:0:0:0:
192,192,210149,1,0,0:0:0:0:
448,192,210149,1,0,0:0:0:0:
320,192,210149,1,0,0:0:0:0:
320,192,210364,1,0,0:0:0:0:
448,192,210364,1,0,0:0:0:0:
64,192,210364,1,0,0:0:0:0:
448,192,210578,1,0,0:0:0:0:
320,192,210578,1,0,0:0:0:0:
64,192,210578,1,0,0:0:0:0:
192,192,210578,1,0,0:0:0:0:
192,192,210792,1,0,0:0:0:0:
320,192,210792,1,0,0:0:0:0:
64,192,210792,1,0,0:0:0:0:
64,192,211007,1,0,0:0:0:0:
192,192,211007,1,0,0:0:0:0:
448,192,211007,1,0,0:0:0:0:
320,192,211007,1,0,0:0:0:0:
192,192,211114,1,0,0:0:0:0:
320,192,211114,1,0,0:0:0:0:
320,192,211221,1,0,0:0:0:0:
448,192,211221,1,0,0:0:0:0:
64,192,211328,1,0,0:0:0:0:
192,192,211328,1,0,0:0:0:0:
320,192,211435,1,0,0:0:0:0:
448,192,211435,1,0,0:0:0:0:
192,192,211489,1,0,0:0:0:0:
64,192,211489,1,0,0:0:0:0:
320,192,211542,5,0,0:0:0:0:
448,192,211542,1,0,0:0:0:0:
192,192,211649,5,0,0:0:0:0:
64,192,211649,1,0,0:0:0:0:
192,192,211757,1,0,0:0:0:0:
64,192,211757,1,0,0:0:0:0:
448,192,211864,1,0,0:0:0:0:
320,192,211917,1,0,0:0:0:0:
192,192,211971,1,0,0:0:0:0:
64,192,212024,1,0,0:0:0:0:
448,192,212078,1,0,0:0:0:0:
320,192,212185,1,0,0:0:0:0:
64,192,212292,1,0,0:0:0:0:
192,192,212292,1,0,0:0:0:0:
320,192,212346,1,0,0:0:0:0:
448,192,212399,1,0,0:0:0:0:
192,192,212453,1,0,0:0:0:0:
320,192,212507,1,0,0:0:0:0:
64,192,212560,1,0,0:0:0:0:
192,192,212614,1,0,0:0:0:0:
64,192,212721,5,0,0:0:0:0:
320,192,212721,1,0,0:0:0:0:
192,192,212721,1,0,0:0:0:0:
448,192,212721,1,0,0:0:0:0:
320,192,212828,1,0,0:0:0:0:
448,192,212828,1,0,0:0:0:0:
64,192,212935,1,0,0:0:0:0:
192,192,212935,1,0,0:0:0:0:
192,192,213042,1,0,0:0:0:0:
320,192,213042,1,0,0:0:0:0:
448,192,213149,1,0,0:0:0:0:
320,192,213149,1,0,0:0:0:0:
64,192,213149,1,0,0:0:0:0:
64,192,213257,1,0,0:0:0:0:
320,192,213364,1,0,0:0:0:0:
192,192,213364,1,0,0:0:0:0:
448,192,213364,1,0,0:0:0:0:
192,192,213471,1,0,0:0:0:0:
64,192,213471,1,0,0:0:0:0:
320,192,213471,1,0,0:0:0:0:
448,192,213578,1,0,0:0:0:0:
320,192,213578,1,0,0:0:0:0:
64,192,213578,1,0,0:0:0:0:
192,192,213632,1,0,0:0:0:0:
448,192,213685,1,0,0:0:0:0:
64,192,213739,1,0,0:0:0:0:
320,192,213792,1,0,0:0:0:0:
192,192,213792,1,0,0:0:0:0:
448,192,213846,1,0,0:0:0:0:
64,192,213899,1,0,0:0:0:0:
192,192,213953,1,0,0:0:0:0:
320,192,214007,1,0,0:0:0:0:
448,192,214007,1,0,0:0:0:0:
192,192,214060,1,0,0:0:0:0:
320,192,214114,1,0,0:0:0:0:
192,192,214221,1,0,0:0:0:0:
64,192,214221,1,0,0:0:0:0:
448,192,214274,1,0,0:0:0:0:
320,192,214274,1,0,0:0:0:0:
64,192,214328,1,0,0:0:0:0:
192,192,214328,1,0,0:0:0:0:
448,192,214435,1,0,0:0:0:0:
320,192,214435,1,0,0:0:0:0:
192,192,214542,1,0,0:0:0:0:
448,192,214649,1,0,0:0:0:0:
64,192,214649,1,0,0:0:0:0:
192,192,214649,1,0,0:0:0:0:
320,192,214757,1,0,0:0:0:0:
64,192,214757,1,0,0:0:0:0:
448,192,214757,1,0,0:0:0:0:
320,192,214864,1,0,0:0:0:0:
192,192,214971,1,0,0:0:0:0:
448,192,214971,1,0,0:0:0:0:
64,192,214971,1,0,0:0:0:0:
448,192,215078,1,0,0:0:0:0:
320,192,215078,1,0,0:0:0:0:
192,192,215132,1,0,0:0:0:0:
64,192,215132,1,0,0:0:0:0:
320,192,215185,1,0,0:0:0:0:
448,192,215185,1,0,0:0:0:0:
192,192,215292,1,0,0:0:0:0:
448,192,215292,1,0,0:0:0:0:
64,192,215292,1,0,0:0:0:0:
192,192,215399,1,0,0:0:0:0:
448,192,215507,1,0,0:0:0:0:
320,192,215507,1,0,0:0:0:0:
192,192,215560,1,0,0:0:0:0:
64,192,215560,1,0,0:0:0:0:
448,192,215614,1,0,0:0:0:0:
192,192,215667,1,0,0:0:0:0:
320,192,215667,1,0,0:0:0:0:
448,192,215721,1,0,0:0:0:0:
64,192,215721,1,0,0:0:0:0:
320,192,215828,1,0,0:0:0:0:
64,192,215935,1,0,0:0:0:0:
448,192,215935,1,0,0:0:0:0:
192,192,215935,1,0,0:0:0:0:
320,192,216042,1,0,0:0:0:0:
192,192,216042,1,0,0:0:0:0:
448,192,216149,1,0,0:0:0:0:
320,192,216149,1,0,0:0:0:0:
64,192,216149,1,0,0:0:0:0:
192,192,216203,1,0,0:0:0:0:
64,192,216257,1,0,0:0:0:0:
448,192,216364,1,0,0:0:0:0:
192,192,216364,1,0,0:0:0:0:
320,192,216364,1,0,0:0:0:0:
320,192,216471,1,0,0:0:0:0:
64,192,216471,1,0,0:0:0:0:
448,192,216578,1,0,0:0:0:0:
64,192,216578,1,0,0:0:0:0:
192,192,216578,1,0,0:0:0:0:
320,192,216632,1,0,0:0:0:0:
192,192,216685,1,0,0:0:0:0:
448,192,216792,1,0,0:0:0:0:
64,192,216792,1,0,0:0:0:0:
320,192,216792,1,0,0:0:0:0:
448,192,216899,1,0,0:0:0:0:
320,192,216899,1,0,0:0:0:0:
192,192,216899,1,0,0:0:0:0:
192,192,217007,1,0,0:0:0:0:
64,192,217007,1,0,0:0:0:0:
448,192,217007,1,0,0:0:0:0:
320,192,217114,1,0,0:0:0:0:
64,192,217221,1,0,0:0:0:0:
448,192,217221,1,0,0:0:0:0:
192,192,217221,1,0,0:0:0:0:
320,192,217274,1,0,0:0:0:0:
448,192,217328,1,0,0:0:0:0:
64,192,217435,1,0,0:0:0:0:
192,192,217435,1,0,0:0:0:0:
320,192,217435,1,0,0:0:0:0:
448,192,217489,1,0,0:0:0:0:
64,192,217542,1,0,0:0:0:0:
192,192,217596,1,0,0:0:0:0:
320,192,217649,1,0,0:0:0:0:
448,192,217649,1,0,0:0:0:0:
64,192,217757,1,0,0:0:0:0:
192,192,217757,1,0,0:0:0:0:
320,192,217810,1,0,0:0:0:0:
192,192,217864,1,0,0:0:0:0:
64,192,217864,1,0,0:0:0:0:
448,192,217864,1,0,0:0:0:0:
320,192,217917,1,0,0:0:0:0:
448,192,217971,1,0,0:0:0:0:
64,192,218024,1,0,0:0:0:0:
192,192,218078,1,0,0:0:0:0:
448,192,218185,1,0,0:0:0:0:
64,192,218185,1,0,0:0:0:0:
320,192,218185,1,0,0:0:0:0:
192,192,218239,1,0,0:0:0:0:
64,192,218292,1,0,0:0:0:0:
448,192,218346,1,0,0:0:0:0:
320,192,218399,1,0,0:0:0:0:
192,192,218507,1,0,0:0:0:0:
64,192,218507,1,0,0:0:0:0:
320,192,218560,1,0,0:0:0:0:
448,192,218560,1,0,0:0:0:0:
192,192,218614,1,0,0:0:0:0:
64,192,218614,1,0,0:0:0:0:
448,192,218721,1,0,0:0:0:0:
320,192,218721,1,0,0:0:0:0:
192,192,218774,1,0,0:0:0:0:
64,192,218828,1,0,0:0:0:0:
448,192,218882,1,0,0:0:0:0:
192,192,218935,1,0,0:0:0:0:
64,192,218935,1,0,0:0:0:0:
320,192,218989,1,0,0:0:0:0:
448,192,218989,1,0,0:0:0:0:
192,192,219042,1,0,0:0:0:0:
64,192,219042,1,0,0:0:0:0:
448,192,219096,1,0,0:0:0:0:
320,192,219096,1,0,0:0:0:0:
192,192,219149,1,0,0:0:0:0:
64,192,219149,1,0,0:0:0:0:
448,192,219203,1,0,0:0:0:0:
320,192,219257,1,0,0:0:0:0:
192,192,219310,1,0,0:0:0:0:
448,192,219364,1,0,0:0:0:0:
320,192,219364,1,0,0:0:0:0:
64,192,219364,1,0,0:0:0:0:
192,192,219417,1,0,0:0:0:0:
64,192,219471,1,0,0:0:0:0:
448,192,219471,1,0,0:0:0:0:
320,192,219524,1,0,0:0:0:0:
448,192,219578,1,0,0:0:0:0:
192,192,219578,1,0,0:0:0:0:
64,192,219578,1,0,0:0:0:0:
192,192,219685,1,0,0:0:0:0:
448,192,219792,1,0,0:0:0:0:
320,192,219792,1,0,0:0:0:0:
192,192,219846,1,0,0:0:0:0:
64,192,219846,1,0,0:0:0:0:
320,192,219899,1,0,0:0:0:0:
448,192,219899,1,0,0:0:0:0:
192,192,219953,1,0,0:0:0:0:
64,192,219953,1,0,0:0:0:0:
320,192,220007,1,0,0:0:0:0:
448,192,220007,1,0,0:0:0:0:
192,192,220060,1,0,0:0:0:0:
64,192,220114,1,0,0:0:0:0:
448,192,220167,1,0,0:0:0:0:
192,192,220221,1,0,0:0:0:0:
320,192,220221,1,0,0:0:0:0:
64,192,220221,1,0,0:0:0:0:
448,192,220328,1,0,0:0:0:0:
320,192,220328,1,0,0:0:0:0:
192,192,220435,1,0,0:0:0:0:
64,192,220435,1,0,0:0:0:0:
320,192,220489,1,0,0:0:0:0:
448,192,220542,1,0,0:0:0:0:
64,192,220596,1,0,0:0:0:0:
192,192,220649,1,0,0:0:0:0:
320,192,220649,1,0,0:0:0:0:
448,192,220703,1,0,0:0:0:0:
64,192,220757,1,0,0:0:0:0:
192,192,220810,1,0,0:0:0:0:
320,192,220864,1,0,0:0:0:0:
448,192,220864,1,0,0:0:0:0:
192,192,220917,1,0,0:0:0:0:
64,192,220971,1,0,0:0:0:0:
448,192,220971,1,0,0:0:0:0:
320,192,221024,1,0,0:0:0:0:
192,192,221078,1,0,0:0:0:0:
64,192,221078,1,0,0:0:0:0:
320,192,221185,1,0,0:0:0:0:
320,192,221292,1,0,0:0:0:0:
448,192,221292,1,0,0:0:0:0:
192,192,221292,1,0,0:0:0:0:
64,192,221346,1,0,0:0:0:0:
192,192,221399,1,0,0:0:0:0:
320,192,221507,1,0,0:0:0:0:
448,192,221507,1,0,0:0:0:0:
192,192,221560,1,0,0:0:0:0:
64,192,221560,1,0,0:0:0:0:
320,192,221614,1,0,0:0:0:0:
448,192,221614,1,0,0:0:0:0:
192,192,221721,1,0,0:0:0:0:
320,192,221774,1,0,0:0:0:0:
192,192,221828,1,0,0:0:0:0:
64,192,221828,1,0,0:0:0:0:
448,192,221828,1,0,0:0:0:0:
320,192,221935,1,0,0:0:0:0:
192,192,221935,1,0,0:0:0:0:
64,192,221935,1,0,0:0:0:0:
448,192,221989,1,0,0:0:0:0:
320,192,222042,1,0,0:0:0:0:
192,192,222096,1,0,0:0:0:0:
64,192,222149,1,0,0:0:0:0:
448,192,222149,1,0,0:0:0:0:
192,192,222203,1,0,0:0:0:0:
320,192,222257,1,0,0:0:0:0:
192,192,222364,1,0,0:0:0:0:
64,192,222364,1,0,0:0:0:0:
320,192,222417,1,0,0:0:0:0:
448,192,222417,1,0,0:0:0:0:
192,192,222471,1,0,0:0:0:0:
320,192,222524,1,0,0:0:0:0:
448,192,222524,1,0,0:0:0:0:
192,192,222578,1,0,0:0:0:0:
64,192,222578,1,0,0:0:0:0:
320,192,222685,1,0,0:0:0:0:
448,192,222685,1,0,0:0:0:0:
64,192,222685,1,0,0:0:0:0:
448,192,222792,1,0,0:0:0:0:
64,192,222792,1,0,0:0:0:0:
192,192,222792,1,0,0:0:0:0:
320,192,222846,1,0,0:0:0:0:
192,192,222899,1,0,0:0:0:0:
64,192,223007,1,0,0:0:0:0:
448,192,223007,1,0,0:0:0:0:
320,192,223007,1,0,0:0:0:0:
64,192,223114,1,0,0:0:0:0:
192,192,223167,1,0,0:0:0:0:
448,192,223221,1,0,0:0:0:0:
320,192,223221,1,0,0:0:0:0:
320,192,223328,1,0,0:0:0:0:
192,192,223328,1,0,0:0:0:0:
64,192,223328,1,0,0:0:0:0:
448,192,223435,1,0,0:0:0:0:
192,192,223435,1,0,0:0:0:0:
64,192,223435,1,0,0:0:0:0:
320,192,223542,1,0,0:0:0:0:
192,192,223596,1,0,0:0:0:0:
320,192,223649,1,0,0:0:0:0:
448,192,223649,1,0,0:0:0:0:
64,192,223649,1,0,0:0:0:0:
192,192,223757,1,0,0:0:0:0:
320,192,223810,1,0,0:0:0:0:
192,192,223864,1,0,0:0:0:0:
64,192,223864,1,0,0:0:0:0:
448,192,223864,1,0,0:0:0:0:
64,192,223971,1,0,0:0:0:0:
448,192,224078,1,0,0:0:0:0:
320,192,224078,1,0,0:0:0:0:
64,192,224185,1,0,0:0:0:0:
192,192,224185,1,0,0:0:0:0:
448,192,224185,1,0,0:0:0:0:
320,192,224292,1,0,0:0:0:0:
192,192,224292,1,0,0:0:0:0:
448,192,224346,1,0,0:0:0:0:
192,192,224399,1,0,0:0:0:0:
64,192,224453,1,0,0:0:0:0:
448,192,224507,1,0,0:0:0:0:
320,192,224507,1,0,0:0:0:0:
192,192,224560,1,0,0:0:0:0:
64,192,224614,1,0,0:0:0:0:
320,192,224667,1,0,0:0:0:0:
448,192,224721,1,0,0:0:0:0:
64,192,224721,1,0,0:0:0:0:
192,192,224721,1,0,0:0:0:0:
320,192,224828,1,0,0:0:0:0:
448,192,224828,1,0,0:0:0:0:
192,192,224882,1,0,0:0:0:0:
64,192,224935,1,0,0:0:0:0:
448,192,224989,1,0,0:0:0:0:
192,192,225042,1,0,0:0:0:0:
64,192,225042,1,0,0:0:0:0:
320,192,225096,1,0,0:0:0:0:
448,192,225096,1,0,0:0:0:0:
192,192,225149,1,0,0:0:0:0:
64,192,225149,1,0,0:0:0:0:
320,192,225203,1,0,0:0:0:0:
448,192,225257,1,0,0:0:0:0:
64,192,225310,1,0,0:0:0:0:
448,192,225364,1,0,0:0:0:0:
320,192,225364,1,0,0:0:0:0:
64,192,225417,1,0,0:0:0:0:
192,192,225417,1,0,0:0:0:0:
448,192,225471,1,0,0:0:0:0:
320,192,225471,1,0,0:0:0:0:
192,192,225524,1,0,0:0:0:0:
448,192,225578,1,0,0:0:0:0:
320,192,225578,1,0,0:0:0:0:
64,192,225685,1,0,0:0:0:0:
192,192,225685,1,0,0:0:0:0:
320,192,225792,1,0,0:0:0:0:
64,192,225792,1,0,0:0:0:0:
448,192,225792,1,0,0:0:0:0:
448,192,226007,1,0,0:0:0:0:
192,192,226007,1,0,0:0:0:0:
320,192,226007,1,0,0:0:0:0:
64,192,226060,1,0,0:0:0:0:
320,192,226114,1,0,0:0:0:0:
192,192,226167,1,0,0:0:0:0:
448,192,226221,1,0,0:0:0:0:
64,192,226221,1,0,0:0:0:0:
320,192,226221,1,0,0:0:0:0:
64,192,226328,1,0,0:0:0:0:
192,192,226328,1,0,0:0:0:0:
320,192,226382,1,0,0:0:0:0:
192,192,226435,1,0,0:0:0:0:
64,192,226435,1,0,0:0:0:0:
448,192,226435,1,0,0:0:0:0:
448,192,226542,1,0,0:0:0:0:
320,192,226649,1,0,0:0:0:0:
192,192,226685,1,0,0:0:0:0:
64,192,226721,1,0,0:0:0:0:
320,192,226757,1,0,0:0:0:0:
448,192,226757,1,0,0:0:0:0:
192,192,226810,1,0,0:0:0:0:
64,192,226810,1,0,0:0:0:0:
448,192,226864,1,0,0:0:0:0:
320,192,226864,1,0,0:0:0:0:
448,192,226971,1,0,0:0:0:0:
64,192,226971,1,0,0:0:0:0:
192,192,227078,1,0,0:0:0:0:
64,192,227078,1,0,0:0:0:0:
320,192,227185,1,0,0:0:0:0:
448,192,227185,1,0,0:0:0:0:
448,192,227292,1,0,0:0:0:0:
64,192,227292,1,0,0:0:0:0:
320,192,227292,1,0,0:0:0:0:
192,192,227346,1,0,0:0:0:0:
320,192,227399,1,0,0:0:0:0:
64,192,227453,1,0,0:0:0:0:
192,192,227507,1,0,0:0:0:0:
448,192,227507,1,0,0:0:0:0:
320,192,227560,1,0,0:0:0:0:
64,192,227614,1,0,0:0:0:0:
192,192,227667,1,0,0:0:0:0:
320,192,227721,1,0,0:0:0:0:
448,192,227721,1,0,0:0:0:0:
64,192,227774,1,0,0:0:0:0:
192,192,227828,1,0,0:0:0:0:
448,192,227935,1,0,0:0:0:0:
320,192,227935,1,0,0:0:0:0:
192,192,227989,1,0,0:0:0:0:
64,192,227989,1,0,0:0:0:0:
448,192,228042,1,0,0:0:0:0:
320,192,228042,1,0,0:0:0:0:
192,192,228149,1,0,0:0:0:0:
64,192,228149,1,0,0:0:0:0:
320,192,228257,1,0,0:0:0:0:
448,192,228364,1,0,0:0:0:0:
64,192,228364,1,0,0:0:0:0:
192,192,228364,1,0,0:0:0:0:
320,192,228471,1,0,0:0:0:0:
448,192,228471,1,0,0:0:0:0:
64,192,228524,1,0,0:0:0:0:
192,192,228524,1,0,0:0:0:0:
320,192,228578,1,0,0:0:0:0:
448,192,228578,1,0,0:0:0:0:
192,192,228685,1,0,0:0:0:0:
448,192,228685,1,0,0:0:0:0:
64,192,228685,1,0,0:0:0:0:
64,192,228792,1,0,0:0:0:0:
192,192,228792,1,0,0:0:0:0:
320,192,228846,1,0,0:0:0:0:
448,192,228846,1,0,0:0:0:0:
192,192,228899,1,0,0:0:0:0:
64,192,228899,1,0,0:0:0:0:
320,192,229007,1,0,0:0:0:0:
448,192,229007,1,0,0:0:0:0:
64,192,229007,1,0,0:0:0:0:
192,192,229114,1,0,0:0:0:0:
448,192,229221,1,0,0:0:0:0:
320,192,229221,1,0,0:0:0:0:
320,192,229328,1,0,0:0:0:0:
192,192,229382,1,0,0:0:0:0:
64,192,229382,1,0,0:0:0:0:
448,192,229435,1,0,0:0:0:0:
320,192,229435,1,0,0:0:0:0:
448,192,229542,1,0,0:0:0:0:
192,192,229542,1,0,0:0:0:0:
64,192,229542,1,0,0:0:0:0:
448,192,229757,1,0,0:0:0:0:
64,192,229757,1,0,0:0:0:0:
320,192,229757,1,0,0:0:0:0:
448,192,229864,1,0,0:0:0:0:
320,192,229864,1,0,0:0:0:0:
64,192,229864,1,0,0:0:0:0:
192,192,229917,1,0,0:0:0:0:
64,192,229971,1,0,0:0:0:0:
448,192,230078,1,0,0:0:0:0:
192,192,230078,1,0,0:0:0:0:
320,192,230078,1,0,0:0:0:0:
320,192,230185,1,0,0:0:0:0:
64,192,230185,1,0,0:0:0:0:
448,192,230292,1,0,0:0:0:0:
64,192,230292,1,0,0:0:0:0:
192,192,230292,1,0,0:0:0:0:
320,192,230346,1,0,0:0:0:0:
192,192,230399,1,0,0:0:0:0:
448,192,230507,1,0,0:0:0:0:
64,192,230507,1,0,0:0:0:0:
320,192,230507,1,0,0:0:0:0:
448,192,230614,1,0,0:0:0:0:
320,192,230614,1,0,0:0:0:0:
192,192,230614,1,0,0:0:0:0:
192,192,230721,1,0,0:0:0:0:
64,192,230721,1,0,0:0:0:0:
448,192,230721,1,0,0:0:0:0:
320,192,230828,1,0,0:0:0:0:
64,192,230935,1,0,0:0:0:0:
448,192,230935,1,0,0:0:0:0:
192,192,230935,1,0,0:0:0:0:
320,192,230989,1,0,0:0:0:0:
448,192,231042,1,0,0:0:0:0:
64,192,231149,1,0,0:0:0:0:
192,192,231149,1,0,0:0:0:0:
320,192,231149,1,0,0:0:0:0:
448,192,231203,1,0,0:0:0:0:
64,192,231257,1,0,0:0:0:0:
192,192,231310,1,0,0:0:0:0:
320,192,231364,1,0,0:0:0:0:
448,192,231364,1,0,0:0:0:0:
192,192,231417,1,0,0:0:0:0:
64,192,231417,1,0,0:0:0:0:
320,192,231471,1,0,0:0:0:0:
448,192,231471,1,0,0:0:0:0:
192,192,231524,1,0,0:0:0:0:
320,192,231578,1,0,0:0:0:0:
64,192,231578,1,0,0:0:0:0:
448,192,231578,1,0,0:0:0:0:
192,192,231632,1,0,0:0:0:0:
320,192,231685,1,0,0:0:0:0:
64,192,231739,1,0,0:0:0:0:
192,192,231792,1,0,0:0:0:0:
448,192,231899,1,0,0:0:0:0:
64,192,231899,1,0,0:0:0:0:
320,192,231899,1,0,0:0:0:0:
192,192,231953,1,0,0:0:0:0:
64,192,232007,1,0,0:0:0:0:
448,192,232060,1,0,0:0:0:0:
320,192,232114,1,0,0:0:0:0:
192,192,232221,1,0,0:0:0:0:
64,192,232221,1,0,0:0:0:0:
448,192,232221,1,0,0:0:0:0:
320,192,232274,1,0,0:0:0:0:
448,192,232328,1,0,0:0:0:0:
192,192,232382,1,0,0:0:0:0:
320,192,232435,1,0,0:0:0:0:
64,192,232435,1,0,0:0:0:0:
448,192,232542,1,0,0:0:0:0:
64,192,232596,1,0,0:0:0:0:
320,192,232649,1,0,0:0:0:0:
448,192,232649,1,0,0:0:0:0:
192,192,232703,1,0,0:0:0:0:
64,192,232703,1,0,0:0:0:0:
320,192,232757,1,0,0:0:0:0:
448,192,232757,1,0,0:0:0:0:
64,192,232810,1,0,0:0:0:0:
192,192,232810,1,0,0:0:0:0:
320,192,232864,1,0,0:0:0:0:
448,192,232864,1,0,0:0:0:0:
64,192,232917,1,0,0:0:0:0:
192,192,232971,1,0,0:0:0:0:
320,192,233024,1,0,0:0:0:0:
64,192,233078,1,0,0:0:0:0:
192,192,233078,1,0,0:0:0:0:
448,192,233078,1,0,0:0:0:0:
320,192,233132,1,0,0:0:0:0:
448,192,233185,1,0,0:0:0:0:
64,192,233185,1,0,0:0:0:0:
192,192,233239,1,0,0:0:0:0:
64,192,233292,1,0,0:0:0:0:
320,192,233292,1,0,0:0:0:0:
448,192,233292,1,0,0:0:0:0:
192,192,233399,1,0,0:0:0:0:
64,192,233399,1,0,0:0:0:0:
320,192,233399,1,0,0:0:0:0:
448,192,233507,1,0,0:0:0:0:
320,192,233507,1,0,0:0:0:0:
192,192,233507,1,0,0:0:0:0:
448,192,233614,1,0,0:0:0:0:
64,192,233614,1,0,0:0:0:0:
320,192,233667,1,0,0:0:0:0:
192,192,233667,1,0,0:0:0:0:
64,192,233721,1,0,0:0:0:0:
448,192,233721,1,0,0:0:0:0:
448,192,233935,1,0,0:0:0:0:
320,192,233935,1,0,0:0:0:0:
64,192,233935,1,0,0:0:0:0:
320,192,234042,1,0,0:0:0:0:
192,192,234042,1,0,0:0:0:0:
448,192,234042,1,0,0:0:0:0:
64,192,234149,1,0,0:0:0:0:
192,192,234149,1,0,0:0:0:0:
448,192,234257,1,0,0:0:0:0:
320,192,234257,1,0,0:0:0:0:
64,192,234257,1,0,0:0:0:0:
320,192,234364,1,0,0:0:0:0:
448,192,234364,1,0,0:0:0:0:
192,192,234364,1,0,0:0:0:0:
64,192,234471,1,0,0:0:0:0:
192,192,234471,1,0,0:0:0:0:
320,192,234471,1,0,0:0:0:0:
448,192,234578,1,0,0:0:0:0:
64,192,234578,1,0,0:0:0:0:
192,192,234578,1,0,0:0:0:0:
448,192,234685,1,0,0:0:0:0:
64,192,234792,1,0,0:0:0:0:
192,192,234792,1,0,0:0:0:0:
320,192,234846,1,0,0:0:0:0:
448,192,234846,1,0,0:0:0:0:
64,192,234899,1,0,0:0:0:0:
192,192,234899,1,0,0:0:0:0:
448,192,235007,1,0,0:0:0:0:
320,192,235007,1,0,0:0:0:0:
64,192,235060,1,0,0:0:0:0:
192,192,235060,1,0,0:0:0:0:
320,192,235114,1,0,0:0:0:0:
192,192,235167,1,0,0:0:0:0:
64,192,235167,1,0,0:0:0:0:
320,192,235221,1,0,0:0:0:0:
448,192,235221,1,0,0:0:0:0:
192,192,235328,1,0,0:0:0:0:
64,192,235328,1,0,0:0:0:0:
448,192,235328,1,0,0:0:0:0:
320,192,235435,1,0,0:0:0:0:
192,192,235542,1,0,0:0:0:0:
64,192,235542,1,0,0:0:0:0:
320,192,235596,1,0,0:0:0:0:
448,192,235596,1,0,0:0:0:0:
192,192,235649,1,0,0:0:0:0:
64,192,235649,1,0,0:0:0:0:
192,192,235757,1,0,0:0:0:0:
64,192,235757,1,0,0:0:0:0:
448,192,235757,1,0,0:0:0:0:
448,192,235864,1,0,0:0:0:0:
320,192,235864,1,0,0:0:0:0:
192,192,235917,1,0,0:0:0:0:
64,192,235971,1,0,0:0:0:0:
320,192,236078,1,0,0:0:0:0:
448,192,236078,1,0,0:0:0:0:
192,192,236132,1,0,0:0:0:0:
64,192,236132,1,0,0:0:0:0:
320,192,236185,1,0,0:0:0:0:
192,192,236239,1,0,0:0:0:0:
64,192,236239,1,0,0:0:0:0:
448,192,236292,1,0,0:0:0:0:
320,192,236292,1,0,0:0:0:0:
192,192,236399,1,0,0:0:0:0:
64,192,236399,1,0,0:0:0:0:
448,192,236507,1,0,0:0:0:0:
192,192,236507,1,0,0:0:0:0:
64,192,236507,1,0,0:0:0:0:
320,192,236614,1,0,0:0:0:0:
192,192,236667,1,0,0:0:0:0:
448,192,236721,1,0,0:0:0:0:
64,192,236721,1,0,0:0:0:0:
320,192,236774,1,0,0:0:0:0:
192,192,236828,1,0,0:0:0:0:
448,192,236882,1,0,0:0:0:0:
64,192,236935,1,0,0:0:0:0:
192,192,236935,1,0,0:0:0:0:
320,192,236989,1,0,0:0:0:0:
64,192,237042,1,0,0:0:0:0:
192,192,237096,1,0,0:0:0:0:
448,192,237149,5,0,0:0:0:0:
320,192,237149,1,0,0:0:0:0:
192,192,237203,1,0,0:0:0:0:
64,192,237203,1,0,0:0:0:0:
320,192,237257,1,0,0:0:0:0:
448,192,237257,1,0,0:0:0:0:
192,192,237310,1,0,0:0:0:0:
64,192,237310,1,0,0:0:0:0:
320,192,237364,1,0,0:0:0:0:
448,192,237364,1,0,0:0:0:0:
64,192,237471,1,0,0:0:0:0:
192,192,237471,1,0,0:0:0:0:
320,192,237578,1,0,0:0:0:0:
448,192,237578,1,0,0:0:0:0:
192,192,237685,1,0,0:0:0:0:
64,192,237685,1,0,0:0:0:0:
448,192,237739,1,0,0:0:0:0:
64,192,237792,1,0,0:0:0:0:
192,192,237792,1,0,0:0:0:0:
320,192,237846,1,0,0:0:0:0:
448,192,237899,1,0,0:0:0:0:
64,192,237899,1,0,0:0:0:0:
448,192,238007,1,0,0:0:0:0:
320,192,238007,1,0,0:0:0:0:
192,192,238060,1,0,0:0:0:0:
64,192,238060,1,0,0:0:0:0:
320,192,238114,1,0,0:0:0:0:
448,192,238114,1,0,0:0:0:0:
192,192,238167,1,0,0:0:0:0:
64,192,238167,1,0,0:0:0:0:
320,192,238221,1,0,0:0:0:0:
448,192,238221,1,0,0:0:0:0:
192,192,238274,1,0,0:0:0:0:
64,192,238328,1,0,0:0:0:0:
448,192,238328,1,0,0:0:0:0:
64,192,238435,1,0,0:0:0:0:
192,192,238435,1,0,0:0:0:0:
448,192,238489,1,0,0:0:0:0:
320,192,238489,1,0,0:0:0:0:
64,192,238542,1,0,0:0:0:0:
192,192,238542,1,0,0:0:0:0:
320,192,238596,1,0,0:0:0:0:
448,192,238596,1,0,0:0:0:0:
192,192,238649,1,0,0:0:0:0:
64,192,238649,1,0,0:0:0:0:
320,192,238757,1,0,0:0:0:0:
448,192,238757,1,0,0:0:0:0:
192,192,238810,1,0,0:0:0:0:
64,192,238810,1,0,0:0:0:0:
320,192,238864,1,0,0:0:0:0:
448,192,238864,1,0,0:0:0:0:
192,192,238917,1,0,0:0:0:0:
64,192,238917,1,0,0:0:0:0:
320,192,238971,1,0,0:0:0:0:
448,192,238971,1,0,0:0:0:0:
64,192,239078,1,0,0:0:0:0:
192,192,239078,1,0,0:0:0:0:
320,192,239132,1,0,0:0:0:0:
448,192,239132,1,0,0:0:0:0:
192,192,239185,1,0,0:0:0:0:
64,192,239185,1,0,0:0:0:0:
320,192,239239,1,0,0:0:0:0:
448,192,239239,1,0,0:0:0:0:
64,192,239292,1,0,0:0:0:0:
192,192,239292,1,0,0:0:0:0:
448,192,239399,1,0,0:0:0:0:
320,192,239399,1,0,0:0:0:0:
448,192,239507,1,0,0:0:0:0:
192,192,239507,1,0,0:0:0:0:
64,192,239507,1,0,0:0:0:0:
320,192,239560,1,0,0:0:0:0:
192,192,239614,1,0,0:0:0:0:
320,192,239667,1,0,0:0:0:0:
192,192,239721,1,0,0:0:0:0:
64,192,239721,1,0,0:0:0:0:
448,192,239721,1,0,0:0:0:0:
320,192,239774,1,0,0:0:0:0:
64,192,239828,1,0,0:0:0:0:
192,192,239828,1,0,0:0:0:0:
320,192,239882,1,0,0:0:0:0:
448,192,239882,1,0,0:0:0:0:
192,192,239935,1,0,0:0:0:0:
64,192,239935,1,0,0:0:0:0:
448,192,239989,1,0,0:0:0:0:
320,192,239989,1,0,0:0:0:0:
64,192,240042,1,0,0:0:0:0:
192,192,240042,1,0,0:0:0:0:
320,192,240096,1,0,0:0:0:0:
448,192,240096,1,0,0:0:0:0:
192,192,240149,1,0,0:0:0:0:
64,192,240149,1,0,0:0:0:0:
320,192,240257,1,0,0:0:0:0:
448,192,240364,1,0,0:0:0:0:
64,192,240364,1,0,0:0:0:0:
192,192,240471,1,0,0:0:0:0:
448,192,240578,1,0,0:0:0:0:
320,192,240578,1,0,0:0:0:0:
64,192,240578,1,0,0:0:0:0:
64,192,240685,1,0,0:0:0:0:
448,192,240792,1,0,0:0:0:0:
64,192,240899,1,0,0:0:0:0:
192,192,240899,1,0,0:0:0:0:
320,192,240899,1,0,0:0:0:0:
192,192,241007,1,0,0:0:0:0:
320,192,241007,1,0,0:0:0:0:
448,192,241007,1,0,0:0:0:0:
64,192,241114,1,0,0:0:0:0:
448,192,241114,1,0,0:0:0:0:
320,192,241221,1,0,0:0:0:0:
192,192,241328,1,0,0:0:0:0:
64,192,241328,1,0,0:0:0:0:
448,192,241328,1,0,0:0:0:0:
448,192,241435,1,0,0:0:0:0:
192,192,241542,1,0,0:0:0:0:
64,192,241542,1,0,0:0:0:0:
320,192,241649,1,0,0:0:0:0:
448,192,241649,1,0,0:0:0:0:
192,192,241703,1,0,0:0:0:0:
64,192,241757,1,0,0:0:0:0:
192,192,241810,1,0,0:0:0:0:
64,192,241864,1,0,0:0:0:0:
448,192,241864,1,0,0:0:0:0:
320,192,241864,1,0,0:0:0:0:
192,192,241971,1,0,0:0:0:0:
448,192,242078,1,0,0:0:0:0:
320,192,242078,1,0,0:0:0:0:
192,192,242185,1,0,0:0:0:0:
64,192,242185,1,0,0:0:0:0:
320,192,242239,1,0,0:0:0:0:
448,192,242239,1,0,0:0:0:0:
192,192,242292,1,0,0:0:0:0:
64,192,242292,1,0,0:0:0:0:
320,192,242346,1,0,0:0:0:0:
448,192,242399,1,0,0:0:0:0:
64,192,242507,1,0,0:0:0:0:
192,192,242507,1,0,0:0:0:0:
448,192,242507,1,0,0:0:0:0:
192,192,242614,1,0,0:0:0:0:
320,192,242614,1,0,0:0:0:0:
320,192,242721,1,0,0:0:0:0:
448,192,242721,1,0,0:0:0:0:
64,192,242721,1,0,0:0:0:0:
192,192,242828,1,0,0:0:0:0:
448,192,242935,1,0,0:0:0:0:
320,192,242935,1,0,0:0:0:0:
192,192,242989,1,0,0:0:0:0:
64,192,242989,1,0,0:0:0:0:
320,192,243042,1,0,0:0:0:0:
448,192,243042,1,0,0:0:0:0:
192,192,243096,1,0,0:0:0:0:
64,192,243096,1,0,0:0:0:0:
320,192,243149,1,0,0:0:0:0:
448,192,243149,1,0,0:0:0:0:
320,192,243257,1,0,0:0:0:0:
192,192,243257,1,0,0:0:0:0:
64,192,243364,1,0,0:0:0:0:
192,192,243364,1,0,0:0:0:0:
448,192,243364,1,0,0:0:0:0:
320,192,243471,1,0,0:0:0:0:
448,192,243471,1,0,0:0:0:0:
192,192,243578,1,0,0:0:0:0:
64,192,243578,1,0,0:0:0:0:
320,192,243578,1,0,0:0:0:0:
192,192,243685,1,0,0:0:0:0:
448,192,243792,1,0,0:0:0:0:
320,192,243792,1,0,0:0:0:0:
448,192,243899,1,0,0:0:0:0:
192,192,244007,1,0,0:0:0:0:
64,192,244007,1,0,0:0:0:0:
320,192,244007,1,0,0:0:0:0:
64,192,244114,1,0,0:0:0:0:
320,192,244221,1,0,0:0:0:0:
448,192,244221,1,0,0:0:0:0:
192,192,244221,1,0,0:0:0:0:
320,192,244328,1,0,0:0:0:0:
448,192,244328,1,0,0:0:0:0:
64,192,244328,1,0,0:0:0:0:
64,192,244435,1,0,0:0:0:0:
192,192,244435,1,0,0:0:0:0:
448,192,244489,1,0,0:0:0:0:
320,192,244489,1,0,0:0:0:0:
192,192,244542,1,0,0:0:0:0:
64,192,244542,1,0,0:0:0:0:
320,192,244649,1,0,0:0:0:0:
448,192,244649,1,0,0:0:0:0:
320,192,244757,1,0,0:0:0:0:
448,192,244757,1,0,0:0:0:0:
192,192,244757,1,0,0:0:0:0:
192,192,244864,1,0,0:0:0:0:
64,192,244864,1,0,0:0:0:0:
320,192,244917,1,0,0:0:0:0:
64,192,244971,1,0,0:0:0:0:
448,192,244971,1,0,0:0:0:0:
192,192,245078,1,0,0:0:0:0:
320,192,245078,1,0,0:0:0:0:
448,192,245078,1,0,0:0:0:0:
320,192,245185,1,0,0:0:0:0:
448,192,245292,1,0,0:0:0:0:
64,192,245292,1,0,0:0:0:0:
192,192,245292,1,0,0:0:0:0:
192,192,245399,1,0,0:0:0:0:
320,192,245507,1,0,0:0:0:0:
448,192,245507,1,0,0:0:0:0:
192,192,245614,1,0,0:0:0:0:
64,192,245614,1,0,0:0:0:0:
320,192,245667,1,0,0:0:0:0:
448,192,245667,1,0,0:0:0:0:
192,192,245721,1,0,0:0:0:0:
64,192,245721,1,0,0:0:0:0:
448,192,245828,1,0,0:0:0:0:
320,192,245828,1,0,0:0:0:0:
192,192,245935,1,0,0:0:0:0:
320,192,245935,1,0,0:0:0:0:
64,192,245935,1,0,0:0:0:0:
192,192,246042,1,0,0:0:0:0:
448,192,246149,1,0,0:0:0:0:
320,192,246149,1,0,0:0:0:0:
64,192,246149,1,0,0:0:0:0:
448,192,246257,1,0,0:0:0:0:
192,192,246364,1,0,0:0:0:0:
320,192,246364,1,0,0:0:0:0:
448,192,246364,1,0,0:0:0:0:
192,192,246471,1,0,0:0:0:0:
64,192,246471,1,0,0:0:0:0:
448,192,246578,1,0,0:0:0:0:
64,192,246578,1,0,0:0:0:0:
320,192,246578,1,0,0:0:0:0:
320,192,246685,1,0,0:0:0:0:
448,192,246792,1,0,0:0:0:0:
64,192,246792,1,0,0:0:0:0:
192,192,246792,1,0,0:0:0:0:
320,192,246899,1,0,0:0:0:0:
192,192,246953,1,0,0:0:0:0:
64,192,247007,1,0,0:0:0:0:
320,192,247007,1,0,0:0:0:0:
448,192,247007,1,0,0:0:0:0:
192,192,247114,1,0,0:0:0:0:
448,192,247221,1,0,0:0:0:0:
64,192,247221,1,0,0:0:0:0:
192,192,247328,1,0,0:0:0:0:
448,192,247435,1,0,0:0:0:0:
320,192,247435,1,0,0:0:0:0:
64,192,247435,1,0,0:0:0:0:
64,192,247542,1,0,0:0:0:0:
448,192,247649,1,0,0:0:0:0:
320,192,247649,1,0,0:0:0:0:
64,192,247757,1,0,0:0:0:0:
192,192,247757,1,0,0:0:0:0:
192,192,247864,1,0,0:0:0:0:
320,192,247864,1,0,0:0:0:0:
448,192,247864,1,0,0:0:0:0:
448,192,247971,1,0,0:0:0:0:
320,192,248078,1,0,0:0:0:0:
192,192,248078,1,0,0:0:0:0:
192,192,248185,1,0,0:0:0:0:
64,192,248185,1,0,0:0:0:0:
448,192,248185,1,0,0:0:0:0:
448,192,248292,1,0,0:0:0:0:
320,192,248292,1,0,0:0:0:0:
64,192,248346,1,0,0:0:0:0:
192,192,248346,1,0,0:0:0:0:
320,192,248399,1,0,0:0:0:0:
448,192,248399,1,0,0:0:0:0:
192,192,248453,1,0,0:0:0:0:
64,192,248453,1,0,0:0:0:0:
320,192,248507,1,0,0:0:0:0:
448,192,248507,1,0,0:0:0:0:
192,192,248614,1,0,0:0:0:0:
192,192,248721,1,0,0:0:0:0:
64,192,248721,1,0,0:0:0:0:
448,192,248721,1,0,0:0:0:0:
64,192,248828,1,0,0:0:0:0:
448,192,248935,1,0,0:0:0:0:
320,192,248935,1,0,0:0:0:0:
192,192,249042,1,0,0:0:0:0:
64,192,249042,1,0,0:0:0:0:
320,192,249096,1,0,0:0:0:0:
448,192,249096,1,0,0:0:0:0:
192,192,249149,1,0,0:0:0:0:
64,192,249149,1,0,0:0:0:0:
448,192,249257,1,0,0:0:0:0:
320,192,249257,1,0,0:0:0:0:
64,192,249364,1,0,0:0:0:0:
192,192,249364,1,0,0:0:0:0:
448,192,249364,1,0,0:0:0:0:
192,192,249471,1,0,0:0:0:0:
320,192,249471,1,0,0:0:0:0:
320,192,249578,1,0,0:0:0:0:
448,192,249578,1,0,0:0:0:0:
64,192,249578,1,0,0:0:0:0:
192,192,249632,1,0,0:0:0:0:
64,192,249685,1,0,0:0:0:0:
448,192,249739,1,0,0:0:0:0:
64,192,249792,1,0,0:0:0:0:
192,192,249792,1,0,0:0:0:0:
320,192,249846,1,0,0:0:0:0:
448,192,249846,1,0,0:0:0:0:
192,192,249899,1,0,0:0:0:0:
320,192,249953,1,0,0:0:0:0:
192,192,250007,1,0,0:0:0:0:
64,192,250007,1,0,0:0:0:0:
320,192,250060,1,0,0:0:0:0:
448,192,250060,1,0,0:0:0:0:
192,192,250114,1,0,0:0:0:0:
64,192,250114,1,0,0:0:0:0:
64,192,250221,1,0,0:0:0:0:
192,192,250221,1,0,0:0:0:0:
448,192,250221,1,0,0:0:0:0:
320,192,250328,1,0,0:0:0:0:
64,192,250435,1,0,0:0:0:0:
320,192,250435,1,0,0:0:0:0:
448,192,250435,1,0,0:0:0:0:
192,192,250542,1,0,0:0:0:0:
448,192,250649,1,0,0:0:0:0:
320,192,250649,1,0,0:0:0:0:
64,192,250703,1,0,0:0:0:0:
448,192,250757,1,0,0:0:0:0:
320,192,250757,1,0,0:0:0:0:
192,192,250810,1,0,0:0:0:0:
64,192,250864,1,0,0:0:0:0:
448,192,250864,1,0,0:0:0:0:
320,192,250864,1,0,0:0:0:0:
192,192,250971,1,0,0:0:0:0:
320,192,251078,1,0,0:0:0:0:
448,192,251078,1,0,0:0:0:0:
64,192,251078,1,0,0:0:0:0:
192,192,251185,1,0,0:0:0:0:
320,192,251185,1,0,0:0:0:0:
448,192,251185,1,0,0:0:0:0:
64,192,251292,1,0,0:0:0:0:
192,192,251292,1,0,0:0:0:0:
448,192,251292,1,0,0:0:0:0:
64,192,251399,1,0,0:0:0:0:
320,192,251507,1,0,0:0:0:0:
448,192,251507,1,0,0:0:0:0:
192,192,251560,1,0,0:0:0:0:
320,192,251614,1,0,0:0:0:0:
448,192,251614,1,0,0:0:0:0:
64,192,251614,1,0,0:0:0:0:
64,192,251721,1,0,0:0:0:0:
192,192,251721,1,0,0:0:0:0:
320,192,251828,1,0,0:0:0:0:
448,192,251828,1,0,0:0:0:0:
192,192,251935,1,0,0:0:0:0:
64,192,251935,1,0,0:0:0:0:
448,192,251935,1,0,0:0:0:0:
192,192,252042,1,0,0:0:0:0:
448,192,252149,1,0,0:0:0:0:
64,192,252149,1,0,0:0:0:0:
320,192,252149,1,0,0:0:0:0:
192,192,252257,1,0,0:0:0:0:
320,192,252364,1,0,0:0:0:0:
448,192,252364,1,0,0:0:0:0:
192,192,252471,1,0,0:0:0:0:
64,192,252471,1,0,0:0:0:0:
320,192,252524,1,0,0:0:0:0:
448,192,252524,1,0,0:0:0:0:
192,192,252578,1,0,0:0:0:0:
64,192,252578,1,0,0:0:0:0:
448,192,252685,1,0,0:0:0:0:
320,192,252685,1,0,0:0:0:0:
192,192,252792,1,0,0:0:0:0:
320,192,252792,1,0,0:0:0:0:
64,192,252792,1,0,0:0:0:0:
192,192,252899,1,0,0:0:0:0:
448,192,253007,1,0,0:0:0:0:
320,192,253007,1,0,0:0:0:0:
64,192,253007,1,0,0:0:0:0:
64,192,253114,1,0,0:0:0:0:
192,192,253221,1,0,0:0:0:0:
320,192,253221,1,0,0:0:0:0:
448,192,253221,1,0,0:0:0:0:
64,192,253328,1,0,0:0:0:0:
192,192,253382,1,0,0:0:0:0:
448,192,253435,1,0,0:0:0:0:
320,192,253435,1,0,0:0:0:0:
64,192,253489,1,0,0:0:0:0:
192,192,253489,1,0,0:0:0:0:
448,192,253542,1,0,0:0:0:0:
320,192,253542,1,0,0:0:0:0:
192,192,253596,1,0,0:0:0:0:
64,192,253596,1,0,0:0:0:0:
320,192,253649,1,0,0:0:0:0:
448,192,253649,1,0,0:0:0:0:
64,192,253703,1,0,0:0:0:0:
192,192,253703,1,0,0:0:0:0:
320,192,253757,1,0,0:0:0:0:
448,192,253757,1,0,0:0:0:0:
192,192,253810,1,0,0:0:0:0:
448,192,253864,1,0,0:0:0:0:
320,192,253864,1,0,0:0:0:0:
64,192,253864,1,0,0:0:0:0:
