osu file format v14

[General]
AudioFilename: audio.mp3
AudioLeadIn: 0
PreviewTime: 57367
Countdown: 0
SampleSet: Soft
StackLeniency: 0.4
Mode: 0
LetterboxInBreaks: 0
WidescreenStoryboard: 1

[Editor]
Bookmarks: 9787,18436,27085,35733,44394,90868,112502,121139,138436
DistanceSpacing: 0.9
BeatDivisor: 1
GridSize: 4
TimelineZoom: 1.399999

[Metadata]
Title:Reso*nyan*ce Fever
TitleUnicode:Reso*nyan*ce Fever
Artist:katagiri
ArtistUnicode:かたぎり
Creator:Snow Note
Version:Normal
Source:
Tags:7odoa pw384 RLC kundi Kuki1537 bms of fighters ultimate BOFU2016 legendary again DANCECORE resonyance resonance xlni 384059043 Kuki edm hardcore mashcore hard core dance music 2016 Just Do It Shia LaBeouf Коробе́йники tetris KBC keyboard crasher キーボードクラッシャー スーパーマリオ Super Mario RPG Legend of the Seven Stars 森のキノコにご用心 forest maze 下村陽子 Yoko Shimomura サンドキャニオン 砂漠ステージ Sand Canyon Map Jun 石川淳 Ishikawa 星のカービィ3 Kirby's Dream Land 3 任天堂 nintento 侵略!イカ娘 shinryaku! ika musume invasion! squid girl Syamu Gimme Nightcore ABBA electronic instrumental japanese なまる ピ
BeatmapID:2994848
BeatmapSetID:779061

[Difficulty]
HPDrainRate:4
CircleSize:2.8
OverallDifficulty:4
ApproachRate:5.5
SliderMultiplier:1.3
SliderTickRate:1

[Events]
//Background and Video events
0,0,"BG.jpg",0,0
//Break Periods
2,33591,34620
//Storyboard Layer 0 (Background)
//Storyboard Layer 1 (Fail)
//Storyboard Layer 2 (Pass)
//Storyboard Layer 3 (Foreground)
//Storyboard Layer 4 (Overlay)
//Storyboard Sound Samples

[TimingPoints]
70,270.27027027027,4,2,1,80,1,0
9799,-100,4,2,1,80,0,1
18448,-100,4,2,1,80,0,0
47637,-100,4,2,1,80,0,1
56286,-100,4,2,1,80,0,0
82232,-100,4,2,1,80,0,1
85475,-100,4,2,1,80,0,0
86556,-100,4,2,1,80,0,1
90880,-100,4,2,1,80,0,0
103853,-100,4,2,1,80,0,1
112772,-100,4,2,1,80,0,0
116826,-100,4,2,1,80,0,1
120610,-100,4,2,1,80,0,0
134124,-100,4,2,1,80,0,1
138448,-100,4,2,1,80,0,0

[Colours]
Combo1 : 0,128,0
Combo2 : 255,0,0
Combo3 : 246,246,246
Combo4 : 255,255,0

[HitObjects]
256,44,880,5,0,1:1:0:0:
196,136,1151,2,0,P|116:140|40:56,2,195,4|0|8,3:1|3:3|3:1,0:0:0:0:
316,136,2232,2,0,P|396:140|472:56,2,195,4|0|8,3:1|3:3|3:1,0:0:0:0:
356,12,3313,5,4,3:1:0:0:
156,12,3718,1,0,3:3:0:0:
256,192,4124,1,8,3:1:0:0:
200,144,5475,6,0,P|124:112|16:164,2,195,4|0|8,3:1|3:3|3:1,0:0:0:0:
204,260,6556,1,4,3:1:0:0:
348,160,6961,1,0,3:3:0:0:
256,12,7367,1,8,3:1:0:0:
172,92,7637,6,0,P|255:134|341:93,2,195,4|0|0,3:1|3:3|1:1,0:0:0:0:
404,160,9799,6,0,P|443:305|371:377,1,260,4|0,3:1|3:3,0:0:0:0:
256,356,10610,1,8,1:1:0:0:
188,264,10880,2,0,P|180:192|208:124,1,130,0|8,3:3|1:1,0:0:0:0:
313,138,11421,2,0,P|332:200|324:264,1,130,0|8,3:3|1:1,0:0:0:0:
256,356,11961,6,0,P|180:368|52:240,1,260,4|0,3:1|3:3,0:0:0:0:
36,136,12772,1,8,1:1:0:0:
88,32,13042,2,0,P|148:8|220:20,2,130,0|8|0,3:3|1:1|3:3,0:0:0:0:
316,140,14124,6,0,P|336:208|312:280,1,130,4|8,3:1|1:1,0:0:0:0:
196,236,14664,2,0,P|176:168|200:96,1,130,0|8,3:3|1:1,0:0:0:0:
316,140,15205,2,0,P|296:312|236:332,1,260,0|0,3:3|3:3,0:0:0:0:
0,144,16286,5,4,3:1:0:0:
21,54,16556,1,8,1:1:0:0:
107,28,16826,1,0,3:3:0:0:
174,89,17097,1,8,1:1:0:0:
153,178,17367,1,0,1:1:0:0:
66,205,17637,1,0,1:1:0:0:
0,144,17907,5,0,1:1:0:0:
0,144,18448,6,0,L|12:280,1,130,4|8,3:1|1:1,0:0:0:0:
92,358,18988,2,0,P|145:374|228:331,1,130,0|8,3:3|1:1,0:0:0:0:
320,302,19529,2,0,L|308:172,1,130,0|8,3:3|1:1,0:0:0:0:
295,56,20069,1,0,3:3:0:0:
80,40,20610,6,0,P|32:140|40:292,1,260,4|0,3:1|3:3,0:0:0:0:
432,344,21691,2,0,P|480:244|472:92,2,260,4|4|4,3:1|3:1|3:1,0:0:0:0:
340,356,23042,5,8,1:1:0:0:
352,264,23313,2,0,P|368:200|352:116,1,130,0|8,3:3|1:1,0:0:0:0:
256,88,23853,2,0,L|256:232,1,130,0|8,3:3|1:1,0:0:0:0:
160,264,24394,1,0,3:3:0:0:
0,56,24934,6,0,B|76:28|76:28|84:120|84:120|172:80,1,260,4|0,3:1|3:3,0:0:0:0:
256,280,26015,2,0,L|256:80,2,195,4|0|0,3:1|3:3|3:3,0:0:0:0:
184,372,27097,5,4,3:1:0:0:
356,192,27637,1,8,1:1:0:0:
328,372,28178,1,0,3:3:0:0:
156,192,28718,1,8,1:1:0:0:
332,36,29259,6,0,P|408:36|488:192,2,260,0|8|0,3:3|1:1|1:1,0:0:0:0:
180,348,31421,2,0,P|104:348|24:192,2,260,4|8|0,3:1|1:1|3:3,0:0:0:0:
256,128,33042,1,8,1:1:0:0:
200,220,35745,6,0,L|200:376,1,130,4|8,3:1|1:1,0:0:0:0:
312,350,36286,2,0,L|312:220,1,130,0|8,3:3|1:1,0:0:0:0:
384,132,36826,6,0,P|358:61|127:132,1,390,0|8,3:3|1:1,0:0:0:0:
128,248,37907,2,0,P|153:318|384:248,1,390,0|0,3:3|1:1,0:0:0:0:
321,148,38988,6,0,L|173:148,1,130,4|8,1:1|1:1,0:0:0:0:
191,30,39529,2,0,L|321:30,2,130,0|8|0,3:3|1:1|3:3,0:0:0:0:
190,29,41151,6,0,P|208:92|196:160,1,130,0|8,3:3|1:1,0:0:0:0:
314,155,41691,2,0,P|303:92|321:29,1,130,0|8,3:3|1:1,0:0:0:0:
436,52,42232,2,0,P|492:108|484:232,2,195,0|0|8,3:3|1:1|1:1,0:0:0:0:
320,30,43313,6,0,P|303:92|314:155,1,130,4|8,3:1|1:1,0:0:0:0:
197,155,43853,2,0,P|208:92|190:29,1,130,0|8,3:3|1:1,0:0:0:0:
76,52,44394,2,0,P|20:108|28:232,2,195,0|0|8,3:3|1:1|1:1,0:0:0:0:
191,30,45475,6,0,P|208:92|197:155,1,130,0|8,3:3|1:1,0:0:0:0:
168,268,46015,1,0,3:3:0:0:
256,344,46286,1,8,1:1:0:0:
344,268,46556,2,0,P|368:164|344:72,2,195,0|0|8,3:3|1:1|1:1,0:0:0:0:
256,344,47637,6,0,P|192:368|136:64,1,520,4|0,3:1|3:3,0:0:0:0:
192,160,48988,2,0,P|256:176|316:160,1,130,8|0,1:1|3:3,0:0:0:0:
256,60,49529,1,8,1:1:0:0:
395,70,49799,6,0,P|478:285|256:344,1,520,4|8,3:1|3:1,0:0:0:0:
255,226,51151,1,0,0:0:0:0:
255,109,51421,1,8,3:1:0:0:
256,344,51961,6,0,P|184:380|40:172,1,390,4|8,3:1|1:1,0:0:0:0:
116,92,53042,2,0,P|144:148|128:240,1,130,0|0,3:3|0:0,0:0:0:0:
256,244,53583,2,0,L|256:108,1,130,0|8,3:3|1:1,0:0:0:0:
364,68,54124,6,0,P|408:192|376:336,1,260,4|0,3:1|3:3,0:0:0:0:
125,315,55205,2,0,P|104:188|124:124,2,195,8|8|0,3:1|3:1|1:1,0:0:0:0:
256,364,56286,1,4,3:1:0:0:
320,139,56826,6,0,L|172:139,1,130,8|0,1:1|0:0,0:0:0:0:
76,108,57367,2,0,P|48:192|156:304,1,260,4|0,3:1|3:3,0:0:0:0:
256,244,58178,1,8,1:1:0:0:
356,303,58448,6,0,P|455:230|436:108,2,260,4|0|0,3:1|3:3|3:3,0:0:0:0:
128,364,60069,1,0,3:3:0:0:
108,248,60339,1,8,3:1:0:0:
88,132,60610,6,0,P|108:72|288:32,1,260,4|0,1:1|3:3,0:0:0:0:
424,252,61691,2,0,P|404:312|224:352,1,260,4|0,1:1|3:3,0:0:0:0:
256,244,62502,1,8,1:1:0:0:
280,128,62772,6,0,P|328:60|504:48,2,260,4|4|4,3:1|3:1|3:1,0:0:0:0:
256,244,64124,1,12,3:1:0:0:
231,356,64394,1,4,3:1:0:0:
16,176,64934,6,0,P|56:48|200:40,1,260,4|0,3:1|3:3,0:0:0:0:
256,104,65745,1,8,1:1:0:0:
168,180,66015,2,0,P|144:232|164:320,1,130,0|8,3:3|1:1,0:0:0:0:
256,360,66556,2,0,L|400:360,1,130,0|8,3:3|1:1,0:0:0:0:
468,276,67097,6,0,P|428:148|284:140,1,260,0|0,3:3|3:3,0:0:0:0:
256,228,67908,1,8,1:1:0:0:
196,125,68178,2,0,P|172:73|192:-15,1,130,0|8,3:3|1:1,0:0:0:0:
330,2,68718,2,0,P|341:65|316:125,1,130,0|8,3:3|1:1,0:0:0:0:
256,228,69259,6,0,P|320:240|440:96,1,260,4|0,3:1|3:3,0:0:0:0:
196,125,70340,2,0,P|144:216|188:373,1,260,0|0,3:3|3:3,0:0:0:0:
256,272,71151,1,8,1:1:0:0:
334,360,71421,2,0,P|371:239|316:125,2,260,0|0|0,3:3|3:3|3:3,0:0:0:0:
96,376,73042,1,0,3:3:0:0:
72,264,73313,1,8,3:1:0:0:
52,148,73583,6,0,P|65:43|206:32,1,260,4|0,3:1|3:3,0:0:0:0:
460,148,74664,2,0,P|447:43|306:32,1,260,0|0,3:3|3:3,0:0:0:0:
460,236,75745,2,0,P|434:353|313:357,1,260,0|0,3:3|3:3,0:0:0:0:
198,145,76826,2,0,P|256:120|315:142,1,130,0|8,3:3|1:1,0:0:0:0:
315,258,77367,2,0,P|255:280|197:255,1,130,0|8,3:3|1:1,0:0:0:0:
78,236,77907,6,0,P|42:116|117:16,1,260,4|0,3:1|3:3,0:0:0:0:
394,16,78988,2,0,P|469:116|433:236,1,260,0|0,3:3|3:3,0:0:0:0:
464,336,79799,1,8,1:1:0:0:
344,328,80069,6,0,P|248:296|216:120,1,260,0|0,3:3|3:3,0:0:0:0:
256,48,80880,1,8,1:1:0:0:
311,154,81151,2,0,P|283:277|168:328,2,260,0|0|4,3:3|3:3|3:1,0:0:0:0:
256,48,82502,5,8,1:1:0:0:
201,154,82772,2,0,P|136:160|80:104,1,130,0|8,3:3|1:1,0:0:0:0:
40,224,83313,2,0,L|48:360,2,130,0|8|0,3:3|1:1|3:3,0:0:0:0:
176,32,84394,5,0,3:3:0:0:
256,252,84934,1,0,3:3:0:0:
336,32,85475,1,0,1:1:0:0:
336,32,86556,6,0,L|468:20,1,130,4|8,3:1|3:1,0:0:0:0:
500,132,87097,2,0,L|371:143,1,130,0|8,3:3|1:1,0:0:0:0:
256,120,87637,2,0,P|186:134|175:311,1,260,0|0,3:3|3:3,0:0:0:0:
256,364,88448,1,8,1:1:0:0:
353,296,88718,6,0,P|366:175|256:120,1,260,0|0,3:3|3:3,0:0:0:0:
164,192,89529,1,8,1:1:0:0:
256,263,89799,2,0,P|366:208|353:87,1,260,0|0,3:3|3:3,0:0:0:0:
256,16,90610,1,8,3:1:0:0:
144,48,90880,5,4,3:1:0:0:
112,304,91421,1,0,3:3:0:0:
368,336,91961,1,0,3:3:0:0:
400,80,92502,1,0,3:3:0:0:
144,48,93042,6,0,L|4:48,1,130,0|8,3:3|1:1,0:0:0:0:
28,164,93583,2,0,L|158:164,1,130,0|8,3:3|1:1,0:0:0:0:
256,96,94124,2,0,P|406:105|256:288,1,520,0|4,3:3|3:1,0:0:0:0:
32,192,95745,5,8,1:1:0:0:
256,48,96286,1,0,3:3:0:0:
480,192,96826,1,8,1:1:0:0:
256,336,97367,6,0,P|204:352|60:224,2,260,4|0|0,3:1|3:3|3:3,0:0:0:0:
316,236,98718,1,8,1:1:0:0:
196,236,98988,1,0,3:3:0:0:
308,32,99529,6,0,P|400:40|488:200,1,260,4|8,3:1|1:1,0:0:0:0:
204,32,100610,2,0,P|112:40|24:200,1,260,0|8,3:3|3:1,0:0:0:0:
16,288,101421,1,0,3:3:0:0:
124,332,101691,6,0,L|392:332,2,260,4|0|0,3:1|3:3|3:3,0:0:0:0:
256,120,103313,1,0,3:3:0:0:
204,348,103853,6,0,P|180:288|196:224,1,130,4|8,3:1|1:1,0:0:0:0:
317,226,104394,2,0,P|331:288|308:348,1,130,0|8,3:3|1:1,0:0:0:0:
424,348,104934,2,0,P|468:224|428:76,1,260,0|0,3:3|3:3,0:0:0:0:
352,28,105745,1,8,1:1:0:0:
256,96,106015,6,0,P|144:120|24:40,2,260,0|0|0,3:3|3:3|3:3,0:0:0:0:
352,28,107367,1,8,3:1:0:0:
380,140,107637,1,0,3:3:0:0:
256,340,108178,6,0,L|116:356,1,130,4|8,3:1|1:1,0:0:0:0:
12,324,108718,2,0,L|0:56,1,260,0|0,3:3|3:3,0:0:0:0:
108,12,109529,1,8,1:1:0:0:
115,128,109799,2,0,L|125:306,1,130,0|8,3:3|1:1,0:0:0:0:
198,348,110340,6,0,P|258:377|400:276,2,260,0|0|0,3:3|3:3|3:3,0:0:0:0:
340,164,111961,2,0,L|472:176,1,130,0|8,3:3|3:1,0:0:0:0:
504,64,112502,5,0,3:3:0:0:
272,40,113042,1,8,1:1:0:0:
336,264,113583,1,0,3:3:0:0:
104,240,114123,1,8,1:1:0:0:
312,132,114664,5,0,3:3:0:0:
256,360,115205,1,8,1:1:0:0:
200,132,115745,1,0,3:3:0:0:
344,316,116286,2,0,P|408:332|476:316,1,130,8|0,1:1|0:0,0:0:0:0:
484,204,116826,6,0,P|480:80|368:16,1,260,4|0,3:1|3:3,0:0:0:0:
256,36,117637,1,8,1:1:0:0:
332,128,117907,2,0,P|348:192|324:252,1,130,0|8,3:3|1:1,0:0:0:0:
187,249,118448,2,0,P|164:189|180:128,1,130,0|8,3:3|1:1,0:0:0:0:
256,196,118988,6,0,L|256:336,1,130,0|8,3:3|1:1,0:0:0:0:
148,368,119529,2,0,L|8:360,1,130,0|8,3:3|1:1,0:0:0:0:
24,244,120069,2,0,P|12:192|172:96,1,260,0|0,3:3|1:1,0:0:0:0:
157,89,121151,6,0,P|184:156|112:352,1,260,4|0,3:1|3:3,0:0:0:0:
256,372,121961,1,8,1:1:0:0:
377,329,122232,2,0,P|325:213|355:89,1,260,0|0,3:3|3:3,0:0:0:0:
472,72,123042,1,8,1:1:0:0:
452,188,123313,6,0,L|300:188,1,130,0|8,3:3|1:1,0:0:0:0:
208,160,123853,2,0,B|216:224|216:224|184:312,1,130,0|8,3:3|1:1,0:0:0:0:
88,352,124394,2,0,P|24:296|36:120,1,260,0|0,3:3|3:3,0:0:0:0:
88,32,125205,1,8,3:1:0:0:
164,120,125475,6,0,P|228:136|296:108,1,130,4|8,3:1|1:1,0:0:0:0:
380,44,126015,2,0,P|424:152|408:296,1,260,0|0,3:3|3:3,0:0:0:0:
320,368,126826,1,8,1:1:0:0:
256,272,127097,1,0,3:3:0:0:
192,368,127367,1,8,1:1:0:0:
103,291,127637,6,0,P|84:240|100:152,1,130,0|8,3:3|1:1,0:0:0:0:
68,52,128178,2,0,L|216:64,1,130,0|8,3:3|1:1,0:0:0:0:
314,62,128718,1,0,3:3:0:0:
316,180,128988,1,8,1:1:0:0:
196,180,129259,1,0,3:3:0:0:
500,352,130069,6,0,L|488:216,1,130,12|0,1:1|3:3,0:0:0:0:
480,104,130610,1,8,1:1:0:0:
396,184,130880,2,0,P|352:228|296:200,1,130,0|8,3:3|1:1,0:0:0:0:
300,84,131421,2,0,P|232:48|40:80,1,260,0|4,3:3|3:1,0:0:0:0:
8,176,132232,5,8,1:1:0:0:
120,136,132502,2,0,P|164:128|252:160,1,130,0|8,3:3|1:1,0:0:0:0:
256,268,133042,1,0,3:3:0:0:
164,340,133313,1,8,1:1:0:0:
52,308,133583,1,0,3:3:0:0:
312,176,134124,6,0,B|328:120|328:120|312:36,1,130,4|8,3:1|3:1,0:0:0:0:
198,49,134664,2,0,B|184:120|184:120|200:176,1,130,0|8,3:3|3:1,0:0:0:0:
312,176,135205,6,0,L|444:180,1,130,4|8,3:1|3:1,0:0:0:0:
484,72,135745,2,0,L|355:68,1,130,0|8,3:3|3:1,0:0:0:0:
256,192,136286,12,4,138448,1:1:0:0:
