osu file format v14

[General]
AudioFilename: audio.mp3
AudioLeadIn: 0
PreviewTime: 57367
Countdown: 0
SampleSet: Normal
StackLeniency: 0.4
Mode: 0
LetterboxInBreaks: 0
WidescreenStoryboard: 1

[Editor]
Bookmarks: 9787,18436,27085,35733,44394,90868,112502,121139,138436
DistanceSpacing: 1
BeatDivisor: 1
GridSize: 8
TimelineZoom: 0.7999989

[Metadata]
Title:Reso*nyan*ce Fever
TitleUnicode:Reso*nyan*ce Fever
Artist:katagiri
ArtistUnicode:かたぎり
Creator:Snow Note
Version:Beginner
Source:
Tags:7odoa pw384 RLC kundi Kuki1537 bms of fighters ultimate BOFU2016 legendary again DANCECORE resonyance resonance xlni 384059043 Kuki edm hardcore mashcore hard core dance music 2016 Just Do It Shia LaBeouf Коробе́йники tetris KBC keyboard crasher キーボードクラッシャー スーパーマリオ Super Mario RPG Legend of the Seven Stars 森のキノコにご用心 forest maze 下村陽子 Yoko Shimomura サンドキャニオン 砂漠ステージ Sand Canyon Map Jun 石川淳 Ishikawa 星のカービィ3 Kirby's Dream Land 3 任天堂 nintento 侵略!イカ娘 shinryaku! ika musume invasion! squid girl Syamu Gimme Nightcore ABBA electronic instrumental japanese なまる ピ
BeatmapID:3005310
BeatmapSetID:779061

[Difficulty]
HPDrainRate:3
CircleSize:2.8
OverallDifficulty:2
ApproachRate:3
SliderMultiplier:0.6
SliderTickRate:1

[Events]
//Background and Video events
0,0,"BG.jpg",0,0
//Break Periods
//Storyboard Layer 0 (Background)
//Storyboard Layer 1 (Fail)
//Storyboard Layer 2 (Pass)
//Storyboard Layer 3 (Foreground)
//Storyboard Layer 4 (Overlay)
//Storyboard Sound Samples

[TimingPoints]
70,270.27027027027,4,2,1,80,1,0
9799,-100,4,2,1,80,0,1
18448,-100,4,2,1,80,0,0
33549,-100,4,2,1,5,0,0
35475,-100,4,2,1,80,0,0
47637,-100,4,2,1,80,0,1
56286,-100,4,2,1,80,0,0
82232,-100,4,2,1,80,0,1
85475,-100,4,2,1,80,0,0
86556,-100,4,2,1,80,0,1
90880,-100,4,2,1,80,0,0
103853,-100,4,2,1,80,0,1
112772,-100,4,2,1,80,0,0
116826,-100,4,2,1,80,0,1
120610,-100,4,2,1,80,0,0
134124,-100,4,2,1,80,0,1
138448,-100,4,2,1,80,0,0

[Colours]
Combo1 : 0,128,0
Combo2 : 255,0,0
Combo3 : 246,246,246
Combo4 : 255,255,0

[HitObjects]
148,61,1151,6,0,P|256:20|367:62,1,240,4|4,3:1|3:1,0:0:0:0:
364,323,3313,2,0,P|256:364|145:322,1,240,4|0,3:1|1:1,0:0:0:0:
20,116,5475,5,4,3:1:0:0:
256,192,6556,1,4,3:1:0:0:
492,116,7637,1,4,3:1:0:0:
492,116,9799,6,0,P|453:61|293:74,1,240,4|0,3:1|3:3,0:0:0:0:
256,192,11421,1,0,3:3:0:0:
216,311,11961,2,0,P|106:344|20:268,1,240,4|0,3:1|3:3,0:0:0:0:
4,148,13583,1,0,3:3:0:0:
64,44,14124,6,0,P|128:24|200:152,1,240,4|0,3:1|3:3,0:0:0:0:
256,256,15745,1,0,3:3:0:0:
311,150,16286,2,0,P|336:42|448:44,2,240,4|0|4,3:1|1:1|3:1,0:0:0:0:
480,320,19529,6,0,L|348:320,1,120,0|0,3:3|3:3,0:0:0:0:
248,364,20610,2,0,P|228:304|248:244,1,120,4|0,3:1|3:3,0:0:0:0:
268,132,21691,2,0,P|283:75|264:20,2,120,4|4|4,3:1|3:1|3:1,0:0:0:0:
124,324,23853,5,0,3:3:0:0:
388,324,24934,2,0,P|432:204|392:104,1,240,4|4,3:1|3:1,0:0:0:0:
119,104,27097,6,0,P|79:215|124:324,2,240,4|0|0,3:1|3:3|3:3,0:0:0:0:
256,300,30340,1,0,1:1:0:0:
148,84,31421,6,0,P|256:39|364:84,2,240,4|0|0,3:1|3:3|0:0,0:0:0:0:
148,84,35745,6,0,L|140:210,1,120,4|0,3:1|3:3,0:0:0:0:
27,265,36826,2,0,P|176:334|256:192,1,360,0|0,3:3|3:3,0:0:0:0:
256,72,38988,5,4,1:1:0:0:
368,24,39529,1,0,3:3:0:0:
480,64,40069,1,0,3:3:0:0:
256,312,41151,5,0,3:3:0:0:
144,360,41692,1,0,3:3:0:0:
32,320,42232,1,0,3:3:0:0:
256,72,43313,6,0,L|376:72,1,120,4|0,3:1|3:3,0:0:0:0:
376,192,44394,2,0,L|256:192,1,120,0|0,3:3|3:3,0:0:0:0:
135,192,45475,2,0,P|268:302|376:192,1,360,0|0,3:3|3:3,0:0:0:0:
368,72,47637,5,4,3:1:0:0:
256,32,48178,1,0,3:3:0:0:
144,72,48718,1,0,3:3:0:0:
144,312,49799,5,4,3:1:0:0:
256,352,50340,1,0,3:3:0:0:
368,312,50880,1,8,3:1:0:0:
160,184,51961,5,4,3:1:0:0:
88,280,52502,1,0,3:3:0:0:
160,376,53042,1,0,3:3:0:0:
312,192,54124,6,0,P|328:128|312:64,1,120,4|0,3:1|3:3,0:0:0:0:
195,75,55205,2,0,P|184:133|200:191,1,120,8|8,3:1|3:1,0:0:0:0:
256,296,56286,1,4,3:1:0:0:
368,88,57367,5,4,3:1:0:0:
256,40,57907,1,0,3:3:0:0:
144,88,58448,2,0,P|80:144|80:296,2,240,4|0|4,3:1|3:3|1:1,0:0:0:0:
256,296,61691,1,4,1:1:0:0:
312,64,62772,5,4,3:1:0:0:
200,64,63313,1,4,3:1:0:0:
144,152,63853,1,4,3:1:0:0:
256,152,64394,1,4,3:1:0:0:
368,152,64934,6,0,P|414:242|305:291,1,240,4|0,3:1|3:3,0:0:0:0:
256,192,66556,1,0,3:3:0:0:
199,89,67097,2,0,P|100:133|144:232,1,240,0|0,3:3|3:3,0:0:0:0:
256,192,68718,1,0,3:3:0:0:
368,152,69259,6,0,P|414:242|384:376,1,240,4|0,3:1|3:3,0:0:0:0:
125,373,71421,2,0,P|95:259|144:152,1,240,0|0,3:3|3:3,0:0:0:0:
256,136,73042,1,0,3:3:0:0:
256,248,73583,6,0,L|256:368,1,120,4|0,3:1|3:3,0:0:0:0:
368,328,74664,2,0,L|368:208,1,120,0|0,3:3|3:3,0:0:0:0:
480,168,75745,2,0,L|480:288,1,120,0|0,3:3|3:3,0:0:0:0:
368,328,76826,5,0,3:3:0:0:
256,280,77367,1,0,3:3:0:0:
144,328,77907,2,0,P|88:304|64:144,2,240,4|0|0,3:1|3:3|3:3,0:0:0:0:
344,192,81151,1,0,3:3:0:0:
256,112,81691,1,0,3:3:0:0:
168,192,82232,6,0,P|152:256|288:360,2,240,4|0|0,3:1|3:3|3:3,0:0:0:0:
256,112,84934,1,0,3:3:0:0:
344,192,85475,1,0,1:1:0:0:
344,192,86556,6,0,L|352:344,1,120,4|0,3:1|3:3,0:0:0:0:
456,256,87637,2,0,L|448:104,1,120,0|0,3:3|3:3,0:0:0:0:
416,24,88718,2,0,B|352:24|352:24|304:72,1,120,0|0,3:3|3:3,0:0:0:0:
199,63,89799,2,0,B|160:24|160:24|96:24,1,120,0|0,3:3|3:3,0:0:0:0:
8,104,90880,6,0,L|8:360,2,240,4|0|0,3:1|3:3|3:3,0:0:0:0:
136,312,94124,1,0,3:3:0:0:
136,192,94664,1,0,3:3:0:0:
136,72,95205,1,4,3:1:0:0:
256,280,96286,5,0,3:3:0:0:
376,72,97367,1,4,3:1:0:0:
376,192,97908,1,0,3:3:0:0:
376,312,98448,2,0,L|120:312,1,240,0|4,3:3|3:1,0:0:0:0:
256,104,100610,1,0,3:3:0:0:
136,312,101691,5,4,3:1:0:0:
256,312,102232,1,0,3:3:0:0:
376,312,102772,2,0,L|376:192,1,120,0|0,3:3|3:3,0:0:0:0:
376,71,103853,6,0,P|307:30|178:100,1,240,4|0,3:1|3:3,0:0:0:0:
256,192,105475,1,0,3:3:0:0:
333,283,106015,2,0,P|243:353|136:313,1,240,0|0,3:3|3:3,0:0:0:0:
112,192,107637,1,0,3:3:0:0:
135,71,108178,6,0,P|243:30|333:100,2,240,4|0|0,3:1|3:3|3:3,0:0:0:0:
256,280,111421,1,0,3:3:0:0:
336,192,111961,1,0,3:3:0:0:
416,280,112502,5,0,3:3:0:0:
168,352,113583,1,0,3:3:0:0:
96,104,114664,1,0,3:3:0:0:
344,32,115745,1,0,3:3:0:0:
280,264,116826,6,0,B|208:264|208:264|176:224,1,120,4|0,3:1|3:3,0:0:0:0:
232,120,117907,2,0,B|304:120|304:120|336:160,1,120,0|0,3:3|3:3,0:0:0:0:
280,264,118988,2,0,B|160:264|160:264|88:168,1,240,0|0,3:3|3:3,0:0:0:0:
304,24,121151,6,0,P|400:24|456:144,1,240,4|0,3:1|3:3,0:0:0:0:
456,261,122772,1,0,3:3:0:0:
344,216,123313,2,0,P|328:160|365:90,2,120,0|0|0,3:3|3:3|3:3,0:0:0:0:
456,261,124934,1,0,3:3:0:0:
368,344,125475,6,0,P|256:380|144:344,1,240,4|0,3:1|3:3,0:0:0:0:
56,261,127097,1,0,3:3:0:0:
168,232,127637,2,0,P|184:184|168:104,1,120,0|0,3:3|3:3,0:0:0:0:
88,32,128718,1,0,3:3:0:0:
256,280,130069,6,0,L|256:376,2,60,12|0|8,1:1|3:3|1:1,0:0:0:0:
256,216,130880,1,0,3:3:0:0:
256,96,131421,1,0,3:3:0:0:
368,56,131961,6,0,L|496:48,1,120,4|0,3:1|3:3,0:0:0:0:
496,168,133042,2,0,L|376:175,1,120,0|0,3:3|3:3,0:0:0:0:
256,192,134124,5,4,3:1:0:0:
168,280,134664,1,0,3:3:0:0:
256,368,135205,1,4,3:1:0:0:
344,280,135745,1,0,3:3:0:0:
256,192,136286,12,4,138448,1:1:0:0:
