osu file format v14

[General]
AudioFilename: audio.mp3
AudioLeadIn: 0
PreviewTime: -1
Countdown: 0
SampleSet: None
StackLeniency: 0.2
Mode: 0
LetterboxInBreaks: 0
WidescreenStoryboard: 1

[Editor]
DistanceSpacing: 0.3
BeatDivisor: 4
GridSize: 32
TimelineZoom: 2.599999

[Metadata]
Title:Reso*nyan*ce Fever
TitleUnicode:Reso*nyan*ce Fever
Artist:katagiri
ArtistUnicode:katagiri
Creator:Lazer
Version:APPREHEND 10
Source:
Tags:
BeatmapID:1924479
BeatmapSetID:911729

[Difficulty]
HPDrainRate:7
CircleSize:4
OverallDifficulty:8
ApproachRate:10
SliderMultiplier:1.8
SliderTickRate:2

[Events]
//Background and Video events
0,0,"c1977efd141ee9768b2a2ee9e9caa372.jpg",0,0
//Break Periods
//Storyboard Layer 0 (Background)
//Storyboard Layer 1 (Fail)
//Storyboard Layer 2 (Pass)
//Storyboard Layer 3 (Foreground)
//Storyboard Sound Samples

[TimingPoints]
-20,270.27027027027,4,1,0,50,1,0
1061,-100,4,1,0,80,0,0
1466,-75.187969924812,4,1,0,80,0,0
2142,-100,4,1,0,80,0,0
3628,-75.187969924812,4,1,0,80,0,0
5385,-83.3333333333333,4,1,0,80,0,0
8628,-83.3333333333333,4,1,0,30,0,0
8898,-83.3333333333333,4,1,0,60,0,0
9169,-83.3333333333333,4,1,0,80,0,0
9371,-100,4,1,0,50,0,0
9574,-125,4,1,0,80,0,0
9709,-83.3333333333333,4,1,0,80,0,0
15115,-66.6666666666667,4,1,0,80,0,0
39979,-100,4,1,0,80,0,0
40250,-142.857142857143,4,1,0,60,0,0
40520,-250,4,1,0,30,0,0
40790,-142.857142857143,4,1,0,60,0,0
41061,-76.9230769230769,4,1,0,80,0,0
47547,-76.9230769230769,4,1,0,80,0,1
54844,-38.4615384615385,4,1,0,80,0,1
55115,-83.3333333333333,4,1,0,80,0,1
56196,-83.3333333333333,4,1,0,80,0,0
57277,-71.4285714285714,4,1,0,80,0,0
61601,-106.382978723404,4,1,0,80,0,0
61871,-47.6190476190476,4,1,0,80,0,0
62142,-71.4285714285714,4,1,0,80,0,0
75520,-71.4285714285714,4,1,0,10,0,0
75655,-71.4285714285714,4,1,0,80,0,0
103763,-71.4285714285714,4,1,0,90,0,1
112412,-71.4285714285714,4,1,0,80,0,0
116736,-71.4285714285714,4,1,0,90,0,1
134034,-71.4285714285714,4,1,0,80,0,0

[HitObjects]
128,320,115,5,0,0:0:0:0:
96,224,250,1,0,0:0:0:0:
160,256,385,1,0,0:0:0:0:
96,192,520,1,0,0:0:0:0:
32,160,655,1,0,0:0:0:0:
193,108,790,1,0,0:0:0:0:
193,108,1061,6,0,P|168:193|195:278,1,180
448,351,1466,2,0,P|473:267|446:182,1,179.549992602768
363,169,1736,1,0,0:0:0:0:
364,150,1804,1,0,0:0:0:0:
366,131,1871,1,0,0:0:0:0:
368,113,1939,1,0,0:0:0:0:
370,94,2007,1,0,0:0:0:0:
304,22,2142,6,0,P|260:14|212:24,1,90
133,58,2412,1,0,0:0:0:0:
54,13,2547,1,0,0:0:0:0:
146,78,2682,1,0,0:0:0:0:
154,98,2749,1,0,0:0:0:0:
157,121,2817,1,0,0:0:0:0:
156,143,2884,1,0,0:0:0:0:
151,165,2952,2,0,P|132:206|92:247,1,90
251,384,3223,6,0,P|225:299|252:214,1,180
512,114,3628,2,0,P|537:198|510:283,1,179.549992602768
435,326,3898,1,0,0:0:0:0:
418,318,3966,1,0,0:0:0:0:
401,310,4034,1,0,0:0:0:0:
385,302,4101,1,0,0:0:0:0:
368,294,4169,1,0,0:0:0:0:
465,210,4304,5,0,0:0:0:0:
384,185,4439,1,0,0:0:0:0:
477,123,4574,1,0,0:0:0:0:
396,98,4709,1,0,0:0:0:0:
489,36,4844,1,0,0:0:0:0:
351,0,4979,1,0,0:0:0:0:
232,81,5115,1,0,0:0:0:0:
246,99,5182,1,0,0:0:0:0:
256,121,5250,1,0,0:0:0:0:
261,144,5317,1,0,0:0:0:0:
261,168,5385,6,0,B|222:181|222:181|150:169,2,107.999996704102
71,383,5790,2,0,P|99:309|92:229,1,161.999995056153
0,203,6061,1,0,0:0:0:0:
6,182,6128,1,0,0:0:0:0:
13,161,6196,1,0,0:0:0:0:
20,140,6263,1,0,0:0:0:0:
27,119,6331,1,0,0:0:0:0:
261,168,6466,5,0,0:0:0:0:
197,294,6601,2,0,P|183:312|168:339,2,53.9999983520508
326,372,6871,1,0,0:0:0:0:
386,247,7007,1,0,0:0:0:0:
401,262,7074,1,0,0:0:0:0:
409,282,7142,1,0,0:0:0:0:
427,271,7209,1,0,0:0:0:0:
446,260,7277,2,0,P|476:257|505:260,1,53.9999983520508
429,183,7412,2,0,P|444:161|456:137,1,53.9999983520508
303,278,7547,6,0,P|315:331|306:384,2,107.999996704102
173,178,7952,2,0,B|66:192,1,107.999996704102
2,272,8155,1,0,0:0:0:0:
6,293,8223,1,0,0:0:0:0:
10,314,8290,1,0,0:0:0:0:
14,335,8358,1,0,0:0:0:0:
256,256,8628,6,0,L|256:206,11,35.9999989013672
320,159,9169,6,0,P|373:152|426:159,1,107.999996704102
330,233,9371,6,0,P|374:227|418:232,1,90
339,306,9574,6,0,P|366:301|393:302,1,54
274,347,9709,6,0,B|175:363|175:363|119:334,1,161.999995056153
0,332,9979,2,0,B|24:290|24:290|34:231,1,107.999996704102
12,350,10250,1,0,0:0:0:0:
24,146,10385,1,0,0:0:0:0:
24,146,10452,1,0,0:0:0:0:
24,146,10520,1,0,0:0:0:0:
260,57,10655,1,0,0:0:0:0:
247,49,10723,1,0,0:0:0:0:
238,37,10790,6,0,B|336:20|336:20|392:49,1,161.999995056153
512,52,11060,2,0,B|488:94|488:94|477:152,1,107.999996704102
422,213,11331,1,0,0:0:0:0:
179,93,11466,1,0,0:0:0:0:
155,70,11534,1,0,0:0:0:0:
161,53,11601,2,0,P|159:25|154:0,5,35.9999989013672
42,171,11871,6,0,P|95:166|160:171,1,107.999996704102
412,22,12142,2,0,P|362:44|318:74,1,107.999996704102
197,233,12412,1,0,0:0:0:0:
197,102,12547,1,0,0:0:0:0:
47,339,12682,2,0,L|176:339,1,107.999996704102
213,378,12885,1,0,0:0:0:0:
298,326,12952,6,0,P|273:278|266:224,1,107.999996704102
21,127,13223,2,0,P|45:174|52:228,1,107.999996704102
34,349,13493,1,0,0:0:0:0:
34,349,13628,1,0,0:0:0:0:
107,110,13763,2,0,P|154:85|208:78,1,107.999996704102
419,203,14034,5,0,0:0:0:0:
410,209,14101,1,0,0:0:0:0:
402,217,14169,1,0,0:0:0:0:
347,153,14304,1,0,0:0:0:0:
503,132,14439,1,0,0:0:0:0:
469,277,14574,1,0,0:0:0:0:
313,298,14709,2,0,L|205:284,2,107.999996704102
370,248,15047,1,0,0:0:0:0:
262,217,15115,6,0,L|278:83,1,135.000005149842
120,247,15385,2,0,L|103:380,1,135.000005149842
12,175,15655,1,0,0:0:0:0:
101,109,15790,1,0,0:0:0:0:
147,92,15858,1,0,0:0:0:0:
194,101,15925,1,0,0:0:0:0:
293,152,16061,1,0,0:0:0:0:
312,297,16196,6,0,L|446:322,1,135.000005149842
151,248,16466,1,0,0:0:0:0:
126,380,16601,1,0,0:0:0:0:
200,87,16736,2,0,L|66:62,1,135.000005149842
361,136,17006,2,0,L|386:2,1,135.000005149842
200,297,17277,6,0,L|66:322,1,135.000005149842
361,248,17547,2,0,L|386:382,1,135.000005149842
312,87,17817,2,0,L|446:62,1,135.000005149842
258,140,18020,1,0,0:0:0:0:
245,136,18087,2,0,L|232:69,1,67.5000025749208
132,12,18223,2,0,L|199:0,1,67.5000025749208
67,82,18358,6,0,P|79:148|67:214,1,135.000005149842
285,306,18628,2,0,L|292:377,2,67.5000025749208
352,250,18830,1,0,0:0:0:0:
352,250,18898,1,0,0:0:0:0:
262,217,19034,1,0,0:0:0:0:
175,336,19169,1,0,0:0:0:0:
175,336,19236,1,0,0:0:0:0:
175,336,19304,1,0,0:0:0:0:
175,336,19371,1,0,0:0:0:0:
175,336,19439,5,0,0:0:0:0:
122,180,19574,1,0,0:0:0:0:
10,346,19709,2,0,B|11:382|43:403|43:403|71:381|70:338,1,135.000005149842
49,114,19979,2,0,L|60:74,4,33.7500012874604
78,113,20182,1,0,0:0:0:0:
118,112,20250,1,0,0:0:0:0:
208,141,20385,1,0,0:0:0:0:
200,352,20520,6,0,L|335:341,1,135.000005149842
361,344,20722,1,0,0:0:0:0:
388,348,20790,1,0,0:0:0:0:
414,352,20857,1,0,0:0:0:0:
441,355,20925,1,0,0:0:0:0:
512,164,21061,6,0,L|377:175,1,135.000005149842
350,171,21263,1,0,0:0:0:0:
323,167,21331,2,0,L|256:156,1,67.5000025749208
150,219,21466,1,0,0:0:0:0:
319,49,21601,5,0,0:0:0:0:
309,285,21736,1,0,0:0:0:0:
203,99,21871,1,0,0:0:0:0:
203,99,22007,1,0,0:0:0:0:
140,233,22142,2,0,L|82:221,4,33.7500012874604
262,195,22412,1,0,0:0:0:0:
249,384,22547,1,0,0:0:0:0:
352,170,22682,6,0,P|345:96|377:35,2,135.000005149842
377,166,23020,1,0,0:0:0:0:
402,163,23088,1,0,0:0:0:0:
246,261,23223,2,0,L|259:109,1,135.000005149842
74,351,23493,6,0,P|41:341|14:321,1,67.5000025749208
180,314,23628,2,0,P|187:346|183:380,1,67.5000025749208
135,218,23763,5,0,0:0:0:0:
130,198,23831,1,0,0:0:0:0:
125,178,23898,1,0,0:0:0:0:
120,158,23966,1,0,0:0:0:0:
140,161,24034,2,0,L|222:168,1,67.5000025749208
281,143,24169,2,0,L|287:76,1,67.5000025749208
147,54,24304,1,0,0:0:0:0:
321,262,24439,2,0,L|464:253,2,135.000005149842
120,358,24844,5,0,0:0:0:0:
125,318,24911,1,0,0:0:0:0:
152,288,24979,1,0,0:0:0:0:
190,277,25046,1,0,0:0:0:0:
228,288,25115,2,0,P|246:324|249:363,1,67.5000025749208
391,358,25250,2,0,P|355:340|316:337,1,67.5000025749208
148,215,25385,5,0,0:0:0:0:
135,183,25452,1,0,0:0:0:0:
132,150,25520,1,0,0:0:0:0:
141,117,25587,1,0,0:0:0:0:
159,89,25655,1,0,0:0:0:0:
186,68,25722,1,0,0:0:0:0:
217,57,25790,1,0,0:0:0:0:
251,56,25857,1,0,0:0:0:0:
283,66,25925,5,0,0:0:0:0:
446,16,26061,1,0,0:0:0:0:
446,16,26331,1,0,0:0:0:0:
325,197,26601,1,0,0:0:0:0:
345,193,26669,1,0,0:0:0:0:
364,189,26736,1,0,0:0:0:0:
384,185,26804,1,0,0:0:0:0:
402,182,26871,1,0,0:0:0:0:
422,178,26939,1,0,0:0:0:0:
424,198,27007,6,0,B|412:240|412:240|419:330,1,135.000005149842
219,239,27277,2,0,B|231:197|231:197|223:106,1,135.000005149842
47,134,27547,1,0,0:0:0:0:
67,136,27614,1,0,0:0:0:0:
87,139,27682,1,0,0:0:0:0:
107,141,27749,1,0,0:0:0:0:
127,144,27817,1,0,0:0:0:0:
311,76,27952,1,0,0:0:0:0:
412,64,28088,5,0,0:0:0:0:
176,38,28223,2,0,L|30:57,1,135.000005149842
232,95,28493,1,0,0:0:0:0:
353,168,28628,2,0,L|386:163,4,33.7500012874604
159,216,28898,2,0,L|82:226,3,67.5000025749208
230,317,29169,6,0,B|272:344|272:344|380:344,1,135.000005149842
369,360,29371,1,0,0:0:0:0:
380,376,29439,1,0,0:0:0:0:
381,218,29574,2,0,B|408:176|408:176|408:68,2,135.000005149842
353,32,29979,2,0,L|287:54,1,67.5000025749208
246,119,30115,2,0,L|268:185,1,67.5000025749208
26,81,30250,5,0,0:0:0:0:
288,320,31331,5,0,0:0:0:0:
480,256,31466,1,0,0:0:0:0:
480,256,31534,1,0,0:0:0:0:
480,256,31601,2,0,P|492:185|469:109,1,135.000005149842
257,7,31871,2,0,P|245:78|268:154,1,135.000005149842
390,136,32142,1,0,0:0:0:0:
383,124,32209,1,0,0:0:0:0:
376,112,32277,1,0,0:0:0:0:
85,74,32412,5,0,0:0:0:0:
120,234,32547,1,0,0:0:0:0:
152,155,32682,1,0,0:0:0:0:
225,111,32817,1,0,0:0:0:0:
12,196,32952,1,0,0:0:0:0:
190,289,33088,2,0,L|327:277,2,135.000005149842
183,36,35655,6,0,P|181:72|194:113,1,67.5000025749208
117,190,35790,2,0,L|251:183,1,135.000005149842
350,227,35993,1,0,0:0:0:0:
359,203,36061,1,0,0:0:0:0:
371,215,36128,1,0,0:0:0:0:
383,227,36196,1,0,0:0:0:0:
432,0,36331,1,0,0:0:0:0:
270,57,36466,1,0,0:0:0:0:
236,55,36533,1,0,0:0:0:0:
202,53,36601,1,0,0:0:0:0:
168,51,36668,1,0,0:0:0:0:
135,50,36736,6,0,B|80:48|80:48|21:101,1,135.000005149842
86,325,37007,1,0,0:0:0:0:
142,262,37142,2,0,B|144:206|144:206|90:147,1,135.000005149842
238,0,37412,1,0,0:0:0:0:
182,63,37547,2,0,B|179:118|179:118|233:177,1,135.000005149842
271,299,37817,5,0,0:0:0:0:
297,298,37884,1,0,0:0:0:0:
324,297,37952,1,0,0:0:0:0:
351,296,38019,1,0,0:0:0:0:
378,295,38087,1,0,0:0:0:0:
458,311,38223,1,0,0:0:0:0:
291,142,38358,1,0,0:0:0:0:
333,223,38493,1,0,0:0:0:0:
392,0,38628,1,0,0:0:0:0:
482,120,38763,1,0,0:0:0:0:
451,129,38830,1,0,0:0:0:0:
419,137,38898,6,0,B|372:146|372:146|288:111,1,135.000005149842
307,350,39169,2,0,B|341:269|341:269|332:222,1,135.000005149842
271,13,39439,1,0,0:0:0:0:
269,105,39574,1,0,0:0:0:0:
249,98,39642,1,0,0:0:0:0:
230,90,39709,2,0,L|162:107,1,67.5000025749208
322,242,39844,1,0,0:0:0:0:
342,249,39912,1,0,0:0:0:0:
361,257,39979,6,0,L|448:235,1,90
338,344,40250,2,0,L|284:312,1,62.9999980773926
191,297,40520,2,0,L|203:345,1,36
78,384,40790,2,0,L|111:328,1,62.9999980773926
63,133,41061,6,0,P|58:195|74:281,1,116.999994644165
226,362,41331,1,0,0:0:0:0:
166,201,41466,1,0,0:0:0:0:
177,210,41534,2,0,P|234:197|292:187,1,116.999994644165
368,170,41736,1,0,0:0:0:0:
310,114,41871,2,0,L|317:42,1,58.4999973220826
388,92,42007,1,0,0:0:0:0:
459,171,42142,6,0,P|446:228|448:287,1,116.999994644165
239,200,42412,1,0,0:0:0:0:
194,129,42547,2,0,P|206:72|205:13,2,116.999994644165
211,126,42885,1,0,0:0:0:0:
228,124,42952,1,0,0:0:0:0:
49,64,43088,1,0,0:0:0:0:
79,236,43223,6,0,P|96:170|107:115,1,116.999994644165
320,41,43493,2,0,L|406:149,1,116.999994644165
246,285,43763,1,0,0:0:0:0:
268,279,43830,1,0,0:0:0:0:
292,277,43898,1,0,0:0:0:0:
315,276,43965,1,0,0:0:0:0:
338,278,44033,1,0,0:0:0:0:
388,352,44169,1,0,0:0:0:0:
476,292,44304,5,0,0:0:0:0:
475,280,44371,1,0,0:0:0:0:
475,268,44439,1,0,0:0:0:0:
474,256,44506,1,0,0:0:0:0:
474,245,44574,1,0,0:0:0:0:
381,160,44709,5,0,0:0:0:0:
381,171,44776,1,0,0:0:0:0:
381,183,44844,1,0,0:0:0:0:
382,195,44911,1,0,0:0:0:0:
382,206,44979,1,0,0:0:0:0:
399,202,45047,1,0,0:0:0:0:
416,198,45115,2,0,L|416:69,1,116.999994644165
318,35,45317,1,0,0:0:0:0:
271,100,45385,6,0,P|282:166|258:217,1,116.999994644165
175,356,45655,2,0,L|43:343,1,116.999994644165
0,227,45925,2,0,B|31:179|31:179|164:193,1,175.499991966248
159,206,46196,2,0,L|217:200,1,58.4999973220826
87,101,46331,2,0,L|28:95,1,58.4999973220826
228,102,46466,6,0,L|236:73,2,29.2499986610413
301,36,46601,1,0,0:0:0:0:
307,126,46736,1,0,0:0:0:0:
323,132,46804,1,0,0:0:0:0:
339,138,46871,2,0,L|397:131,1,58.4999973220826
493,89,47007,2,0,L|498:60,6,29.2499986610413
467,80,47277,5,0,0:0:0:0:
511,239,47412,1,0,0:0:0:0:
306,376,47547,6,0,B|300:294|300:294|326:242,1,116.999994644165
332,267,47750,1,0,0:0:0:0:
348,271,47817,1,0,0:0:0:0:
202,344,47952,1,0,0:0:0:0:
122,321,48088,1,0,0:0:0:0:
42,298,48223,1,0,0:0:0:0:
42,298,48290,1,0,0:0:0:0:
42,298,48358,1,0,0:0:0:0:
69,384,48494,1,0,0:0:0:0:
65,219,48629,5,0,0:0:0:0:
251,341,48763,1,0,0:0:0:0:
278,351,48830,1,0,0:0:0:0:
307,354,48898,2,0,L|372:345,2,58.4999973220826
176,252,49169,1,0,0:0:0:0:
326,121,49304,1,0,0:0:0:0:
298,110,49371,1,0,0:0:0:0:
269,107,49439,2,0,L|204:116,1,58.4999973220826
298,219,49574,2,0,L|307:283,1,58.4999973220826
441,186,49709,6,0,P|439:116|361:41,1,175.499991966248
336,31,49979,1,0,0:0:0:0:
195,43,50115,1,0,0:0:0:0:
127,89,50250,1,0,0:0:0:0:
14,68,50385,1,0,0:0:0:0:
14,68,50452,1,0,0:0:0:0:
14,68,50520,1,0,0:0:0:0:
60,135,50655,1,0,0:0:0:0:
106,203,50790,5,0,0:0:0:0:
135,0,50993,1,0,0:0:0:0:
363,362,51196,1,0,0:0:0:0:
477,203,51331,1,0,0:0:0:0:
420,0,51736,1,0,0:0:0:0:
420,0,51804,1,0,0:0:0:0:
420,0,51871,6,0,B|462:22|462:22|458:94,1,116.999994644165
472,101,52074,1,0,0:0:0:0:
486,111,52142,1,0,0:0:0:0:
354,335,52277,1,0,0:0:0:0:
294,214,52412,1,0,0:0:0:0:
277,215,52480,1,0,0:0:0:0:
260,216,52547,2,0,B|218:194|218:194|222:122,1,116.999994644165
80,129,52818,1,0,0:0:0:0:
142,185,52953,5,0,0:0:0:0:
277,64,53088,2,0,L|272:-10,2,58.4999973220826
380,353,53358,1,0,0:0:0:0:
380,353,53425,1,0,0:0:0:0:
380,353,53493,1,0,0:0:0:0:
132,214,53628,2,0,L|65:246,2,58.4999973220826
181,325,53898,1,0,0:0:0:0:
431,246,54034,5,0,0:0:0:0:
417,234,54101,1,0,0:0:0:0:
398,234,54169,1,0,0:0:0:0:
380,230,54236,1,0,0:0:0:0:
365,222,54304,2,0,B|346:170|346:170|377:108,1,116.999994644165
283,276,54574,5,0,0:0:0:0:
291,297,54641,1,0,0:0:0:0:
299,319,54709,1,0,0:0:0:0:
295,341,54776,1,0,0:0:0:0:
284,362,54844,2,0,B|228:362|228:362|180:311,1,116.999994644165
158,249,54979,2,0,B|158:304|158:304|142:376,1,116.999994644165
21,182,55115,6,0,L|190:163,2,161.999995056153
240,113,55655,1,0,0:0:0:0:
299,187,55790,1,0,0:0:0:0:
299,187,55858,1,0,0:0:0:0:
299,187,55925,1,0,0:0:0:0:
436,172,56061,1,0,0:0:0:0:
313,6,56196,5,0,0:0:0:0:
240,113,56466,1,0,0:0:0:0:
299,187,56601,1,0,0:0:0:0:
299,187,56736,1,0,0:0:0:0:
274,364,56939,1,0,0:0:0:0:
313,6,57142,5,0,0:0:0:0:
297,9,57209,1,0,0:0:0:0:
281,12,57277,2,0,L|135:10,1,125.999996154785
357,246,57547,2,0,P|380:186|431:120,1,125.999996154785
196,91,57817,1,0,0:0:0:0:
175,88,57884,1,0,0:0:0:0:
158,92,57952,1,0,0:0:0:0:
142,101,58019,1,0,0:0:0:0:
129,115,58087,1,0,0:0:0:0:
120,132,58154,1,0,0:0:0:0:
118,149,58222,1,0,0:0:0:0:
121,169,58289,1,0,0:0:0:0:
130,186,58358,6,0,L|119:326,1,125.999996154785
262,66,58628,2,0,L|122:55,1,125.999996154785
123,42,58831,1,0,0:0:0:0:
105,47,58898,1,0,0:0:0:0:
283,175,59034,1,0,0:0:0:0:
382,198,59169,1,0,0:0:0:0:
383,172,59236,1,0,0:0:0:0:
385,147,59304,1,0,0:0:0:0:
282,51,59439,1,0,0:0:0:0:
464,125,59574,5,0,0:0:0:0:
262,159,59709,2,0,P|236:159|188:165,2,62.9999980773926
441,270,59979,1,0,0:0:0:0:
438,282,60046,1,0,0:0:0:0:
435,294,60114,1,0,0:0:0:0:
432,306,60181,1,0,0:0:0:0:
430,319,60250,2,0,L|441:382,1,62.9999980773926
290,286,60385,2,0,L|353:275,1,62.9999980773926
224,111,60520,6,0,P|88:122|29:164,1,188.999994232178
0,200,60790,2,0,P|29:133|26:74,1,125.999996154785
84,28,61061,1,0,0:0:0:0:
122,31,61128,1,0,0:0:0:0:
159,32,61196,1,0,0:0:0:0:
197,35,61263,1,0,0:0:0:0:
232,14,61331,1,0,0:0:0:0:
270,17,61398,1,0,0:0:0:0:
307,18,61466,1,0,0:0:0:0:
345,21,61533,1,0,0:0:0:0:
434,34,61601,6,0,P|405:101|408:160,1,126.89999806366
335,187,61871,2,0,P|471:176|530:134,1,188.999994232178
492,116,62142,5,0,0:0:0:0:
463,276,62277,1,0,0:0:0:0:
232,168,62412,1,0,0:0:0:0:
228,124,62479,1,0,0:0:0:0:
251,86,62547,1,0,0:0:0:0:
132,67,62682,5,0,0:0:0:0:
45,84,62817,1,0,0:0:0:0:
8,164,62952,1,0,0:0:0:0:
35,197,63020,1,0,0:0:0:0:
44,245,63088,1,0,0:0:0:0:
74,236,63155,1,0,0:0:0:0:
105,238,63223,2,0,L|231:269,1,125.999996154785
319,121,63493,1,0,0:0:0:0:
288,128,63560,1,0,0:0:0:0:
257,135,63628,1,0,0:0:0:0:
227,143,63695,1,0,0:0:0:0:
196,150,63763,6,0,L|321:180,1,125.999996154785
402,150,64034,1,0,0:0:0:0:
485,121,64169,1,0,0:0:0:0:
398,291,64304,1,0,0:0:0:0:
283,325,64439,1,0,0:0:0:0:
284,78,64574,2,0,P|336:27|426:111,1,188.999994232178
359,364,64844,6,0,P|297:350|234:348,1,125.999996154785
0,220,65115,2,0,P|61:233|124:235,1,125.999996154785
332,25,65385,2,0,P|318:86|316:149,1,125.999996154785
62,157,65655,2,0,P|75:95|77:32,1,125.999996154785
428,88,65925,6,0,P|414:150|412:213,1,125.999996154785
283,384,66196,2,0,P|296:322|298:259,1,125.999996154785
233,18,66466,2,0,P|294:31|343:34,2,62.9999980773926
124,231,66736,2,0,P|62:217|0:215,1,125.999996154785
359,312,67007,6,0,P|438:289|468:245,1,125.999996154785
498,69,67277,2,0,P|419:92|389:136,1,125.999996154785
203,130,67547,1,0,0:0:0:0:
202,155,67614,1,0,0:0:0:0:
208,179,67682,1,0,0:0:0:0:
220,201,67749,1,0,0:0:0:0:
237,220,67817,2,0,B|270:241|270:241|357:241,1,125.999996154785
81,38,68088,5,0,0:0:0:0:
16,151,68223,1,0,0:0:0:0:
0,36,68358,1,0,0:0:0:0:
142,150,68493,1,0,0:0:0:0:
56,273,68628,1,0,0:0:0:0:
53,285,68695,1,0,0:0:0:0:
51,297,68763,1,0,0:0:0:0:
50,310,68830,1,0,0:0:0:0:
50,322,68898,2,0,P|48:355|50:384,1,62.9999980773926
204,291,69034,2,0,P|173:288|142:291,1,62.9999980773926
12,206,69169,5,0,0:0:0:0:
101,100,69304,1,0,0:0:0:0:
187,142,69439,1,0,0:0:0:0:
277,108,69574,1,0,0:0:0:0:
140,347,69709,2,0,P|138:278|117:202,2,125.999996154785
500,178,70115,1,0,0:0:0:0:
411,284,70250,5,0,0:0:0:0:
328,176,70385,1,0,0:0:0:0:
216,384,70520,2,0,P|218:314|239:238,1,125.999996154785
264,0,70790,2,0,P|266:63|280:125,1,125.999996154785
141,291,71061,2,0,P|78:292|16:306,1,125.999996154785
258,89,71331,6,0,L|402:94,1,125.999996154785
245,109,71601,1,0,0:0:0:0:
449,65,71736,1,0,0:0:0:0:
406,166,71871,1,0,0:0:0:0:
352,10,72007,1,0,0:0:0:0:
290,234,72142,2,0,L|297:365,1,125.999996154785
23,214,72412,6,0,L|40:282,1,62.9999980773926
107,202,72547,2,0,L|122:140,1,62.9999980773926
188,227,72682,2,0,L|205:295,1,62.9999980773926
272,215,72817,2,0,L|287:153,1,62.9999980773926
353,240,72952,2,0,L|370:308,2,62.9999980773926
395,251,73155,1,0,0:0:0:0:
437,262,73223,1,0,0:0:0:0:
231,359,73358,1,0,0:0:0:0:
231,359,73425,1,0,0:0:0:0:
231,359,73493,6,0,L|79:356,1,125.999996154785
0,253,73763,2,0,L|125:255,1,125.999996154785
430,121,74034,1,0,0:0:0:0:
356,74,74169,2,0,P|335:163|346:206,2,125.999996154785
66,72,74574,6,0,P|141:65|174:27,1,125.999996154785
376,2,74844,2,0,P|383:77|421:110,1,125.999996154785
446,312,75115,2,0,P|371:319|338:357,1,125.999996154785
136,382,75385,2,0,P|122:327|66:347,1,125.999996154785
110,187,75655,5,0,0:0:0:0:
294,277,75790,2,0,L|321:118,1,125.999996154785
261,375,76196,2,0,L|337:347,4,62.9999980773926
34,233,76736,5,0,0:0:0:0:
34,233,76804,1,0,0:0:0:0:
34,233,76871,1,0,0:0:0:0:
190,306,77007,5,0,0:0:0:0:
190,306,77074,1,0,0:0:0:0:
190,306,77142,1,0,0:0:0:0:
75,127,77277,5,0,0:0:0:0:
75,127,77344,1,0,0:0:0:0:
75,127,77412,1,0,0:0:0:0:
276,109,77547,5,0,0:0:0:0:
276,109,77615,1,0,0:0:0:0:
276,109,77682,1,0,0:0:0:0:
335,380,77817,5,0,0:0:0:0:
377,275,77952,1,0,0:0:0:0:
473,214,78088,1,0,0:0:0:0:
473,214,78155,1,0,0:0:0:0:
473,214,78223,1,0,0:0:0:0:
290,298,78358,5,0,0:0:0:0:
248,193,78493,1,0,0:0:0:0:
152,132,78629,1,0,0:0:0:0:
212,62,78763,1,0,0:0:0:0:
80,312,78898,6,0,P|59:252|59:189,1,125.999996154785
309,12,79169,2,0,P|329:71|329:134,1,125.999996154785
329,134,79371,1,0,0:0:0:0:
329,134,79439,1,0,0:0:0:0:
261,196,79574,1,0,0:0:0:0:
340,246,79709,1,0,0:0:0:0:
357,238,79777,1,0,0:0:0:0:
374,231,79844,1,0,0:0:0:0:
391,224,79912,1,0,0:0:0:0:
408,217,79979,6,0,B|460:232|460:232|504:326,1,125.999996154785
270,170,80250,2,0,B|285:118|285:118|379:74,1,125.999996154785
277,184,80520,1,0,0:0:0:0:
272,13,80655,1,0,0:0:0:0:
142,80,80790,1,0,0:0:0:0:
0,41,80925,1,0,0:0:0:0:
43,184,81061,6,0,L|77:332,1,125.999996154785
180,384,81331,2,0,L|208:261,1,125.999996154785
303,261,81601,2,0,L|332:384,1,125.999996154785
406,310,81804,1,0,0:0:0:0:
440,306,81871,2,0,L|469:184,1,125.999996154785
207,176,82142,5,0,0:0:0:0:
161,8,82277,1,0,0:0:0:0:
102,108,82412,1,0,0:0:0:0:
44,40,82547,1,0,0:0:0:0:
275,83,82682,2,0,L|434:116,1,125.999996154785
127,231,82952,2,0,L|95:72,1,125.999996154785
352,280,83223,6,0,L|260:412,1,125.999996154785
210,103,83493,2,0,L|301:-29,1,125.999996154785
435,191,83763,2,0,P|424:223|428:256,3,62.9999980773926
366,173,84034,2,0,P|343:176|313:176,6,31.4999990386963
348,249,84304,6,0,B|367:302|367:302|359:377,1,125.999996154785
458,311,84574,1,0,0:0:0:0:
241,285,84709,1,0,0:0:0:0:
186,126,84844,1,0,0:0:0:0:
403,100,84979,1,0,0:0:0:0:
331,224,85115,1,0,0:0:0:0:
301,15,85250,1,0,0:0:0:0:
455,203,85385,6,0,L|441:331,1,125.999996154785
415,311,85587,1,0,0:0:0:0:
384,315,85655,1,0,0:0:0:0:
363,337,85722,1,0,0:0:0:0:
361,368,85790,1,0,0:0:0:0:
331,378,85857,1,0,0:0:0:0:
300,375,85925,1,0,0:0:0:0:
273,359,85992,1,0,0:0:0:0:
255,334,86060,1,0,0:0:0:0:
249,303,86127,1,0,0:0:0:0:
256,273,86196,2,0,P|254:231|246:206,1,62.9999980773926
342,221,86331,2,0,P|355:180|369:158,1,62.9999980773926
172,318,86466,6,0,L|21:309,1,125.999996154785
144,138,86736,1,0,0:0:0:0:
276,171,86871,1,0,0:0:0:0:
360,126,87007,2,0,L|511:135,1,125.999996154785
388,306,87277,1,0,0:0:0:0:
256,273,87412,1,0,0:0:0:0:
94,174,87547,6,0,L|86:49,2,125.999996154785
209,384,87952,2,0,P|224:322|200:254,1,125.999996154785
117,262,88223,1,0,0:0:0:0:
117,262,88290,1,0,0:0:0:0:
117,262,88358,1,0,0:0:0:0:
36,311,88493,1,0,0:0:0:0:
382,381,88628,5,0,0:0:0:0:
401,275,88763,1,0,0:0:0:0:
487,112,88898,1,0,0:0:0:0:
396,149,89033,1,0,0:0:0:0:
319,86,89169,2,0,B|265:77|265:77|194:38,1,125.999996154785
197,245,89439,2,0,B|251:254|251:254|322:293,1,125.999996154785
82,307,89709,5,0,0:0:0:0:
173,132,89844,1,0,0:0:0:0:
77,181,89979,1,0,0:0:0:0:
169,348,90115,1,0,0:0:0:0:
258,254,90250,1,0,0:0:0:0:
345,343,90385,1,0,0:0:0:0:
405,278,90520,1,0,0:0:0:0:
492,367,90655,1,0,0:0:0:0:
320,204,90790,6,0,P|320:129|307:61,1,125.999996154785
326,59,90993,1,0,0:0:0:0:
368,73,91061,2,0,L|436:65,1,62.9999980773926
460,61,91196,1,0,0:0:0:0:
258,254,91331,2,0,P|258:329|271:397,1,125.999996154785
266,379,91534,1,0,0:0:0:0:
266,379,91602,1,0,0:0:0:0:
172,326,91737,1,0,0:0:0:0:
79,69,91871,6,0,P|161:80|201:57,1,125.999996154785
333,169,92142,2,0,P|251:158|211:181,1,125.999996154785
387,0,92412,2,0,P|376:82|399:122,1,125.999996154785
132,281,92683,2,0,P|143:199|120:159,1,125.999996154785
197,378,92952,5,0,0:0:0:0:
285,370,93088,1,0,0:0:0:0:
285,370,93155,1,0,0:0:0:0:
285,370,93223,1,0,0:0:0:0:
336,298,93358,1,0,0:0:0:0:
423,286,93493,2,0,L|421:160,1,125.999996154785
323,0,93763,2,0,P|343:48|324:125,1,125.999996154785
329,118,93966,1,0,0:0:0:0:
313,128,94034,5,0,0:0:0:0:
113,148,94169,1,0,0:0:0:0:
97,256,94304,1,0,0:0:0:0:
18,103,94439,1,0,0:0:0:0:
171,24,94574,1,0,0:0:0:0:
250,177,94709,1,0,0:0:0:0:
195,374,94844,1,0,0:0:0:0:
455,160,94979,1,0,0:0:0:0:
455,160,95047,1,0,0:0:0:0:
455,160,95115,5,0,0:0:0:0:
362,66,95250,1,0,0:0:0:0:
285,109,95385,2,0,L|302:258,1,125.999996154785
57,224,95655,1,0,0:0:0:0:
57,224,95723,1,0,0:0:0:0:
57,224,95790,1,0,0:0:0:0:
150,318,95925,1,0,0:0:0:0:
209,203,96061,1,0,0:0:0:0:
75,212,96196,6,0,P|61:150|75:89,1,125.999996154785
144,34,96466,2,0,L|274:43,1,125.999996154785
366,128,96736,2,0,P|307:110|247:127,1,125.999996154785
145,255,97007,2,0,P|204:273|265:257,1,125.999996154785
45,233,97209,1,0,0:0:0:0:
23,251,97277,6,0,B|31:196|31:196|20:173|20:173|29:125,1,125.999996154785
2,58,97479,1,0,0:0:0:0:
73,33,97547,2,0,P|135:27|201:43,1,125.999996154785
186,117,97750,1,0,0:0:0:0:
209,47,97817,2,0,P|279:59|360:32,1,125.999996154785
417,26,98088,1,0,0:0:0:0:
493,67,98223,1,0,0:0:0:0:
264,209,98358,5,0,0:0:0:0:
345,243,98493,1,0,0:0:0:0:
299,129,98628,1,0,0:0:0:0:
77,269,98763,1,0,0:0:0:0:
65,268,98830,1,0,0:0:0:0:
44,256,98898,2,0,P|50:222|50:193,1,62.9999980773926
143,191,99034,2,0,P|159:164|179:140,1,62.9999980773926
132,349,99169,1,0,0:0:0:0:
144,350,99236,1,0,0:0:0:0:
157,351,99304,1,0,0:0:0:0:
169,352,99371,1,0,0:0:0:0:
182,353,99439,6,0,L|311:344,1,125.999996154785
383,335,99642,1,0,0:0:0:0:
383,335,99709,1,0,0:0:0:0:
249,263,99844,1,0,0:0:0:0:
408,140,99979,2,0,L|417:266,1,125.999996154785
475,315,100182,1,0,0:0:0:0:
475,315,100249,1,0,0:0:0:0:
327,199,100384,1,0,0:0:0:0:
387,45,100520,6,0,L|477:54,2,62.9999980773926
302,100,100790,1,0,0:0:0:0:
216,46,100925,1,0,0:0:0:0:
216,46,100993,1,0,0:0:0:0:
216,46,101061,2,0,B|71:30,2,125.999996154785
197,74,101398,1,0,0:0:0:0:
197,74,101466,1,0,0:0:0:0:
197,74,101534,1,0,0:0:0:0:
197,74,101601,5,0,0:0:0:0:
460,165,101736,1,0,0:0:0:0:
280,216,101872,1,0,0:0:0:0:
294,0,102006,1,0,0:0:0:0:
368,28,102142,2,0,L|494:41,1,125.999996154785
262,188,102412,2,0,L|136:175,1,125.999996154785
36,169,102682,6,0,L|25:104,1,62.9999980773926
155,254,102817,2,0,L|144:319,1,62.9999980773926
162,340,102952,1,0,0:0:0:0:
193,335,103020,1,0,0:0:0:0:
224,331,103088,1,0,0:0:0:0:
254,326,103155,1,0,0:0:0:0:
285,321,103223,1,0,0:0:0:0:
366,368,103358,1,0,0:0:0:0:
448,105,103493,2,0,P|418:148|350:179,1,125.999996154785
20,60,103763,6,0,P|143:31|197:136,1,251.999992309571
95,128,104101,1,0,0:0:0:0:
95,128,104169,1,0,0:0:0:0:
93,143,104236,1,0,0:0:0:0:
87,157,104304,2,0,B|71:195|71:195|88:292,1,125.999996154785
425,227,104574,2,0,P|404:180|406:90,1,125.999996154785
401,106,104777,1,0,0:0:0:0:
401,106,104844,6,0,B|479:119,2,62.9999980773926
252,34,105115,1,0,0:0:0:0:
352,287,105250,5,0,0:0:0:0:
343,310,105317,1,0,0:0:0:0:
329,331,105385,2,0,L|385:338,1,31.4999990386963
312,350,105452,1,0,0:0:0:0:
292,365,105520,1,0,0:0:0:0:
287,343,105587,1,0,0:0:0:0:
260,326,105655,2,0,L|197:316,1,62.9999980773926
166,231,105790,2,0,L|115:268,1,62.9999980773926
471,313,105925,6,0,P|450:221|482:133,1,188.999994232178
363,196,106196,1,0,0:0:0:0:
337,197,106263,1,0,0:0:0:0:
312,198,106331,1,0,0:0:0:0:
287,199,106398,1,0,0:0:0:0:
262,201,106466,1,0,0:0:0:0:
243,116,106601,1,0,0:0:0:0:
94,240,106736,1,0,0:0:0:0:
114,263,106803,1,0,0:0:0:0:
121,293,106871,1,0,0:0:0:0:
113,323,106938,1,0,0:0:0:0:
91,346,107006,5,0,0:0:0:0:
27,169,107141,1,0,0:0:0:0:
90,20,107277,1,0,0:0:0:0:
154,197,107412,1,0,0:0:0:0:
331,133,107547,1,0,0:0:0:0:
331,133,107817,1,0,0:0:0:0:
328,145,107884,1,0,0:0:0:0:
325,157,107952,1,0,0:0:0:0:
323,169,108019,1,0,0:0:0:0:
320,182,108088,6,0,B|312:234|312:234|328:312,1,125.999996154785
270,376,108358,2,0,P|218:368|140:384,1,125.999996154785
79,321,108628,1,0,0:0:0:0:
89,305,108696,1,0,0:0:0:0:
99,289,108763,1,0,0:0:0:0:
109,273,108831,1,0,0:0:0:0:
119,257,108898,1,0,0:0:0:0:
68,170,109034,1,0,0:0:0:0:
238,296,109169,6,0,P|269:300|300:293,1,62.9999980773926
366,253,109304,2,0,P|399:249|428:250,1,62.9999980773926
195,168,109439,2,0,P|191:199|197:230,1,62.9999980773926
238,296,109574,2,0,P|242:329|240:358,2,62.9999980773926
327,171,109844,1,0,0:0:0:0:
285,79,109979,1,0,0:0:0:0:
505,170,110115,1,0,0:0:0:0:
479,171,110182,1,0,0:0:0:0:
454,172,110250,6,0,L|449:312,1,125.999996154785
210,360,110520,2,0,L|215:220,1,125.999996154785
137,216,110723,1,0,0:0:0:0:
127,200,110790,1,0,0:0:0:0:
139,186,110858,1,0,0:0:0:0:
151,172,110925,1,0,0:0:0:0:
164,158,110993,1,0,0:0:0:0:
177,145,111061,2,0,L|169:76,1,62.9999980773926
292,241,111196,2,0,L|290:310,1,62.9999980773926
98,308,111331,5,0,0:0:0:0:
192,286,111466,1,0,0:0:0:0:
4,260,111601,1,0,0:0:0:0:
36,372,111736,1,0,0:0:0:0:
220,132,111871,1,0,0:0:0:0:
244,135,111938,1,0,0:0:0:0:
269,138,112006,1,0,0:0:0:0:
294,142,112073,1,0,0:0:0:0:
319,145,112142,2,0,L|454:132,1,125.999996154785
512,120,112344,1,0,0:0:0:0:
512,120,112412,5,0,0:0:0:0:
329,44,112547,1,0,0:0:0:0:
347,256,112682,2,0,L|286:372,1,125.999996154785
288,367,112885,1,0,0:0:0:0:
288,367,112952,1,0,0:0:0:0:
261,269,113088,1,0,0:0:0:0:
184,203,113223,1,0,0:0:0:0:
84,191,113358,1,0,0:0:0:0:
0,264,113493,5,0,0:0:0:0:
183,340,113628,1,0,0:0:0:0:
165,128,113763,2,0,L|226:12,1,125.999996154785
224,17,113966,1,0,0:0:0:0:
223,16,114034,2,0,P|231:29|238:50,4,31.4999990386963
316,58,114304,1,0,0:0:0:0:
64,67,114439,1,0,0:0:0:0:
312,180,114574,6,0,L|468:169,1,125.999996154785
416,194,114777,1,0,0:0:0:0:
395,217,114844,1,0,0:0:0:0:
397,248,114912,1,0,0:0:0:0:
405,277,114979,1,0,0:0:0:0:
174,293,115115,2,0,L|178:230,1,62.9999980773926
143,318,115250,2,0,L|138:380,1,62.9999980773926
93,180,115385,2,0,L|97:117,1,62.9999980773926
62,205,115520,2,0,L|57:267,1,62.9999980773926
217,164,115655,6,0,P|251:112|232:54,1,125.999996154785
201,52,115858,1,0,0:0:0:0:
170,56,115925,1,0,0:0:0:0:
344,91,116061,1,0,0:0:0:0:
157,208,116196,2,0,P|123:259|142:317,1,125.999996154785
173,320,116399,1,0,0:0:0:0:
204,316,116466,1,0,0:0:0:0:
30,281,116602,1,0,0:0:0:0:
382,378,116736,6,0,L|359:307,1,62.9999980773926
445,326,116871,2,0,L|468:255,1,62.9999980773926
270,277,117007,2,0,L|290:337,1,62.9999980773926
372,225,117142,2,0,L|353:285,1,62.9999980773926
296,137,117277,1,0,0:0:0:0:
327,133,117344,1,0,0:0:0:0:
358,129,117412,1,0,0:0:0:0:
449,83,117547,1,0,0:0:0:0:
380,211,117682,1,0,0:0:0:0:
208,41,117817,6,0,L|196:175,1,125.999996154785
280,10,118088,1,0,0:0:0:0:
87,315,118223,2,0,P|114:252|99:181,2,125.999996154785
20,159,118628,1,0,0:0:0:0:
274,307,118763,1,0,0:0:0:0:
274,307,118831,1,0,0:0:0:0:
274,307,118898,6,0,L|262:240,1,62.9999980773926
341,193,119034,2,0,L|329:126,1,62.9999980773926
127,180,119169,2,0,L|139:247,2,62.9999980773926
220,52,119439,1,0,0:0:0:0:
458,75,119574,1,0,0:0:0:0:
458,75,119642,1,0,0:0:0:0:
458,75,119709,1,0,0:0:0:0:
216,195,119844,1,0,0:0:0:0:
434,344,119979,6,0,B|420:291|420:291|437:209,1,125.999996154785
371,63,120250,2,0,B|385:116|385:116|368:198,1,125.999996154785
254,384,120520,1,0,0:0:0:0:
254,384,120790,1,0,0:0:0:0:
27,98,121061,6,0,L|207:117,1,125.999996154785
444,49,121331,2,0,L|264:30,1,125.999996154785
318,35,121534,1,0,0:0:0:0:
318,35,121601,1,0,0:0:0:0:
355,115,121736,1,0,0:0:0:0:
288,173,121871,1,0,0:0:0:0:
324,253,122007,1,0,0:0:0:0:
53,353,122142,5,0,0:0:0:0:
116,298,122277,2,0,L|106:226,2,62.9999980773926
191,342,122547,1,0,0:0:0:0:
278,347,122682,2,0,L|415:341,1,125.999996154785
266,161,122952,1,0,0:0:0:0:
272,178,123020,1,0,0:0:0:0:
278,195,123088,1,0,0:0:0:0:
284,212,123155,1,0,0:0:0:0:
291,230,123223,5,0,0:0:0:0:
143,191,123358,1,0,0:0:0:0:
183,40,123493,1,0,0:0:0:0:
332,79,123628,1,0,0:0:0:0:
262,252,123763,1,0,0:0:0:0:
268,269,123831,1,0,0:0:0:0:
274,286,123899,1,0,0:0:0:0:
280,303,123966,1,0,0:0:0:0:
287,321,124034,2,0,L|353:324,1,62.9999980773926
229,269,124169,2,0,L|163:266,1,62.9999980773926
447,253,124304,5,0,0:0:0:0:
457,237,124371,1,0,0:0:0:0:
466,221,124439,1,0,0:0:0:0:
473,203,124506,1,0,0:0:0:0:
464,171,124574,1,0,0:0:0:0:
470,153,124641,1,0,0:0:0:0:
475,134,124709,1,0,0:0:0:0:
477,116,124776,1,0,0:0:0:0:
446,114,124844,2,0,L|380:121,2,62.9999980773926
302,49,125115,5,0,0:0:0:0:
383,229,125250,1,0,0:0:0:0:
323,27,125385,5,0,0:0:0:0:
400,247,125520,1,0,0:0:0:0:
348,0,125655,5,0,0:0:0:0:
437,255,125790,2,0,L|424:386,2,125.999996154785
386,141,126196,1,0,0:0:0:0:
280,77,126331,1,0,0:0:0:0:
157,85,126466,5,0,0:0:0:0:
149,75,126533,1,0,0:0:0:0:
142,64,126601,1,0,0:0:0:0:
138,52,126668,1,0,0:0:0:0:
136,40,126736,1,0,0:0:0:0:
158,38,126804,1,0,0:0:0:0:
158,38,126871,1,0,0:0:0:0:
60,162,127007,1,0,0:0:0:0:
271,194,127142,1,0,0:0:0:0:
61,277,127277,2,0,L|53:354,1,62.9999980773926
135,285,127412,2,0,L|127:208,1,62.9999980773926
128,361,127547,6,0,L|289:344,1,125.999996154785
305,290,127749,1,0,0:0:0:0:
324,294,127817,1,0,0:0:0:0:
342,299,127884,1,0,0:0:0:0:
360,305,127952,1,0,0:0:0:0:
378,312,128019,1,0,0:0:0:0:
395,320,128088,6,0,P|382:258|380:188,1,125.999996154785
262,35,128290,1,0,0:0:0:0:
261,34,128358,2,0,P|271:65|274:96,1,62.9999980773926
146,157,128493,2,0,P|153:126|165:97,1,62.9999980773926
237,249,128628,6,0,P|255:311|178:364,1,125.999996154785
125,314,128831,1,0,0:0:0:0:
108,324,128898,2,0,P|94:295|90:264,1,62.9999980773926
155,140,129034,2,0,P|168:168|172:199,1,62.9999980773926
275,167,129169,2,0,L|332:171,2,31.4999990386963
300,192,129304,2,0,L|356:196,2,31.4999990386963
330,221,129439,1,0,0:0:0:0:
303,0,129574,1,0,0:0:0:0:
0,109,129709,5,0,0:0:0:0:
27,107,129979,6,0,L|161:180,1,125.999996154785
153,177,130182,1,0,0:0:0:0:
169,186,130250,1,0,0:0:0:0:
49,263,130385,1,0,0:0:0:0:
322,71,130520,1,0,0:0:0:0:
150,286,130655,1,0,0:0:0:0:
181,293,130722,1,0,0:0:0:0:
212,302,130790,6,0,L|287:283,2,62.9999980773926
458,377,131061,2,0,P|440:262|470:219,1,125.999996154785
367,146,131331,1,0,0:0:0:0:
100,27,131466,1,0,0:0:0:0:
100,27,131534,1,0,0:0:0:0:
100,27,131601,1,0,0:0:0:0:
62,222,131736,1,0,0:0:0:0:
74,132,131871,6,0,P|90:193|89:256,1,125.999996154785
144,321,132074,1,0,0:0:0:0:
159,310,132141,1,0,0:0:0:0:
177,304,132209,1,0,0:0:0:0:
196,301,132276,1,0,0:0:0:0:
214,301,132344,1,0,0:0:0:0:
233,306,132412,2,0,P|227:271|230:234,1,62.9999980773926
281,192,132547,2,0,P|307:208|337:218,1,62.9999980773926
356,290,132682,2,0,P|328:304|304:325,1,62.9999980773926
198,167,132817,1,0,0:0:0:0:
205,149,132885,1,0,0:0:0:0:
212,132,132952,6,0,P|209:64|166:9,1,125.999996154785
12,95,133155,1,0,0:0:0:0:
0,102,133223,6,0,P|3:170|46:225,1,125.999996154785
117,366,133493,1,0,0:0:0:0:
337,262,133628,1,0,0:0:0:0:
175,262,133763,1,0,0:0:0:0:
395,366,133898,1,0,0:0:0:0:
228,328,134034,5,0,0:0:0:0:
363,254,134169,1,0,0:0:0:0:
338,5,134304,2,0,P|319:61|341:138,1,125.999996154785
507,278,134574,2,0,P|526:222|504:145,1,125.999996154785
419,305,134844,1,0,0:0:0:0:
415,317,134912,1,0,0:0:0:0:
408,327,134979,1,0,0:0:0:0:
399,336,135047,1,0,0:0:0:0:
388,342,135115,6,0,L|258:346,1,125.999996154785
174,226,135385,2,0,P|240:215|302:246,1,125.999996154785
363,331,135655,1,0,0:0:0:0:
349,89,135790,1,0,0:0:0:0:
300,384,135925,1,0,0:0:0:0:
194,66,136060,1,0,0:0:0:0:
178,54,136128,1,0,0:0:0:0:
159,48,136196,6,0,B|35:91,1,125.999996154785
353,336,136466,2,0,P|402:284|477:293,1,125.999996154785
420,101,136669,1,0,0:0:0:0:
400,95,136736,2,0,P|348:46|357:-29,1,125.999996154785
159,48,137007,2,0,P|110:100|35:91,1,125.999996154785
111,288,137277,2,0,P|138:305|154:331,1,62.9999980773926
227,341,137412,2,0,P|200:324|184:298,1,62.9999980773926
139,211,137547,1,0,0:0:0:0:
146,193,137614,1,0,0:0:0:0:
155,177,137682,1,0,0:0:0:0:
167,162,137749,1,0,0:0:0:0:
180,149,137817,1,0,0:0:0:0:
512,111,138020,5,0,0:0:0:0:
0,333,138222,5,0,0:0:0:0:
18,336,138290,1,0,0:0:0:0:
36,342,138357,1,4,0:2:0:0:
