osu file format v14

[General]
AudioFilename: audio.mp3
AudioLeadIn: 0
PreviewTime: 269019
Countdown: 0
SampleSet: Soft
StackLeniency: 0.7
Mode: 0
LetterboxInBreaks: 0
WidescreenStoryboard: 1

[Editor]
Bookmarks: 4704,38536,72369,97743,125496,155892,181266,210869,236244,270077,286993,307081,325054,344085
DistanceSpacing: 0.2
BeatDivisor: 4
GridSize: 32
TimelineZoom: 3.399999

[Metadata]
Title:Palace of Melancholia
TitleUnicode:Palace of Melancholia
Artist:katagiri
ArtistUnicode:かたぎり
Creator:DeviousPanda
Version:Desolation
Source:Corsace
Tags:osu! CO Open 2021 CO2021 Grand Finals Tiebreaker GF TB Realazy captin1 instrumental electronic fa featured artist
BeatmapID:3229091
BeatmapSetID:1581367

[Difficulty]
HPDrainRate:5
CircleSize:4
OverallDifficulty:9.3
ApproachRate:9.9
SliderMultiplier:2.8
SliderTickRate:1

[Events]
//Background and Video events
0,0,"unknown (6).png",0,0
//Break Periods
2,160321,163590
2,206840,208012
//Storyboard Layer 0 (Background)
//Storyboard Layer 1 (Fail)
//Storyboard Layer 2 (Pass)
//Storyboard Layer 3 (Foreground)
//Storyboard Layer 4 (Overlay)
//Storyboard Sound Samples

[TimingPoints]
475,264.31718061674,4,2,1,60,1,0
475,-333.333333333333,4,2,1,5,0,0
541,-333.333333333333,4,2,2,6,0,0
607,-333.333333333333,4,2,1,7,0,0
673,-333.333333333333,4,2,2,8,0,0
739,-333.333333333333,4,2,1,9,0,0
805,-333.333333333333,4,2,2,10,0,0
871,-333.333333333333,4,2,1,11,0,0
937,-333.333333333333,4,2,2,12,0,0
1003,-333.333333333333,4,2,1,13,0,0
1069,-333.333333333333,4,2,2,14,0,0
1135,-333.333333333333,4,2,1,15,0,0
1201,-333.333333333333,4,2,2,16,0,0
1267,-333.333333333333,4,2,1,17,0,0
1333,-333.333333333333,4,2,2,18,0,0
1399,-333.333333333333,4,2,1,19,0,0
1465,-333.333333333333,4,2,2,20,0,0
1531,-333.333333333333,4,2,1,21,0,0
1597,-333.333333333333,4,2,2,22,0,0
1663,-333.333333333333,4,2,1,23,0,0
1729,-333.333333333333,4,2,2,24,0,0
1795,-333.333333333333,4,2,1,25,0,0
1862,-333.333333333333,4,2,2,26,0,0
1928,-333.333333333333,4,2,1,27,0,0
1994,-333.333333333333,4,2,2,28,0,0
2060,-333.333333333333,4,2,1,29,0,0
2126,-333.333333333333,4,2,2,30,0,0
2192,-333.333333333333,4,2,1,31,0,0
2258,-333.333333333333,4,2,2,32,0,0
2324,-333.333333333333,4,2,1,33,0,0
2390,-333.333333333333,4,2,2,34,0,0
2456,-333.333333333333,4,2,1,35,0,0
2522,-333.333333333333,4,2,2,36,0,0
2588,-333.333333333333,4,2,1,37,0,0
2654,-333.333333333333,4,2,2,38,0,0
2720,-333.333333333333,4,2,1,39,0,0
2786,-333.333333333333,4,2,2,40,0,0
2852,-333.333333333333,4,2,1,41,0,0
2918,-333.333333333333,4,2,2,42,0,0
2984,-333.333333333333,4,2,1,43,0,0
3050,-333.333333333333,4,2,2,44,0,0
3116,-333.333333333333,4,2,1,45,0,0
3184,-333.333333333333,4,2,2,46,0,0
3250,-333.333333333333,4,2,1,47,0,0
3316,-333.333333333333,4,2,2,48,0,0
3382,-333.333333333333,4,2,1,49,0,0
3448,-333.333333333333,4,2,2,50,0,0
3514,-333.333333333333,4,2,1,51,0,0
3580,-333.333333333333,4,2,2,52,0,0
3646,-333.333333333333,4,2,1,53,0,0
3712,-333.333333333333,4,2,2,54,0,0
3778,-333.333333333333,4,2,1,55,0,0
3845,-333.333333333333,4,2,2,56,0,0
3911,-333.333333333333,4,2,1,57,0,0
3977,-333.333333333333,4,2,2,58,0,0
4043,-333.333333333333,4,2,1,59,0,0
4109,-333.333333333333,4,2,2,60,0,0
4175,-333.333333333333,4,2,1,61,0,0
4241,-333.333333333333,4,2,2,62,0,0
4307,-333.333333333333,4,2,1,63,0,0
4373,-333.333333333333,4,2,2,64,0,0
4439,-333.333333333333,4,2,1,65,0,0
4505,-333.333333333333,4,2,2,66,0,0
4571,-333.333333333333,4,2,1,5,0,0
4704,-250,4,2,1,60,0,0
4836,-250,4,2,1,45,0,0
5761,-166.666666666667,4,2,1,45,0,0
6157,-200,4,2,1,45,0,0
6554,-250,4,2,1,45,0,0
7875,-166.666666666667,4,2,1,45,0,0
8272,-250,4,2,1,45,0,0
8933,-133.333333333333,4,2,1,45,0,0
11312,-100,4,2,1,45,0,0
12633,-100,4,2,1,65,0,0
13162,-133.333333333333,4,2,1,55,0,0
15276,-100,4,2,1,60,0,0
15541,-125,4,2,1,60,0,0
17391,-125,4,2,1,65,0,0
19505,-125,4,2,1,65,0,0
20959,-90.9090909090909,4,2,1,65,0,0
21223,-125,4,2,1,65,0,0
21620,-250,4,2,1,70,0,0
23338,-83.3333333333333,4,2,1,70,0,0
23734,-166.666666666667,4,2,1,70,0,0
25056,-100,4,2,1,70,0,0
25849,-250.000000000001,4,2,1,70,0,0
26113,-200,4,2,1,70,0,0
27567,-100,4,2,1,70,0,0
30078,-111.111111111111,4,2,1,70,0,0
37512,-111.111111111111,4,2,1,55,0,0
37743,-111.111111111111,4,2,1,70,0,0
38173,-111.111111111111,4,2,1,55,0,0
38272,-75.7575757575758,4,2,1,70,0,0
38536,-66.6666666666667,4,2,1,75,0,0
38800,-100,4,2,1,75,0,0
39593,-66.6666666666667,4,2,1,75,0,0
39858,-100,4,2,1,75,0,0
40651,-66.6666666666667,4,2,1,75,0,0
40915,-100,4,2,1,75,0,0
41708,-66.6666666666667,4,2,2,75,0,0
42501,-62.5,4,2,1,75,0,0
42765,-66.6666666666667,4,2,1,75,0,0
43030,-100,4,2,1,75,0,0
43823,-66.6666666666667,4,2,1,75,0,0
44087,-100,4,2,1,75,0,0
44880,-66.6666666666667,4,2,1,75,0,0
45144,-200,4,2,1,75,0,0
45937,-303.030303030303,4,2,1,75,0,0
46466,-62.5,4,2,1,75,0,0
47259,-100,4,2,1,75,0,0
48052,-66.6666666666667,4,2,1,75,0,0
48316,-100,4,2,1,75,0,0
49109,-66.6666666666667,4,2,1,75,0,0
49373,-100,4,2,1,75,0,0
50166,-66.6666666666667,4,2,1,75,0,0
50430,-100,4,2,1,75,0,0
50959,-66.6666666666667,4,2,1,75,0,0
51488,-100,4,2,1,75,0,0
52016,-200,4,2,1,75,0,0
52281,-66.6666666666667,4,2,1,75,0,0
52545,-100,4,2,1,75,0,0
53338,-200,4,2,1,75,0,0
54924,-100,4,2,1,75,0,0
55188,-50,4,2,1,75,0,0
55452,-66.6666666666667,4,2,1,75,0,0
56113,-200,4,2,1,75,0,0
56510,-66.6666666666667,4,2,1,75,0,0
57303,-100,4,2,1,75,0,0
57963,-200,4,2,1,75,0,0
58096,-50,4,2,1,75,0,0
58624,-66.6666666666667,4,2,1,75,0,0
59153,-55.5555555555556,4,2,1,75,0,0
59682,-66.6666666666667,4,2,1,75,0,0
60342,-200,4,2,1,75,0,0
60739,-100,4,2,1,75,0,0
61003,-76.9230769230769,4,2,1,75,0,0
61267,-100,4,2,1,75,0,0
61796,-66.6666666666667,4,2,1,75,0,0
62193,-133.333333333333,4,2,1,75,0,0
62325,-66.6666666666667,4,2,1,75,0,0
62853,-200,4,2,1,75,0,0
62986,-100,4,2,1,75,0,0
63118,-66.6666666666667,4,2,1,75,0,0
63646,-50,4,2,1,75,0,0
63911,-80,4,2,1,75,0,0
64175,-66.6666666666667,4,2,1,75,0,0
64571,-200,4,2,1,75,0,0
64968,-66.6666666666667,4,2,1,75,0,0
66554,-50,4,2,1,75,0,0
67215,-66.6666666666667,4,2,1,75,0,0
67611,-55.5555555555556,4,2,1,75,0,0
68800,-200,4,2,1,75,0,0
69461,-66.6666666666667,4,2,1,75,0,0
69726,-100,4,2,1,75,0,0
70122,-66.6666666666667,4,2,1,75,0,0
71047,-80,4,2,1,75,0,0
71312,-66.6666666666667,4,2,1,75,0,0
72369,-200,4,2,1,60,0,0
80563,-66.6666666666667,4,2,1,75,0,0
80827,-125,4,2,1,75,0,0
82545,-83.3333333333333,4,2,1,75,0,0
82941,-62.5,4,2,1,75,0,0
84263,-83.3333333333333,4,2,1,75,0,0
86774,-111.111111111111,4,2,1,75,0,0
87567,-76.9230769230769,4,2,1,75,0,0
88096,-99.9999999999999,4,2,1,75,0,0
92457,-166.666666666667,4,2,1,75,0,0
92721,-99.9999999999999,4,2,1,75,0,0
93514,-76.9230769230769,4,2,1,75,0,0
96686,-100,4,2,1,75,0,0
97479,-66.6666666666667,4,2,1,75,0,0
97743,264.31718061674,3,2,1,65,1,0
97941,-111.111111111111,3,2,1,65,0,0
98139,-125,3,2,1,65,0,0
98337,-142.857142857143,3,2,1,65,0,0
98535,-166.666666666667,3,2,1,65,0,0
98734,-200,3,2,1,65,0,0
98932,-133.333333333333,3,2,1,65,0,0
99130,-100,3,2,1,65,0,0
99328,-80,3,2,1,65,0,0
99527,-57.1428571428571,3,2,1,65,0,0
99725,-66.6666666666667,3,2,1,65,0,0
99923,-80,3,2,1,65,0,0
100121,-100,3,2,1,75,0,0
100650,-80,3,2,1,75,0,0
100914,-133.333333333333,3,2,1,75,0,0
101443,-50,3,2,1,75,0,0
101707,-200,3,2,1,75,0,0
102500,-66.6666666666667,3,2,1,75,0,0
103293,-57.1428571428571,3,2,1,75,0,0
104086,-133.333333333333,3,2,1,75,0,0
104879,-57.1428571428571,3,2,1,75,0,0
105011,-266.666666666667,3,2,1,75,0,0
105276,-57.1428571428571,3,2,1,75,0,0
105408,-266.666666666667,3,2,1,75,0,0
105672,-50,3,2,1,75,0,0
106068,-133.333333333333,3,2,1,75,0,0
106465,-57.1428571428571,3,2,1,75,0,0
106861,-200,3,2,1,75,0,0
107258,-133.333333333333,3,2,1,75,0,0
107787,-50,3,2,1,75,0,0
108051,-50,3,2,1,75,0,0
108447,-200,3,2,1,75,0,0
108844,-66.6666666666667,3,2,1,75,0,0
109637,-133.333333333333,3,2,1,75,0,0
111223,-303.030303030303,3,2,1,75,0,0
112412,-100,3,2,1,75,0,0
112809,-66.6666666666667,3,2,1,75,0,0
113205,-100,3,2,1,75,0,0
113469,-66.6666666666667,3,2,1,75,0,0
113602,-133.333333333333,3,2,1,75,0,0
113998,-66.6666666666667,3,2,1,75,0,0
114394,-133.333333333333,3,2,1,75,0,0
114791,-57.1428571428571,3,2,1,75,0,0
115187,-50,3,2,1,75,0,0
115584,-100,3,2,1,75,0,0
116377,-80,3,2,1,75,0,0
116773,-66.6666666666667,3,2,1,75,0,0
117170,-80,3,2,1,75,0,0
118359,-117.647058823529,3,2,1,75,0,0
118756,-50,3,2,1,75,0,0
119152,-66.6666666666667,3,2,1,75,0,0
119549,-57.1428571428571,3,2,1,75,0,0
119945,-100,3,2,1,75,0,0
120077,-80,3,2,1,75,0,0
120738,-66.6666666666667,3,2,1,75,0,0
121135,-57.1428571428571,3,2,1,75,0,0
121399,-80,3,2,1,75,0,0
121928,-57.1428571428571,3,2,1,75,0,0
122324,-66.6666666666667,3,2,1,75,0,0
123117,-133.333333333333,3,2,1,75,0,0
123381,-66.6666666666667,3,2,1,75,0,0
123513,-57.1428571428571,3,2,1,75,0,0
124174,-100,3,2,1,75,0,0
124306,-50,3,2,1,75,0,0
125496,-66.6666666666667,3,2,1,65,0,0
126289,-100,3,2,1,65,0,0
126685,-57.1428571428571,3,2,1,65,0,0
127478,-100,3,2,1,65,0,0
127875,-66.6666666666667,3,2,1,65,0,0
128271,-100,3,2,1,65,0,0
128668,-66.6666666666667,3,2,1,65,0,0
129064,-133.333333333333,3,2,1,65,0,0
130254,-100,3,2,1,65,0,0
131046,-66.6666666666667,3,2,1,65,0,0
131839,-80,3,2,1,65,0,0
132236,-100,3,2,1,65,0,0
132368,-80,3,2,1,65,0,0
132500,-66.6666666666667,3,2,1,65,0,0
132632,-100,3,2,1,65,0,0
133425,-66.6666666666667,3,2,1,65,0,0
135804,-100,3,2,1,65,0,0
136597,-83.3333333333333,3,2,1,65,0,0
138183,-66.6666666666667,3,2,1,65,0,0
138976,-55.5555555555556,3,2,1,65,0,0
139372,-100,3,2,1,65,0,0
139505,-80,3,2,1,65,0,0
139637,-66.6666666666667,3,2,1,65,0,0
139769,-58.8235294117647,3,2,1,65,0,0
140562,-66.6666666666667,3,2,1,65,0,0
140958,-100,3,2,1,65,0,0
141355,-133.333333333333,3,2,1,65,0,0
141619,-50,3,2,1,65,0,0
141883,-100,3,2,1,65,0,0
142148,-80,3,2,1,65,0,0
142941,-58.8235294117647,3,2,1,65,0,0
143205,-66.6666666666667,3,2,1,65,0,0
143734,-100,3,2,1,65,0,0
144527,-80,3,2,1,65,0,0
145055,-100,3,2,1,65,0,0
145320,-66.6666666666667,3,2,1,65,0,0
145848,-100,3,2,1,65,0,0
146113,-66.6666666666667,3,2,1,65,0,0
148491,-100,3,2,1,65,0,0
149284,-83.3333333333333,3,2,1,65,0,0
150077,-100,3,2,1,65,0,0
153513,-133.333333333333,3,2,1,65,0,0
153778,-50,3,2,1,65,0,0
154835,264.31718061674,4,2,1,65,1,0
155539,-90.9090909090909,3,2,1,65,0,0
155892,264.31718061674,4,2,1,65,1,0
165407,-125,4,2,1,55,0,0
165936,-166.666666666667,4,2,1,55,0,0
167521,-125,4,2,1,55,0,0
168579,-100,4,2,1,55,0,0
172808,-62.5,4,2,1,75,0,0
172940,-71.4285714285714,4,2,1,75,0,0
174394,-55.5555555555556,4,2,1,75,0,0
175187,-62.5,4,2,1,75,0,0
176773,-100,4,2,1,75,0,0
177037,-62.5,4,2,1,75,0,0
178491,-100,4,2,1,75,0,0
178623,-62.5,4,2,1,75,0,0
179416,-50,4,2,1,75,0,0
180209,-71.4285714285714,4,2,1,75,0,0
180737,-100,4,2,1,75,0,0
180869,-55.5555555555556,4,2,1,75,0,0
181002,-55.5555555555556,4,2,2,70,0,0
181134,-45.4545454545455,4,2,2,70,0,0
181795,-62.5,4,2,2,70,0,0
182191,-71.4285714285714,4,2,2,70,0,0
182720,-55.5555555555556,4,2,2,70,0,0
183645,-66.6666666666667,4,2,2,70,0,0
184438,-55.5555555555556,4,2,2,70,0,0
185495,-45.4545454545455,4,2,2,70,0,0
186024,-62.5,4,2,2,70,0,0
186288,-133.333333333333,4,2,2,70,0,0
186552,-62.5,4,2,2,70,0,0
188270,-71.4285714285714,4,2,2,70,0,0
188667,-100,4,2,2,70,0,0
188931,-66.6666666666667,4,2,2,70,0,0
189195,-55.5555555555556,4,2,2,70,0,0
189856,-62.5,4,2,2,70,0,0
190781,-83.3333333333333,4,2,2,70,0,0
191046,-62.5,4,2,2,70,0,0
191376,-83.3333333333333,4,2,2,70,0,0
191839,-62.5,4,2,2,70,0,0
193557,-125,4,2,2,70,0,0
193953,-83.3333333333333,4,2,2,70,0,0
194416,-66.6666666666667,4,2,2,70,0,0
195010,-55.5555555555556,4,2,2,70,0,0
195407,-83.3333333333333,4,2,2,70,0,0
196068,-71.4285714285714,4,2,2,70,0,0
197852,-66.6666666666667,4,2,2,70,0,0
199768,-55.5555555555556,4,2,2,70,0,0
199966,-66.6666666666667,4,2,2,70,0,0
202411,-100,4,2,2,70,0,0
202940,-66.6666666666667,4,2,2,70,0,0
203469,-100,4,2,2,70,0,0
203997,-66.6666666666667,4,2,2,70,0,0
204526,-100,4,2,2,70,0,0
205583,-50,4,2,2,70,0,0
206376,-66.6666666666667,4,2,2,70,0,0
208491,-200,4,2,2,70,0,0
208755,-100,4,2,2,70,0,0
209284,-83.3333333333333,4,2,2,70,0,0
210341,-66.6666666666667,4,2,2,70,0,0
210605,-44.4444444444445,4,2,2,70,0,0
210869,-50,4,2,1,75,0,0
211134,-100,4,2,1,75,0,0
211266,-57.1428571428571,4,2,1,75,0,0
211398,-133.333333333333,4,2,1,75,0,0
211927,-66.6666666666667,4,2,1,75,0,0
212323,-200,4,2,1,75,0,0
212455,-66.6666666666667,4,2,1,75,0,0
212720,-80,4,2,1,75,0,0
213513,-133.333333333333,4,2,1,75,0,0
213645,-80,4,2,1,75,0,0
213777,-100,4,2,1,75,0,0
214041,-66.6666666666667,4,2,1,75,0,0
214834,-57.1428571428571,4,2,1,75,0,0
215099,-50,4,2,1,75,0,0
215363,-66.6666666666667,4,2,1,75,0,0
216156,-100,4,2,1,75,0,0
216949,-50,4,2,1,75,0,0
217213,-66.6666666666667,4,2,1,75,0,0
217742,-133.333333333333,4,2,1,75,0,0
218270,-79.9999999999999,4,2,1,75,0,0
219328,-57.1428571428571,4,2,1,75,0,0
220253,-80,4,2,1,75,0,0
221046,-66.6666666666667,4,2,1,75,0,0
221442,-57.1428571428571,4,2,1,75,0,0
221706,-133.333333333333,4,2,1,75,0,0
222499,-79.9999999999999,4,2,1,75,0,0
223557,-57.1428571428571,4,2,1,75,0,0
223821,-50,4,2,1,75,0,0
224350,-133.333333333333,4,2,1,75,0,0
224614,-50,4,2,1,75,0,0
225143,-90.9090909090909,4,2,1,75,0,0
225407,-68.9655172413793,4,2,1,75,0,0
226200,-57.1428571428571,4,2,1,75,0,0
226729,-50,4,2,1,75,0,0
227786,-80,4,2,1,75,0,0
228050,-200,4,2,1,75,0,0
228314,-66.6666666666667,4,2,1,75,0,0
228579,-100,4,2,1,75,0,0
229900,-57.1428571428571,4,2,1,75,0,0
230165,-80,4,2,1,75,0,0
230958,-133.333333333333,4,2,1,75,0,0
231222,-100,4,2,1,75,0,0
231486,-80,4,2,1,75,0,0
231751,-66.6666666666667,4,2,1,75,0,0
232015,-57.1428571428571,4,2,1,75,0,0
232543,-100,4,2,1,75,0,0
234129,-80,4,2,1,75,0,0
234922,-66.6666666666667,4,2,1,75,0,0
235187,-64.5161290322581,4,2,1,75,0,0
235980,-57.1428571428571,4,2,1,75,0,0
236244,-166.666666666667,4,2,1,60,0,0
251442,-125,4,2,1,60,0,0
252632,-100,4,2,1,60,0,0
252896,-83.3333333333333,4,2,1,60,0,0
253160,-83.3333333333333,4,2,1,70,0,0
263733,-125,4,2,1,70,0,0
264129,-83.3333333333333,4,2,1,70,0,0
269548,-55.5555555555556,4,2,1,75,0,0
270077,-55.5555555555556,4,2,1,95,0,1
271530,-66.6666666666667,4,2,1,95,0,1
274306,-55.5555555555556,4,2,1,95,0,1
279988,-66.6666666666667,4,2,1,95,0,1
281178,-55.5555555555556,4,2,1,95,0,1
282764,-50,4,2,1,95,0,1
283425,-55.5555555555556,4,2,1,95,0,1
286993,-66.6666666666667,4,2,1,95,0,1
288050,-55.5555555555556,4,2,1,95,0,1
288975,-66.6666666666667,4,2,1,95,0,1
291354,-55.5555555555556,4,2,1,90,0,1
295451,-55.5555555555556,4,2,2,85,0,1
302852,-83.3333333333333,4,2,2,85,0,1
303380,-66.6666666666667,4,2,2,85,0,1
303909,-66.6666666666667,4,2,2,85,0,1
304966,-55.5555555555556,4,2,2,85,0,1
307081,-133.333333333333,4,2,1,95,0,1
307742,-57.1428571428571,4,2,1,95,0,1
308138,-44.4444444444445,4,2,1,95,0,1
308403,-66.6666666666667,4,2,1,95,0,1
308865,-57.1428571428571,4,2,1,95,0,1
309195,-66.6666666666667,4,2,1,95,0,1
309394,-57.1428571428571,4,2,1,95,0,1
309592,-50,4,2,1,95,0,1
309856,-133.333333333333,4,2,1,95,0,1
309988,-66.6666666666667,4,2,1,95,0,1
311310,-50,4,2,1,95,0,1
312103,-44.4444444444445,4,2,1,95,0,1
312367,-57.1428571428571,4,2,1,95,0,1
313160,-44.4444444444445,4,2,1,95,0,1
313689,-57.1428571428571,4,2,1,95,0,1
313953,-66.6666666666667,4,2,1,95,0,1
314085,-57.1428571428571,4,2,1,95,0,1
314482,-50,4,2,1,95,0,1
314878,-57.1428571428571,4,2,1,95,0,1
316068,-133.333333333333,4,2,1,95,0,1
316332,-50,4,2,1,95,0,1
316596,-80,4,2,1,95,0,1
316795,-66.6666666666667,4,2,1,95,0,1
316993,-57.1428571428571,4,2,1,95,0,1
317191,-50,4,2,1,95,0,1
317389,-57.1428571428571,4,2,1,95,0,1
317654,-50,4,2,1,95,0,1
317852,-57.1428571428571,4,2,1,95,0,1
318050,-66.6666666666667,4,2,1,95,0,1
318248,-80,4,2,1,95,0,1
318711,-50,4,2,1,95,0,1
318975,-66.6666666666667,4,2,1,95,0,1
319768,-57.1428571428571,4,2,1,95,0,1
320429,-66.6666666666667,4,2,1,95,0,1
320561,-200,4,2,1,95,0,1
320825,-50,4,2,1,95,0,1
321090,-80,4,2,1,95,0,1
321618,-57.1428571428571,4,2,1,95,0,1
321883,-50,4,2,1,95,0,1
322279,-66.6666666666667,4,2,1,95,0,1
322411,-100,4,2,1,95,0,1
322940,-50,4,2,1,95,0,1
323204,-200,4,2,1,95,0,1
323336,-50,4,2,1,95,0,1
323601,-200,4,2,1,95,0,1
323997,-40,4,2,1,95,0,1
325054,-200,4,2,1,60,0,0
339856,-153.846153846154,4,2,1,75,0,0
341706,-57.1428571428571,4,2,1,75,0,0
341971,-133.333333333333,4,2,1,80,0,0
344085,-55.5555555555556,4,2,1,80,0,0

[Colours]
Combo1 : 151,255,255
Combo2 : 198,0,30
Combo3 : 196,57,57
Combo4 : 255,136,81
Combo5 : 255,255,121
Combo6 : 94,98,255

[HitObjects]
83,153,475,22,3,B|94:33|237:-62|423:-14|505:121|468:241|426:369|321:416|142:391|96:247|96:247|159:182|257:204|257:204|252:115|304:62,1,1301.99996026611,0|0,0:0|0:0,0:2:0:0:
446,0,4704,69,4,1:0:0:0:
441,17,4836,1,2,0:0:0:0:
512,77,4968,5,2,0:0:0:0:
502,62,5100,2,0,P|449:71|394:132,1,112,2|2,0:2|0:0,0:0:0:0:
399,181,5497,2,0,P|417:220|413:251,1,56,2|2,0:0|0:0,0:0:0:0:
333,125,5761,70,0,P|415:138|497:164,1,167.999994873047,10|2,3:2|0:0,0:0:0:0:
245,70,6157,2,0,P|318:56|388:32,1,140,2|2,0:0|0:0,0:0:0:0:
499,167,6554,2,0,P|496:204|469:223,1,56,2|2,0:0|0:0,0:0:0:0:
411,111,6818,5,10,3:2:0:0:
281,200,7082,69,2,0:0:0:0:
261,184,7215,2,0,P|258:140|236:57,1,112,2|2,0:0|0:0,0:0:0:0:
60,8,7611,5,2,0:0:0:0:
60,8,7743,1,2,0:0:0:0:
30,140,7875,70,0,B|23:169|23:169|129:146|129:146|102:114,1,167.999994873047,12|2,3:2|0:0,0:0:0:0:
64,11,8272,2,0,L|56:80,1,56,2|2,0:0|0:0,0:0:0:0:
138,225,8536,5,2,0:0:0:0:
163,227,8668,1,2,0:0:0:0:
187,230,8800,1,2,0:0:0:0:
263,196,8933,70,0,B|274:173|274:173|252:130,1,52.5000020027161,6|0,1:2|0:0,0:0:0:0:
253,138,9065,2,0,B|227:139|227:139|201:180,1,52.5000020027161,8|0,3:0|0:0,0:0:0:0:
174,309,9197,5,8,3:0:0:0:
201,305,9263,1,8,3:0:0:0:
231,302,9329,2,0,B|281:316|281:316|300:368,1,105.000004005432,4|4,3:0|3:0,0:0:0:0:
306,365,9527,2,0,L|322:290,1,52.5000020027161,4|8,3:0|3:0,0:0:0:0:
407,208,9726,2,0,L|397:149,2,52.5000020027161,8|12|4,3:0|3:0|3:0,3:0:0:0:
407,208,9990,69,8,1:2:0:0:
489,282,10122,1,2,3:0:0:0:
334,303,10254,6,0,L|324:223,1,52.5000020027161,8|0,3:3|0:0,0:0:0:0:
484,155,10386,2,0,L|494:75,1,52.5000020027161,8|0,3:3|0:0,0:0:0:0:
402,36,10519,69,4,1:3:0:0:
393,45,10585,1,4,3:0:0:0:
385,54,10651,2,0,L|412:212,1,157.500006008148,8|4,3:3|3:0,0:0:0:0:
468,256,10915,1,8,3:0:0:0:
275,383,11047,6,0,P|250:354|264:302,1,52.5000020027161,0|0,1:3|0:0,0:0:0:0:
185,303,11179,2,0,P|197:266|249:252,1,52.5000020027161,4|0,3:0|0:0,0:0:0:0:
408,206,11312,70,0,B|384:197|384:197|351:115|351:115|318:106,1,140,2|2,3:0|0:0,0:0:0:0:
289,133,11510,1,4,3:0:0:0:
289,133,11576,1,8,1:3:0:0:
493,99,11708,6,0,B|459:106|459:106|439:154,1,70,8|0,3:0|0:0,0:0:0:0:
287,228,11840,1,4,0:3:0:0:
287,228,11906,1,4,3:0:0:0:
287,228,11972,1,8,3:0:0:0:
287,228,12038,1,8,3:0:0:0:
287,228,12104,2,0,B|216:214|216:214|198:136,1,140,4|0,1:3|0:0,0:0:0:0:
416,189,12369,70,0,L|333:175,1,70,0|0,1:0|0:0,0:0:0:0:
126,143,12501,2,0,L|43:129,1,70,0|0,1:0|0:0,0:0:0:0:
259,21,12633,5,0,1:0:0:0:
264,66,12699,1,0,3:0:0:0:
270,113,12765,1,0,3:0:0:0:
276,160,12831,1,0,3:0:0:0:
281,208,12897,1,8,1:0:0:0:
288,257,12963,1,0,3:0:0:0:
296,304,13030,1,0,3:0:0:0:
300,351,13096,1,0,3:0:0:0:
295,366,13162,69,6,1:2:0:0:
68,291,13426,1,0,1:0:0:0:
419,186,13690,1,0,1:0:0:0:
38,27,13955,1,0,1:0:0:0:
209,369,14219,6,0,B|194:349|194:349|214:244,1,105.000004005432,8|2,1:2|2:0,0:0:0:0:
414,191,14483,2,0,B|429:171|429:171|399:27,1,157.500006008148,0|2,1:0|3:2,0:0:0:0:
402,42,14748,1,0,1:0:0:0:
329,102,14880,1,2,3:2:0:0:
461,65,15012,70,0,L|409:50,1,52.5000020027161,0|0,1:0|0:0,0:0:0:0:
319,0,15144,2,0,L|268:14,1,52.5000020027161,0|0,1:0|0:0,0:0:0:0:
115,139,15276,6,0,B|72:138|71:70|153:57|212:121|208:181,1,210,14|0,1:2|0:0,0:0:0:0:
202,175,15541,1,0,1:0:0:0:
362,262,15673,69,0,3:0:0:0:
321,201,15805,2,0,B|270:201|245:242|248:247|252:252|236:287|190:297,1,168,0|0,1:0|0:0,0:0:0:0:
69,338,16069,2,0,P|101:341|142:368,1,56,0|0,1:0|0:0,0:0:0:0:
313,323,16201,2,0,P|279:307|259:273,1,56,2|0,3:2|0:0,0:0:0:0:
230,11,16334,6,0,L|201:200,1,168,8|0,1:2|3:0,0:0:0:0:
204,177,16598,1,0,1:0:0:0:
140,212,16730,1,0,3:0:0:0:
270,290,16862,69,0,1:0:0:0:
316,284,16928,1,0,1:0:0:0:
362,277,16994,1,0,1:0:0:0:
408,271,17060,1,0,1:0:0:0:
455,263,17126,1,0,1:0:0:0:
344,207,17259,1,0,1:0:0:0:
455,123,17391,5,6,1:2:0:0:
386,372,17523,1,0,1:0:0:0:
206,54,17655,1,0,1:0:0:0:
137,303,17787,1,0,1:0:0:0:
416,181,17919,69,6,1:2:0:0:
175,244,18052,1,0,1:0:0:0:
264,92,18184,1,0,1:0:0:0:
327,333,18316,1,0,1:0:0:0:
350,213,18448,5,6,1:2:0:0:
295,267,18580,1,0,1:0:0:0:
241,212,18712,1,0,1:0:0:0:
296,158,18845,1,0,1:0:0:0:
455,123,18977,69,6,1:2:0:0:
206,54,19109,1,0,1:0:0:0:
137,303,19241,1,0,1:0:0:0:
386,372,19373,1,0,1:0:0:0:
366,78,19505,5,0,1:0:0:0:
370,100,19571,1,0,1:0:0:0:
372,119,19637,1,0,1:0:0:0:
375,140,19704,1,0,1:0:0:0:
378,160,19770,69,0,1:0:0:0:
363,188,19836,1,0,1:0:0:0:
323,200,19902,1,0,1:0:0:0:
278,189,19968,1,0,1:0:0:0:
250,142,20034,1,0,1:0:0:0:
243,90,20100,1,0,1:0:0:0:
209,51,20166,1,0,1:0:0:0:
156,50,20232,1,0,1:0:0:0:
114,85,20298,1,0,1:0:0:0:
107,137,20364,1,0,1:0:0:0:
132,185,20430,1,0,1:0:0:0:
185,194,20497,1,0,1:0:0:0:
191,186,20563,6,0,P|184:109|162:5,1,168,6|0,1:2|0:0,0:0:0:0:
422,206,20827,2,0,P|386:198|337:176,1,56,2|0,3:0|0:0,0:0:0:0:
60,255,20959,70,0,P|197:208|301:190,1,231.000007049561,6|0,1:2|0:0,0:0:0:0:
471,29,21223,2,0,P|462:55|455:101,1,56,2|0,3:0|0:0,0:0:0:0:
512,300,21356,5,0,1:0:0:0:
496,257,21422,1,0,1:0:0:0:
450,229,21488,1,0,1:0:0:0:
384,230,21554,1,0,1:0:0:0:
323,276,21620,70,2,B|309:350|309:350|220:377|220:377|249:223|249:223|258:213|258:213|280:87|280:87|205:37|205:37|182:158,1,672,4|2,1:0|0:0,0:2:0:0:
93,204,23338,6,0,B|110:260|110:260|251:221|251:221|258:210|258:210|396:168|396:168|418:237,1,419.999987182618,4|0,1:0|0:0,0:0:0:0:
485,253,23734,70,2,B|516:326|516:326|264:251|264:251|244:183|244:183|-2:98|-2:98|16:178,1,755.999976928712,4|0,1:0|0:0,0:2:0:0:
196,363,25056,6,0,L|244:-20,1,350,4|0,1:0|0:0,0:0:0:0:
314,23,25452,2,0,L|266:406,1,350,4|0,1:0|0:0,0:0:0:0:
377,384,25849,70,0,B|398:365|398:365|388:329,1,56,4|0,1:0|0:0,0:0:0:0:
132,144,26113,2,2,B|72:158|72:158|52:242|52:242|251:197|251:197|259:186|259:186|430:151|430:151|486:215|486:215|387:238,1,700,4|2,1:0|3:2,0:2:0:0:
253,353,27567,6,0,P|261:278|277:198,2,140,4|6|10,1:0|0:3|3:0,0:0:0:0:
241,5,27963,70,0,P|263:110|271:227,1,210,4|0,1:0|0:0,0:0:0:0:
461,90,28228,2,0,P|447:142|445:169,1,70,4|0,1:0|0:0,0:0:0:0:
268,72,28360,2,0,P|279:124|279:151,1,70,0|0,1:0|0:0,0:0:0:0:
459,273,28492,5,4,1:0:0:0:
419,340,28624,1,8,3:0:0:0:
419,340,28690,1,8,3:0:0:0:
419,340,28756,1,4,3:0:0:0:
419,340,28823,1,4,3:0:0:0:
419,340,28889,70,0,B|356:342|341:278|346:270|353:261|331:208|271:216,1,210,4|0,1:0|0:0,0:0:0:0:
274,215,29153,1,8,3:0:0:0:
139,340,29285,6,0,P|197:315|282:292,1,140,4|4,1:0|3:0,0:0:0:0:
462,276,29549,1,4,1:0:0:0:
303,121,29682,70,2,L|290:76,8,35,6|2|2|2|2|2|2|2|2,1:2|0:0|0:0|0:0|0:0|0:0|0:0|0:0|0:0,0:0:0:0:
213,84,30078,6,0,B|304:104|304:104|308:113|308:113|426:140,1,188.999994232178,4|0,1:0|0:0,0:0:0:0:
391,132,30342,1,2,3:0:0:0:
205,253,30474,1,2,0:0:0:0:
167,140,30607,69,0,3:0:0:0:
344,241,30739,1,2,0:0:0:0:
296,84,30871,6,0,P|277:146|267:214,1,125.999996154785,4|0,1:0|3:0,0:0:0:0:
213,259,31069,1,0,3:0:0:0:
213,259,31135,2,0,P|228:300|230:340,1,62.9999980773926,4|0,1:0|0:0,0:0:0:0:
333,367,31267,69,4,3:0:0:0:
378,361,31334,1,8,3:0:0:0:
401,322,31400,1,10,3:2:0:0:
399,139,31532,1,2,0:3:0:0:
488,276,31664,6,0,P|442:260|420:227,1,62.9999980773926,2|0,3:2|0:0,0:0:0:0:
305,90,31796,2,0,P|215:92|204:213,1,188.999994232178,4|0,1:0|0:0,0:0:0:0:
183,174,32060,1,0,3:0:0:0:
307,262,32193,70,0,P|417:209|539:171,1,188.999994232178,4|0,1:0|0:0,0:0:0:0:
512,117,32457,1,2,3:2:0:0:
308,93,32589,1,2,0:3:0:0:
429,247,32721,1,0,3:0:0:0:
383,0,32853,6,0,L|372:99,1,62.9999980773926,4|0,1:0|0:0,0:0:0:0:
305,89,32986,2,0,L|294:188,1,62.9999980773926,0|0,1:0|0:0,0:0:0:0:
240,0,33118,2,0,L|229:99,1,62.9999980773926,0|0,1:0|0:0,0:0:0:0:
483,189,33250,70,0,B|463:168|463:168|327:193,1,125.999996154785,4|0,1:0|0:0,0:0:0:0:
121,87,33448,2,0,B|112:113|112:113|202:219,1,125.999996154785,4|0,1:0|0:0,0:0:0:0:
305,384,33646,6,0,L|297:312,1,62.9999980773926,4|0,1:0|0:0,0:0:0:0:
289,249,33778,1,2,1:2:0:0:
289,249,33845,1,2,3:2:0:0:
289,249,33911,1,2,3:2:0:0:
51,318,34043,69,0,1:0:0:0:
93,326,34109,1,0,1:0:0:0:
136,334,34175,1,0,1:0:0:0:
179,341,34241,1,0,1:0:0:0:
222,348,34307,6,0,P|235:285|292:148,1,188.999994232178,4|0,1:0|0:0,0:0:0:0:
444,82,34571,1,0,1:0:0:0:
477,96,34637,1,0,1:0:0:0:
488,130,34704,1,0,1:0:0:0:
478,165,34770,1,0,1:0:0:0:
449,179,34836,70,0,B|397:181|380:142|382:134|385:125|373:71|308:74,1,188.999994232178,4|0,1:0|0:0,0:0:0:0:
167,126,35100,1,0,1:0:0:0:
171,150,35166,1,0,1:0:0:0:
176,176,35232,1,0,1:0:0:0:
181,199,35298,1,0,1:0:0:0:
187,217,35364,6,0,P|256:212|271:140,1,125.999996154785,4|0,1:0|3:0,0:0:0:0:
237,67,35563,1,0,3:0:0:0:
237,67,35629,2,0,P|241:36|261:12,3,62.9999980773926,0|0|0|0,1:0|1:0|1:0|1:0,0:0:0:0:
371,31,35893,70,0,P|395:50|407:80,1,62.9999980773926,4|0,1:0|0:0,0:3:0:0:
339,162,36025,2,0,P|310:173|280:169,1,62.9999980773926,0|0,1:3|0:0,0:3:0:0:
156,77,36157,6,0,P|115:97|122:157,1,62.9999980773926,0|0,1:0|0:0,0:0:0:0:
138,269,36289,2,0,P|175:294|224:258,1,62.9999980773926,0|0,1:0|0:0,0:0:0:0:
317,248,36422,69,4,1:0:0:0:
40,189,36554,1,0,1:0:0:0:
338,161,36686,6,0,B|321:152|321:152|249:174,1,62.9999980773926,0|0,1:0|0:0,0:0:0:0:
70,313,36818,2,0,B|53:321|53:321|-18:299,1,62.9999980773926,0|0,1:0|0:0,0:0:0:0:
82,84,36950,69,4,1:0:0:0:
132,72,37016,1,0,1:0:0:0:
178,104,37082,1,0,1:0:0:0:
180,160,37149,1,0,1:0:0:0:
146,207,37215,1,0,1:0:0:0:
141,266,37281,1,0,1:0:0:0:
177,310,37347,1,0,1:0:0:0:
233,315,37413,1,0,1:0:0:0:
270,274,37479,6,0,L|261:228,6,31.4999990386963,4|0|0|0|0|0|0,1:0|1:0|1:0|1:0|1:0|1:0|1:0,0:0:0:0:
57,209,37743,69,0,1:0:0:0:
111,197,37809,1,0,1:0:0:0:
166,184,37875,1,0,1:0:0:0:
221,172,37941,1,0,1:0:0:0:
276,161,38008,1,0,1:0:0:0:
79,87,38140,6,0,L|70:133,2,31.4999990386963,0|0|0,1:0|1:0|1:0,0:0:0:0:
56,215,38272,70,0,B|69:232|69:232|156:210|156:210|174:159|174:159|263:139|263:139|299:179,1,277.199999154053,12|0,1:0|0:0,0:0:0:0:
461,135,38536,70,0,B|501:105|501:105|321:58|321:58|380:129,1,315.000012016297,6|0,1:0|0:0,0:0:0:0:
227,246,38800,69,4,1:3:0:0:
241,238,38867,1,4,3:0:0:0:
256,235,38933,1,4,3:0:0:0:
272,233,38999,1,4,3:0:0:0:
310,201,39065,5,8,1:3:0:0:
284,256,39131,1,8,3:0:0:0:
305,312,39197,1,8,3:0:0:0:
365,322,39263,1,8,3:0:0:0:
413,282,39329,1,4,1:3:0:0:
449,236,39395,1,4,3:0:0:0:
501,246,39461,2,0,P|511:279|515:314,1,70,4|4,3:0|3:0,0:0:0:0:
269,384,39593,70,0,P|300:229|352:81,1,315.000012016297,6|0,1:2|0:0,0:0:0:0:
182,28,39858,5,0,1:0:0:0:
202,27,39924,1,0,3:0:0:0:
223,33,39990,2,0,P|237:50|262:101,1,70,0|0,3:0|3:0,0:0:0:0:
34,117,40122,69,0,1:0:0:0:
61,91,40188,1,0,3:0:0:0:
103,96,40254,2,0,P|142:102|179:126,1,70,0|0,3:0|3:0,0:0:0:0:
36,304,40386,5,0,1:0:0:0:
22,258,40452,1,0,3:0:0:0:
46,215,40519,2,0,P|77:196|128:187,1,70,0|0,3:0|3:0,0:0:0:0:
283,255,40651,70,0,B|348:299|348:299|236:284|236:284|226:290|226:290|91:270,1,315.000012016297,4|0,1:0|0:0,0:0:0:0:
118,363,40915,5,4,1:3:0:0:
165,357,40981,1,4,3:0:0:0:
196,320,41047,1,4,3:0:0:0:
198,270,41113,1,4,3:0:0:0:
177,210,41179,1,8,1:3:0:0:
184,136,41245,1,8,3:0:0:0:
249,103,41312,1,8,3:0:0:0:
309,130,41378,1,8,3:0:0:0:
347,157,41444,1,4,1:3:0:0:
390,152,41510,1,4,3:0:0:0:
423,126,41576,1,4,3:0:0:0:
424,87,41642,1,4,3:0:0:0:
346,35,41708,70,0,P|396:170|419:362,1,315.000012016297,6|0,1:2|0:0,0:0:0:0:
350,384,41972,2,0,B|338:336|338:336|313:322|303:293,1,105.000004005432,0|0,1:0|0:0,0:0:0:0:
462,225,42104,2,0,B|515:191|515:191|491:225,1,105.000004005432,8|0,3:0|0:0,0:0:0:0:
241,360,42237,6,0,L|116:340,1,105.000004005432,0|0,1:0|0:0,0:0:0:0:
359,108,42369,2,0,P|338:154|320:233,1,105.000004005432,4|0,3:0|0:0,0:0:0:0:
0,231,42501,70,0,B|48:225|48:225|92:253|92:253|177:240|177:240|209:155|209:155|287:141,1,336,8|0,1:0|0:0,0:0:0:0:
486,39,42765,6,0,B|443:31|443:31|373:102|373:102|343:42|343:42|228:17,1,315.000012016297,4|0,1:0|0:0,0:0:0:0:
171,39,43030,69,4,1:3:0:0:
154,39,43096,1,4,3:3:0:0:
139,42,43162,1,4,3:3:0:0:
125,51,43228,1,4,3:3:0:0:
62,35,43294,5,8,1:3:0:0:
115,61,43360,1,8,3:0:0:0:
128,119,43426,1,8,3:0:0:0:
106,171,43492,1,8,3:0:0:0:
64,205,43558,1,4,1:3:0:0:
62,257,43624,1,4,3:0:0:0:
100,293,43690,2,0,P|133:303|168:304,1,70,4|4,3:0|3:0,0:0:0:0:
416,305,43823,70,0,P|304:294|127:382,1,315.000012016297,6|0,1:2|0:0,0:0:0:0:
225,238,44087,5,0,1:0:0:0:
212,222,44153,1,0,3:0:0:0:
214,201,44219,2,0,L|225:126,1,70,0|0,3:0|3:0,0:0:0:0:
333,184,44351,69,0,1:0:0:0:
319,156,44417,1,0,3:0:0:0:
328,127,44483,2,0,L|357:45,1,70,0|0,3:0|3:0,0:0:0:0:
438,145,44615,5,0,1:0:0:0:
431,108,44682,1,0,3:0:0:0:
455,78,44748,2,0,L|499:14,1,70,0|0,3:0|3:0,0:0:0:0:
495,241,44880,70,0,B|467:249|467:249|454:265|454:265|434:261|434:261|371:275,1,105.000004005432,4|0,1:0|0:0,0:0:0:0:
164,37,45012,2,0,B|192:45|192:45|205:61|205:61|225:57|225:57|288:71,1,105.000004005432,0|0,1:0|0:0,0:0:0:0:
327,305,45144,5,0,1:0:0:0:
327,305,45210,2,0,L|315:381,1,70,2|0,3:2|0:0,0:0:0:0:
198,338,45408,2,0,L|189:301,1,35,2|2,3:0|0:0,0:0:0:0:
67,343,45541,2,0,L|58:380,1,35,2|2,3:0|0:0,0:0:0:0:
285,237,45673,69,4,1:3:0:0:
115,273,45805,1,2,0:3:0:0:
11,139,45937,6,0,L|83:151,1,69.2999997885132,2|0,3:0|0:0,0:0:0:0:
143,199,46201,2,0,L|215:211,1,69.2999997885132,2|0,0:0|0:0,0:0:0:0:
293,152,46466,70,0,B|286:133|325:48|385:-14|515:-1|508:96|458:129,1,336,4|0,1:0|0:0,0:0:0:0:
248,269,46730,6,0,B|255:251|216:166|156:104|26:117|33:214|80:244,1,336,4|0,1:0|0:0,0:0:0:0:
214,38,46994,70,0,P|283:237|311:407,1,336,4|0,1:0|0:0,0:0:0:0:
428,300,47259,5,4,1:3:0:0:
446,303,47325,1,4,3:0:0:0:
459,312,47391,1,4,3:0:0:0:
469,326,47457,1,4,3:0:0:0:
512,305,47523,69,8,1:3:0:0:
487,251,47589,1,8,3:0:0:0:
429,239,47655,1,8,3:0:0:0:
381,268,47721,1,8,3:0:0:0:
362,322,47787,1,4,1:3:0:0:
319,352,47853,1,4,3:0:0:0:
267,344,47919,2,0,P|252:309|238:257,1,70,4|4,3:0|3:0,0:0:0:0:
376,61,48052,6,0,B|342:-1|342:-1|322:124|322:124|330:144|330:144|313:252,1,315.000012016297,6|0,1:2|0:0,0:0:0:0:
176,352,48316,69,0,1:0:0:0:
158,342,48382,1,0,3:0:0:0:
139,339,48448,2,0,P|104:347|63:372,1,70,0|0,3:0|3:0,0:0:0:0:
136,208,48580,5,0,1:0:0:0:
110,191,48646,1,0,3:0:0:0:
79,190,48712,2,0,P|50:197|11:221,1,70,0|0,3:0|3:0,0:0:0:0:
178,62,48845,69,0,1:0:0:0:
152,35,48911,1,0,3:0:0:0:
114,26,48977,2,0,P|75:25|27:40,1,70,0|0,3:0|3:0,0:0:0:0:
82,277,49109,6,0,P|154:224|394:209,1,315.000012016297,4|0,1:0|0:0,0:0:0:0:
485,113,49373,69,4,1:3:0:0:
484,64,49439,1,4,3:0:0:0:
443,31,49505,1,4,3:0:0:0:
378,28,49571,1,4,3:0:0:0:
332,82,49637,1,8,1:3:0:0:
342,152,49704,1,8,3:0:0:0:
386,197,49770,1,8,3:0:0:0:
425,241,49836,1,8,3:0:0:0:
417,297,49902,1,8,1:3:0:0:
385,330,49968,1,8,3:0:0:0:
336,330,50034,2,0,P|310:336|262:368,1,70,4|4,3:0|3:0,0:0:0:0:
130,270,50166,6,0,L|246:287,1,105.000004005432,0|0,1:0|0:0,0:0:0:0:
59,135,50298,2,0,L|175:152,1,105.000004005432,0|0,1:0|0:0,0:0:0:0:
365,32,50430,69,2,1:3:0:0:
323,41,50497,1,2,1:3:0:0:
282,50,50563,1,2,1:3:0:0:
241,59,50629,1,2,1:3:0:0:
228,76,50695,5,0,1:0:0:0:
207,71,50761,1,0,1:0:0:0:
186,66,50827,1,0,1:0:0:0:
165,61,50893,1,0,1:0:0:0:
125,4,50959,70,0,B|104:136|104:136|111:152|111:152|87:317,1,315.000012016297,8|0,1:0|0:0,0:0:0:0:
13,384,51223,6,0,B|-17:363|-17:363|213:308|213:308|179:365,1,315.000012016297,6|0,1:0|0:0,0:0:0:0:
267,251,51488,69,4,1:3:0:0:
284,262,51554,1,4,3:0:0:0:
304,263,51620,1,4,3:0:0:0:
324,260,51686,1,4,3:0:0:0:
325,291,51752,5,8,1:3:0:0:
376,268,51818,1,8,3:0:0:0:
436,272,51884,1,8,3:0:0:0:
486,309,51950,1,8,3:0:0:0:
505,371,52016,70,0,L|442:387,1,52.5,2|2,3:0|3:0,0:0:0:0:
314,344,52149,2,0,L|266:357,1,35,2|2,3:0|3:0,0:0:0:0:
505,233,52281,6,0,B|419:278|342:188|392:171|321:85|234:136,1,315.000012016297,4|0,1:0|0:0,0:0:0:0:
155,148,52545,69,0,1:0:0:0:
146,128,52611,1,0,3:0:0:0:
155,107,52677,2,0,P|169:71|178:26,1,70,0|0,3:0|3:0,0:0:0:0:
212,217,52809,5,0,1:0:0:0:
235,238,52875,1,0,3:0:0:0:
267,238,52941,2,0,P|305:250|341:276,1,70,0|0,3:0|3:0,0:0:0:0:
124,232,53074,69,0,1:0:0:0:
81,238,53140,1,0,3:0:0:0:
55,272,53206,2,0,P|28:298|-13:320,1,70,0|0,3:0|3:0,0:0:0:0:
115,355,53338,5,6,1:2:0:0:
137,327,53404,1,2,0:3:0:0:
168,311,53470,1,2,0:3:0:0:
202,313,53536,1,2,0:3:0:0:
231,331,53602,2,0,L|240:373,1,35,2|2,3:2|0:3,0:0:0:0:
359,322,53734,2,0,L|368:280,1,35,2|2,3:2|0:3,0:0:0:0:
472,188,53867,69,6,1:2:0:0:
450,160,53933,1,2,0:3:0:0:
419,144,53999,1,2,0:3:0:0:
385,146,54065,1,2,0:3:0:0:
356,164,54131,2,0,L|347:206,1,35,2|2,3:2|0:3,0:0:0:0:
228,155,54263,2,0,L|219:113,1,35,2|2,3:2|0:3,0:0:0:0:
23,35,54395,5,0,1:0:0:0:
53,51,54461,1,2,0:3:0:0:
83,67,54527,2,0,L|126:56,1,35,2|2,0:3|0:3,0:0:0:0:
221,121,54660,69,0,1:0:0:0:
251,105,54726,1,2,0:3:0:0:
281,89,54792,2,0,L|324:100,1,35,2|2,0:3|0:3,0:0:0:0:
485,46,54924,6,0,L|400:28,1,70,0|2,1:0|0:3,0:0:0:0:
274,214,55056,2,0,L|189:196,1,70,0|2,1:0|0:3,0:0:0:0:
57,346,55188,70,0,B|136:337|136:337|168:358|168:358|309:342|309:342|349:268|349:268|462:253,1,420,14|0,1:0|0:0,0:0:0:0:
509,297,55452,6,0,B|545:309|514:363|447:340|442:264|506:239|468:174|424:135|355:136|315:195,1,315.000012016297,6|0,1:0|0:0,0:0:0:0:
327,340,55717,70,0,B|335:368|335:368|359:269,1,105.000004005432,8|0,3:0|0:0,0:0:0:0:
477,145,55849,2,0,B|464:100|464:100|425:258,1,210.000008010865,4|8,3:0|1:0,0:0:0:0:
44,188,56113,6,0,L|85:175,1,35,4|0,0:3|0:0,0:0:0:0:
130,244,56245,2,0,L|172:248,1,35,12|0,0:3|0:0,0:0:0:0:
187,329,56378,2,0,L|224:349,1,35,8|0,0:3|0:0,0:0:0:0:
65,368,56510,69,0,1:0:0:0:
65,368,56576,2,0,B|82:280|82:280|89:276|89:276|112:157,1,210.000008010865,4|0,1:3|0:0,0:0:0:0:
174,116,56774,6,0,B|210:109|210:109|249:103|258:66|236:31|200:39|200:39|14:76,1,315.000012016297,8|0,1:3|0:0,0:0:0:0:
0,128,57038,1,8,1:0:0:0:
221,249,57171,70,0,B|229:205|229:205|233:203|233:203|244:143,1,105.000004005432,2|0,3:0|0:0,0:0:0:0:
394,34,57303,2,0,L|467:14,3,70,4|4|4|4,0:3|0:3|0:3|0:3,0:0:0:0:
314,45,57567,5,8,1:3:0:0:
364,55,57633,1,8,3:3:0:0:
413,65,57699,1,4,3:3:0:0:
462,75,57765,1,4,3:3:0:0:
511,85,57831,1,6,3:2:0:0:
400,272,57963,70,0,L|394:318,1,35,8|0,3:0|0:0,0:0:0:0:
339,215,58096,6,1,B|268:237|253:354|378:422|475:331|455:263|420:220|420:220|396:181|419:149,1,420,12|0,1:0|0:0,0:0:0:0:
283,119,58360,69,8,1:3:0:0:
296,120,58426,1,8,3:0:0:0:
308,126,58492,1,8,3:0:0:0:
317,136,58558,1,8,3:0:0:0:
347,204,58624,6,0,B|244:225|244:225|239:233|239:233|118:255,1,210,0|4,1:0|3:0,0:0:0:0:
0,303,58823,2,0,B|41:285|54:233|54:233|54:308|111:347,1,210.000008010865,8|0,3:0|3:0,0:0:0:0:
229,329,59021,2,0,B|200:322|200:322|167:372|167:372|192:377,1,105.000004005432,2|0,3:0|0:0,0:0:0:0:
0,120,59153,70,0,B|1:44|83:2|187:37|180:111|126:104|121:82,1,251.999992309571,8|4,1:0|1:3,0:0:0:0:
39,191,59417,5,8,1:3:0:0:
62,181,59483,1,8,3:0:0:0:
86,175,59549,1,8,3:1:0:0:
111,175,59615,1,4,3:0:0:0:
181,220,59682,70,0,B|262:235|338:163|273:135|348:52|447:87,1,315.000012016297,4|0,1:0|0:0,0:0:0:0:
422,193,59946,6,0,P|392:161|401:202,1,105.000004005432,8|0,3:0|0:0,0:0:0:0:
172,74,60078,2,0,P|210:138|199:64,1,210.000008010865,4|8,3:0|1:0,0:0:0:0:
206,367,60342,70,0,L|215:326,1,35,4|0,3:0|0:0,0:0:0:0:
122,304,60474,2,0,L|114:262,1,35,12|0,3:0|0:0,0:0:0:0:
20,278,60607,2,0,L|-3:243,1,35,8|0,3:0|0:0,0:0:0:0:
277,271,60739,5,8,1:3:0:0:
290,269,60805,1,8,3:0:0:0:
303,272,60871,1,8,3:0:0:0:
315,279,60937,1,8,3:0:0:0:
313,304,61003,70,0,B|345:340|416:332|391:295|441:250|491:270|515:295|509:340|490:361|453:356,1,272.999987503052,4|0,1:3|0:0,0:0:0:0:
381,225,61267,6,0,P|357:207|309:199,2,70,8|0|0,1:0|3:0|3:0,0:0:0:0:
449,102,61466,1,2,3:0:0:0:
476,128,61532,2,0,P|494:120|521:117,3,46.6666666666667,2|2|2|2,1:2|3:2|3:2|3:2,0:0:0:0:
353,108,61730,1,0,3:0:0:0:
353,108,61796,70,0,B|326:42|326:42|238:56|238:56|260:117|260:117|127:137,1,315.000012016297,6|0,1:2|0:0,0:0:0:0:
0,66,62060,2,0,B|11:49|11:49|117:69,1,105.000004005432,8|0,0:1|0:0,0:0:0:0:
126,305,62193,2,0,L|138:243,1,52.5000020027161,8|0,3:0|0:0,0:0:0:0:
243,215,62325,6,0,P|152:217|34:289,1,210.000008010865,6|8,3:0|3:2,0:0:0:0:
300,357,62523,1,0,3:0:0:0:
300,357,62589,2,0,B|246:338|205:290|205:290|220:341|188:389,1,210.000008010865,8|8,1:0|3:0,0:0:0:0:
316,163,62853,70,0,L|328:209,1,35,0|0,1:0|0:0,0:0:0:0:
407,218,62986,6,0,L|383:314,1,70,4|0,1:3|0:0,0:0:0:0:
492,291,63118,70,0,L|439:387,1,105.000004005432,8|0,1:0|0:0,0:0:0:0:
212,298,63250,5,8,1:3:0:0:
212,298,63316,1,8,1:3:0:0:
212,298,63382,1,8,1:3:0:0:
512,181,63514,1,0,1:0:0:0:
319,62,63646,70,0,B|329:120|329:120|332:121|332:121|347:198|347:198|351:200|351:200|365:281|365:281|362:283|362:283|376:353,1,280,8|4,1:0|3:0,0:0:0:0:
368,361,63911,6,0,B|310:300|310:300|367:121,1,262.5,6|0,1:0|0:0,0:0:0:0:
469,60,64175,70,0,B|482:36|482:36|395:59,1,105.000004005432,8|0,1:3|0:0,0:0:0:0:
234,133,64307,2,0,B|210:89|210:89|367:131,1,210.000008010865,12|4,3:0|3:0,0:0:0:0:
278,242,64571,6,0,L|248:202,1,35,4|0,1:3|0:0,0:0:0:0:
161,226,64704,2,0,L|149:177,1,35,8|0,1:0|0:0,0:0:0:0:
59,165,64836,2,0,L|66:115,1,35,10|0,3:0|0:0,0:0:0:0:
217,8,64968,69,0,1:0:0:0:
217,8,65034,2,0,B|237:103|237:103|235:110|235:110|259:225,1,210.000008010865,0|0,1:0|0:0,0:0:0:0:
222,317,65232,6,0,B|57:271|57:271|20:291|20:291|146:328,1,315.000012016297,8|0,1:0|0:0,0:0:0:0:
173,384,65497,1,8,3:3:0:0:
332,185,65629,1,4,1:3:0:0:
409,269,65761,69,8,1:3:0:0:
411,279,65827,1,8,3:3:0:0:
413,289,65893,1,8,3:3:0:0:
415,299,65959,1,8,3:3:0:0:
387,332,66025,5,4,1:3:0:0:
395,280,66091,1,4,3:0:0:0:
404,228,66157,1,4,3:0:0:0:
413,176,66223,1,4,3:0:0:0:
422,124,66289,1,8,1:0:0:0:
294,69,66422,70,0,P|341:77|375:34,1,105.000004005432,10|0,3:3|0:0,0:0:0:0:
492,205,66554,2,0,P|398:150|193:123,1,280,0|4,1:0|1:3,0:0:0:0:
12,22,66818,5,8,1:0:0:0:
22,31,66884,1,8,3:0:0:0:
35,34,66950,1,8,3:0:0:0:
48,36,67016,1,4,3:0:0:0:
61,35,67082,1,4,1:3:0:0:
276,204,67215,69,4,3:0:0:0:
276,204,67281,1,10,3:0:0:0:
276,204,67347,2,0,B|245:178|245:178|167:206,1,105.000004005432,8|0,1:0|0:0,0:0:0:0:
13,118,67479,2,0,B|62:125|62:125|64:129|64:129|123:138,1,105.000004005432,4|0,1:3|0:0,0:0:0:0:
187,53,67611,6,0,B|135:95|148:179|172:167|201:241|148:300,1,251.999992309571,2|4,1:3|1:3,0:0:0:0:
80,362,67875,69,8,1:0:0:0:
86,350,67941,1,8,3:0:0:0:
89,337,68008,1,8,1:3:0:0:
90,324,68074,1,8,3:3:0:0:
71,252,68140,6,0,B|29:205|29:205|354:268,1,377.999988464356,4|0,1:0|0:0,0:0:0:0:
466,334,68404,2,0,B|508:381|508:381|183:318,1,377.999988464356,6|0,1:2|0:0,0:0:0:0:
117,120,68668,1,8,1:0:0:0:
316,230,68800,70,0,L|308:183,1,35,6|0,3:0|0:0,0:0:0:0:
391,146,68933,2,0,L|402:99,1,35,8|0,1:0|0:0,0:0:0:0:
492,97,69065,2,0,L|520:58,1,35,8|0,1:3|0:0,0:0:0:0:
249,7,69197,5,8,1:0:0:0:
262,39,69263,1,8,3:0:0:0:
292,56,69329,1,8,1:3:0:0:
327,53,69395,1,8,3:0:0:0:
358,35,69461,70,0,P|282:38|49:125,1,315.000012016297,8|0,1:0|0:0,0:0:0:0:
155,165,69726,6,0,P|189:174|232:200,2,70,8|0|0,1:0|3:0|3:0,0:0:0:0:
91,278,69924,1,2,3:0:0:0:
62,246,69990,2,0,P|28:255|-9:276,2,46.6666666666667,2|2|2,3:2|3:2|3:2,0:0:0:0:
140,340,70122,2,0,B|189:349|189:349|194:346|194:346|248:356,1,105.000004005432,8|0,1:0|0:0,0:0:0:0:
322,296,70254,70,0,L|305:215,1,52.5000020027161,6|0,1:2|0:0,0:0:0:0:
366,123,70386,1,2,3:0:0:0:
218,147,70519,1,8,0:1:0:0:
327,280,70651,6,0,L|310:199,1,52.5000020027161,6|0,1:2|0:0,0:0:0:0:
223,131,70783,1,2,3:0:0:0:
371,107,70916,1,8,0:1:0:0:
286,24,71047,70,0,B|270:143|270:143|274:153|274:153|254:294,1,262.5,4|0,1:0|0:0,0:0:0:0:
339,384,71312,5,8,1:0:0:0:
403,381,71378,1,4,1:3:0:0:
445,336,71444,1,4,1:3:0:0:
457,273,71510,1,4,1:3:0:0:
418,223,71576,1,8,1:0:0:0:
358,180,71642,1,8,1:3:0:0:
358,104,71708,1,8,1:3:0:0:
426,72,71774,1,8,1:3:0:0:
477,128,71840,70,0,P|410:138|254:191,1,210.000008010865,8|0,1:0|0:0,0:0:0:0:
40,33,72038,2,0,P|108:50|243:107,1,210.000008010865,8|0,1:0|0:0,0:0:0:0:
223,255,72237,2,0,B|245:267|245:267|263:362,1,105.000004005432,8|0,1:0|0:0,0:0:0:0:
301,43,72369,37,6,1:0:0:0:
371,10,72501,1,2,0:0:0:0:
270,179,72633,69,2,0:0:0:0:
237,109,72765,1,2,0:0:0:0:
336,243,72897,5,2,0:0:0:0:
406,210,73029,1,2,0:0:0:0:
437,74,73162,69,2,0:0:0:0:
470,144,73294,1,2,0:0:0:0:
383,138,73426,6,0,P|348:123|308:115,1,70,10|2,0:0|0:0,0:0:0:0:
120,215,73690,69,2,0:0:0:0:
112,143,73823,1,2,0:0:0:0:
82,335,73955,5,2,0:0:0:0:
24,378,74088,1,2,0:0:0:0:
200,321,74218,69,2,0:0:0:0:
267,351,74351,1,2,0:0:0:0:
137,286,74483,6,0,P|142:245|155:204,1,70,10|2,0:0|0:0,0:0:0:0:
319,113,74748,2,0,P|317:66|308:34,1,70,2|2,0:0|0:0,0:0:0:0:
248,177,75012,69,2,0:0:0:0:
248,177,75144,1,2,0:0:0:0:
248,177,75276,1,2,0:0:0:0:
248,177,75408,1,2,0:0:0:0:
386,184,75541,6,0,P|420:174|465:167,1,70,10|2,0:0|0:0,0:0:0:0:
103,141,75805,2,0,P|69:151|24:158,1,70,2|2,0:0|0:0,0:0:0:0:
228,335,76069,69,2,0:0:0:0:
251,181,76201,1,2,0:0:0:0:
240,258,76334,1,2,0:0:0:0:
264,103,76466,1,2,0:0:0:0:
191,13,76598,6,0,B|155:18|155:18|138:60,1,70,14|2,3:2|0:0,0:0:0:0:
351,119,76862,2,0,B|364:85|364:85|336:49,1,70,2|2,0:2|0:0,0:0:0:0:
180,205,77126,2,0,B|202:233|202:233|247:227,1,70,2|2,0:2|0:0,0:0:0:0:
244,115,77391,69,2,0:0:0:0:
244,115,77523,1,2,0:0:0:0:
331,212,77655,5,10,0:0:0:0:
407,196,77787,1,2,0:0:0:0:
259,321,77919,69,2,0:0:0:0:
183,305,78051,1,2,0:0:0:0:
330,197,78184,5,2,0:0:0:0:
406,213,78316,1,2,0:0:0:0:
261,305,78448,69,2,0:0:0:0:
185,321,78580,1,2,0:0:0:0:
250,173,78712,6,0,B|233:140|233:140|258:101,1,70,10|2,0:0|0:0,0:0:0:0:
335,324,78977,2,0,B|352:357|352:357|327:396,1,70,2|2,0:0|0:0,0:0:0:0:
163,181,79241,70,0,P|117:173|85:171,1,70,2|2,0:0|0:0,0:0:0:0:
409,289,79505,2,0,P|455:297|487:299,1,70,2|2,0:0|3:2,0:0:0:0:
478,298,79704,1,0,3:0:0:0:
478,298,79770,1,10,1:2:0:0:
291,259,80034,6,0,B|286:211|286:211|292:206|292:206|284:148,1,105,4|0,3:0|0:0,0:0:0:0:
381,102,80298,69,8,1:3:0:0:
355,95,80364,1,8,3:0:0:0:
330,90,80430,1,4,3:0:0:0:
305,85,80497,1,4,3:0:0:0:
248,21,80563,6,0,B|224:-4|224:-4|113:24|113:24|186:125|186:125|231:109,1,315.000012016297,8|0,1:0|0:0,0:0:0:0:
483,68,80827,70,0,P|464:112|448:181,1,112,4|4,1:0|3:3,0:0:0:0:
355,192,81091,1,8,3:2:0:0:
457,276,81223,1,0,3:0:0:0:
288,256,81356,6,0,P|214:233|164:229,1,112,4|8,3:0|3:2,0:0:0:0:
61,112,81620,1,8,0:2:0:0:
56,89,81686,1,8,0:2:0:0:
51,66,81752,1,8,0:2:0:0:
46,43,81818,1,8,0:2:0:0:
42,20,81884,1,8,3:2:0:0:
162,124,82016,1,0,3:0:0:0:
158,144,82082,1,0,3:0:0:0:
155,164,82149,2,0,L|42:205,2,112,10|0|10,3:2|3:0|3:2,0:0:0:0:
132,351,82545,70,0,B|132:282|167:212|167:212|107:183|107:183|98:186|98:186|46:163|46:163|65:100|37:22,1,419.999987182618,4|0,1:0|0:0,0:0:0:0:
217,107,82941,6,0,B|227:138|227:138|106:186|106:186|97:182|97:182|-12:227|-12:227|3:269,1,336,4|0,1:0|0:0,0:0:0:0:
6,266,83206,1,8,3:2:0:0:
135,354,83338,69,8,0:0:0:0:
175,347,83404,1,8,0:0:0:0:
213,337,83470,1,8,0:0:0:0:
222,297,83536,1,8,0:0:0:0:
228,250,83602,1,8,3:2:0:0:
401,159,83734,5,8,3:2:0:0:
430,163,83800,1,8,0:0:0:0:
456,170,83866,1,8,0:0:0:0:
463,199,83932,1,8,0:0:0:0:
467,232,83998,1,8,3:2:0:0:
371,286,84131,1,4,3:0:0:0:
322,103,84263,70,0,L|351:374,1,251.999992309571,4|0,1:0|0:0,0:0:0:0:
348,353,84527,1,0,3:0:0:0:
190,281,84660,6,0,L|160:9,1,251.999992309571,4|0,1:0|0:0,0:0:0:0:
162,30,84924,1,0,3:0:0:0:
465,40,85056,70,0,B|496:33|511:87|455:89|373:64|393:-13,1,167.999994873047,4|0,1:0|0:0,0:0:0:0:
296,223,85320,2,0,B|339:232|360:157|282:154|167:189|195:297,1,251.999992309571,4|0,1:0|0:0,0:0:0:0:
192,283,85585,1,8,3:2:0:0:
309,342,85717,1,8,0:2:0:0:
120,384,85849,1,8,3:2:0:0:
116,345,85915,1,8,0:0:0:0:
106,306,85981,1,8,0:0:0:0:
91,268,86047,1,8,0:0:0:0:
68,234,86113,1,8,3:2:0:0:
200,290,86245,5,8,0:0:0:0:
217,255,86312,1,8,0:0:0:0:
253,239,86378,2,0,P|321:258|305:349,2,167.999994873047,10|0|10,3:2|3:0|3:2,3:0:0:0:
0,278,86774,69,4,1:0:0:0:
44,126,86906,1,8,3:2:0:0:
44,126,86972,1,8,0:0:0:0:
44,126,87038,1,8,0:0:0:0:
44,126,87104,1,8,0:0:0:0:
44,126,87171,6,0,B|98:132|122:90|118:81|114:74|144:30|203:33,1,188.999994232178,4|0,1:0|0:0,0:0:0:0:
268,59,87435,2,0,B|274:72|292:78|292:78|274:75|257:84,1,62.9999980773926,0|0,1:0|0:0,0:0:0:0:
6,3,87567,70,0,B|85:-7|119:70|115:78|109:89|145:159|209:153,1,272.999987503052,4|0,1:0|0:0,0:0:0:0:
268,219,87831,1,8,3:2:0:0:
268,219,87897,1,8,3:0:0:0:
268,219,87963,1,4,3:0:0:0:
387,24,88096,6,0,P|373:66|369:107,1,70,4|0,1:0|0:0,0:0:0:0:
459,214,88228,1,8,3:2:0:0:
301,145,88360,1,2,3:2:0:0:
468,301,88492,70,0,B|399:312|399:312|340:239,1,140,4|2,1:0|3:2,0:0:0:0:
222,74,88756,2,0,B|186:67|186:67|136:101,1,70,2|0,1:2|0:0,0:0:0:0:
47,205,88889,5,4,1:3:0:0:
47,205,88955,1,8,1:3:0:0:
47,205,89021,2,0,L|128:191,1,70,8|0,1:0|0:0,0:0:0:0:
371,148,89153,2,0,L|452:134,1,70,4|0,1:3|0:0,0:0:0:0:
195,184,89285,69,4,1:0:0:0:
195,184,89417,1,2,0:0:0:0:
195,184,89549,1,2,3:2:0:0:
164,255,89682,1,2,0:0:0:0:
201,319,89814,1,10,0:0:0:0:
274,325,89946,1,2,0:0:0:0:
315,263,90078,1,0,0:0:0:0:
384,228,90210,1,0,0:0:0:0:
488,260,90342,5,10,3:2:0:0:
494,273,90474,1,2,0:0:0:0:
486,281,90607,1,2,0:0:0:0:
477,276,90739,1,2,0:0:0:0:
443,131,90871,69,10,3:2:0:0:
317,114,91003,1,2,0:0:0:0:
387,83,91135,1,10,0:0:0:0:
320,187,91267,1,2,0:0:0:0:
425,350,91400,5,14,3:2:0:0:
349,339,91532,1,2,0:0:0:0:
277,328,91664,1,2,0:0:0:0:
203,315,91796,1,2,0:0:0:0:
120,366,91928,69,10,3:2:0:0:
251,346,92060,1,2,0:0:0:0:
378,327,92192,1,10,0:0:0:0:
506,302,92324,1,2,0:0:0:0:
381,199,92457,6,0,L|395:252,2,41.9999987182618,2|0|0,1:2|3:0|3:0,0:0:0:0:
244,123,92721,70,0,B|277:112|277:112|329:144,1,70,8|0,1:0|0:0,0:0:0:0:
375,330,92853,2,0,B|408:341|408:341|460:309,1,70,8|0,1:0|0:0,0:0:0:0:
453,89,92986,6,0,B|420:78|420:78|368:110,1,70,8|0,3:1|0:0,0:0:0:0:
300,363,93118,2,0,B|267:374|267:374|215:342,1,70,8|0,3:1|0:0,0:0:0:0:
295,227,93250,69,8,1:3:0:0:
395,243,93382,1,4,3:0:0:0:
476,214,93514,6,0,B|348:231|348:231|341:241|341:241|211:257,1,272.999987503052,4|0,1:0|0:0,0:0:0:0:
109,73,93778,69,0,1:0:0:0:
109,73,93845,1,0,1:0:0:0:
109,73,93911,1,0,1:0:0:0:
109,73,93977,1,0,1:0:0:0:
42,114,94043,6,0,B|172:130|172:130|179:140|179:140|311:157,1,272.999987503052,4|0,1:0|0:0,0:0:0:0:
427,313,94307,69,0,1:0:0:0:
427,313,94374,1,0,1:0:0:0:
427,313,94440,1,0,1:0:0:0:
427,313,94506,1,0,1:0:0:0:
495,342,94572,6,0,B|365:358|365:358|358:368|358:368|226:385,1,272.999987503052,4|0,1:0|0:0,0:0:0:0:
251,23,94836,69,0,1:0:0:0:
251,23,94903,1,0,1:0:0:0:
251,23,94969,1,0,1:0:0:0:
251,23,95035,1,0,1:0:0:0:
321,0,95100,6,0,B|336:19|336:19|302:108,1,90.9999958343508,4|0,1:0|0:0,0:0:0:0:
199,195,95232,2,0,B|184:214|184:214|207:276,1,90.9999958343508,0|0,1:0|0:0,0:0:0:0:
319,337,95363,70,0,B|342:278|342:278|323:245,1,90.9999958343508,8|0,1:0|0:0,0:0:0:0:
171,120,95497,2,0,B|147:57|147:57|162:38,1,90.9999958343508,0|0,1:0|0:0,0:0:0:0:
430,316,95629,5,4,1:0:0:0:
476,63,95761,1,0,1:0:0:0:
26,297,95893,1,8,1:0:0:0:
77,32,96025,1,0,1:0:0:0:
276,8,96157,69,4,1:3:0:0:
272,48,96223,1,4,1:3:0:0:
270,89,96289,1,4,1:3:0:0:
266,126,96356,1,4,1:3:0:0:
232,165,96422,5,8,1:3:0:0:
237,220,96488,1,8,1:3:0:0:
239,277,96554,1,8,1:3:0:0:
245,328,96621,1,8,1:3:0:0:
275,364,96686,70,0,B|301:358|301:358|312:311|312:311|185:284|185:284|169:228|169:228|342:195|342:195|360:133,1,490,4|0,1:2|0:0,0:0:0:0:
267,86,97215,6,0,B|234:92|234:92|252:16|252:16|285:11|285:11|269:83,1,210,2|0,3:0|0:0,0:0:0:0:
472,186,97479,70,0,B|522:195|522:195|494:78|494:78|443:71|443:71|468:182,1,315.000012016297,8|0,1:0|0:0,0:0:0:0:
507,384,97743,38,0,P|534:346|502:380,1,140,2|0,1:0|0:0,0:0:0:0:
417,298,97941,70,0,P|430:257|412:295,1,125.999996154785,2|0,0:3|0:0,0:0:0:0:
319,240,98139,6,0,P|322:202|314:239,1,112,2|0,0:3|0:0,0:0:0:0:
211,226,98337,70,0,P|204:193|206:226,1,97.9999970092774,2|0,0:3|0:0,0:0:0:0:
106,240,98535,6,0,P|93:213|101:241,1,83.9999974365235,2|0,0:3|0:0,0:0:0:0:
12,286,98734,70,0,P|-4:267|7:288,1,70,2|0,0:3|0:0,0:0:0:0:
97,217,98932,6,0,P|100:181|91:215,1,105.000004005432,2|0,0:3|0:0,0:0:0:0:
226,197,99130,70,0,P|263:168|221:190,1,140,2|0,0:3|0:0,0:0:0:0:
364,247,99328,6,0,P|421:255|365:240,1,175,2|0,0:3|0:0,0:0:0:0:
359,89,99527,70,0,B|322:36|322:36|374:0|374:0|411:52|411:52|359:89,1,245.000002336502,8|0,3:0|0:0,0:0:0:0:
357,107,99725,2,0,B|325:61|325:61|369:30|369:30|401:75|401:75|357:107,1,210.000008010865,12|0,3:0|0:0,0:0:0:0:
355,124,99923,2,0,B|328:86|328:86|365:59|365:59|392:98|392:98|355:124,1,175,4|0,3:0|0:0,0:0:0:0:
269,201,100121,6,0,B|201:214|201:214|204:216|204:216|138:229,1,140,4|2,1:0|3:3,0:0:0:0:
128,247,100320,1,2,3:3:0:0:
117,265,100386,1,2,3:3:0:0:
221,348,100518,1,2,3:0:0:0:
70,178,100650,70,0,B|64:137|64:137|60:134|60:134|55:93,1,87.5,4|0,3:0|0:0,0:0:0:0:
128,61,100782,2,0,B|133:101|133:101|137:104|137:104|142:145,1,87.5,8|0,3:0|0:0,0:0:0:0:
287,290,100914,6,0,B|311:295|311:295|329:276,1,52.5000020027161,8|0,1:0|0:0,0:0:0:0:
405,274,101046,2,0,B|426:260|426:260|424:234,1,52.5000020027161,8|0,0:3|0:0,0:0:0:0:
477,179,101179,2,0,B|482:154|482:154|463:136,1,52.5000020027161,4|0,0:3|0:0,0:0:0:0:
461,61,101311,2,0,B|447:39|447:39|421:41,1,52.5000020027161,4|0,0:3|0:0,0:0:0:0:
312,200,101443,70,0,B|286:182|286:182|272:107|272:107|291:80,1,140,4|0,0:3|0:0,0:0:0:0:
308,79,101575,2,0,B|334:97|334:97|348:172|348:172|329:199,1,140,4|0,0:3|0:0,0:0:0:0:
135,301,101707,5,0,1:0:0:0:
90,282,101773,1,0,1:0:0:0:
53,266,101839,2,0,L|45:231,1,35,0|0,1:0|0:0,0:0:0:0:
80,0,101972,70,0,L|88:38,1,35,0|0,1:0|0:0,0:0:0:0:
117,174,102104,2,0,L|108:135,1,35,0|0,3:0|0:0,0:0:0:0:
186,68,102236,2,0,L|147:76,1,35,0|0,3:0|0:0,0:0:0:0:
11,106,102368,2,0,L|49:97,1,35,0|0,1:0|0:0,0:0:0:0:
311,13,102500,6,0,B|361:18|361:18|364:22|364:22|413:28,1,105.000004005432,8|0,1:0|0:0,0:0:0:0:
512,52,102632,2,0,B|461:46|461:46|458:42|458:42|408:37,1,105.000004005432,2|0,0:3|0:0,0:0:0:0:
302,33,102765,2,0,B|352:38|352:38|355:42|355:42|404:48,1,105.000004005432,2|0,0:3|0:0,0:0:0:0:
503,73,102897,2,0,B|452:67|452:67|449:63|449:63|399:58,1,105.000004005432,2|0,0:3|0:0,0:0:0:0:
293,53,103029,2,0,B|343:58|343:58|346:62|346:62|395:68,1,105.000004005432,2|0,0:3|0:0,0:0:0:0:
494,93,103161,2,0,B|443:87|443:87|440:83|440:83|390:78,1,105.000004005432,2|0,0:3|0:0,0:0:0:0:
216,178,103293,70,0,P|274:183|304:234,1,122.500001168251,0|0,1:0|0:0,0:0:0:0:
320,248,103425,2,0,P|286:296|227:297,1,122.500001168251,4|0,3:0|0:0,0:0:0:0:
208,304,103558,2,0,P|182:250|211:199,1,122.500001168251,8|0,3:0|0:0,0:0:0:0:
293,53,103690,6,0,P|319:107|290:158,1,122.500001168251,8|0,3:0|0:0,0:0:0:0:
388,378,103822,2,0,P|328:373|298:322,1,122.500001168251,6|0,3:0|0:0,0:0:0:0:
59,297,103954,2,0,P|92:247|151:247,1,122.500001168251,10|0,3:0|0:0,0:0:0:0:
507,222,104086,70,0,L|498:171,1,52.5000020027161,8|0,1:0|0:0,0:0:0:0:
439,261,104218,2,0,L|430:210,1,52.5000020027161,2|0,3:0|0:0,0:0:0:0:
371,300,104350,2,0,L|362:249,1,52.5000020027161,2|0,3:0|0:0,0:0:0:0:
290,157,104483,6,0,L|299:105,1,52.5000020027161,2|0,3:0|0:0,0:0:0:0:
222,118,104615,2,0,L|231:66,1,52.5000020027161,2|0,3:0|0:0,0:0:0:0:
154,79,104747,2,0,L|163:27,1,52.5000020027161,2|0,3:0|0:0,0:0:0:0:
37,291,104879,70,0,B|91:317|91:317|134:271,1,122.500001168251,0|0,1:0|0:0,0:0:0:0:
141,261,105011,2,0,L|131:209,1,52.5000020027161,2|8,3:0|1:3,0:0:0:0:
304,32,105276,6,0,B|358:6|358:6|401:51,1,122.500001168251,0|0,1:0|0:0,0:0:0:0:
408,62,105408,2,0,L|398:113,1,52.5000020027161,8|10,3:0|3:0,0:0:0:0:
485,261,105672,70,0,B|505:345|505:345|371:321|371:321|340:203|340:203|205:179|205:179|220:254,1,560,8|0,1:0|1:0,0:0:0:0:
227,262,106002,1,2,3:0:0:0:
227,262,106068,2,0,L|278:271,1,52.5000020027161,2|0,3:0|0:0,0:0:0:0:
433,251,106201,2,0,L|485:261,1,52.5000020027161,0|0,1:0|0:0,0:0:0:0:
287,179,106333,2,0,L|338:188,1,52.5000020027161,2|0,3:0|0:0,0:0:0:0:
420,70,106465,6,0,B|435:14|499:4|499:4|499:-4|499:-4|560:95|464:186|371:154|371:154|365:157|365:157|352:106|299:97|299:97|177:77,1,612.500005841255,6|0,1:0|0:0,0:0:0:0:
129,69,106861,70,0,B|94:63,1,35,10|0,3:0|0:0,0:0:0:0:
197,124,106994,2,0,B|209:156,1,35,10|0,3:0|0:0,0:0:0:0:
211,37,107125,2,0,B|233:9,1,35,10|0,3:0|0:0,0:0:0:0:
45,211,107258,6,0,L|7:248,1,52.5000020027161,8|0,1:0|0:0,0:0:0:0:
175,304,107390,2,0,L|181:357,1,52.5000020027161,6|0,3:0|0:0,0:0:0:0:
73,344,107522,2,0,L|90:294,1,52.5000020027161,6|0,3:0|0:0,0:0:0:0:
241,235,107654,2,0,L|267:280,1,52.5000020027161,6|0,3:0|0:0,0:0:0:0:
347,364,107787,70,0,B|354:372|354:372|427:359|427:359|442:307,1,140,4|0,3:0|0:0,0:0:0:0:
445,295,107919,2,0,B|361:275|361:275|344:224,1,140,4|0,3:0|0:0,0:0:0:0:
317,18,108051,6,0,B|374:30|374:30|398:115|398:115|404:118|404:118|396:121|396:121|401:125|401:125|426:208|426:208|451:215,1,280,0|0,1:0|3:0,0:0:0:0:
502,154,108249,1,0,3:0:0:0:
512,138,108315,2,0,B|448:129|448:129|452:135|452:135|384:124,1,140,0|0,1:0|0:0,0:0:0:0:
194,13,108447,70,0,L|207:45,1,35,2|0,3:0|0:0,0:0:0:0:
184,157,108580,2,0,L|205:129,1,35,2|0,3:0|0:0,0:0:0:0:
310,96,108712,2,0,L|275:91,1,35,2|0,3:0|0:0,0:0:0:0:
78,77,108844,6,0,B|63:91|63:91|75:174,1,105.000004005432,8|0,1:0|0:0,0:0:0:0:
105,266,108976,2,0,B|85:256|85:256|74:173,1,105.000004005432,2|0,3:0|0:0,0:0:0:0:
65,70,109108,2,0,B|50:84|50:84|61:167,1,105.000004005432,2|0,3:0|0:0,0:0:0:0:
94,277,109240,2,0,B|75:268|75:268|63:185,1,105.000004005432,2|0,3:0|0:0,0:0:0:0:
51,62,109372,2,0,B|35:76|35:76|47:159,1,105.000004005432,2|0,3:0|0:0,0:0:0:0:
82,289,109504,2,0,B|63:279|63:279|52:196,1,105.000004005432,2|0,3:0|0:0,0:0:0:0:
192,9,109637,70,0,P|184:106|275:143,1,210.000008010865,6|0,1:2|0:0,0:0:0:0:
275,143,110033,2,0,P|378:120|481:99,1,210.000008010865,2|0,3:2|0:0,0:0:0:0:
85,307,110430,6,0,P|175:344|238:268,1,210.000008010865,2|0,3:2|0:0,0:0:0:0:
238,268,110826,2,0,P|248:163|259:59,1,210.000008010865,2|0,3:2|0:0,0:0:0:0:
458,366,111223,70,0,B|450:315|450:315|447:320|447:320|438:262,1,115.499999647522,4|0,1:3|0:0,0:0:0:0:
447,252,111619,5,2,0:0:0:0:
317,150,111751,1,2,0:0:0:0:
224,280,111883,1,8,3:2:0:0:
100,81,112016,70,0,L|190:101,1,92.3999997180176,0|8,1:0|3:2,0:0:0:0:
200,117,112346,1,8,3:2:0:0:
210,131,112412,2,0,B|257:125|257:125|313:118|309:86|356:80|356:80|452:69|452:69|464:67|473:78|467:91|455:92|455:92|400:99,1,350,0|0,1:0|0:0,0:0:0:0:
277,74,112809,6,0,B|262:20|308:-26|361:-11|361:-11|371:0|371:0|341:166|341:166|335:204|302:212|294:257|294:257|279:345,1,525.000020027161,6|0,1:0|0:0,0:0:0:0:
287,357,113205,2,0,L|292:322,6,35,2|2|2|2|2|2|2,3:2|3:2|3:2|3:2|3:2|3:2|3:2,0:0:0:0:
307,247,113469,70,0,P|356:249|369:296,1,105.000004005432,6|0,3:2|0:0,0:0:0:0:
85,369,113602,6,0,L|79:343,1,26.2500010013581,8|2,1:0|3:2,0:0:0:0:
71,364,113668,2,0,L|65:338,1,26.2500010013581,2|2,3:2|3:2,0:0:0:0:
57,359,113734,2,0,L|51:333,1,26.2500010013581,2|2,3:2|3:2,0:0:0:0:
43,354,113800,2,0,L|37:328,1,26.2500010013581,2|2,3:2|3:2,0:0:0:0:
29,349,113866,2,0,L|23:323,1,26.2500010013581,2|2,3:2|3:2,0:0:0:0:
15,344,113932,2,0,L|9:318,1,26.2500010013581,2|2,3:2|3:2,0:0:0:0:
1,338,113998,70,0,B|-10:272|-10:272|17:245,1,105.000004005432,10|0,3:0|0:0,0:0:0:0:
178,235,114130,2,0,B|126:277|126:277|89:267,1,105.000004005432,10|0,3:0|0:0,0:0:0:0:
0,133,114262,2,0,B|62:156|62:156|72:193,1,105.000004005432,10|0,3:0|0:0,0:0:0:0:
184,384,114394,6,0,L|193:332,1,52.5000020027161,4|0,1:3|0:0,0:0:0:0:
237,109,114527,2,0,L|227:160,1,52.5000020027161,4|0,3:0|0:0,0:0:0:0:
195,321,114659,2,0,L|204:269,1,52.5000020027161,4|0,3:0|0:0,0:0:0:0:
182,37,114791,70,0,B|162:9|162:9|174:1|174:1|324:24|324:24|332:34|332:34|306:52,1,245.000002336502,6|8,3:2|3:0,0:0:0:0:
226,170,115055,1,4,1:3:0:0:
512,201,115187,6,0,B|497:247|497:247|313:274|313:274|287:236,2,280,8|0|0,1:0|3:0|3:0,0:0:0:0:
306,52,115584,69,0,1:0:0:0:
282,56,115650,1,2,1:3:0:0:
255,61,115716,2,0,L|186:74,1,70,2|0,1:3|0:0,0:0:0:0:
108,84,115848,2,0,B|76:95|76:95|111:98,1,70,2|0,3:0|0:0,0:0:0:0:
277,202,115980,6,0,L|286:234,1,35,6|0,1:3|3:0,0:0:0:0:
300,207,116046,2,0,L|309:239,1,35,6|0,3:0|3:0,0:0:0:0:
323,212,116113,2,0,L|332:244,1,35,6|0,3:0|3:0,0:0:0:0:
346,217,116179,2,0,L|355:249,1,35,6|0,3:0|3:0,0:0:0:0:
369,222,116245,2,0,L|436:239,1,70,6|6,3:0|3:0,0:0:0:0:
512,384,116377,70,0,L|499:342,1,43.75,6|0,1:3|3:0,0:0:0:0:
489,379,116443,2,0,L|476:337,1,43.75,6|0,3:0|3:0,0:0:0:0:
466,374,116510,2,0,L|453:332,1,43.75,6|0,3:0|3:0,0:0:0:0:
443,369,116575,2,0,L|430:327,1,43.75,6|0,3:0|3:0,0:0:0:0:
420,364,116642,2,0,L|407:322,1,43.75,6|0,3:0|3:0,0:0:0:0:
397,359,116708,2,0,L|384:317,1,43.75,6|0,3:0|3:0,0:0:0:0:
368,355,116773,6,0,B|285:338|285:338|277:327|277:327|167:304,2,210.000008010865,8|2|2,1:0|3:0|3:0,0:0:0:0:
505,165,117170,69,2,3:0:0:0:
505,165,117236,1,2,3:0:0:0:
505,165,117302,2,0,L|333:192,1,175,10|4,3:0|3:0,0:0:0:0:
178,17,117566,5,6,1:2:0:0:
189,4,117632,1,0,1:0:0:0:
207,8,117698,1,0,1:0:0:0:
211,24,117765,1,0,1:0:0:0:
199,37,117831,1,0,1:0:0:0:
182,33,117897,1,0,1:0:0:0:
194,20,117963,2,0,B|279:37|279:37|262:122,1,175,2|0,1:3|0:0,0:0:0:0:
76,259,118227,70,0,B|39:229|39:229|77:240,1,87.5,2|0,3:2|0:0,0:0:0:0:
311,296,118359,2,0,L|76:259,1,238.00000453949,8|4,1:0|1:3,0:0:0:0:
366,232,118756,6,0,B|339:204|339:204|212:247|212:247|193:305|193:305|62:358|62:358|29:329,1,420,10|0,3:0|0:0,0:0:0:0:
22,321,119020,1,4,1:3:0:0:
382,383,119152,70,0,P|405:227|426:71,1,315.000012016297,6|0,1:0|0:0,0:0:0:0:
426,71,119417,2,0,B|479:54|479:54|502:97,1,105.000004005432,2|0,3:2|0:0,0:0:0:0:
366,232,119549,6,0,B|219:206|219:206|197:117|197:117|72:96,1,367.500003504753,2|0,3:0|0:0,0:0:0:0:
55,93,119813,1,2,0:0:0:0:
208,23,119945,70,0,L|277:34,1,70,8|0,1:0|0:0,0:0:0:0:
287,20,120077,2,0,B|326:48|326:48|305:173,1,175,10|0,3:0|0:0,0:0:0:0:
61,345,120342,2,0,B|21:316|21:316|42:191,1,175,6|0,3:0|0:0,0:0:0:0:
365,255,120606,6,0,L|280:279,1,87.5,2|0,3:2|0:0,0:0:0:0:
43,192,120738,70,0,B|52:145|52:145|172:124|172:124|194:158,1,210.000008010865,0|8,1:0|3:0,0:0:0:0:
203,172,120936,1,4,3:0:0:0:
210,185,121002,2,0,B|201:231|201:231|195:235|195:235|184:284,1,105.000004005432,4|0,1:3|0:0,0:0:0:0:
245,360,121135,6,0,B|269:390|269:390|450:331|450:331|472:194,1,367.500003504753,2|0,3:0|0:0,0:0:0:0:
475,177,121399,70,0,L|388:162,1,87.5,2|0,1:0|0:0,0:0:0:0:
283,143,121531,2,0,L|369:158,1,87.5,10|0,1:0|0:0,0:0:0:0:
395,65,121663,2,0,L|379:151,1,87.5,2|0,0:1|0:0,0:0:0:0:
362,255,121795,2,0,L|376:168,1,87.5,2|0,0:1|0:0,0:0:0:0:
307,46,121928,6,0,B|248:53|248:53|253:58|253:58|197:65,1,122.500001168251,10|0,3:0|0:0,0:0:0:0:
292,38,122060,2,0,B|233:45|233:45|238:50|238:50|182:57,1,122.500001168251,6|0,3:0|0:0,0:0:0:0:
277,30,122192,2,0,B|218:37|218:37|223:42|223:42|167:49,1,122.500001168251,2|0,3:0|0:0,0:0:0:0:
39,238,122324,70,0,B|-16:251|-16:251|25:230,1,105.000004005432,0|0,1:0|0:0,0:0:0:0:
137,138,122456,2,0,B|152:82|152:82|149:129,1,105.000004005432,8|0,3:0|0:0,0:0:0:0:
173,272,122588,2,0,B|212:313|212:313|173:287,1,105.000004005432,4|0,3:0|0:0,0:0:0:0:
58,159,122720,6,0,B|18:117|18:117|57:143,1,105.000004005432,10|0,3:0|0:0,0:0:0:0:
194,195,122853,2,0,B|249:181|249:181|207:202,1,105.000004005432,12|0,3:0|0:0,0:0:0:0:
95,293,122984,2,0,B|79:348|79:348|82:301,1,105.000004005432,4|0,3:0|0:0,0:0:0:0:
288,68,123117,70,0,L|298:119,1,52.5000020027161,8|0,1:0|0:0,0:0:0:0:
369,89,123249,2,0,L|379:140,1,52.5000020027161,2|0,3:0|0:0,0:0:0:0:
207,202,123381,6,0,B|181:155|181:155|215:117,1,105.000004005432,2|0,1:0|0:0,0:0:0:0:
441,23,123513,70,0,B|376:33|376:33|347:130|347:130|353:138|353:138|318:262|318:262|256:271,1,367.500003504753,2|0,3:0|0:0,0:0:0:0:
207,334,123778,6,0,B|138:281|138:281|521:331|521:331|513:345|513:345|390:330,1,612.500005841255,0|0,1:0|0:0,0:0:0:0:
380,343,124174,2,0,L|366:274,1,70,8|0,1:0|0:0,0:0:0:0:
350,70,124306,70,0,B|418:77|418:77|469:161|469:161|286:138|286:138|279:132|279:132|103:108|103:108|148:190|148:190|216:199,1,700,6|0,1:0|0:0,0:0:0:0:
224,212,124703,5,6,1:2:0:0:
338,57,124835,1,2,3:2:0:0:
486,180,124967,1,2,1:2:0:0:
486,180,125033,1,2,1:2:0:0:
486,180,125099,1,2,1:2:0:0:
167,68,125231,1,2,1:2:0:0:
512,0,125364,1,2,1:2:0:0:
314,306,125496,22,0,B|267:301|267:301|218:297|223:224|277:229|277:229|461:247,1,315.000012016297,6|0,1:0|0:0,0:0:0:0:
472,308,125760,1,2,3:2:0:0:
338,57,125892,70,0,B|384:61|384:61|433:65|428:138|374:133|374:133|190:115,1,315.000012016297,2|0,3:0|0:0,0:0:0:0:
180,55,126157,1,2,3:2:0:0:
303,210,126289,6,0,P|293:184|311:136,1,70,8|0,1:1|0:0,0:0:0:0:
303,210,126421,2,0,P|330:214|363:253,1,70,2|0,3:2|0:2,0:0:0:0:
303,210,126553,2,0,P|285:231|234:240,1,70,2|0,3:2|0:0,0:0:0:0:
129,342,126685,70,0,P|71:337|41:286,1,122.500001168251,2|0,3:2|0:0,0:0:0:0:
25,272,126817,2,0,P|59:224|118:223,1,122.500001168251,2|0,3:2|0:0,0:0:0:0:
137,216,126950,2,0,P|163:270|134:321,1,122.500001168251,2|0,3:2|0:0,0:0:0:0:
20,144,127082,6,0,P|180:200|517:218,1,490.000004673004,6|0,1:2|0:0,0:0:0:0:
212,364,127478,70,0,P|212:336|248:299,1,70,2|0,3:2|0:0,0:0:0:0:
310,329,127610,2,0,P|321:303|368:283,1,70,2|0,3:2|0:0,0:0:0:0:
413,335,127743,2,0,P|433:316|484:315,1,70,2|0,3:2|0:0,0:0:0:0:
346,17,127875,6,0,B|354:64|354:64|360:68|360:68|372:137,1,105.000004005432,8|0,1:0|0:0,0:0:0:0:
455,282,128007,2,0,B|447:235|447:235|441:231|441:231|429:162,1,105.000004005432,2|0,3:2|0:0,0:0:0:0:
353,20,128139,2,0,B|360:60|360:60|366:64|366:64|375:121,1,105.000004005432,2|0,3:2|0:0,0:0:0:0:
495,43,128271,69,2,3:2:0:0:
486,36,128337,1,2,3:2:0:0:
477,28,128403,2,0,P|453:44|456:102,1,70,8|0,3:0|0:0,0:0:0:0:
293,152,128535,2,0,P|297:185|324:206,1,70,4|0,3:0|0:0,0:0:0:0:
94,223,128668,6,0,B|112:243|139:245|139:245|145:313|145:313|146:374|65:378|62:312|62:312|50:138|50:138|103:132|126:71,1,525.000020027161,6|0,1:2|0:0,0:0:0:0:
33,10,129064,70,0,L|46:68,1,52.5000020027161,2|0,3:2|0:0,0:0:0:0:
124,49,129196,2,0,L|137:107,1,52.5000020027161,2|0,3:2|0:0,0:0:0:0:
216,88,129328,2,0,L|229:146,1,52.5000020027161,2|0,3:2|0:0,0:0:0:0:
468,200,129461,5,8,1:0:0:0:
446,245,129527,1,2,3:0:0:0:
401,265,129593,1,2,3:0:0:0:
352,261,129659,1,2,3:0:0:0:
317,233,129725,2,0,L|330:179,1,52.5000020027161,2|0,3:0|0:0,0:0:0:0:
151,169,129857,69,2,3:0:0:0:
173,124,129923,1,2,3:0:0:0:
218,104,129989,1,2,3:0:0:0:
267,108,130055,1,2,3:0:0:0:
302,136,130121,2,0,L|289:190,1,52.5000020027161,2|0,3:0|0:0,0:0:0:0:
136,365,130254,5,2,1:2:0:0:
81,347,130320,1,2,0:0:0:0:
81,290,130386,1,2,0:0:0:0:
136,272,130452,1,2,0:0:0:0:
168,319,130518,1,2,0:0:0:0:
94,264,130650,70,0,P|119:286|122:320,1,70,2|0,3:2|0:0,0:0:0:0:
220,199,130782,2,0,P|228:232|212:262,1,70,2|0,3:2|0:0,0:0:0:0:
329,286,130914,2,0,P|317:318|287:334,1,70,2|0,3:2|0:0,0:0:0:0:
208,80,131046,6,0,B|158:85|158:85|155:89|155:89|106:95,1,105.000004005432,8|0,1:0|0:0,0:0:0:0:
7,119,131178,2,0,B|58:113|58:113|61:109|61:109|111:104,1,105.000004005432,2|0,3:0|0:0,0:0:0:0:
217,100,131311,2,0,B|167:105|167:105|164:109|164:109|115:115,1,105.000004005432,2|0,3:0|0:0,0:0:0:0:
16,140,131443,2,0,B|67:134|67:134|70:130|70:130|120:125,1,105.000004005432,2|0,3:0|0:0,0:0:0:0:
226,120,131575,2,0,B|176:125|176:125|173:129|173:129|124:135,1,105.000004005432,2|0,3:0|0:0,0:0:0:0:
25,160,131707,2,0,B|76:154|76:154|79:150|79:150|129:145,1,105.000004005432,2|0,3:0|0:0,0:0:0:0:
309,159,131839,70,1,B|337:138|372:159|372:159|411:191|472:209|554:122|488:11|375:24|358:111,1,350,6|0,1:0|0:0,0:0:0:0:
357,311,132236,6,0,P|340:289|358:225,1,70,2|0,3:2|0:0,0:0:0:0:
215,350,132368,70,0,P|220:302|274:274,1,87.5,4|0,3:0|0:0,0:0:0:0:
81,279,132500,6,0,P|129:231|181:241,1,105.000004005432,8|0,3:0|0:0,0:0:0:0:
260,44,132632,69,8,1:0:0:0:
260,44,132698,1,2,3:2:0:0:
221,29,132765,2,0,L|234:104,2,70,2|0|2,3:2|3:0|3:2,0:0:0:0:
74,23,133029,5,2,3:2:0:0:
74,23,133095,1,2,3:2:0:0:
35,8,133162,2,0,L|48:83,2,70,2|0|2,3:2|3:0|3:2,0:0:0:0:
434,102,133425,70,0,B|454:56|454:56|391:91,1,105.000004005432,0|0,1:0|0:0,0:0:0:0:
302,164,133557,2,0,B|251:169|251:169|313:206,1,105.000004005432,4|0,3:0|0:0,0:0:0:0:
422,246,133690,2,0,B|451:286|451:286|452:214,1,105.000004005432,6|0,3:0|0:0,0:0:0:0:
350,94,133822,6,0,B|320:53|320:53|319:125,1,105.000004005432,8|0,3:0|0:0,0:0:0:0:
337,239,133954,2,0,B|316:284|316:284|379:249,1,105.000004005432,12|0,3:0|0:0,0:0:0:0:
470,177,134087,2,0,B|520:171|520:171|458:134,1,105.000004005432,4|0,3:0|0:0,0:0:0:0:
337,239,134218,70,0,P|466:145|307:144,1,420.000016021729,8|0,1:0|3:0,0:0:0:0:
251,293,134615,5,10,3:0:0:0:
154,272,134747,1,10,3:0:0:0:
65,249,134879,1,10,3:0:0:0:
337,239,135011,70,0,B|344:322|344:322|345:342|366:339|366:339|470:329|470:329|517:324|514:284|509:246|458:253|458:253|345:264|345:264|334:274|334:274|247:283|247:283|225:285|224:264|224:264|219:188|219:188|218:166|239:164|239:164|391:149|391:149|412:147|414:170|414:170|426:318,1,1050.00004005432,6|0,1:2|0:0,0:0:0:0:
487,113,135804,5,8,1:0:0:0:
478,105,135870,1,8,3:0:0:0:
469,97,135936,2,0,P|465:50|512:26,1,70,8|0,3:0|0:0,0:0:0:0:
340,5,136068,2,0,P|336:52|383:76,1,70,12|0,3:0|0:0,0:0:0:0:
132,49,136201,2,0,B|51:42|51:42|145:15|145:15|221:87,1,280,4|0,3:0|3:0,0:0:0:0:
84,358,136597,70,0,P|59:323|75:266,1,83.9999974365235,0|0,1:0|0:0,0:0:0:0:
151,128,136729,2,0,P|176:163|160:220,1,83.9999974365235,14|0,3:0|0:0,0:0:0:0:
73,356,136861,2,0,P|51:319|72:264,1,83.9999974365235,10|0,3:0|0:0,0:0:0:0:
162,131,136993,2,0,P|183:168|163:224,1,83.9999974365235,8|0,3:0|0:0,0:0:0:0:
62,353,137126,2,0,P|43:314|69:261,1,83.9999974365235,8|0,3:0|0:0,0:0:0:0:
170,136,137258,2,0,P|189:175|163:228,1,83.9999974365235,8|0,3:0|0:0,0:0:0:0:
0,231,137390,5,8,1:0:0:0:
126,258,137522,1,2,0:0:0:0:
252,287,137654,1,2,0:0:0:0:
469,97,137787,69,2,0:2:0:0:
314,59,137919,1,2,0:0:0:0:
159,21,138051,1,2,0:0:0:0:
189,354,138183,6,0,B|352:369|352:369|405:374|411:300|362:297|362:297|315:292,1,315.000012016297,6|0,1:0|0:0,0:0:0:0:
252,287,138447,1,2,3:2:0:0:
287,89,138580,70,0,B|123:73|123:73|70:68|64:142|113:145|113:145|160:150,1,315.000012016297,2|0,3:0|0:0,0:0:0:0:
224,156,138844,1,2,3:2:0:0:
362,138,138976,2,1,B|462:163|527:49|464:-63|329:-56|275:58|347:130|347:130|330:163|330:163|348:193,1,503.999984619141,8|2,1:0|3:2,0:0:0:0:
72,354,139372,6,0,P|46:328|59:274,1,70,4|0,3:0|0:0,0:0:0:0:
121,275,139505,70,0,P|107:241|140:196,1,87.5,12|0,3:0|0:0,0:0:0:0:
202,255,139637,6,0,P|202:215|254:183,1,105.000004005432,8|0,3:0|0:0,0:0:0:0:
408,253,139769,70,1,B|446:230|533:246|562:371|464:427|382:398|402:325|402:325|365:377|298:345|294:279|356:259,1,476.00000907898,6|0,1:2|0:0,0:0:0:0:
331,18,140165,6,0,P|273:23|243:74,1,119.000002269745,8|0,3:0|0:0,0:0:0:0:
227,88,140297,2,0,P|261:136|320:137,1,119.000002269745,12|0,3:0|0:0,0:0:0:0:
339,144,140430,2,0,P|365:90|336:39,1,119.000002269745,4|0,3:0|0:0,0:0:0:0:
63,96,140562,69,8,1:0:0:0:
63,96,140628,1,2,3:2:0:0:
52,134,140694,2,0,B|99:122|99:122|107:127|107:127|167:111,2,105.000004005432,2|2|2,3:2|3:2|3:2,0:0:0:0:
74,292,140958,6,0,P|64:318|82:366,1,70,2|0,3:0|0:0,0:0:0:0:
74,292,141090,2,0,P|101:288|134:249,1,70,2|0,3:0|0:0,0:0:0:0:
74,292,141223,2,0,P|56:271|5:262,1,70,2|0,3:0|0:0,0:0:0:0:
204,331,141355,70,0,B|251:343|251:343|259:338|259:338|319:354,1,105.000004005432,2|0,1:2|0:0,0:0:0:0:
498,212,141619,6,1,B|511:230|491:251|466:241|461:210|486:199|486:199|513:186|553:114|498:11|358:22|345:134|375:175,1,420,2|0,3:2|0:0,0:0:0:0:
410,312,141883,70,0,P|396:286|402:241,1,70,2|0,3:0|0:0,0:0:0:0:
294,158,142016,6,0,P|302:130|339:102,1,70,2|0,3:0|0:0,0:0:0:0:
512,16,142148,70,0,B|450:72|450:72|234:44,1,262.5,8|0,1:0|0:0,0:0:0:0:
193,37,142412,1,2,3:2:0:0:
9,264,142544,6,0,B|71:208|71:208|287:236,1,262.5,2|0,3:0|0:0,0:0:0:0:
328,243,142808,1,2,3:2:0:0:
252,341,142941,70,1,B|230:353|223:374|223:374|134:361|134:361|110:356|93:323|118:293|144:296|144:296|286:318,1,357.000006809235,6|0,1:2|0:0,0:0:0:0:
472,184,143205,6,0,B|422:179|422:179|419:175|419:175|370:169,1,105.000004005432,2|0,3:0|0:0,0:0:0:0:
271,145,143337,2,0,B|322:151|322:151|325:155|325:155|375:160,1,105.000004005432,2|0,3:0|0:0,0:0:0:0:
481,164,143469,2,0,B|431:159|431:159|428:155|428:155|379:149,1,105.000004005432,2|0,3:0|0:0,0:0:0:0:
280,124,143602,2,0,B|331:130|331:130|334:134|334:134|384:139,1,105.000004005432,2|0,3:0|0:0,0:0:0:0:
483,29,143734,70,0,P|420:15|359:83,2,140,8|8|4,1:0|3:0|3:0,0:0:0:0:
356,222,144130,1,4,3:0:0:0:
382,138,144262,5,2,3:2:0:0:
205,167,144394,1,2,3:2:0:0:
39,185,144527,70,0,B|10:146|10:146|104:109|104:109|52:325,1,350,6|2,1:2|3:2,0:0:0:0:
41,384,144857,1,2,3:2:0:0:
41,384,144923,1,2,3:2:0:0:
199,306,145055,6,0,P|176:280|134:279,1,70,2|0,3:0|0:0,0:0:0:0:
195,312,145187,2,0,P|172:286|130:285,1,70,2|0,3:0|0:0,0:0:0:0:
271,349,145320,70,0,B|452:366|452:366|511:372|517:290|463:286|463:286|411:281,1,367.500014019013,8|0,1:0|0:0,0:0:0:0:
374,278,145584,2,0,B|336:274|336:274|282:270|288:188|347:194|347:194|492:211,1,315.000012016297,2|0,3:2|0:0,0:0:0:0:
467,67,145848,6,0,P|441:90|440:132,1,70,2|0,3:2|0:0,0:0:0:0:
471,71,145980,2,0,P|445:94|444:136,1,70,2|0,3:0|0:0,0:0:0:0:
117,189,146113,70,0,B|97:235|97:235|160:200,1,105.000004005432,0|0,1:0|0:0,0:0:0:0:
249,127,146245,2,0,B|300:122|300:122|238:85,1,105.000004005432,8|0,3:0|0:0,0:0:0:0:
129,45,146377,2,0,B|100:5|100:5|99:77,1,105.000004005432,4|0,3:0|0:0,0:0:0:0:
201,197,146510,6,0,B|231:238|231:238|232:166,1,105.000004005432,2|0,3:2|0:0,0:0:0:0:
214,52,146642,2,0,B|235:7|235:7|172:42,1,105.000004005432,4|0,3:0|0:0,0:0:0:0:
81,114,146773,2,0,B|31:120|31:120|93:157,1,105.000004005432,8|0,3:0|0:0,0:0:0:0:
166,126,146905,70,0,B|260:237|260:237|180:370|180:370|200:231,1,420.000016021729,8|0,1:0|0:0,0:0:0:0:
22,359,147302,5,8,3:0:0:0:
130,340,147434,1,12,3:0:0:0:
239,322,147566,1,4,3:0:0:0:
400,224,147698,70,0,B|460:232|460:232|525:240|531:198|536:159|473:149|473:149|386:138|386:138|365:136|363:157|363:157|344:303|344:303|342:323|363:325|363:325|441:333|441:333|460:335|462:313|462:313|493:48|493:48|495:31|479:29|479:29|402:19|402:19|382:17|380:38|380:38|374:83,1,1050.00004005432,6|0,1:2|0:0,0:0:0:0:
273,172,148491,5,8,1:0:0:0:
262,178,148557,1,8,3:2:0:0:
251,184,148624,2,0,P|209:173|197:129,1,70,8|0,3:2|0:0,0:0:0:0:
233,24,148756,2,0,P|256:50|251:97,1,70,2|0,3:0|0:0,0:0:0:0:
93,181,148888,70,0,B|11:137|11:137|14:157|14:157|166:237,1,280,8|0,3:0|0:0,0:0:0:0:
320,363,149284,6,0,L|279:342,4,41.9999987182618,2|2|2|2|2,1:2|3:2|3:2|3:2|3:2,0:0:0:0:
341,262,149549,70,0,P|306:237|249:253,1,83.9999974365235,10|0,3:2|0:0,0:0:0:0:
111,329,149681,2,0,P|146:354|203:338,1,83.9999974365235,2|0,3:0|0:0,0:0:0:0:
340,270,149813,2,0,P|305:245|248:261,1,83.9999974365235,2|0,3:0|0:0,0:0:0:0:
108,337,149945,2,0,P|143:362|200:346,1,83.9999974365235,2|0,3:0|0:0,0:0:0:0:
447,186,150077,6,0,P|401:206|147:253,1,280,8|0,1:0|0:0,0:0:0:0:
0,73,150474,69,0,1:0:0:0:
184,127,150606,1,8,1:3:0:0:
36,282,150738,1,4,1:3:0:0:
69,171,150870,5,6,1:0:0:0:
256,192,150936,12,0,153249,0:0:0:0:
184,191,153513,70,0,B|248:178|248:178|262:184|262:184|338:167,1,157.500006008148,0|0,1:0|0:0,0:0:0:0:
417,170,153778,6,0,B|400:226|400:226|259:187|259:187|252:176|252:176|114:134|114:134|92:203,1,419.999987182618,8|0,1:0|0:0,0:0:0:0:
219,295,154042,70,0,B|230:343|230:343|297:359|297:359|261:199|261:199|252:193|252:193|224:56|224:56|275:11|275:11|294:90,2,560,0|0|8,1:0|1:0|1:0,0:0:0:0:
397,370,154835,6,0,L|435:51,1,280,8|0,1:3|0:0,0:0:0:0:
115,14,155187,70,0,L|77:333,1,280,4|0,1:3|0:0,0:0:0:0:
325,223,155539,6,0,B|299:124|299:124|189:155|189:155|219:267|219:267|309:243,1,410.666679199219,8|6,1:0|1:0,0:0:0:0:
256,192,155958,12,12,160121,0:0:0:0:
491,118,164085,21,0,1:0:0:0:
256,192,164350,69,0,1:0:0:0:
330,171,164482,1,0,3:0:0:0:
179,72,164614,5,0,1:0:0:0:
253,93,164746,1,0,3:0:0:0:
230,268,164878,69,0,1:0:0:0:
156,289,165010,1,0,3:0:0:0:
34,90,165142,5,0,1:0:0:0:
108,111,165274,1,0,3:0:0:0:
81,353,165407,70,0,P|70:285|54:230,1,112,0|0,1:0|3:0,0:0:0:0:
349,58,165671,2,0,P|334:112|326:167,1,112,0|0,1:0|3:0,0:0:0:0:
44,151,165936,6,0,P|87:146|115:197,1,83.9999974365235,0|0,1:0|3:0,0:0:0:0:
356,259,166200,2,0,P|313:264|285:213,1,83.9999974365235,0|0,1:0|3:0,0:0:0:0:
193,93,166464,69,0,1:0:0:0:
180,18,166596,1,0,3:0:0:0:
322,164,166729,5,0,1:0:0:0:
335,89,166861,1,0,3:0:0:0:
116,176,166993,69,0,1:0:0:0:
132,270,167125,1,0,3:0:0:0:
342,364,167258,5,0,1:0:0:0:
358,262,167390,1,0,3:0:0:0:
70,112,167521,70,0,B|14:126|14:126|-3:187,1,112,0|0,1:0|3:0,0:0:0:0:
428,222,167786,2,0,B|484:236|484:236|501:297,1,112,0|0,1:0|3:0,0:0:0:0:
239,384,168050,6,0,L|233:297,1,56,0|0,1:0|0:0,0:0:0:0:
245,142,168182,70,0,B|231:112|231:112|313:40|313:40|342:145|342:145|319:161,1,280,2|0,1:2|0:0,0:0:0:0:
355,259,168579,6,0,P|267:228|101:205,1,210,6|0,1:2|0:0,0:0:0:0:
41,88,168843,1,0,1:0:0:0:
28,44,168909,1,0,1:0:0:0:
51,9,168975,1,0,1:0:0:0:
94,1,169041,1,0,1:0:0:0:
130,28,169107,70,0,B|138:88|92:120|83:116|73:112|33:146|44:207,1,210,6|0,1:2|0:0,0:0:0:0:
145,368,169372,1,0,1:0:0:0:
198,358,169438,1,0,1:0:0:0:
249,347,169504,1,0,1:0:0:0:
300,337,169570,1,0,1:0:0:0:
351,328,169636,6,0,B|363:280|363:280|289:197|289:197|305:133,1,210,6|0,1:2|0:0,0:0:0:0:
418,25,169900,1,0,1:0:0:0:
470,37,169966,1,0,1:0:0:0:
490,92,170032,1,0,1:0:0:0:
469,144,170099,1,0,1:0:0:0:
417,154,170165,70,0,P|384:136|360:89,1,70,6|0,1:2|0:0,0:0:0:0:
176,66,170297,2,0,P|175:28|203:-15,1,70,0|0,1:0|0:0,0:0:0:0:
146,174,170429,6,0,P|178:154|230:157,1,70,0|0,1:0|0:0,0:0:0:0:
417,0,170561,2,0,P|449:18|473:64,1,70,0|0,1:0|0:0,0:0:0:0:
294,221,170693,70,0,L|309:115,1,70,6|0,1:2|0:0,0:0:0:0:
76,18,170825,2,0,L|91:124,1,70,0|0,1:0|0:0,0:0:0:0:
46,228,170958,6,0,L|31:122,1,70,0|0,1:0|0:0,0:0:0:0:
372,37,171090,2,0,L|357:143,1,70,0|0,1:0|0:0,0:0:0:0:
201,376,171222,69,6,1:2:0:0:
203,330,171288,1,0,1:0:0:0:
206,285,171354,1,0,1:0:0:0:
208,237,171420,1,0,1:0:0:0:
209,192,171486,1,0,1:0:0:0:
212,148,171552,1,0,1:0:0:0:
213,104,171618,1,0,1:0:0:0:
216,57,171684,1,0,1:0:0:0:
218,10,171751,5,6,1:2:0:0:
82,90,172015,69,2,3:2:0:0:
338,221,172279,5,2,3:2:0:0:
72,369,172543,70,0,B|38:375|38:375|36:378|36:378|-13:386,1,70,0|0,1:0|0:0,0:0:0:0:
2,378,172676,2,0,B|33:372|33:372|35:369|35:369|69:363,1,70,8|0,3:0|0:0,0:0:0:0:
246,384,172808,6,0,B|266:378|266:378|286:309|286:309|275:294,1,112,8|0,1:0|0:0,0:0:0:0:
79,87,172940,70,2,B|50:50|1:73|-24:113|-13:172|20:193|83:199|88:184|88:170|148:146|178:184|178:184|143:192|127:233,1,391.99998803711,4|0,1:1|3:0,0:0:0:0:
206,263,173270,1,0,3:0:0:0:
206,263,173336,2,0,L|171:49,1,195.999994018555,0|0,1:0|3:0,0:0:0:0:
10,304,173535,1,0,3:0:0:0:
2,293,173601,2,0,L|19:195,1,97.9999970092774,8|0,1:0|0:0,0:0:0:0:
208,0,173733,5,2,3:0:0:0:
281,16,173799,1,2,3:0:0:0:
353,33,173865,2,0,B|382:73|382:73|334:139,1,97.9999970092774,2|0,1:3|0:0,0:0:0:0:
266,256,173997,69,2,3:0:0:0:
191,267,174063,1,2,3:0:0:0:
119,280,174129,2,0,B|89:320|89:320|137:386,1,97.9999970092774,8|0,1:0|0:0,0:0:0:0:
475,175,174262,5,2,3:0:0:0:
475,175,174328,1,2,3:0:0:0:
475,175,174394,2,0,B|450:149|417:150|417:150|400:182|361:188,1,125.999996154785,2|0,1:3|0:0,0:0:0:0:
217,153,174526,2,0,B|190:123|190:123|299:159,1,125.999996154785,8|0,3:0|0:0,0:0:0:0:
512,259,174658,70,0,B|406:277|406:277|397:289|397:289|219:323,1,251.999992309571,8|0,1:0|3:0,0:0:0:0:
334,384,174856,1,0,3:0:0:0:
366,368,174922,2,0,B|380:346|380:346|342:228,1,125.999996154785,2|0,1:2|0:0,0:0:0:0:
381,8,175054,5,2,1:3:0:0:
381,8,175121,1,2,1:3:0:0:
381,8,175187,2,0,B|333:44|333:44|353:107,1,112,8|0,1:0|0:0,0:0:0:0:
509,256,175319,2,0,B|500:196|500:196|436:182,1,112,4|0,3:0|0:0,0:0:0:0:
261,226,175451,69,0,1:0:0:0:
211,244,175517,1,2,3:0:0:0:
159,262,175583,1,2,3:0:0:0:
107,280,175649,1,2,3:0:0:0:
43,242,175715,5,8,1:0:0:0:
343,284,175847,2,0,B|399:289|399:289|321:261,1,112,8|0,3:0|0:0,0:0:0:0:
58,150,175980,70,0,P|82:230|106:385,1,224,0|8,1:0|3:0,0:0:0:0:
261,121,176178,1,4,3:0:0:0:
219,104,176244,2,0,P|168:139|192:245,1,112,8|0,1:0|0:0,0:0:0:0:
231,359,176376,2,0,P|286:385|366:311,1,112,4|0,3:0|0:0,0:0:0:0:
458,185,176508,6,0,B|391:179|353:225|356:233|359:242|335:288|264:284,1,224,0|10,1:0|3:0,0:0:0:0:
262,281,176706,1,4,3:0:0:0:
254,273,176773,2,0,P|266:220|303:209,1,70,8|0,1:0|0:0,0:0:0:0:
480,322,176905,2,0,P|468:269|431:258,1,70,8|0,3:0|0:0,0:0:0:0:
264,118,177037,70,0,B|278:93|278:93|440:69|440:69|465:91,2,224,0|4|8,1:0|3:0|1:0,0:0:0:0:
192,311,177433,5,8,3:0:0:0:
154,327,177499,1,4,3:0:0:0:
113,342,177566,2,0,B|65:312|65:312|79:231,1,112,0|0,1:0|0:0,0:0:0:0:
350,352,177698,2,0,L|221:386,1,112,4|0,3:0|0:0,0:0:0:0:
76,153,177830,69,8,1:0:0:0:
119,151,177896,1,2,3:0:0:0:
148,182,177962,1,2,3:0:0:0:
191,176,178028,1,2,3:0:0:0:
230,203,178094,2,0,P|204:267|193:330,1,112,0|0,1:0|0:0,0:0:0:0:
39,45,178226,2,0,P|65:109|76:172,1,112,0|0,1:0|0:0,0:0:0:0:
30,366,178358,6,0,B|-15:375|-15:375|70:315,1,112,8|0,1:0|0:0,0:0:0:0:
308,107,178491,69,2,3:0:0:0:
340,173,178557,1,2,3:0:0:0:
375,238,178623,2,0,B|430:226|430:226|454:131,1,112,0|0,1:0|0:0,0:0:0:0:
194,129,178755,2,0,B|176:182|176:182|247:250,1,112,8|0,3:0|0:0,0:0:0:0:
378,26,178887,2,0,B|340:-15|340:-15|245:11,1,112,8|0,1:0|0:0,0:0:0:0:
37,266,179019,5,2,3:0:0:0:
37,266,179085,1,2,3:0:0:0:
37,266,179151,2,0,B|34:225|88:200|88:200|208:318|208:318|252:316|270:273,1,336,6|0,1:2|0:0,0:0:0:0:
111,100,179416,2,0,P|128:188|150:377,1,280,8|8,1:0|3:0,3:0:0:0:
150,376,179614,1,4,3:0:0:0:
150,376,179680,1,0,1:0:0:0:
272,279,179812,1,8,3:0:0:0:
0,182,179944,1,8,1:0:0:0:
30,36,180077,69,8,3:0:0:0:
107,17,180143,1,4,3:0:0:0:
183,0,180209,2,0,B|241:26|241:26|180:191,1,195.999994018555,0|4,1:0|3:0,0:0:0:0:
87,222,180407,1,8,3:0:0:0:
87,222,180473,2,0,B|45:205|45:205|70:137|70:137|224:195|224:195|191:284,1,342.999989532471,8|0,1:0|0:0,0:0:0:0:
210,258,180737,6,0,P|160:286|145:315,1,70,0|0,1:0|0:0,0:0:0:0:
27,33,180869,70,0,B|-3:2|-3:2|21:128,1,125.999996154785,6|0,1:2|0:0,0:0:0:0:
26,295,181002,6,0,B|56:291|78:314|78:314|85:354|131:369,1,125.999996154785,0|0,1:0|0:0,0:0:0:0:
309,209,181134,70,0,B|350:195|357:163|353:153|346:145|358:102|417:98,1,154.000004699707,0|0,1:0|0:0,0:0:0:0:
506,369,181266,70,0,P|356:309|171:245,1,308.000009399414,0|0,1:0|0:0,0:0:0:0:
504,25,181530,2,0,B|433:45|433:45|412:193|412:193|305:224,1,308.000009399414,8|0,1:0|0:0,0:0:0:0:
117,44,181795,70,0,B|159:31|159:31|241:96,1,112,0|0,1:0|0:0,0:0:0:0:
195,279,181927,2,0,B|186:226|186:226|180:220|180:220|168:153,1,112,0|0,3:0|0:0,0:0:0:0:
314,41,182059,1,8,1:0:0:0:
448,154,182191,5,2,3:0:0:0:
468,227,182257,1,2,3:0:0:0:
490,299,182323,2,0,B|457:337|457:337|381:325,1,97.9999970092774,0|0,1:0|0:0,0:0:0:0:
133,347,182455,69,2,3:0:0:0:
113,274,182521,1,2,3:0:0:0:
91,202,182588,2,0,B|124:164|124:164|200:176,1,97.9999970092774,8|0,1:0|0:0,0:0:0:0:
271,60,182720,5,2,3:2:0:0:
271,60,182786,1,2,3:2:0:0:
271,60,182852,2,0,B|240:91|234:117|234:117|255:138|257:193,1,125.999996154785,0|0,1:0|0:0,0:0:0:0:
373,311,182984,2,0,B|395:381|395:381|366:333,1,125.999996154785,2|0,3:0|0:0,0:0:0:0:
171,171,183116,70,0,P|301:137|418:120,1,251.999992309571,8|0,1:0|3:0,0:0:0:0:
509,24,183314,1,0,3:0:0:0:
492,6,183380,2,0,B|452:11|452:11|424:111,1,125.999996154785,0|0,1:0|0:0,0:0:0:0:
398,217,183513,1,0,3:0:0:0:
180,79,183645,6,0,P|123:19|-2:53,1,210.000008010865,8|0,1:0|0:0,0:0:0:0:
247,317,183909,2,0,B|190:298|214:276|129:253,1,105.000004005432,0|0,1:0|0:0,0:0:0:0:
12,165,184041,69,2,3:0:0:0:
46,124,184107,1,2,3:0:0:0:
99,132,184173,2,0,B|90:172|90:172|93:184|93:184|81:252,1,105.000004005432,8|0,1:0|0:0,0:0:0:0:
259,335,184306,2,0,P|208:339|178:380,1,105.000004005432,0|0,3:0|0:0,0:0:0:0:
31,292,184438,6,0,B|171:253|171:253|183:242|183:242|287:214|287:214|327:263|386:250,1,377.999988464356,8|0,1:3|0:0,0:0:0:0:
502,5,184702,2,0,P|427:3|378:56,1,125.999996154785,8|0,1:0|0:0,0:0:0:0:
360,162,184834,2,0,P|435:164|484:111,1,125.999996154785,8|0,3:0|0:0,0:0:0:0:
248,4,184966,69,0,1:0:0:0:
257,53,185032,1,0,1:0:0:0:
266,103,185099,1,0,1:0:0:0:
275,152,185165,1,0,1:0:0:0:
245,225,185231,1,8,1:0:0:0:
506,327,185363,6,0,B|451:297|451:297|433:325|388:332,1,125.999996154785,4|0,3:0|0:0,0:0:0:0:
99,132,185495,70,0,P|229:195|404:257,1,308.000009399414,0|0,1:0|0:0,0:0:0:0:
84,264,185759,2,0,B|245:222|188:159|368:113,1,308.000009399414,8|0,1:0|0:0,0:0:0:0:
18,25,186024,6,0,B|47:-4|47:-4|143:32,1,112,0|0,1:0|0:0,0:0:0:0:
236,90,186156,2,0,B|265:119|265:119|361:83,1,112,0|0,3:0|0:0,0:0:0:0:
447,46,186288,70,0,L|387:33,1,52.5000020027161,8|0,1:0|0:0,0:0:0:0:
142,108,186420,2,0,L|77:96,1,52.5000020027161,0|0,3:0|0:0,0:0:0:0:
451,176,186552,6,0,B|484:218|484:218|442:384,2,224,0|0|8,1:0|3:0|1:0,0:0:0:0:
286,25,186949,1,0,3:0:0:0:
387,245,187081,70,0,P|309:265|156:341,1,224,0|0,1:0|3:0,0:0:0:0:
39,209,187279,1,0,3:0:0:0:
37,180,187345,2,0,B|100:202|76:223|137:244,1,112,8|0,1:0|0:0,0:0:0:0:
360,361,187477,2,0,P|321:312|258:316,1,112,8|0,3:0|0:0,0:0:0:0:
41,355,187610,6,0,B|24:376|24:376|49:283,1,112,0|0,1:0|0:0,0:0:0:0:
147,101,187742,2,0,B|130:80|130:80|155:173,1,112,4|0,3:0|0:0,0:0:0:0:
0,112,187874,70,0,P|114:1|264:55,1,336,8|0,1:0|0:0,0:0:0:0:
331,177,188138,1,0,1:0:0:0:
496,38,188270,5,2,3:0:0:0:
425,64,188336,1,2,3:0:0:0:
352,88,188403,2,0,B|332:128|332:128|359:188,1,97.9999970092774,8|0,1:0|0:0,0:0:0:0:
466,368,188535,2,0,P|496:332|488:274,1,97.9999970092774,8|0,3:0|0:0,0:0:0:0:
245,184,188667,70,0,L|235:260,1,70,0|0,1:0|0:0,0:0:0:0:
235,174,188799,2,0,L|225:250,1,70,8|0,3:0|0:0,0:0:0:0:
412,302,188931,6,0,B|368:323|368:323|363:334|363:334|307:360,1,105.000004005432,8|0,1:0|0:0,0:0:0:0:
37,227,189063,70,0,B|81:248|81:248|86:259|86:259|142:285,1,105.000004005432,4|0,3:0|0:0,0:0:0:0:
236,356,189195,6,0,P|224:270|179:101,1,251.999992309571,8|0,1:0|0:0,0:0:0:0:
369,14,189394,2,0,B|297:121|392:131|296:266,1,251.999992309571,8|0,1:0|0:0,0:0:0:0:
101,95,189592,2,0,P|139:34|212:34,1,125.999996154785,8|0,1:0|0:0,0:0:0:0:
450,141,189724,69,8,1:0:0:0:
145,252,189856,2,0,P|234:271|373:328,1,224,4|0,3:3|1:0,0:0:0:0:
448,247,190054,5,0,3:0:0:0:
448,247,190121,2,0,B|497:235|497:235|506:156|506:156|304:212,1,336,8|0,1:0|0:0,0:0:0:0:
223,188,190385,2,0,B|236:132|236:132|233:122|233:122|247:54,1,112,8|0,1:0|0:0,0:0:0:0:
476,28,190517,69,14,3:0:0:0:
472,39,190583,1,10,3:0:0:0:
464,46,190649,1,8,1:0:0:0:
453,48,190715,1,0,1:0:0:0:
389,7,190781,2,0,P|338:44|355:152,1,167.999994873047,8|0,1:0|3:0,0:0:0:0:
62,315,191046,5,8,1:0:0:0:
82,328,191112,1,0,3:0:0:0:
101,341,191178,2,0,B|119:247|119:247|115:239|115:239|142:92,1,224,8|0,1:0|3:0,0:0:0:0:
240,299,191376,69,0,3:0:0:0:
221,304,191442,2,0,B|204:291|204:291|219:208,1,83.9999974365235,8|0,1:0|0:0,0:0:0:0:
62,47,191574,1,0,3:0:0:0:
43,42,191640,2,0,B|26:55|26:55|41:138,1,83.9999974365235,8|0,1:0|0:0,0:0:0:0:
282,372,191839,6,0,B|335:361|335:361|342:363|342:363|398:349,1,112,8|0,1:0|0:0,0:0:0:0:
467,147,191971,2,0,B|526:170|526:170|332:216,1,224,8|0,1:0|3:0,0:0:0:0:
146,32,192235,70,0,P|206:27|245:91,1,112,8|0,1:0|0:0,0:0:0:0:
261,141,192367,1,0,3:0:0:0:
261,141,192433,2,0,P|229:244|200:371,1,224,8|0,1:0|0:0,0:0:0:0:
285,352,192632,1,8,1:0:0:0:
65,209,192764,5,2,3:0:0:0:
90,178,192830,1,2,3:0:0:0:
129,185,192896,2,0,B|250:204|203:253|339:280,1,224,8|0,1:0|3:0,0:0:0:0:
476,60,193160,69,8,1:0:0:0:
437,51,193226,1,0,1:0:0:0:
409,80,193292,1,8,1:0:0:0:
406,325,193425,1,0,1:0:0:0:
467,147,193557,6,0,B|449:155|449:155|461:198|441:264,2,112,2|0|2,3:0|1:0|3:0,0:0:0:0:
300,13,193953,70,0,B|304:58|322:46|325:92,1,83.9999974365235,8|0,1:0|0:0,0:0:0:0:
247,282,194085,2,0,B|250:236|268:248|272:203,1,83.9999974365235,8|0,1:0|0:0,0:0:0:0:
181,35,194217,2,0,P|99:32|46:116,1,167.999994873047,8|0,1:0|0:0,0:0:0:0:
180,350,194416,6,0,B|128:244|206:240|144:124,1,210.000008010865,8|0,1:0|0:0,0:0:0:0:
0,173,194614,2,0,P|43:211|96:196,1,105.000004005432,8|0,1:0|0:0,0:0:0:0:
325,330,194746,69,2,3:0:0:0:
343,316,194812,1,8,1:0:0:0:
365,311,194878,1,2,3:0:0:0:
388,314,194944,1,2,3:0:0:0:
468,334,195010,6,0,B|427:357|427:357|342:170,2,251.999992309571,0|6|8,1:0|3:0|3:0,0:0:0:0:
492,87,195407,70,0,P|502:39|516:-4,1,83.9999974365235,8|0,1:0|0:0,0:0:0:0:
445,220,195539,2,0,P|435:172|421:129,1,83.9999974365235,8|0,1:0|0:0,0:0:0:0:
306,26,195671,2,0,P|293:66|285:107,1,83.9999974365235,8|0,1:0|0:0,0:0:0:0:
233,292,195803,1,8,1:0:0:0:
220,275,195869,1,8,3:2:0:0:
197,273,195936,1,8,3:2:0:0:
47,367,196068,6,0,P|96:327|144:338,1,97.9999970092774,8|0,1:0|0:0,0:0:0:0:
325,330,196200,2,0,P|243:315|42:250,1,293.999991027832,8|0,1:0|0:0,0:0:0:0:
0,66,196464,2,0,B|14:45|14:45|103:33,1,97.9999970092774,8|0,1:0|0:0,0:0:0:0:
193,144,196596,1,0,3:0:0:0:
209,162,196662,2,0,B|195:183|195:183|106:195,1,97.9999970092774,8|0,1:0|0:0,0:0:0:0:
387,79,196861,70,0,B|330:63|349:47|273:28,1,97.9999970092774,8|0,1:0|0:0,0:0:0:0:
307,189,196993,1,8,1:0:0:0:
376,169,197059,1,8,1:0:0:0:
446,151,197125,2,0,P|423:248|413:347,1,195.999994018555,6|2,1:2|3:0,0:0:0:0:
197,273,197389,6,0,P|229:312|223:370,1,97.9999970092774,8|0,1:0|0:0,0:0:0:0:
503,213,197521,2,0,P|471:252|477:310,1,97.9999970092774,8|0,1:0|3:0,0:0:0:0:
346,380,197654,70,0,P|330:278|304:179,1,195.999994018555,8|0,1:0|0:0,0:0:0:0:
448,20,197852,2,0,B|498:3|498:3|442:163,1,210.000008010865,8|0,1:0|0:0,0:0:0:0:
248,139,198050,2,0,B|200:129|200:129|197:122|197:122|134:109,1,105.000004005432,8|0,1:0|0:0,0:0:0:0:
0,91,198182,6,0,P|53:18|166:36,1,210.000008010865,8|8,1:0|3:0,0:0:0:0:
189,204,198380,1,4,3:0:0:0:
224,213,198447,70,0,P|171:286|58:268,1,210.000008010865,8|0,1:0|3:0,0:0:0:0:
413,303,198711,1,2,1:3:0:0:
413,303,198777,1,2,3:0:0:0:
413,303,198843,1,8,1:0:0:0:
305,384,198975,2,0,B|289:365|289:365|309:265,1,105.000004005432,8|0,3:0|0:0,0:0:0:0:
405,134,199107,5,8,1:0:0:0:
415,97,199173,1,4,1:3:0:0:
425,58,199240,2,0,B|471:93|471:93|512:47|512:47|324:100,1,315.000012016297,8|0,1:0|0:0,0:0:0:0:
259,153,199504,69,8,1:0:0:0:
191,136,199570,1,0,1:0:0:0:
121,121,199636,2,0,B|80:155|80:155|91:223,1,105.000004005432,8|0,1:0|0:0,0:0:0:0:
51,44,199768,6,0,P|94:127|145:282,1,251.999992309571,8|0,1:0|0:0,0:0:0:0:
75,365,199966,1,0,1:0:0:0:
45,369,200032,2,0,B|20:342|20:342|55:266,1,105.000004005432,8|0,1:0|0:0,0:0:0:0:
323,250,200165,2,0,L|197:216,1,105.000004005432,8|0,1:0|0:0,0:0:0:0:
35,137,200297,70,0,P|88:116|142:84,1,105.000004005432,8|0,1:0|0:0,0:0:0:0:
276,321,200429,2,0,B|332:288|332:288|500:334,1,210.000008010865,8|8,1:0|3:0,0:0:0:0:
304,77,200693,6,0,B|258:64|258:64|211:49|188:118|240:134|240:134|306:154,1,210.000008010865,8|0,1:0|3:0,0:0:0:0:
398,144,200892,1,0,1:0:0:0:
418,121,200958,2,0,B|458:132|458:132|505:147|519:98,1,105.000004005432,0|0,1:0|0:0,0:0:0:0:
281,146,201090,2,0,B|270:186|270:186|255:233|304:247,1,105.000004005432,8|0,1:0|0:0,0:0:0:0:
479,15,201222,69,2,1:3:0:0:
408,33,201288,1,2,1:3:0:0:
338,55,201354,2,0,B|242:40|242:40|232:45|232:45|110:25,1,210.000008010865,8|0,1:0|3:0,0:0:0:0:
11,190,201618,5,8,1:0:0:0:
42,157,201684,1,8,1:3:0:0:
87,162,201751,1,4,1:3:0:0:
229,384,201883,69,8,1:0:0:0:
181,364,201949,1,8,1:3:0:0:
152,321,202015,1,12,1:3:0:0:
152,269,202081,1,4,1:3:0:0:
181,226,202147,1,8,1:0:0:0:
374,302,202279,6,0,B|327:292|327:292|321:293|321:293|244:277,1,105.000004005432,8|0,1:0|0:0,0:0:0:0:
60,364,202411,70,0,L|47:295,1,70,8|0,1:0|0:0,0:0:0:0:
68,356,202543,2,0,L|55:287,1,70,8|0,1:0|0:0,0:0:0:0:
196,58,202676,6,0,L|183:126,1,70,8|0,1:0|0:0,0:0:0:0:
204,66,202808,2,0,L|191:134,1,70,8|0,1:0|0:0,0:0:0:0:
195,253,202940,70,0,B|135:250|135:250|96:92,1,210.000008010865,8|0,1:0|1:0,0:0:0:0:
79,8,203138,1,2,3:0:0:0:
79,8,203204,1,8,1:0:0:0:
300,186,203336,1,8,1:0:0:0:
482,65,203469,6,0,L|413:78,1,70,8|0,1:0|0:0,0:0:0:0:
446,293,203601,2,0,L|377:306,1,70,8|0,1:0|0:0,0:0:0:0:
473,56,203733,70,0,L|404:69,1,70,8|0,1:0|0:0,0:0:0:0:
437,284,203865,2,0,L|368:297,1,70,8|0,1:0|0:0,0:0:0:0:
512,199,203997,6,0,B|422:185|422:185|408:167|408:167|301:150,1,210.000008010865,8|0,1:0|1:0,0:0:0:0:
143,328,204262,2,0,L|135:382,4,52.5000020027161,8|2|2|2|8,1:0|3:2|3:2|3:2|1:0,0:0:0:0:
259,343,204526,69,8,1:0:0:0:
292,317,204592,1,4,1:3:0:0:
306,277,204658,1,12,1:3:0:0:
297,235,204724,1,8,1:3:0:0:
264,208,204790,2,0,L|187:194,1,70,8|0,1:0|1:0,0:0:0:0:
42,255,204922,2,0,L|119:241,1,70,8|0,1:0|1:0,0:0:0:0:
115,148,205054,5,8,1:0:0:0:
82,122,205120,1,8,1:3:0:0:
68,82,205186,1,8,1:3:0:0:
77,40,205252,1,8,1:3:0:0:
110,13,205318,2,0,L|187:-1,1,70,8|0,1:0|1:0,0:0:0:0:
408,27,205451,2,0,L|331:41,1,70,8|0,1:0|1:0,0:0:0:0:
216,112,205583,70,0,B|181:112|181:112|159:67,8,70,8|2|2|2|2|2|2|2|2,1:0|3:2|3:2|3:2|3:2|3:2|3:2|3:2|1:2,0:0:0:0:
414,236,205980,6,0,B|449:236|449:236|471:281,8,70,8|2|2|2|2|2|2|2|2,1:0|3:2|3:2|3:2|3:2|3:2|3:2|3:2|1:2,0:0:0:0:
286,365,206376,70,0,B|318:219|318:219|304:188|304:188|336:52,1,315.000012016297,8|0,1:0|0:0,0:0:0:0:
408,27,206640,1,6,1:2:0:0:
398,28,208491,6,0,L|368:144,1,105,4|0,1:3|0:0,0:0:0:0:
448,163,208755,70,0,B|402:217|402:217|263:186|263:186|247:196|247:196|118:170|118:170|71:210,1,420,8|0,1:0|0:0,0:0:0:0:
173,102,209284,6,0,B|225:92|225:92|287:297|287:297|356:282,1,335.999989746094,8|0,1:3|0:0,0:0:0:0:
481,347,209680,2,0,B|459:324|459:324|402:339,1,83.9999974365235,8|0,3:0|0:0,0:0:0:0:
179,368,209812,70,0,B|142:322|142:322|170:211,1,167.999994873047,8|0,1:0|0:0,0:0:0:0:
354,16,210077,2,0,B|391:62|391:62|363:173,1,167.999994873047,8|0,1:0|0:0,0:0:0:0:
70,61,210341,6,0,B|94:15|94:15|170:31,1,105.000004005432,8|0,1:0|0:0,0:0:0:0:
304,82,210473,2,0,B|280:128|280:128|204:112,1,105.000004005432,8|0,1:0|0:0,0:0:0:0:
165,297,210605,70,0,B|137:358|32:328|38:211|129:149|294:160|351:219|344:296|293:316,1,472.500018024445,2|0,1:0|0:0,0:0:0:0:
226,374,210869,70,0,B|170:313|203:210|315:183|323:252|407:228|446:149|418:89,1,420,6|0,1:0|0:0,0:0:0:0:
394,16,211134,70,0,P|377:-3|383:22,1,70,0|0,1:0|0:0,0:0:0:0:
476,147,211266,2,0,B|456:167|448:199|448:199|427:171|397:165,1,122.500001168251,2|0,0:1|0:0,0:0:0:0:
233,82,211398,6,0,P|283:94|334:107,1,105.000004005432,0|8,1:0|0:3,0:0:0:0:
107,227,211662,69,0,1:0:0:0:
96,245,211729,1,4,3:0:0:0:
96,280,211795,1,12,3:0:0:0:
122,309,211861,1,8,3:0:0:0:
116,357,211927,2,0,B|90:298|139:253|152:272|198:231|179:173,1,210.000008010865,2|8,1:2|1:3,0:0:0:0:
130,55,212191,1,4,1:3:0:0:
0,345,212323,6,0,L|34:339,1,35,2|0,3:2|0:0,0:0:0:0:
181,255,212455,70,0,P|284:272|388:288,1,210.000008010865,0|10,1:0|3:2,0:0:0:0:
397,304,212654,1,10,3:2:0:0:
405,321,212720,2,0,B|315:335|315:335|303:252,1,175,8|4,1:3|3:0,0:0:0:0:
139,46,212984,6,0,B|75:62|75:62|60:107|60:107|0:121,2,175,0|10|0,1:0|3:2|1:0,0:0:0:0:
221,2,213314,1,0,3:0:0:0:
234,6,213380,1,8,3:0:0:0:
247,10,213447,1,4,3:0:0:0:
260,14,213513,2,0,L|273:64,1,52.5000020027161,0|0,1:0|0:0,0:0:0:0:
299,154,213645,2,0,L|383:176,1,87.5,8|0,1:3|0:0,0:0:0:0:
485,24,213777,70,0,B|411:40|444:69|362:86,1,140,6|2,1:2|0:1,0:0:0:0:
103,150,214041,6,0,P|154:138|205:127,1,105.000004005432,4|0,1:3|0:0,0:0:0:0:
362,85,214173,1,8,1:3:0:0:
185,264,214306,69,0,1:0:0:0:
191,251,214372,1,4,3:0:0:0:
180,246,214438,1,8,3:2:0:0:
186,232,214504,1,8,3:2:0:0:
175,221,214570,6,0,P|226:232|277:244,1,105.000004005432,0|0,1:0|0:0,0:0:0:0:
436,287,214702,1,8,3:3:0:0:
436,287,214768,1,4,3:0:0:0:
436,287,214834,2,0,B|492:279|492:279|378:244|378:244|346:324|346:324|242:345,1,367.500003504753,6|0,1:2|0:0,0:0:0:0:
131,380,215099,70,0,B|102:296|102:296|331:344|331:344|340:358|340:358|421:373,1,420,6|0,1:0|0:0,0:0:0:0:
431,366,215363,6,0,B|483:377|483:377|503:328,1,105.000004005432,4|0,1:3|0:0,0:0:0:0:
439,209,215495,2,0,B|386:197|386:197|366:246,1,105.000004005432,8|0,1:3|0:0,0:0:0:0:
145,380,215627,69,0,1:0:0:0:
237,354,215759,1,2,3:0:0:0:
89,301,215892,2,0,B|63:211|141:149|158:184|235:124|203:36,1,315.000012016297,2|0,1:0|0:0,0:0:0:0:
196,19,216156,6,0,B|168:-23|92:-37|57:5|58:73|124:70,1,210,2|0,1:3|0:0,0:0:0:0:
124,69,216420,1,4,1:3:0:0:
290,34,216552,1,8,3:0:0:0:
56,138,216684,69,0,1:0:0:0:
59,147,216751,1,2,3:2:0:0:
62,156,216817,1,2,3:1:0:0:
65,165,216883,1,2,3:2:0:0:
68,174,216949,2,0,B|342:111|342:111|360:93|360:93|470:68,1,420,8|0,1:0|0:0,0:0:0:0:
478,52,217213,5,0,1:0:0:0:
366,124,217345,1,2,3:0:0:0:
361,138,217411,1,2,3:0:0:0:
357,152,217477,2,0,P|374:199|423:210,1,105.000004005432,8|0,1:0|0:0,0:0:0:0:
494,174,217610,1,8,3:0:0:0:
290,34,217742,70,0,P|276:84|224:94,1,105.000004005432,0|4,1:0|3:0,0:0:0:0:
208,91,217940,1,8,3:0:0:0:
182,83,218006,2,0,P|156:76|131:69,1,52.5000020027161,8|0,1:0|0:0,0:0:0:0:
162,0,218138,2,0,P|187:6|212:13,1,52.5000020027161,8|0,3:0|0:0,0:0:0:0:
261,189,218270,6,0,P|262:269|183:281,1,175,0|2,1:0|3:2,0:0:0:0:
168,291,218468,1,2,0:0:0:0:
150,302,218534,2,0,P|109:290|92:251,1,87.5,10|0,0:0|0:0,0:0:0:0:
76,240,218667,2,0,P|87:199|126:182,1,87.5,2|2,0:0|0:0,0:0:0:0:
363,384,218799,70,0,P|320:375|278:366,1,87.5,2|0,0:0|0:0,0:0:0:0:
297,291,218931,2,0,P|340:300|383:309,1,87.5,2|0,0:0|0:0,0:0:0:0:
474,159,219063,5,8,1:0:0:0:
482,136,219129,1,2,3:2:0:0:
489,110,219195,1,2,3:2:0:0:
496,86,219261,1,2,3:2:0:0:
438,26,219328,70,0,P|257:62|77:97,1,367.500003504753,6|0,1:0|0:0,0:0:0:0:
70,112,219592,1,0,1:0:0:0:
318,33,219724,6,0,B|340:51|340:51|332:93|319:142,1,122.500001168251,0|0,1:0|0:0,0:0:0:0:
191,322,219856,2,0,P|219:202|249:84,1,245.000002336502,0|0,1:0|3:0,0:0:0:0:
412,337,220121,69,2,1:0:0:0:
405,351,220253,6,0,P|362:346|340:310,1,87.5,2|0,3:1|0:0,0:0:0:0:
331,295,220385,2,0,P|347:255|387:242,1,87.5,0|0,1:0|0:0,0:0:0:0:
501,296,220517,1,8,3:0:0:0:
251,269,220649,69,8,3:0:0:0:
191,322,220737,1,8,3:0:0:0:
267,348,220825,1,8,1:3:0:0:
235,312,220914,5,4,1:3:0:0:
33,384,221046,70,0,P|21:332|9:281,1,105.000004005432,2|0,3:0|0:0,0:0:0:0:
49,176,221178,5,4,1:3:0:0:
74,170,221244,1,4,3:0:0:0:
105,165,221310,1,8,3:0:0:0:
150,155,221376,1,8,3:0:0:0:
206,143,221442,2,0,B|336:114|466:83|466:83|412:97|408:156,1,367.500003504753,6|0,1:2|0:0,0:0:0:0:
419,166,221706,70,0,P|437:212|487:216,1,105.000004005432,2|8,1:2|3:0,0:0:0:0:
482,14,221971,6,0,L|471:65,1,52.5000020027161,0|0,1:0|0:0,0:0:0:0:
467,18,222103,2,0,L|456:69,1,52.5000020027161,0|0,1:0|0:0,0:0:0:0:
322,215,222235,70,0,L|332:163,1,52.5000020027161,8|0,1:3|0:0,0:0:0:0:
307,219,222367,2,0,L|317:167,1,52.5000020027161,4|0,3:0|0:0,0:0:0:0:
86,83,222499,5,2,1:0:0:0:
203,0,222632,1,8,3:0:0:0:
323,75,222764,1,4,3:0:0:0:
72,96,222896,70,0,P|220:76|341:61,1,262.500010013581,6|0,1:0|0:0,0:0:0:0:
323,75,223160,5,2,1:0:0:0:
86,83,223292,1,8,1:3:0:0:
203,0,223425,1,4,3:0:0:0:
336,202,223557,70,0,B|246:242|237:343|237:343|205:246|100:235,1,367.500003504753,6|0,1:2|0:0,0:0:0:0:
91,250,223821,6,0,P|101:310|157:286,1,140,4|0,1:3|0:0,0:0:0:0:
379,286,223953,2,0,P|368:225|312:249,1,140,4|0,1:3|0:0,0:0:0:0:
253,124,224085,2,0,P|192:134|216:190,1,140,4|0,1:3|0:0,0:0:0:0:
255,341,224217,1,8,3:0:0:0:
70,109,224350,70,0,P|62:57|55:5,1,105.000004005432,8|0,1:3|3:0,0:0:0:0:
470,363,224614,6,0,B|517:317|517:317|486:249,1,140,6|0,1:2|0:0,0:0:0:0:
377,29,224746,2,0,B|330:75|330:75|360:142,1,140,8|0,1:3|0:0,0:0:0:0:
424,195,224878,69,4,1:3:0:0:
481,76,225010,1,4,3:0:0:0:
402,306,225143,6,0,P|325:295|248:286,1,154.000004699707,2|8,1:3|3:0,0:0:0:0:
198,346,225341,1,4,3:0:0:0:
186,360,225407,2,0,P|287:372|388:384,1,203.000006195069,8|2,1:0|3:0,0:0:0:0:
174,108,225671,70,0,P|89:90|103:176,1,203.000006195069,6|2,1:2|3:2,0:0:0:0:
168,275,225869,2,0,B|155:215|207:174|215:193|261:161|252:102,1,203.000006195069,8|0,3:1|0:0,0:0:0:0:
208,12,226068,1,4,1:3:0:0:
103,176,226200,6,0,P|224:160|345:143,1,245.000002336502,6|2,1:2|3:0,0:0:0:0:
365,159,226398,1,8,3:1:0:0:
365,159,226464,2,0,P|421:147|430:90,1,122.500001168251,8|0,1:3|0:0,0:0:0:0:
381,10,226596,1,4,1:3:0:0:
482,201,226729,70,0,P|295:209|294:21,1,420,6|0,1:2|0:0,0:0:0:0:
294,20,226993,1,8,1:3:0:0:
13,237,227125,6,0,P|270:301|429:89,1,560,6|2,1:2|3:0,0:0:0:0:
442,319,227521,70,0,B|317:364|240:255|286:217|212:117|101:154,1,420,6|0,1:0|0:0,0:0:0:0:
13,237,227786,6,0,P|141:200|117:69,1,291.666666666667,6|0,1:2|0:0,0:0:0:0:
117,69,228050,70,0,P|70:61|24:54,1,93.3333333333333,2|0,1:0|0:0,0:0:0:0:
4,73,228314,6,0,B|65:64|65:64|69:59|69:59|141:49,1,140.000005340576,8|2,1:0|3:0,0:0:0:0:
287,91,228491,1,2,3:0:0:0:
184,121,228579,2,0,B|224:115|224:115|227:111|227:111|274:105,1,93.3333333333333,2|2,3:0|3:0,0:0:0:0:
442,177,228755,1,2,1:3:0:0:
447,166,228843,69,2,3:0:0:0:
370,190,228931,1,2,3:0:0:0:
395,267,229019,1,2,3:0:0:0:
339,329,229107,5,2,1:3:0:0:
314,252,229195,1,10,3:0:0:0:
329,346,229284,1,10,3:0:0:0:
293,237,229372,70,0,B|243:228|227:179|227:179|222:231|175:252,1,186.666666666667,8|2,1:0|3:0,0:0:0:0:
245,307,229636,2,0,P|152:293|60:278,1,186.666666666667,10|2,3:0|3:0,0:0:0:0:
0,342,229900,6,0,P|158:298|315:252,1,326.666669782003,6|2,1:2|3:0,0:0:0:0:
335,258,230165,2,0,P|388:242|397:188,1,116.666666666667,10|2,3:0|3:0,0:0:0:0:
359,56,230341,1,2,3:0:0:0:
355,42,230429,69,8,1:0:0:0:
322,129,230517,1,10,3:0:0:0:
235,96,230605,1,10,3:0:0:0:
307,136,230693,5,6,3:0:0:0:
237,109,230781,1,6,3:0:0:0:
211,179,230869,69,6,1:3:0:0:
216,193,230958,2,0,P|226:227|234:261,1,70.0000026702882,2|2,3:0|3:0,0:0:0:0:
105,366,231134,5,6,1:3:0:0:
130,379,231222,2,0,P|174:374|198:335,1,93.3333333333333,10|6,3:0|3:0,0:0:0:0:
128,202,231398,69,6,3:0:0:0:
77,263,231486,2,0,P|21:259|0:208,1,116.666666666667,8|2,1:0|3:0,0:0:0:0:
66,48,231662,5,2,1:3:0:0:
155,80,231751,2,0,B|241:82|205:49|290:52,1,140.000005340576,6|2,1:2|3:0,0:0:0:0:
166,97,231927,69,2,3:0:0:0:
282,37,232015,2,0,B|368:51|411:132|411:132|431:38|496:2,1,326.666669782003,6|2,1:0|3:0,0:0:0:0:
329,161,232279,6,0,P|187:145|203:287,1,326.666669782003,2|2,1:3|3:0,0:0:0:0:
294,363,232543,70,0,P|340:355|386:349,1,93.3333333333333,8|2,1:0|3:0,0:0:0:0:
447,285,232720,1,2,3:0:0:0:
401,361,232808,2,0,P|443:347|453:303,1,93.3333333333333,10|10,3:0|3:0,0:0:0:0:
329,161,232984,1,2,1:3:0:0:
372,236,233072,2,0,P|329:222|319:178,1,93.3333333333333,10|10,3:0|3:0,0:0:0:0:
435,58,233249,1,6,3:0:0:0:
435,58,233337,5,2,1:3:0:0:
512,82,233425,1,6,3:0:0:0:
487,159,233513,1,14,3:0:0:0:
410,135,233601,2,0,B|307:118|347:76|243:59,1,186.666666666667,10|2,3:0|1:3,0:0:0:0:
69,101,233865,70,0,L|31:92,10,23.3333333333333,2|0|2|0|2|0|2|0|2|0|0,3:0|3:0|3:0|3:0|3:0|3:0|3:0|3:0|3:0|0:0|0:0,0:0:0:0:
89,107,234129,5,6,1:3:0:0:
154,32,234217,1,14,3:0:0:0:
188,131,234306,1,10,3:0:0:0:
107,193,234394,2,0,P|90:236|105:306,1,116.666666666667,10|2,3:0|3:0,0:0:0:0:
198,138,234570,69,8,1:0:0:0:
108,223,234658,2,0,P|146:323|252:307,1,233.333333333333,6|0,1:2|0:0,0:0:0:0:
250,333,234922,6,0,B|325:257|431:278|431:278|392:296|386:344,1,280.000010681153,2|6,1:3|3:0,0:0:0:0:
462,347,235187,70,0,P|452:275|443:203,1,144.666667770386,10|10,1:3|3:0,0:0:0:0:
330,47,235363,5,10,1:3:0:0:
391,96,235451,69,6,1:3:0:0:
321,174,235539,1,6,3:0:0:0:
224,133,235627,1,14,3:0:0:0:
335,170,235715,5,10,1:3:0:0:
216,118,235803,1,8,3:0:0:0:
124,203,235892,1,8,3:0:0:0:
46,151,235980,70,0,P|260:183|441:215,1,367.500003504753,6|0,1:0|0:0,0:0:0:0:
481,147,236244,69,6,1:2:0:0:
255,2,236640,1,2,3:2:0:0:
0,87,237037,2,0,L|38:259,1,167.999994873047,2|8,3:2|3:2,0:2:0:0:
359,261,237698,69,2,0:0:0:0:
128,308,237830,1,2,0:0:0:0:
209,131,237962,1,2,0:0:0:0:
265,292,238094,2,0,B|279:272|279:272|250:189,1,83.9999974365235,2|0,3:2|0:0,0:0:0:0:
133,50,238358,6,0,P|65:71|62:161,1,167.999994873047,10|2,3:2|0:0,0:0:0:0:
384,180,238755,2,0,P|452:201|455:291,1,167.999994873047,2|2,0:0|0:0,0:0:0:0:
290,374,239151,70,0,P|266:354|267:301,1,83.9999974365235,2|0,3:2|0:0,0:0:0:0:
486,179,239416,1,10,0:0:0:0:
264,55,239680,5,0,3:0:0:0:
264,55,239812,1,0,3:0:0:0:
264,55,239944,2,0,B|281:128|281:128|278:138|278:138|297:219,1,167.999994873047,2|8,3:2|0:0,0:0:0:0:
401,98,240473,70,0,B|287:128|287:128|281:143|281:143|149:177,2,251.999992309571,14|2|2,3:2|3:2|3:2,0:0:0:0:
508,269,241530,2,0,B|482:312|482:312|352:258,1,167.999994873047,10|2,3:2|0:0,0:0:0:0:
316,144,241927,5,2,0:0:0:0:
225,268,242059,1,2,3:2:0:0:
178,99,242191,1,2,0:0:0:0:
304,317,242323,1,2,3:2:0:0:
263,57,242455,1,2,0:0:0:0:
126,289,242588,70,0,P|61:309|-6:407,1,167.999994873047,14|0,3:2|3:0,0:0:0:0:
313,147,242984,2,0,P|378:167|445:265,1,167.999994873047,2|0,3:2|3:0,0:0:0:0:
439,242,243314,1,0,3:0:0:0:
439,242,243380,1,2,3:2:0:0:
229,171,243513,1,2,3:2:0:0:
351,330,243645,6,0,P|398:311|521:288,1,167.999994873047,10|0,3:2|3:0,0:0:0:0:
265,323,244041,1,2,0:0:0:0:
354,244,244173,1,2,3:2:0:0:
445,164,244306,1,2,0:0:0:0:
263,236,244438,1,2,3:2:0:0:
433,342,244570,1,2,0:0:0:0:
357,85,244702,69,14,3:2:0:0:
436,345,245099,1,2,3:2:0:0:
360,82,245495,1,2,3:2:0:0:
277,373,245759,6,0,B|227:352|227:352|269:233,1,167.999994873047,10|0,3:2|0:0,0:0:0:0:
366,216,246156,1,2,0:0:0:0:
185,152,246288,1,2,3:2:0:0:
340,322,246420,1,2,0:0:0:0:
282,171,246552,2,0,B|255:192|255:192|264:258,1,83.9999974365235,2|0,3:2|0:0,0:0:0:0:
118,384,246817,70,0,B|65:382|55:341|58:334|62:325|48:285|-6:283,1,167.999994873047,10|0,3:2|3:0,0:0:0:0:
285,174,247213,2,0,B|338:172|348:131|345:124|341:115|355:75|409:73,1,167.999994873047,2|0,3:2|3:0,0:0:0:0:
132,1,247610,6,0,P|148:40|158:93,1,83.9999974365235,2|0,3:2|0:0,0:0:0:0:
229,360,247874,2,0,P|318:342|314:248,1,167.999994873047,10|0,3:2|3:0,0:0:0:0:
261,247,248270,1,0,3:0:0:0:
431,311,248403,70,0,P|444:221|472:135,1,167.999994873047,2|0,3:2|3:0,0:0:0:0:
466,147,248799,1,0,3:0:0:0:
419,47,248931,6,0,P|397:56|384:91,1,41.9999987182618,10|0,3:2|0:0,0:0:0:0:
377,72,249063,2,0,P|373:95|397:124,1,41.9999987182618,4|0,3:0|0:0,0:0:0:0:
501,72,249195,1,8,3:0:0:0:
512,214,249328,69,2,3:2:0:0:
480,228,249394,1,4,3:0:0:0:
459,234,249460,1,4,3:0:0:0:
459,234,249526,1,12,3:0:0:0:
459,234,249592,2,0,P|447:257|449:289,1,41.9999987182618,8|0,3:0|3:0,0:0:0:0:
363,351,249724,5,2,3:2:0:0:
349,357,249790,1,8,3:0:0:0:
335,354,249856,1,12,3:0:0:0:
324,345,249922,1,4,3:0:0:0:
323,334,249988,2,0,P|333:296|374:258,1,83.9999974365235,10|0,3:2|3:0,0:0:0:0:
271,222,250253,70,0,L|202:240,1,41.9999987182618,10|0,3:0|0:0,0:0:0:0:
154,220,250385,2,0,L|85:238,1,41.9999987182618,10|0,3:0|0:0,0:0:0:0:
166,79,250517,5,2,3:2:0:0:
166,79,250583,1,8,3:0:0:0:
166,79,250649,2,0,P|168:108|177:134,1,41.9999987182618,6|0,3:0|0:0,0:0:0:0:
49,275,250781,1,2,3:2:0:0:
49,275,250847,1,8,3:0:0:0:
49,275,250914,1,4,3:0:0:0:
49,275,250980,1,8,3:0:0:0:
49,275,251046,2,0,P|72:224|92:135,1,125.999996154785,10|0,3:2|0:0,0:0:0:0:
34,47,251310,69,2,3:0:0:0:
266,156,251442,2,0,P|289:207|314:322,1,168,10|0,3:2|0:0,0:0:0:0:
222,380,251706,6,0,P|191:355|188:309,1,56,10|0,3:0|0:0,0:0:0:0:
346,232,251839,1,4,3:0:0:0:
380,222,251905,1,4,3:0:0:0:
395,192,251971,1,14,3:0:0:0:
393,155,252037,1,8,3:0:0:0:
370,126,252103,70,0,P|344:89|352:52,1,56,2|0,1:2|0:0,0:0:0:0:
397,3,252235,1,4,3:0:0:0:
397,3,252301,1,8,3:0:0:0:
397,3,252367,2,0,P|441:0|469:24,1,56,10|0,1:3|0:0,0:0:0:0:
490,86,252499,2,0,P|470:126|434:137,1,56,8|0,0:1|0:0,0:0:0:0:
267,181,252632,6,0,B|235:177|235:177|232:170|232:170|187:164,1,70,4|0,1:3|0:0,0:0:0:0:
84,61,252764,2,0,B|52:65|52:65|49:72|49:72|4:78,1,70,4|0,1:3|0:0,0:0:0:0:
255,1,252896,70,0,B|266:17|266:17|237:94,1,83.9999974365235,4|0,1:3|0:0,0:0:0:0:
67,161,253028,2,0,B|56:177|56:177|85:254,1,83.9999974365235,8|0,1:3|0:0,0:0:0:0:
234,349,253160,6,0,L|267:163,1,167.999994873047,6|2,1:2|3:2,0:0:0:0:
246,80,253425,1,2,3:2:0:0:
471,14,253557,70,0,L|441:179,1,167.999994873047,2|2,1:2|3:2,0:0:0:0:
368,256,253822,1,2,3:2:0:0:
453,272,253953,6,0,P|406:265|365:251,1,83.9999974365235,4|0,3:0|0:0,0:0:0:0:
77,245,254085,2,0,P|118:249|159:260,1,83.9999974365235,8|0,3:0|0:0,0:0:0:0:
304,338,254217,69,14,1:2:0:0:
245,44,254350,1,2,3:2:0:0:
304,338,254482,1,2,3:2:0:0:
306,89,254614,5,2,3:2:0:0:
240,290,254747,1,2,3:2:0:0:
372,48,254878,70,0,P|428:75|410:142,1,83.9999974365235,6|0,1:2|0:0,0:0:0:0:
512,149,255010,2,0,P|460:183|411:134,1,83.9999974365235,4|0,3:0|0:0,0:0:0:0:
354,219,255143,2,0,P|349:157|416:139,1,83.9999974365235,8|0,3:0|0:0,0:0:0:0:
484,14,255275,6,0,P|455:103|436:201,1,167.999994873047,6|2,1:2|3:2,3:2:0:0:
498,324,255539,1,2,3:2:0:0:
410,358,255671,1,2,1:2:0:0:
178,225,255803,69,2,3:2:0:0:
264,260,255935,1,2,1:2:0:0:
372,48,256068,5,8,3:0:0:0:
372,48,256200,1,4,3:0:0:0:
339,314,256332,70,0,L|360:122,1,167.999994873047,10|2,3:2|0:0,0:0:0:0:
421,250,256596,5,6,1:2:0:0:
256,200,256728,1,2,3:2:0:0:
92,151,256861,1,2,3:0:0:0:
301,378,256993,69,6,1:2:0:0:
257,195,257125,1,2,3:2:0:0:
216,15,257258,1,2,3:0:0:0:
48,239,257389,6,0,B|78:270|78:270|132:257,1,83.9999974365235,14|0,1:2|0:0,0:0:0:0:
243,115,257521,1,2,3:2:0:0:
386,261,257654,70,0,B|397:219|397:219|359:179,1,83.9999974365235,14|0,1:2|0:0,0:0:0:0:
175,166,257786,1,2,3:2:0:0:
247,316,257918,5,4,3:0:0:0:
247,316,258050,1,8,3:0:0:0:
263,79,258182,69,4,3:0:0:0:
312,263,258314,1,8,3:0:0:0:
507,136,258447,2,0,L|310:96,1,167.999994873047,14|2,1:2|3:2,0:0:0:0:
74,260,258711,1,2,3:2:0:0:
302,373,258843,2,0,L|254:175,1,167.999994873047,14|2,1:2|3:2,0:0:0:0:
58,178,259107,6,0,B|97:166|97:166|130:197,1,83.9999974365235,6|0,1:2|0:0,0:0:0:0:
207,311,259240,2,0,B|246:323|246:323|279:292,1,83.9999974365235,4|0,3:0|0:0,0:0:0:0:
351,104,259372,2,0,B|390:92|390:92|423:123,1,83.9999974365235,8|0,3:0|0:0,0:0:0:0:
500,240,259504,69,6,1:2:0:0:
245,196,259636,1,2,3:2:0:0:
427,377,259768,6,0,P|433:324|460:253,1,83.9999974365235,6|0,1:2|0:0,0:0:0:0:
261,40,259900,2,0,P|271:80|275:122,1,83.9999974365235,6|0,1:2|0:0,0:0:0:0:
373,210,260032,1,4,3:0:0:0:
373,210,260165,1,8,3:0:0:0:
496,98,260297,70,0,B|455:95|455:95|418:130,1,83.9999974365235,6|0,1:2|0:0,0:0:0:0:
373,210,260429,1,2,3:2:0:0:
151,5,260561,6,0,P|249:-3|266:138,1,251.999992309571,6|0,1:2|0:0,0:0:0:0:
132,199,260825,1,2,3:2:0:0:
309,256,260958,69,0,0:0:0:0:
207,183,261090,1,0,3:0:0:0:
96,98,261222,1,0,1:0:0:0:
43,229,261354,1,4,3:3:0:0:
351,123,261486,1,8,1:3:0:0:
166,17,261618,6,0,P|183:58|202:208,1,167.999994873047,6|2,1:2|3:0,0:0:0:0:
347,119,261883,69,0,1:0:0:0:
382,91,261949,1,8,3:0:0:0:
388,46,262015,1,4,3:0:0:0:
367,11,262081,1,8,3:0:0:0:
325,0,262147,2,0,P|280:6|226:124,1,167.999994873047,0|0,1:0|3:2,0:0:0:0:
461,316,262411,5,6,1:2:0:0:
330,291,262543,1,0,1:0:0:0:
120,244,262676,70,0,P|193:217|299:203,1,167.999994873047,6|0,1:2|0:0,0:0:0:0:
384,360,262940,1,0,1:0:0:0:
480,184,263072,5,4,3:0:0:0:
480,184,263138,1,8,3:0:0:0:
480,184,263204,1,0,1:0:0:0:
480,184,263270,1,8,3:0:0:0:
480,184,263336,1,4,3:0:0:0:
347,32,263469,70,0,P|329:97|325:142,1,83.9999974365235,4|0,1:3|0:0,0:0:0:0:
143,328,263601,2,0,P|135:286|122:246,1,83.9999974365235,8|0,1:3|0:0,0:0:0:0:
227,190,263733,6,0,L|293:205,3,56,6|8|4|8,1:2|3:0|3:0|3:0,0:0:0:0:
281,202,263997,1,0,1:0:0:0:
366,265,264129,70,0,P|443:292|453:390,2,167.999994873047,8|4|2,1:3|1:3|1:2,0:0:0:0:
146,331,264526,1,8,1:3:0:0:
78,113,264658,1,4,3:0:0:0:
322,11,264790,6,0,P|295:119|285:217,1,167.999994873047,8|8,1:3|3:0,0:0:0:0:
287,175,264988,1,4,3:0:0:0:
287,175,265054,2,0,P|355:160|362:113,1,83.9999974365235,0|0,1:0|0:0,0:0:0:0:
448,108,265187,2,0,P|401:55|357:73,1,83.9999974365235,12|0,1:3|0:0,0:0:0:0:
309,2,265319,2,0,P|287:68|324:97,1,83.9999974365235,8|0,1:3|0:0,0:0:0:0:
493,189,265451,69,0,1:3:0:0:
174,384,265583,1,0,1:0:0:0:
182,342,265649,1,0,1:0:0:0:
192,292,265715,1,0,1:0:0:0:
202,244,265781,1,0,1:0:0:0:
212,193,265847,6,0,B|183:160|183:160|24:187,1,167.999994873047,6|0,1:2|1:0,0:0:0:0:
47,310,266112,1,0,1:0:0:0:
47,310,266178,1,0,1:0:0:0:
47,310,266245,2,0,B|90:301|90:301|116:224,1,83.9999974365235,0|0,1:0|0:0,0:0:0:0:
0,36,266376,2,0,L|197:5,1,167.999994873047,6|0,1:2|1:0,0:0:0:0:
478,272,266640,69,4,1:3:0:0:
494,324,266706,1,4,1:3:0:0:
469,370,266773,1,4,1:3:0:0:
418,384,266839,1,4,1:3:0:0:
374,363,266905,6,0,P|387:294|431:185,1,167.999994873047,6|0,1:2|1:0,0:0:0:0:
220,105,267169,69,8,1:3:0:0:
172,83,267235,1,8,1:3:0:0:
127,101,267301,1,8,1:3:0:0:
100,148,267367,1,8,1:3:0:0:
111,196,267433,5,8,1:0:0:0:
303,110,267566,1,0,1:0:0:0:
53,73,267698,69,4,1:3:0:0:
317,191,267830,1,8,1:3:0:0:
53,73,267962,5,6,1:2:0:0:
84,52,268028,1,4,3:3:0:0:
120,56,268094,1,4,1:3:0:0:
148,84,268160,1,4,3:3:0:0:
169,80,268226,69,8,1:3:0:0:
191,126,268292,1,8,3:3:0:0:
179,168,268358,1,8,1:3:0:0:
140,185,268425,1,8,3:3:0:0:
126,205,268491,5,4,1:3:0:0:
127,263,268557,1,4,1:3:0:0:
175,298,268623,1,4,1:3:0:0:
230,272,268689,1,4,1:3:0:0:
255,216,268755,1,8,1:3:0:0:
301,177,268821,1,8,1:3:0:0:
365,191,268887,1,8,1:3:0:0:
399,254,268953,1,8,1:3:0:0:
371,329,269019,69,6,1:2:0:0:
371,329,269284,1,2,3:2:0:0:
256,384,269548,5,0,1:0:0:0:
256,0,269812,69,8,1:0:0:0:
52,300,270077,6,0,P|43:170|13:33,1,251.999992309571,6|0,1:0|3:0,0:0:0:0:
445,13,270275,1,2,3:2:0:0:
445,13,270341,2,0,P|420:136|407:261,1,251.999992309571,8|0,1:0|3:0,0:0:0:0:
117,350,270539,69,2,3:2:0:0:
117,350,270605,1,0,1:0:0:0:
371,178,270737,1,0,3:0:0:0:
153,56,270869,1,8,1:0:0:0:
389,348,271002,2,0,B|283:373|248:283|255:265|267:238|218:136|103:160,1,377.999988464356,6|0,3:2|0:0,0:0:0:0:
279,139,271266,6,0,B|304:80|304:80|296:141,1,125.999996154785,0|0,3:0|0:0,0:0:0:0:
129,361,271398,69,8,1:0:0:0:
129,361,271464,1,2,3:2:0:0:
129,361,271530,2,0,B|203:391|267:327|271:312|274:293|338:228|407:266,1,315.000012016297,6|0,3:2|0:0,0:0:0:0:
509,343,271795,5,0,3:0:0:0:
150,259,271927,1,8,1:0:0:0:
368,175,272059,1,4,1:3:0:0:
153,5,272191,70,0,B|167:21|167:21|135:116,1,105.000004005432,0|0,1:0|0:0,0:0:0:0:
39,180,272323,2,0,B|25:196|25:196|51:275,1,105.000004005432,0|0,1:0|0:0,0:0:0:0:
148,376,272455,5,8,1:0:0:0:
148,376,272521,1,2,3:2:0:0:
148,376,272588,1,4,3:0:0:0:
148,376,272654,1,8,3:0:0:0:
148,376,272720,69,0,1:0:0:0:
508,342,272852,1,2,3:0:0:0:
289,364,272984,1,8,1:0:0:0:
437,98,273116,6,2,B|461:45|521:48|573:91|564:158|524:209|467:221|444:206|436:187|367:182|330:236|356:301|356:301|363:246|415:234,1,525.000020027161,6|0,3:2|0:0,0:1:0:0:
362,126,273513,69,8,1:0:0:0:
477,275,273645,1,2,3:2:0:0:
371,24,273777,5,0,1:0:0:0:
443,376,273909,1,0,3:0:0:0:
426,142,274041,69,8,1:0:0:0:
369,129,274107,1,0,1:0:0:0:
312,118,274173,1,0,1:0:0:0:
254,106,274240,1,0,1:0:0:0:
199,55,274306,6,0,B|170:19|170:19|33:61|33:61|143:152|143:152|184:131,1,377.999988464356,6|0,1:2|0:0,0:0:0:0:
472,18,274570,69,8,1:0:0:0:
472,18,274636,1,4,3:0:0:0:
472,18,274702,2,0,B|521:58|521:58|478:145,1,125.999996154785,8|0,3:0|0:0,0:0:0:0:
512,241,274834,2,0,B|452:263|452:263|399:182,1,125.999996154785,0|0,1:0|0:0,0:0:0:0:
298,164,274966,2,0,B|308:101|308:101|404:95,1,125.999996154785,8|0,3:0|0:0,0:0:0:0:
481,355,275099,5,8,1:0:0:0:
490,117,275231,1,0,1:0:0:0:
133,246,275363,1,0,3:0:0:0:
205,378,275495,1,0,3:0:0:0:
278,36,275627,69,8,1:0:0:0:
278,36,275693,1,4,3:0:0:0:
278,36,275759,2,0,L|299:196,1,125.999996154785,8|0,3:0|0:0,0:0:0:0:
310,384,275892,6,0,B|280:365|275:335|275:335|256:303|220:301,1,125.999996154785,0|0,1:0|0:0,0:0:0:0:
142,59,276024,70,0,B|103:64|94:94|96:99|97:103|85:127|47:134,1,125.999996154785,8|0,3:0|0:0,0:0:0:0:
29,320,276156,6,0,B|9:333|10:362|10:362|41:330|80:323,1,125.999996154785,8|0,1:0|0:0,0:0:0:0:
298,163,276288,70,0,B|350:174|350:174|354:183|354:183|434:202,1,125.999996154785,0|0,1:0|0:0,0:0:0:0:
202,381,276420,6,0,P|189:249|163:117,1,251.999992309571,6|0,1:2|3:2,0:0:0:0:
434,330,276618,1,2,3:2:0:0:
434,330,276684,2,0,P|449:207|485:63,1,251.999992309571,8|0,1:0|3:0,0:0:0:0:
325,17,276883,69,2,3:2:0:0:
325,17,276949,1,2,1:2:0:0:
45,130,277081,1,2,3:2:0:0:
418,200,277213,1,8,1:0:0:0:
109,347,277345,6,2,B|86:331|86:285|129:253|129:253|184:203|152:103|48:85|-11:186|64:268|129:253|129:253|188:244|226:283|236:335|202:368,1,629.999980773926,6|0,3:2|0:0,0:1:0:0:
201,368,277742,1,8,1:0:0:0:
420,202,278006,70,0,P|358:210|298:229,1,125.999996154785,0|0,1:0|0:0,0:0:0:0:
14,19,278138,2,0,P|74:36|137:45,1,125.999996154785,0|0,1:0|0:0,0:0:0:0:
352,176,278270,5,8,1:0:0:0:
352,176,278336,1,0,1:0:0:0:
352,176,278403,1,0,1:0:0:0:
352,176,278469,1,0,1:0:0:0:
391,112,278535,70,0,P|513:168|478:281,1,251.999992309571,6|0,1:0|3:0,0:0:0:0:
117,353,278733,1,2,3:2:0:0:
117,353,278799,2,0,P|-5:297|30:184,1,251.999992309571,8|0,1:0|3:0,0:0:0:0:
458,336,278997,5,2,3:2:0:0:
458,336,279063,1,0,1:0:0:0:
85,163,279195,1,0,3:0:0:0:
225,375,279328,1,8,1:0:0:0:
398,35,279460,2,0,B|404:143|309:162|292:152|268:136|159:166|163:284,1,377.999988464356,6|0,3:2|0:0,0:0:0:0:
422,187,279724,70,0,B|480:215|480:215|387:197,1,125.999996154785,2|0,3:2|0:0,0:0:0:0:
309,311,279856,5,8,1:0:0:0:
309,311,279922,1,2,3:2:0:0:
309,311,279988,2,0,B|359:258|316:175|297:170|274:166|212:97|279:20,1,315.000012016297,6|0,3:2|0:0,0:0:0:0:
496,68,280253,70,0,B|514:70|529:83|529:83|491:81|461:99,1,105.000004005432,2|0,3:2|0:0,0:0:0:0:
97,199,280385,5,8,1:0:0:0:
401,38,280517,1,2,3:2:0:0:
215,384,280649,70,0,P|226:315|239:259,1,105.000004005432,8|0,1:3|0:0,0:0:0:0:
95,22,280781,2,0,P|105:73|113:125,1,105.000004005432,8|0,1:3|0:0,0:0:0:0:
56,281,280914,5,8,1:0:0:0:
64,241,280980,1,4,3:0:0:0:
100,202,281046,1,12,3:0:0:0:
174,177,281112,1,8,3:0:0:0:
271,199,281178,70,0,P|337:171|328:98,1,125.999996154785,0|0,1:0|0:0,0:0:0:0:
398,41,281310,2,0,P|340:-2|281:41,1,125.999996154785,8|0,3:0|0:0,0:0:0:0:
197,10,281442,2,0,P|187:81|255:110,1,125.999996154785,8|0,1:0|0:0,0:0:0:0:
511,220,281574,6,2,P|249:155|22:87,1,503.999984619141,6|8,3:1|3:0,0:1:0:0:
20,93,281905,1,4,3:0:0:0:
15,98,281971,1,8,1:0:0:0:
299,19,282103,1,4,3:0:0:0:
0,0,282235,69,0,1:0:0:0:
339,126,282367,1,4,3:0:0:0:
166,45,282499,5,8,1:0:0:0:
157,106,282566,1,0,1:0:0:0:
150,170,282632,1,0,1:0:0:0:
143,233,282698,1,0,1:0:0:0:
76,280,282764,70,0,B|33:275|-4:328|21:399|100:406|161:364|185:311|169:293|147:278|169:205|230:203|270:213|284:254,1,420,6|0,1:2|0:0,0:0:0:0:
16,198,283028,5,8,1:0:0:0:
5,206,283094,1,4,3:0:0:0:
0,217,283160,2,0,P|263:283|418:333,1,420,6|0,3:2|0:0,0:0:0:0:
485,296,283425,70,0,B|509:240|509:240|430:173,1,125.999996154785,4|0,3:0|0:0,0:0:0:0:
213,307,283557,2,0,B|249:355|249:355|347:320,1,125.999996154785,8|0,1:0|0:0,0:0:0:0:
340,66,283689,2,0,B|279:73|279:73|260:175,1,125.999996154785,8|0,3:0|0:0,0:0:0:0:
468,375,283821,5,0,1:0:0:0:
147,167,283953,1,0,3:0:0:0:
444,0,284085,69,8,1:0:0:0:
444,0,284151,1,8,3:0:0:0:
444,0,284217,2,0,P|423:76|407:189,1,125.999996154785,4|0,3:0|0:0,0:0:0:0:
308,335,284350,5,0,1:0:0:0:
151,79,284482,1,8,3:0:0:0:
115,337,284614,70,0,B|124:377|124:377|174:234,1,125.999996154785,8|0,1:0|0:0,0:0:0:0:
231,44,284746,2,0,B|285:85|285:85|256:158,1,125.999996154785,0|0,1:0|0:0,0:0:0:0:
149,293,284878,6,0,P|218:176|313:272,1,251.999992309571,6|0,1:2|3:0,0:0:0:0:
505,350,285077,1,2,3:2:0:0:
505,350,285143,2,0,P|393:379|354:271,1,251.999992309571,8|0,1:0|3:0,0:0:0:0:
421,129,285341,69,2,3:2:0:0:
421,129,285407,1,0,1:0:0:0:
233,362,285539,1,8,3:0:0:0:
148,76,285671,1,8,1:0:0:0:
512,187,285803,6,0,B|457:194|457:194|452:203|452:203|369:213,1,125.999996154785,4|0,3:0|0:0,0:0:0:0:
44,265,285936,1,8,1:3:0:0:
44,265,286068,1,4,1:3:0:0:
290,52,286200,70,0,B|296:-13|296:-13|263:66,1,125.999996154785,8|0,1:0|0:0,0:0:0:0:
239,297,286332,6,0,B|233:362|233:362|256:305,1,125.999996154785,4|0,3:0|0:0,0:0:0:0:
421,129,286464,69,4,1:3:0:0:
377,113,286530,1,4,1:3:0:0:
326,130,286596,1,4,1:3:0:0:
304,185,286662,1,4,1:3:0:0:
261,228,286729,1,8,1:3:0:0:
191,235,286795,1,8,1:3:0:0:
132,188,286861,1,8,1:3:0:0:
133,114,286927,1,8,1:3:0:0:
187,53,286993,70,0,B|229:48|253:10|253:10|171:159|161:341,1,420.000016021729,6|8,1:0|3:0,0:0:0:0:
27,70,287389,1,4,3:0:0:0:
27,70,287455,1,4,3:0:0:0:
27,70,287521,2,0,P|68:68|103:127,1,105.000004005432,8|0,1:0|0:0,0:0:0:0:
310,276,287654,69,4,3:0:0:0:
281,284,287720,1,12,3:0:0:0:
260,267,287786,1,8,1:3:0:0:
170,362,287918,1,8,3:0:0:0:
456,281,288050,6,0,P|352:264|263:401,1,251.999992309571,6|4,1:2|3:0,0:0:0:0:
294,153,288248,1,8,3:0:0:0:
294,153,288314,2,0,B|356:188|323:204|393:236,1,125.999996154785,8|0,3:2|0:0,0:0:0:0:
442,370,288447,69,8,3:0:0:0:
355,83,288579,1,8,1:0:0:0:
264,241,288711,2,0,B|205:292|116:254|156:222|74:176|11:218|11:218|64:218|102:269,1,377.999988464356,4|0,1:3|0:0,0:0:0:0:
12,362,288975,6,0,P|33:275|66:45,1,315.000012016297,6|0,1:2|0:0,0:0:0:0:
4,0,289240,1,0,3:0:0:0:
208,179,289372,70,0,P|176:218|125:219,1,105.000004005432,0|0,1:0|0:0,0:0:0:0:
135,11,289504,2,0,B|148:59|148:59|155:65|155:65|169:119,1,105.000004005432,8|0,3:0|0:0,0:0:0:0:
259,359,289636,6,0,P|272:247|297:138,1,210.000008010865,8|4,1:0|3:0,0:0:0:0:
370,119,289834,1,12,3:0:0:0:
364,103,289900,1,8,1:3:0:0:
496,165,290032,2,0,B|464:158|444:163|444:163|434:187|397:200,1,105.000004005432,0|0,3:0|0:0,0:0:0:0:
304,240,290165,1,8,1:2:0:0:
272,4,290297,70,0,P|354:71|464:82,2,210.000008010865,8|12|4,3:0|3:0|3:0,0:0:0:0:
420,318,290693,2,0,B|404:228|404:228|388:214|388:214|367:105,1,210.000008010865,8|4,1:0|1:3,0:0:0:0:
135,11,290958,5,0,1:0:0:0:
85,26,291024,1,0,1:0:0:0:
51,66,291090,1,0,1:0:0:0:
51,137,291156,1,0,1:0:0:0:
113,194,291222,1,6,1:2:0:0:
172,358,291354,69,4,3:0:0:0:
163,349,291420,1,8,3:0:0:0:
155,340,291486,1,8,1:0:0:0:
207,78,291618,1,0,3:0:0:0:
285,326,291751,6,0,P|207:299|28:272,1,251.999992309571,0|4,1:0|3:0,0:0:0:0:
352,269,291949,1,8,3:0:0:0:
352,269,292015,2,0,P|398:325|473:312,1,125.999996154785,8|0,1:0|0:0,0:0:0:0:
301,120,292147,2,0,B|290:174|290:174|281:184|281:184|267:256,1,125.999996154785,8|0,3:0|0:0,0:0:0:0:
481,313,292279,69,0,1:0:0:0:
294,0,292411,2,0,B|305:72|375:71|385:62|400:46|481:52|497:131,1,251.999992309571,8|8,3:0|1:0,0:0:0:0:
388,373,292676,2,0,B|349:331|382:266|397:263|415:259|463:206|405:131,1,251.999992309571,8|0,3:0|1:0,0:0:0:0:
196,171,292940,5,0,3:0:0:0:
181,182,293006,1,0,3:0:0:0:
166,194,293072,2,0,B|100:179|100:179|152:210,1,125.999996154785,8|0,1:0|0:0,0:0:0:0:
447,326,293204,2,0,B|392:345|392:345|378:341|378:341|321:358,1,125.999996154785,8|0,1:3|0:0,0:0:0:0:
15,184,293336,70,0,P|51:92|198:96,1,251.999992309571,6|0,1:2|3:0,0:0:0:0:
321,26,293535,1,0,3:0:0:0:
321,26,293601,2,0,B|287:27|287:27|268:136,1,125.999996154785,8|0,1:0|0:0,0:0:0:0:
237,287,293733,5,8,3:0:0:0:
237,287,293799,1,12,3:0:0:0:
237,287,293865,1,4,1:3:0:0:
43,93,293997,2,0,B|104:111|80:140|146:164,1,125.999996154785,0|0,3:0|0:0,0:0:0:0:
465,307,294129,70,0,B|426:310|405:290|405:290|401:249|348:224,1,125.999996154785,8|0,1:0|0:0,0:0:0:0:
171,76,294262,2,0,P|244:39|292:27,1,125.999996154785,4|0,1:3|0:0,0:0:0:0:
512,122,294394,5,2,1:2:0:0:
492,150,294460,1,2,3:2:0:0:
459,145,294526,2,0,B|439:121|439:121|336:99,1,125.999996154785,2|0,3:2|0:0,0:0:0:0:
186,255,294658,1,8,1:0:0:0:
220,255,294724,1,2,3:2:0:0:
245,232,294790,1,2,3:2:0:0:
344,335,294922,70,0,P|221:293|86:277,1,251.999992309571,0|0,1:0|3:0,0:0:0:0:
0,342,295121,1,0,1:0:0:0:
11,347,295187,2,0,B|40:359|40:359|15:256,1,125.999996154785,8|0,1:0|0:0,0:0:0:0:
184,89,295319,2,0,B|213:77|213:77|185:167,1,125.999996154785,8|0,1:3|0:0,0:0:0:0:
203,368,295451,6,0,L|114:0,1,377.999988464356,6|0,1:0|0:0,0:0:0:0:
26,55,295715,1,8,1:0:0:0:
319,196,295847,1,0,3:0:0:0:
119,352,295980,70,0,B|148:288|173:312|197:243,1,125.999996154785,0|0,1:0|0:0,0:0:0:0:
314,24,296112,1,4,3:0:0:0:
291,18,296178,1,8,3:0:0:0:
267,11,296244,1,8,1:0:0:0:
408,110,296376,2,0,P|452:68|513:76,1,125.999996154785,0|0,3:0|0:0,0:0:0:0:
512,331,296508,6,0,B|401:306|401:306|387:289|387:289|268:262,1,251.999992309571,0|4,1:0|3:0,0:0:0:0:
286,128,296706,1,8,3:0:0:0:
301,120,296773,2,0,B|331:103|331:103|308:205,1,125.999996154785,8|0,1:0|0:0,0:0:0:0:
96,342,296905,70,0,B|46:283|74:221|155:191|154:108|143:2|30:-29|-113:58|-80:271|110:200|178:193|194:257,1,629.999980773926,6|0,3:2|0:0,0:0:0:0:
331,336,297301,5,8,1:0:0:0:
261,362,297367,1,4,3:0:0:0:
190,384,297433,2,0,B|171:375|171:375|193:257,1,125.999996154785,8|0,3:0|0:0,0:0:0:0:
343,13,297566,70,0,B|442:93|442:93|417:217,1,251.999992309571,0|0,1:0|3:0,0:0:0:0:
78,43,297830,5,8,1:0:0:0:
352,126,297962,1,8,3:0:0:0:
19,199,298094,69,0,1:0:0:0:
248,34,298226,1,4,3:0:0:0:
230,41,298292,1,4,3:0:0:0:
210,50,298358,2,0,L|235:181,1,125.999996154785,8|0,1:0|0:0,0:0:0:0:
458,223,298491,2,0,L|433:354,1,125.999996154785,8|0,3:0|0:0,0:0:0:0:
187,293,298623,6,0,B|156:277|114:278|114:278|151:257|168:231|168:231|208:269|274:253,1,251.999992309571,0|8,1:0|3:0,0:0:0:0:
330,314,298821,1,4,3:0:0:0:
330,314,298887,2,0,B|347:345|347:345|370:229,1,125.999996154785,8|0,1:0|0:0,0:0:0:0:
377,67,299019,70,0,B|446:50|488:3|488:3|509:80|447:127|447:127|443:120|443:120|383:147|320:139|320:139|312:143|312:143|288:91|212:88,1,503.999984619141,6|0,3:2|1:0,0:0:0:0:
106,167,299416,5,8,1:0:0:0:
108,159,299482,1,0,1:0:0:0:
110,151,299548,1,0,1:0:0:0:
112,143,299614,1,0,1:0:0:0:
68,76,299680,70,0,B|113:85|113:85|165:240|165:240|213:249,1,251.999992309571,6|0,1:0|3:0,0:0:0:0:
409,354,299878,1,8,3:0:0:0:
409,354,299944,2,0,B|432:323|432:323|342:347,1,125.999996154785,8|0,1:0|0:0,0:0:0:0:
88,267,300077,2,0,P|47:311|57:379,1,125.999996154785,0|0,3:0|0:0,0:0:0:0:
270,341,300209,6,0,B|291:229|291:229|301:221|301:221|329:72,1,251.999992309571,0|0,1:0|3:0,0:0:0:0:
487,1,300407,1,2,3:0:0:0:
487,1,300473,2,0,B|511:60|511:60|472:122,1,125.999996154785,8|0,1:0|0:0,0:0:0:0:
191,51,300605,2,0,B|229:47|248:21|248:21|279:10|314:24,1,125.999996154785,8|0,3:0|0:0,0:0:0:0:
399,140,300737,69,0,1:0:0:0:
117,17,300869,2,0,P|187:77|288:220,1,251.999992309571,0|8,3:0|1:0,0:0:0:0:
116,259,301068,5,8,3:0:0:0:
116,259,301134,2,0,B|46:250|17:148|157:106|205:179|171:248|174:304|253:322|297:299,1,377.999988464356,4|0,3:0|0:0,0:0:0:0:
299,174,301398,70,0,P|237:217|169:200,1,125.999996154785,4|0,3:0|0:0,0:0:0:0:
32,352,301530,2,0,B|58:330|58:330|171:354,1,125.999996154785,8|0,1:0|0:0,0:0:0:0:
418,292,301662,5,4,3:0:0:0:
390,277,301729,1,8,3:0:0:0:
361,262,301795,2,0,B|356:235|356:235|394:179|394:179|388:144,1,125.999996154785,0|0,1:0|0:0,0:0:0:0:
188,0,301927,2,0,B|202:57|202:57|208:60|208:60|224:128,1,125.999996154785,8|0,3:0|0:0,0:0:0:0:
512,118,302059,70,0,P|395:135|316:25,1,251.999992309571,8|4,1:0|3:0,0:0:0:0:
35,110,302257,1,8,3:0:0:0:
22,87,302323,2,0,B|6:63|6:63|136:103,1,125.999996154785,0|0,1:0|0:0,0:0:0:0:
209,355,302455,1,6,3:0:0:0:
236,340,302521,1,10,3:0:0:0:
263,325,302588,6,0,L|280:185,1,125.999996154785,8|0,1:0|0:0,0:0:0:0:
103,190,302720,2,0,P|137:253|199:256,1,125.999996154785,10|0,3:0|0:0,0:0:0:0:
512,237,302852,70,0,B|450:230|402:292|441:312|397:390|302:374,1,251.999992309571,6|0,1:2|0:0,0:0:0:0:
201,141,303116,6,0,L|178:53,1,83.9999974365235,8|0,1:0|0:0,0:0:0:0:
364,218,303248,2,0,L|387:306,1,83.9999974365235,4|0,3:0|0:0,0:0:0:0:
173,283,303380,70,0,L|56:314,1,105.000004005432,0|0,1:0|0:0,0:0:0:0:
392,84,303513,2,0,L|509:53,1,105.000004005432,8|0,1:3|0:0,0:0:0:0:
278,199,303645,5,8,1:0:0:0:
276,209,303711,1,0,1:0:0:0:
274,219,303777,1,0,1:0:0:0:
273,229,303843,1,0,1:0:0:0:
332,322,303909,70,0,L|254:4,1,315.000012016297,6|0,1:2|0:0,0:0:0:0:
369,37,304173,5,0,1:0:0:0:
446,52,304306,1,0,3:0:0:0:
162,71,304438,69,0,1:0:0:0:
85,56,304571,1,0,3:0:0:0:
419,199,304702,6,0,B|480:210|480:210|529:149|529:149|333:108,1,315.000012016297,0|0,1:0|0:0,0:0:0:0:
345,3,304966,70,0,B|305:222|233:132|179:348,1,377.999988464356,6|0,1:0|0:0,0:0:0:0:
67,207,305231,5,0,1:0:0:0:
82,284,305364,1,0,3:0:0:0:
329,266,305495,69,0,1:0:0:0:
314,343,305628,1,0,3:0:0:0:
195,174,305759,6,0,B|188:118|188:118|192:112|192:112|182:35,1,125.999996154785,0|0,1:0|0:0,0:0:0:0:
162,71,305892,2,0,B|169:127|169:127|165:133|165:133|175:210,1,125.999996154785,0|0,1:0|0:0,0:0:0:0:
386,320,306024,70,0,B|443:335|443:335|511:292,1,125.999996154785,6|0,1:2|0:0,0:0:0:0:
484,177,306156,2,0,B|427:162|427:162|359:205,1,125.999996154785,0|0,1:0|0:0,0:0:0:0:
136,338,306288,6,0,B|79:353|79:353|11:310,1,125.999996154785,0|0,1:0|0:0,0:0:0:0:
38,195,306420,2,0,B|95:180|95:180|163:223,1,125.999996154785,0|0,1:0|0:0,0:0:0:0:
276,376,306552,69,4,1:3:0:0:
272,336,306618,1,4,1:3:0:0:
270,295,306684,1,4,1:3:0:0:
266,258,306751,1,4,1:3:0:0:
232,219,306817,5,8,1:3:0:0:
237,164,306883,1,8,1:3:0:0:
239,107,306949,1,8,1:3:0:0:
245,56,307016,1,8,1:3:0:0:
308,5,307081,53,0,1:0:0:0:
234,78,307213,70,0,P|245:101|256:125,1,52.5000020027161,4|0,3:0|0:0,0:0:0:0:
422,209,307345,2,0,P|395:207|369:204,1,52.5000020027161,10|0,3:2|0:0,0:0:0:0:
214,307,307477,2,0,P|228:285|244:264,1,52.5000020027161,8|0,3:0|0:0,0:0:0:0:
290,198,307610,5,2,3:2:0:0:
368,384,307742,70,0,P|346:326|322:270,1,122.500001168251,10|0,3:2|0:0,0:0:0:0:
88,173,307874,2,0,P|148:183|209:190,1,122.500001168251,4|0,1:3|0:0,0:0:0:0:
412,35,308006,2,0,P|372:82|336:131,1,122.500001168251,8|0,3:0|0:0,0:0:0:0:
31,236,308138,6,0,P|263:192|494:144,1,472.500018024445,6|0,1:0|0:0,0:0:0:0:
506,154,308403,69,8,1:0:0:0:
511,171,308469,1,8,3:0:0:0:
512,190,308535,1,12,3:0:0:0:
505,206,308601,1,4,3:0:0:0:
442,250,308667,6,0,P|340:224|238:196,1,210.000008010865,2|0,1:3|0:0,0:0:0:0:
440,332,308865,2,0,P|321:301|203:269,1,245.000002336502,2|0,1:3|0:0,0:0:0:0:
295,264,309063,2,0,B|347:277|347:277|356:258|356:258|309:246,1,122.500001168251,2|0,1:3|0:0,0:0:0:0:
65,79,309195,70,0,B|139:66|139:66|161:198,1,210.000008010865,4|0,1:3|0:0,0:0:0:0:
250,366,309394,2,0,B|175:378|175:378|147:211,1,245.000002336502,12|0,1:3|0:0,0:0:0:0:
0,154,309592,6,0,B|11:212|11:212|151:236|151:236|164:226|164:226|306:251|306:251|317:310,1,420,8|0,1:3|0:0,0:0:0:0:
250,366,309856,70,0,L|238:300,1,52.5000020027161,2|0,1:3|0:0,0:0:0:0:
299,148,309988,5,0,1:0:0:0:
350,156,310054,1,0,1:0:0:0:
402,165,310120,1,0,1:0:0:0:
454,174,310186,1,0,1:0:0:0:
505,183,310253,70,0,B|532:137|532:137|494:101,1,105.000004005432,6|0,1:2|0:0,0:0:0:0:
432,151,310385,2,0,B|354:170|354:170|338:216|338:216|259:235,1,210.000008010865,2|2,1:3|3:0,0:0:0:0:
418,332,310649,6,0,B|455:295|455:295|428:250,1,105.000004005432,2|0,1:3|0:0,0:0:0:0:
269,145,310781,2,0,B|191:126|191:126|175:80|175:80|96:60,1,210.000008010865,2|2,1:3|3:0,0:0:0:0:
328,2,311046,70,0,B|365:38|365:38|338:83,1,105.000004005432,2|0,1:3|0:0,0:0:0:0:
37,222,311178,1,0,1:0:0:0:
0,293,311244,1,0,1:0:0:0:
70,333,311310,6,0,B|136:321|136:321|142:315|142:315|204:304,1,140,6|0,1:2|0:0,0:0:0:0:
349,259,311442,2,0,B|286:269|286:269|280:276|280:276|214:287,1,140,2|0,3:0|0:0,0:0:0:0:
87,299,311574,2,0,B|153:287|153:287|159:281|159:281|221:270,1,140,2|0,3:0|0:0,0:0:0:0:
366,226,311706,2,0,B|303:236|303:236|297:243|297:243|231:254,1,140,2|0,3:0|0:0,0:0:0:0:
105,266,311838,2,0,B|171:254|171:254|177:248|177:248|239:237,1,140,2|0,3:0|0:0,0:0:0:0:
384,193,311971,2,0,B|321:203|321:203|315:210|315:210|249:221,1,140,2|0,3:0|0:0,0:0:0:0:
25,209,312103,70,0,B|210:238|210:238|242:287|242:287|466:319,1,472.500018024445,14|0,1:0|0:0,0:0:0:0:
479,335,312367,6,0,B|419:354|419:354|396:298,1,122.500001168251,6|0,1:2|0:0,0:0:0:0:
430,119,312499,2,0,B|490:100|490:100|512:155,1,122.500001168251,2|0,1:3|0:0,0:0:0:0:
277,367,312632,69,2,1:3:0:0:
268,335,312698,1,4,3:0:0:0:
257,294,312764,1,12,3:0:0:0:
239,237,312830,1,8,3:0:0:0:
209,162,312896,2,0,B|143:167|106:117|131:93|78:26|-27:38|-71:115|-16:181|42:163,1,367.500003504753,6|0,1:2|0:0,0:0:0:0:
46,175,313160,2,0,P|123:161|201:149,1,157.500006008148,2|0,1:3|0:0,0:0:0:0:
331,31,313292,5,0,1:0:0:0:
407,43,313358,1,0,1:0:0:0:
485,54,313425,1,2,1:3:0:0:
478,72,313491,1,2,3:2:0:0:
491,82,313557,1,2,3:2:0:0:
484,100,313623,1,2,3:2:0:0:
497,109,313689,70,0,P|380:134|295:222,1,245.000002336502,6|8,3:2|1:3,0:0:0:0:
284,253,313887,1,12,3:0:0:0:
276,285,313953,2,0,P|286:333|335:344,1,105.000004005432,4|0,3:0|3:0,0:0:0:0:
484,100,314085,6,0,P|423:104|365:124,1,122.500001168251,2|0,3:0|0:0,0:0:0:0:
191,157,314217,2,0,P|164:123|198:148,1,122.500001168251,0|0,1:0|0:0,0:0:0:0:
507,264,314350,70,8,P|484:209|426:212,1,122.500001168251,0|0,0:0|0:0,1:3:0:0:
83,331,314482,6,0,B|59:372|16:387|16:387|92:378|175:366|175:366|211:275|126:218|113:245|46:179|83:95,1,560,6|0,1:0|1:0,0:0:0:0:
4,53,314812,1,4,3:0:0:0:
4,53,314878,2,0,P|184:89|364:123,1,367.500003504753,8|0,3:0|0:0,0:0:0:0:
380,113,315143,2,0,P|380:55|326:34,1,122.500001168251,0|0,1:0|0:0,0:0:0:0:
65,243,315275,70,0,P|125:233|185:223,1,122.500001168251,8|0,1:3|0:0,0:0:0:0:
505,116,315407,2,0,P|444:125|384:135,1,122.500001168251,4|0,1:3|0:0,0:0:0:0:
242,20,315539,5,2,1:3:0:0:
159,94,315671,1,0,3:2:0:0:
283,193,315803,1,10,3:2:0:0:
132,347,315936,1,2,3:2:0:0:
145,101,316068,70,0,P|151:126|157:151,1,52.5000020027161,0|0,1:0|0:0,0:0:0:0:
184,247,316200,2,0,P|190:272|196:297,1,52.5000020027161,10|0,3:2|0:0,0:0:0:0:
12,154,316332,6,0,P|215:205|419:255,1,420,6|0,1:2|0:0,0:0:0:0:
439,261,316596,70,0,B|401:277|394:328|394:328|372:280|329:272,1,175,6|0,1:0|0:0,0:0:0:0:
307,363,316795,6,0,B|267:333|210:356|210:356|246:304|229:255,1,210.000008010865,4|0,1:3|0:0,0:0:0:0:
138,297,316993,70,0,B|145:239|88:194|88:194|161:201|202:155,1,245.000002336502,12|0,1:3|0:0,0:0:0:0:
121,94,317191,6,0,B|182:68|193:-14|193:-14|229:63|297:75,1,280,8|0,1:3|0:0,0:0:0:0:
373,95,317389,70,0,P|184:135|-4:172,1,367.500003504753,2|0,1:3|0:0,0:0:0:0:
121,94,317654,6,0,B|182:68|193:-14|193:-14|229:63|297:75,1,280,6|0,1:2|0:0,0:0:0:0:
138,297,317852,70,0,B|145:239|88:194|88:194|161:201|202:155,1,245.000002336502,8|0,1:3|0:0,0:0:0:0:
307,363,318050,6,0,B|267:333|210:356|210:356|246:304|229:255,1,210.000008010865,12|0,1:3|0:0,0:0:0:0:
439,261,318248,70,0,B|401:277|394:328|394:328|372:280|329:272,1,175,4|0,1:3|0:0,0:0:0:0:
512,168,318447,5,8,1:0:0:0:
500,223,318513,1,0,1:0:0:0:
486,279,318579,1,0,1:0:0:0:
474,331,318645,1,0,1:0:0:0:
462,383,318711,70,0,P|256:340|51:295,1,420,6|0,1:0|0:0,0:0:0:0:
51,295,318975,6,0,P|4:313|0:363,1,105.000004005432,0|0,1:0|0:0,0:0:0:0:
171,297,319107,2,0,P|166:247|119:228,1,105.000004005432,4|0,1:3|0:0,0:0:0:0:
53,140,319240,69,10,1:2:0:0:
123,384,319372,1,8,1:3:0:0:
239,52,319504,6,0,B|185:61|200:79|141:88,1,105.000004005432,2|0,1:3|0:0,0:0:0:0:
53,140,319636,2,0,B|111:130|96:112|150:103,1,105.000004005432,8|0,1:3|0:0,0:0:0:0:
379,12,319768,70,0,B|408:26|408:26|444:196|444:196|479:211,1,245.000002336502,2|0,1:3|0:0,0:0:0:0:
370,21,319966,2,0,B|399:35|399:35|435:205|435:205|470:220,1,245.000002336502,2|2,1:3|0:0,0:0:0:0:
512,33,320165,6,0,B|489:103|489:103|259:150|259:150|241:206,1,367.500003504753,2|0,1:3|0:0,0:0:0:0:
229,208,320429,70,0,B|249:141|249:141|284:134,1,105.000004005432,2|0,1:2|0:0,0:0:0:0:
512,304,320561,6,0,L|477:312,1,35,6|0,1:2|0:0,0:0:0:0:
505,315,320693,2,0,L|470:323,1,35,8|0,1:3|0:0,0:0:0:0:
325,220,320825,70,0,B|393:208|393:208|406:277,1,140,6|0,1:0|0:0,0:0:0:0:
345,364,320958,2,0,B|277:376|277:376|263:306,1,140,8|0,1:3|0:0,0:0:0:0:
104,77,321090,5,4,1:3:0:0:
75,102,321156,1,12,3:0:0:0:
54,130,321222,2,0,P|36:170|30:213,1,87.5,8|0,3:0|0:0,0:0:0:0:
284,134,321354,69,4,1:3:0:0:
249,129,321420,1,12,3:0:0:0:
213,131,321486,2,0,P|172:147|137:173,1,87.5,8|0,3:0|0:0,0:0:0:0:
17,227,321618,6,0,P|75:242|124:279,1,122.500001168251,2|0,1:3|0:0,0:0:0:0:
263,306,321751,69,0,1:0:0:0:
320,286,321817,1,0,1:0:0:0:
370,267,321883,2,0,B|529:224|556:71|430:-70|296:29|330:103|330:103|372:110|391:150,1,560,6|0,1:2|1:0,0:0:0:0:
318,182,322213,1,4,1:3:0:0:
298,178,322279,2,0,P|246:167|195:156,1,105.000004005432,8|0,1:3|0:0,0:0:0:0:
75,102,322411,6,0,B|65:69|65:69|63:72|63:72|54:41,1,70,2|0,1:3|0:0,0:0:0:0:
48,22,322543,1,2,3:0:0:0:
195,156,322676,69,8,1:3:0:0:
211,206,322742,1,4,1:3:0:0:
175,243,322808,2,0,L|96:263,1,70,2|0,1:3|0:0,0:0:0:0:
0,282,322940,6,0,P|208:309|416:332,1,420.000016021729,6|0,1:2|0:0,0:0:0:0:
422,343,323204,2,0,L|433:376,1,35,4|0,1:3|0:0,0:0:0:0:
89,253,323336,70,0,P|294:207|499:166,1,420.000016021729,6|0,1:2|0:0,0:0:0:0:
504,155,323601,2,0,L|512:121,1,35,8|0,1:0|0:0,0:0:0:0:
368,37,323733,5,0,1:0:0:0:
297,51,323799,1,0,1:0:0:0:
226,66,323865,1,0,1:0:0:0:
153,81,323931,1,0,1:0:0:0:
77,106,323997,70,0,B|61:119|61:119|32:105|-3:111|-3:111|32:105|54:79|54:79|73:89,1,175,6|0,1:2|0:0,0:0:0:0:
430,263,324394,6,0,B|446:250|446:250|474:263|510:257|510:257|474:263|452:289|452:289|434:280,1,175,6|0,1:2|0:0,0:0:0:0:
46,356,324790,70,0,P|54:276|134:277,1,175,6|0,1:2|0:0,0:0:0:0:
436,156,324922,2,0,P|428:235|348:235,1,175,0|0,1:0|0:0,0:0:0:0:
175,35,325054,5,6,1:0:0:0:
228,108,325187,2,0,P|233:142|238:177,1,70,2|2,0:0|0:0,0:0:0:0:
168,51,325451,2,0,P|112:92|42:84,1,140,2|2,0:0|0:0,0:0:0:0:
157,36,325847,1,2,0:0:0:0:
83,187,325980,1,2,0:0:0:0:
188,259,326112,70,0,P|169:322|103:329,1,140,10|2,3:2|0:0,0:0:0:0:
200,245,326508,2,0,P|263:263|270:329,1,140,2|2,0:0|0:0,0:0:0:0:
185,233,326905,2,0,P|195:199|203:165,1,70,2|2,0:0|0:0,0:0:0:0:
277,339,327169,5,10,3:2:0:0:
427,298,327301,1,2,0:0:0:0:
332,269,327433,1,2,0:0:0:0:
367,365,327566,2,0,P|434:344|503:330,1,140,2|2,0:0|0:0,0:0:0:0:
322,262,327962,69,2,0:0:0:0:
322,262,328094,1,2,0:0:0:0:
479,175,328226,6,0,P|483:140|487:105,1,70,10|2,3:2|0:0,0:0:0:0:
503,10,328491,1,2,0:0:0:0:
389,199,328623,70,0,P|393:164|397:129,1,70,2|2,0:0|0:0,0:0:0:0:
413,34,328888,1,2,0:0:0:0:
307,92,329019,1,2,0:0:0:0:
376,189,329151,1,2,0:0:0:0:
254,252,329284,5,10,3:2:0:0:
179,279,329416,2,0,P|150:261|133:231,1,70,2|2,0:0|0:0,0:0:0:0:
274,262,329680,2,0,P|205:259|144:227,1,140,2|2,0:0|0:0,0:0:0:0:
50,140,330077,1,2,0:0:0:0:
153,51,330209,1,2,0:0:0:0:
42,155,330341,70,0,P|111:146|180:138,1,140,10|2,3:2|0:0,0:0:0:0:
24,60,330737,2,0,P|93:51|162:43,1,140,2|2,0:0|0:0,0:0:0:0:
276,121,331134,1,2,0:0:0:0:
257,25,331266,1,2,0:0:0:0:
175,151,331398,5,10,3:2:0:0:
239,221,331530,1,2,0:0:0:0:
224,313,331662,1,2,0:0:0:0:
138,348,331795,2,0,P|66:359|0:368,1,140,2|2,0:0|0:0,0:0:0:0:
217,303,332191,1,2,0:0:0:0:
304,358,332323,1,2,0:0:0:0:
209,291,332455,70,0,P|200:257|192:223,1,70,10|2,3:2|0:0,0:0:0:0:
309,372,332720,1,2,0:0:0:0:
396,324,332852,2,0,P|429:332|464:339,1,70,2|2,0:0|0:0,0:0:0:0:
304,358,333116,1,2,0:0:0:0:
325,259,333248,2,0,P|332:224|339:190,1,70,2|2,0:0|0:0,0:0:0:0:
358,181,333447,1,2,0:0:0:0:
376,172,333513,5,14,3:2:0:0:
480,197,333645,1,2,0:0:0:0:
377,74,333777,1,2,0:0:0:0:
377,74,333843,1,2,0:0:0:0:
377,74,333909,2,0,B|307:84|330:113|247:125,1,140,2|2,0:0|0:0,0:0:0:0:
130,85,334306,1,2,0:0:0:0:
239,110,334438,1,2,0:0:0:0:
112,193,334570,70,0,P|103:226|94:260,1,70,10|2,3:2|0:0,0:0:0:0:
41,128,334834,1,2,0:0:0:0:
101,274,334966,2,0,P|92:307|83:341,1,70,2|2,0:0|0:0,0:0:0:0:
23,213,335231,1,2,0:0:0:0:
125,177,335363,1,2,0:0:0:0:
208,241,335495,1,2,0:0:0:0:
221,347,335627,5,10,3:2:0:0:
347,278,335759,1,2,0:0:0:0:
347,278,335825,1,2,0:0:0:0:
347,278,335891,1,2,0:0:0:0:
437,382,336024,2,0,P|368:371|300:359,1,140,2|2,0:0|0:0,0:0:0:0:
394,188,336420,1,2,0:0:0:0:
510,270,336552,1,2,0:0:0:0:
495,52,336684,70,0,P|426:64|357:76,1,140,10|2,3:2|0:0,0:0:0:0:
402,178,337081,2,0,P|334:160|267:140,1,140,2|2,0:0|0:0,0:0:0:0:
256,126,337411,1,2,0:0:0:0:
246,113,337477,2,0,P|236:78|228:44,1,70,2|2,0:0|0:0,0:0:0:0:
79,191,337742,5,10,3:2:0:0:
51,96,337874,1,2,0:0:0:0:
145,69,338006,1,2,0:0:0:0:
172,163,338138,2,0,B|163:238|145:215|137:297,1,140,2|2,0:0|0:0,0:0:0:0:
3,384,338535,2,0,P|36:373|69:362,1,70,2|2,0:0|0:0,0:0:0:0:
234,311,338799,69,10,3:2:0:0:
310,326,338931,1,2,0:0:0:0:
378,366,339063,1,2,0:0:0:0:
467,265,339195,5,2,0:0:0:0:
467,265,339262,1,2,0:0:0:0:
467,265,339328,1,2,0:0:0:0:
349,208,339460,1,2,0:0:0:0:
495,121,339592,69,2,0:0:0:0:
495,121,339724,1,2,0:0:0:0:
259,50,339856,6,0,P|272:100|282:140,1,90.9999958343508,10|2,3:2|0:0,0:0:0:0:
281,138,340054,1,2,0:0:0:0:
281,138,340121,1,2,0:0:0:0:
181,11,340253,2,0,P|92:32|4:53,1,181.999991668702,2|2,0:0|0:0,0:0:0:0:
163,3,340649,1,2,0:0:0:0:
205,149,340781,1,2,0:0:0:0:
40,215,340914,70,0,P|84:224|128:237,1,90.9999958343508,10|2,3:2|0:0,0:0:0:0:
75,130,341178,1,2,0:0:0:0:
128,237,341310,2,0,P|170:252|212:269,1,90.9999958343508,2|2,0:0|0:0,0:0:0:0:
75,130,341574,1,2,0:0:0:0:
0,304,341706,6,0,P|177:257|355:210,1,367.500003504753,14|0,1:0|0:0,0:0:0:0:
441,157,341971,70,0,L|466:150,2,26.2500010013581,0|0|0,1:0|1:0|1:0,1:0:0:0:
364,79,342103,5,0,1:0:0:0:
355,112,342169,1,0,1:0:0:0:
341,143,342235,1,0,1:0:0:0:
320,172,342301,1,0,1:0:0:0:
295,196,342367,1,0,1:0:0:0:
265,213,342433,1,0,1:0:0:0:
233,224,342499,2,0,L|206:222,2,26.2500010013581,0|0|0,1:0|1:0|1:0,0:0:0:0:
136,181,342632,69,0,1:0:0:0:
131,153,342698,1,0,1:0:0:0:
141,128,342764,1,0,1:0:0:0:
160,111,342830,1,0,1:0:0:0:
178,94,342896,1,0,1:0:0:0:
188,69,342962,1,0,1:0:0:0:
184,43,343028,2,0,L|176:17,2,26.2500010013581,0|0|0,1:0|1:0|1:0,0:0:0:0:
274,64,343160,5,0,1:0:0:0:
270,102,343226,1,0,1:0:0:0:
275,139,343292,1,0,1:0:0:0:
287,174,343358,1,0,1:0:0:0:
305,207,343424,1,0,1:0:0:0:
329,236,343490,1,0,1:0:0:0:
357,261,343557,2,0,L|381:268,2,26.2500010013581,0|0|0,1:0|1:0|1:0,0:0:0:0:
484,247,343689,2,0,L|463:264,2,26.2500010013581,0|0|0,1:0|1:0|1:0,0:0:0:0:
433,355,343821,2,0,L|428:337,9,17.500000667572,0|0|0|0|0|0|0|0|0|0,1:0|1:0|1:0|1:0|1:0|1:0|1:0|1:0|1:0|1:0,0:0:0:0:
508,384,344085,70,2,L|4:384,1,503.999984619141,6|0,1:2|0:0,0:1:0:0:
