osu file format v14

[General]
AudioFilename: audio.mp3
AudioLeadIn: 0
PreviewTime: 68603
Countdown: 0
SampleSet: Normal
StackLeniency: 0.7
Mode: 1
LetterboxInBreaks: 0
WidescreenStoryboard: 0

[Editor]
DistanceSpacing: 2.6
BeatDivisor: 4
GridSize: 32
TimelineZoom: 2.200001

[Metadata]
Title:Naopura2000 -Daybreak-
TitleUnicode:なおぷら2000 -Daybreak-
Artist:katagiri
ArtistUnicode:かたぎり
Creator:Nifty
Version:Black Another
Source:
Tags:BMS hard renaissance rhythm video game instrumental electronic nao+ nao4plus
BeatmapID:2028938
BeatmapSetID:969821

[Difficulty]
HPDrainRate:5
CircleSize:2
OverallDifficulty:7
ApproachRate:10
SliderMultiplier:1.4
SliderTickRate:1

[Events]
//Background and Video events
0,0,"daybreak.jpg",0,-50
//Break Periods
2,4517,12439
//Storyboard Layer 0 (Background)
//Storyboard Layer 1 (Fail)
//Storyboard Layer 2 (Pass)
//Storyboard Layer 3 (Foreground)
//Storyboard Layer 4 (Overlay)
//Storyboard Sound Samples

[TimingPoints]
4318,267.857142857143,4,1,0,100,1,0
68603,-100,4,1,0,100,0,1
85746,-100,4,1,0,100,0,0
102914,-100,4,1,0,60,0,0
109209,-100,4,1,0,80,0,0
111351,-100,4,1,0,100,0,0
113603,-100,4,1,0,100,0,1
122175,-100,4,1,0,100,0,0

[HitObjects]
278,137,4317,5,12,0:0:0:0:
270,101,12889,5,0,0:0:0:0:
261,87,12956,1,8,0:0:0:0:
261,87,13023,1,8,0:0:0:0:
261,86,13090,1,8,0:0:0:0:
261,87,13157,1,0,0:0:0:0:
261,87,13224,1,0,0:0:0:0:
261,86,13291,1,8,0:0:0:0:
261,87,13358,1,8,0:0:0:0:
261,87,13425,1,0,0:0:0:0:
261,86,13492,1,8,0:0:0:0:
261,87,13559,1,8,0:0:0:0:
261,87,13626,1,0,0:0:0:0:
261,86,13693,1,8,0:0:0:0:
266,80,13759,1,0,0:0:0:0:
270,101,13960,5,0,0:0:0:0:
261,87,14027,1,8,0:0:0:0:
261,87,14094,1,8,0:0:0:0:
261,86,14161,1,8,0:0:0:0:
261,87,14228,1,0,0:0:0:0:
261,87,14295,1,0,0:0:0:0:
261,86,14362,1,8,0:0:0:0:
261,87,14429,1,8,0:0:0:0:
261,87,14496,1,0,0:0:0:0:
261,86,14563,1,8,0:0:0:0:
261,87,14630,1,8,0:0:0:0:
261,87,14697,1,0,0:0:0:0:
261,86,14764,1,8,0:0:0:0:
266,80,14831,1,0,0:0:0:0:
271,86,15032,1,0,0:0:0:0:
271,86,15099,1,8,0:0:0:0:
271,86,15166,1,8,0:0:0:0:
285,77,15233,1,0,0:0:0:0:
279,77,15300,1,8,0:0:0:0:
279,77,15367,1,0,0:0:0:0:
294,73,15568,1,0,0:0:0:0:
293,76,15634,1,8,0:0:0:0:
294,73,15701,1,8,0:0:0:0:
294,73,15768,1,0,0:0:0:0:
281,58,15835,1,8,0:0:0:0:
283,58,15902,1,0,0:0:0:0:
267,61,16103,1,0,0:0:0:0:
283,58,16170,1,8,0:0:0:0:
283,59,16237,1,8,0:0:0:0:
283,59,16304,1,8,0:0:0:0:
283,58,16371,1,0,0:0:0:0:
283,59,16438,1,0,0:0:0:0:
283,59,16505,1,8,0:0:0:0:
283,58,16572,1,8,0:0:0:0:
283,59,16639,1,0,0:0:0:0:
283,59,16706,1,8,0:0:0:0:
283,58,16773,1,8,0:0:0:0:
283,59,16840,1,0,0:0:0:0:
284,55,17175,1,0,0:0:0:0:
284,55,17309,1,0,0:0:0:0:
284,55,17443,1,8,0:0:0:0:
284,55,17576,1,0,0:0:0:0:
284,55,17643,1,8,0:0:0:0:
283,45,17777,1,0,0:0:0:0:
283,45,17844,1,8,0:0:0:0:
284,46,17978,1,8,0:0:0:0:
280,46,18246,1,0,0:0:0:0:
280,46,18380,1,0,0:0:0:0:
280,46,18514,1,8,0:0:0:0:
280,46,18648,1,0,0:0:0:0:
280,46,18715,1,0,0:0:0:0:
280,46,18849,1,8,0:0:0:0:
280,46,18916,1,8,0:0:0:0:
280,46,19050,1,8,0:0:0:0:
279,46,19318,1,0,0:0:0:0:
279,46,19451,1,0,0:0:0:0:
279,46,19585,1,8,0:0:0:0:
279,46,19719,1,0,0:0:0:0:
279,46,19786,1,8,0:0:0:0:
279,46,19920,1,0,0:0:0:0:
279,46,19987,1,8,0:0:0:0:
279,46,20121,1,8,0:0:0:0:
279,46,20255,1,0,0:0:0:0:
279,46,20389,1,8,0:0:0:0:
279,46,20523,1,0,0:0:0:0:
279,46,20657,1,8,0:0:0:0:
279,46,20791,1,0,0:0:0:0:
277,43,20925,1,8,0:0:0:0:
277,43,21059,1,0,0:0:0:0:
277,43,21193,1,8,0:0:0:0:
277,43,21326,1,8,0:0:0:0:
284,55,21460,1,0,0:0:0:0:
284,55,21594,1,0,0:0:0:0:
284,55,21728,1,8,0:0:0:0:
284,55,21862,1,0,0:0:0:0:
284,55,21929,1,8,0:0:0:0:
283,45,22063,1,0,0:0:0:0:
283,45,22130,1,8,0:0:0:0:
284,46,22264,1,8,0:0:0:0:
280,46,22532,1,0,0:0:0:0:
280,46,22666,1,0,0:0:0:0:
280,46,22800,1,8,0:0:0:0:
280,46,22934,1,0,0:0:0:0:
280,46,23001,1,0,0:0:0:0:
280,46,23134,1,8,0:0:0:0:
280,46,23201,1,8,0:0:0:0:
280,46,23335,1,8,0:0:0:0:
279,46,23603,1,0,0:0:0:0:
279,46,23737,1,0,0:0:0:0:
279,46,23871,1,8,0:0:0:0:
279,46,24005,1,0,0:0:0:0:
279,46,24072,1,8,0:0:0:0:
279,46,24206,1,0,0:0:0:0:
279,46,24273,1,8,0:0:0:0:
279,46,24407,1,8,0:0:0:0:
279,46,24541,1,0,0:0:0:0:
279,46,24675,1,8,0:0:0:0:
279,46,24809,1,0,0:0:0:0:
279,46,24943,1,8,0:0:0:0:
279,46,25076,1,0,0:0:0:0:
277,43,25210,1,8,0:0:0:0:
277,43,25344,1,0,0:0:0:0:
277,43,25478,1,8,0:0:0:0:
277,43,25612,1,8,0:0:0:0:
266,61,25679,1,8,0:0:0:0:
268,61,25746,1,0,0:0:0:0:
268,60,25880,1,0,0:0:0:0:
268,60,26014,1,8,0:0:0:0:
268,60,26148,1,0,0:0:0:0:
268,60,26215,1,8,0:0:0:0:
276,58,26349,1,0,0:0:0:0:
276,58,26416,1,8,0:0:0:0:
276,58,26550,1,4,0:0:0:0:
271,51,26818,1,0,0:0:0:0:
271,51,26951,1,0,0:0:0:0:
271,51,27085,1,8,0:0:0:0:
271,51,27219,1,0,0:0:0:0:
271,51,27286,1,0,0:0:0:0:
271,51,27420,1,8,0:0:0:0:
271,51,27487,1,8,0:0:0:0:
287,55,27621,1,12,0:0:0:0:
277,57,27889,1,0,0:0:0:0:
277,57,28023,1,0,0:0:0:0:
277,57,28157,1,8,0:0:0:0:
277,57,28291,1,0,0:0:0:0:
277,57,28358,1,8,0:0:0:0:
277,57,28492,1,0,0:0:0:0:
277,57,28559,1,8,0:0:0:0:
277,57,28693,1,8,0:0:0:0:
277,57,28826,1,0,0:0:0:0:
286,59,29764,1,12,0:0:0:0:
285,59,30032,1,0,0:0:0:0:
285,59,30099,1,0,0:0:0:0:
285,59,30166,1,8,0:0:0:0:
285,59,30233,1,0,0:0:0:0:
285,59,30300,1,8,0:0:0:0:
289,82,30367,1,0,0:0:0:0:
288,82,30434,1,8,0:0:0:0:
287,82,30501,1,8,0:0:0:0:
280,77,30568,1,0,0:0:0:0:
280,77,30634,1,8,0:0:0:0:
278,76,30701,1,8,0:0:0:0:
280,77,30768,1,0,0:0:0:0:
280,77,30835,1,8,0:0:0:0:
278,76,30902,1,8,0:0:0:0:
280,77,30969,1,8,0:0:0:0:
280,77,31036,1,8,0:0:0:0:
285,59,31103,1,0,0:0:0:0:
285,59,31170,1,0,0:0:0:0:
285,59,31237,1,8,0:0:0:0:
285,59,31304,1,0,0:0:0:0:
285,59,31371,1,8,0:0:0:0:
289,82,31438,1,0,0:0:0:0:
288,82,31505,1,8,0:0:0:0:
287,82,31572,1,8,0:0:0:0:
280,77,31639,1,0,0:0:0:0:
280,77,31706,1,8,0:0:0:0:
278,76,31773,1,8,0:0:0:0:
280,77,31840,1,0,0:0:0:0:
280,77,31907,1,8,0:0:0:0:
278,76,31974,1,8,0:0:0:0:
280,77,32041,1,8,0:0:0:0:
280,77,32108,1,8,0:0:0:0:
285,59,32175,1,0,0:0:0:0:
285,59,32242,1,0,0:0:0:0:
285,59,32309,1,8,0:0:0:0:
285,59,32376,1,0,0:0:0:0:
285,59,32443,1,8,0:0:0:0:
289,82,32509,1,0,0:0:0:0:
288,82,32576,1,8,0:0:0:0:
287,82,32643,1,8,0:0:0:0:
280,77,32710,1,0,0:0:0:0:
280,77,32777,1,8,0:0:0:0:
278,76,32844,1,8,0:0:0:0:
280,77,32911,1,0,0:0:0:0:
280,77,32978,1,8,0:0:0:0:
278,76,33045,1,8,0:0:0:0:
280,77,33112,1,0,0:0:0:0:
280,77,33179,1,0,0:0:0:0:
286,81,33246,1,8,0:0:0:0:
280,77,33313,1,0,0:0:0:0:
280,77,33380,1,0,0:0:0:0:
282,73,33447,1,0,0:0:0:0:
280,77,33514,1,8,0:0:0:0:
283,68,33581,1,8,0:0:0:0:
282,73,33648,1,0,0:0:0:0:
282,68,33715,1,0,0:0:0:0:
282,68,33782,1,8,0:0:0:0:
282,73,33826,1,8,0:0:0:0:
291,68,33871,1,8,0:0:0:0:
282,68,33916,1,0,0:0:0:0:
282,68,33983,1,0,0:0:0:0:
282,73,34050,1,8,0:0:0:0:
282,68,34184,1,8,0:0:0:0:
294,75,34228,1,0,0:0:0:0:
293,76,34273,1,0,0:0:0:0:
269,71,34318,1,8,0:0:0:0:
294,75,34451,1,0,0:0:0:0:
283,71,34585,1,8,0:0:0:0:
285,70,34719,1,0,0:0:0:0:
282,74,34786,1,8,0:0:0:0:
285,70,34920,1,8,0:0:0:0:
282,74,34987,1,0,0:0:0:0:
285,70,35121,1,8,0:0:0:0:
285,70,35255,1,0,0:0:0:0:
285,70,35389,1,8,0:0:0:0:
285,70,35523,1,0,0:0:0:0:
285,70,35657,1,8,0:0:0:0:
285,70,35791,1,0,0:0:0:0:
285,70,35858,1,8,0:0:0:0:
285,70,35992,1,0,0:0:0:0:
285,70,36059,1,0,0:0:0:0:
285,70,36193,1,8,0:0:0:0:
285,70,36326,1,0,0:0:0:0:
285,70,36460,1,8,0:0:0:0:
285,70,36594,1,0,0:0:0:0:
285,70,36728,1,8,0:0:0:0:
285,70,36862,1,0,0:0:0:0:
285,70,36929,1,8,0:0:0:0:
285,70,37063,1,8,0:0:0:0:
285,70,37130,1,0,0:0:0:0:
285,70,37264,1,8,0:0:0:0:
285,70,37398,1,0,0:0:0:0:
285,70,37532,1,0,0:0:0:0:
285,70,37599,1,0,0:0:0:0:
285,70,37666,1,8,0:0:0:0:
285,70,37733,1,8,0:0:0:0:
285,70,37800,1,0,0:0:0:0:
285,70,37867,1,8,0:0:0:0:
285,70,37934,1,8,0:0:0:0:
285,70,38001,1,8,0:0:0:0:
285,70,38068,1,0,0:0:0:0:
285,70,38134,1,0,0:0:0:0:
285,70,38201,1,8,0:0:0:0:
285,70,38268,1,8,0:0:0:0:
285,70,38335,1,0,0:0:0:0:
285,70,38402,1,8,0:0:0:0:
285,70,38469,1,8,0:0:0:0:
285,70,38536,1,8,0:0:0:0:
285,70,38603,1,8,0:0:0:0:
291,66,38737,1,0,0:0:0:0:
293,77,38871,1,8,0:0:0:0:
294,78,39005,1,0,0:0:0:0:
293,77,39072,1,8,0:0:0:0:
294,78,39206,1,8,0:0:0:0:
293,77,39273,1,0,0:0:0:0:
294,78,39407,1,8,0:0:0:0:
290,69,39541,1,0,0:0:0:0:
290,69,39675,1,8,0:0:0:0:
290,69,39809,1,0,0:0:0:0:
290,69,39943,1,8,0:0:0:0:
290,69,40076,1,0,0:0:0:0:
290,69,40143,1,8,0:0:0:0:
290,69,40277,1,0,0:0:0:0:
290,69,40344,1,0,0:0:0:0:
290,69,40478,1,8,0:0:0:0:
290,69,40612,1,0,0:0:0:0:
290,69,40746,1,8,0:0:0:0:
290,69,40880,1,0,0:0:0:0:
280,57,41014,1,8,0:0:0:0:
292,61,41148,1,0,0:0:0:0:
292,61,41215,1,8,0:0:0:0:
292,61,41349,1,8,0:0:0:0:
292,61,41416,1,0,0:0:0:0:
292,61,41550,1,8,0:0:0:0:
292,61,41684,1,0,0:0:0:0:
291,71,41818,1,8,0:0:0:0:
284,52,41884,1,0,0:0:0:0:
286,52,41951,1,0,0:0:0:0:
286,52,42018,1,8,0:0:0:0:
284,52,42085,1,0,0:0:0:0:
286,52,42152,1,0,0:0:0:0:
286,52,42219,1,8,0:0:0:0:
284,52,42286,1,0,0:0:0:0:
286,52,42353,1,8,0:0:0:0:
286,52,42420,1,0,0:0:0:0:
284,52,42487,1,0,0:0:0:0:
286,52,42554,1,8,0:0:0:0:
286,52,42621,1,0,0:0:0:0:
284,52,42688,1,0,0:0:0:0:
286,52,42755,1,8,0:0:0:0:
286,52,42822,1,8,0:0:0:0:
284,52,42889,1,0,0:0:0:0:
276,82,43157,1,0,0:0:0:0:
290,73,43291,1,0,0:0:0:0:
290,73,43425,1,8,0:0:0:0:
278,67,43693,1,0,0:0:0:0:
280,79,43826,1,0,0:0:0:0:
280,79,44094,1,0,0:0:0:0:
280,79,44228,1,8,0:0:0:0:
280,79,44362,1,0,0:0:0:0:
280,79,44496,1,8,0:0:0:0:
280,80,44764,1,0,0:0:0:0:
280,80,44898,1,0,0:0:0:0:
280,80,45032,1,0,0:0:0:0:
280,80,45300,1,0,0:0:0:0:
280,80,45568,1,8,0:0:0:0:
278,69,45701,1,0,0:0:0:0:
278,69,45969,1,0,0:0:0:0:
276,71,46237,1,0,0:0:0:0:
276,71,46371,1,8,0:0:0:0:
276,71,46505,1,0,0:0:0:0:
276,71,46639,1,8,0:0:0:0:
276,71,46773,1,8,0:0:0:0:
276,71,46907,1,0,0:0:0:0:
276,71,47041,1,8,0:0:0:0:
276,71,47175,1,0,0:0:0:0:
276,68,47443,1,0,0:0:0:0:
276,68,47576,1,0,0:0:0:0:
276,68,47710,1,8,0:0:0:0:
273,69,47978,1,0,0:0:0:0:
273,69,48112,1,0,0:0:0:0:
273,68,48380,1,0,0:0:0:0:
273,68,48514,1,8,0:0:0:0:
273,68,48648,1,0,0:0:0:0:
273,68,48782,1,8,0:0:0:0:
275,61,49050,1,8,0:0:0:0:
275,61,49184,1,8,0:0:0:0:
275,61,49318,1,0,0:0:0:0:
275,57,49585,1,0,0:0:0:0:
278,57,49853,1,8,0:0:0:0:
278,57,49987,1,0,0:0:0:0:
278,57,50255,1,0,0:0:0:0:
278,57,50523,1,0,0:0:0:0:
278,57,50657,1,8,0:0:0:0:
278,57,50791,1,0,0:0:0:0:
278,57,50858,1,0,0:0:0:0:
278,57,50925,1,8,0:0:0:0:
278,57,51059,1,8,0:0:0:0:
278,57,51193,1,0,0:0:0:0:
278,57,51326,1,8,0:0:0:0:
278,57,51460,1,0,0:0:0:0:
278,57,51527,1,0,0:0:0:0:
278,57,51594,1,0,0:0:0:0:
278,57,51661,1,0,0:0:0:0:
278,57,51728,1,8,0:0:0:0:
278,57,51795,1,8,0:0:0:0:
278,57,51862,1,0,0:0:0:0:
278,57,51929,1,8,0:0:0:0:
278,57,51996,1,0,0:0:0:0:
278,57,52063,1,0,0:0:0:0:
278,57,52130,1,0,0:0:0:0:
278,57,52197,1,0,0:0:0:0:
280,48,52264,1,8,0:0:0:0:
280,48,52398,1,8,0:0:0:0:
280,48,52532,1,0,0:0:0:0:
280,48,52666,1,8,0:0:0:0:
280,48,52800,1,8,0:0:0:0:
280,48,52934,1,0,0:0:0:0:
280,48,53068,1,8,0:0:0:0:
280,48,53201,1,8,0:0:0:0:
280,48,53335,1,0,0:0:0:0:
280,48,53469,1,8,0:0:0:0:
289,43,53536,1,8,0:0:0:0:
280,48,53603,1,0,0:0:0:0:
280,48,53670,1,0,0:0:0:0:
280,48,53737,1,0,0:0:0:0:
280,48,53804,1,0,0:0:0:0:
280,48,53871,1,8,0:0:0:0:
279,60,53938,1,8,0:0:0:0:
280,48,54005,1,0,0:0:0:0:
280,48,54072,1,0,0:0:0:0:
280,48,54139,1,8,0:0:0:0:
280,48,54273,1,8,0:0:0:0:
280,48,54340,1,8,0:0:0:0:
280,48,54474,1,8,0:0:0:0:
280,48,54541,1,0,0:0:0:0:
280,48,54675,1,8,0:0:0:0:
280,48,54809,1,0,0:0:0:0:
280,48,54876,1,0,0:0:0:0:
280,48,54943,1,8,0:0:0:0:
280,48,55009,1,8,0:0:0:0:
280,48,55076,1,8,0:0:0:0:
280,48,55210,1,0,0:0:0:0:
286,45,55277,1,0,0:0:0:0:
280,48,55344,1,8,0:0:0:0:
286,45,55411,1,0,0:0:0:0:
286,45,55478,1,8,0:0:0:0:
280,48,55545,1,8,0:0:0:0:
286,45,55612,1,0,0:0:0:0:
280,48,55746,1,0,0:0:0:0:
286,45,55813,1,0,0:0:0:0:
280,48,55880,1,0,0:0:0:0:
287,39,55947,1,0,0:0:0:0:
286,45,56014,1,8,0:0:0:0:
288,41,56081,1,8,0:0:0:0:
287,39,56148,1,0,0:0:0:0:
286,45,56215,1,8,0:0:0:0:
288,41,56282,1,0,0:0:0:0:
294,44,56416,1,0,0:0:0:0:
294,44,56483,1,0,0:0:0:0:
294,44,56550,1,8,0:0:0:0:
294,44,56617,1,8,0:0:0:0:
294,44,56684,1,8,0:0:0:0:
294,44,56818,1,8,0:0:0:0:
294,44,56951,1,0,0:0:0:0:
294,44,57085,1,0,0:0:0:0:
294,44,57219,1,8,0:0:0:0:
294,44,57353,1,0,0:0:0:0:
294,44,57420,1,8,0:0:0:0:
302,44,57621,1,8,0:0:0:0:
294,44,57755,1,8,0:0:0:0:
294,50,57889,1,0,0:0:0:0:
294,44,57956,1,0,0:0:0:0:
297,43,58023,1,0,0:0:0:0:
294,50,58090,1,0,0:0:0:0:
294,44,58157,1,8,0:0:0:0:
304,47,58224,1,0,0:0:0:0:
304,47,58291,1,8,0:0:0:0:
294,44,58358,1,8,0:0:0:0:
294,44,58425,1,0,0:0:0:0:
296,43,58492,1,0,0:0:0:0:
294,44,58559,1,8,0:0:0:0:
294,44,58626,1,0,0:0:0:0:
296,43,58693,1,8,0:0:0:0:
294,44,58759,1,8,0:0:0:0:
294,44,58826,1,0,0:0:0:0:
312,76,58960,1,8,0:0:0:0:
300,69,59094,1,0,0:0:0:0:
299,69,59161,1,0,0:0:0:0:
300,69,59228,1,0,0:0:0:0:
300,69,59295,1,0,0:0:0:0:
299,69,59362,1,8,0:0:0:0:
300,69,59496,1,8,0:0:0:0:
302,58,59630,1,8,0:0:0:0:
301,59,60032,1,0,0:0:0:0:
301,59,60099,1,0,0:0:0:0:
301,59,60166,1,0,0:0:0:0:
301,59,60233,1,0,0:0:0:0:
301,59,60300,1,8,0:0:0:0:
301,59,60367,1,8,0:0:0:0:
301,59,60434,1,0,0:0:0:0:
301,59,60501,1,0,0:0:0:0:
301,59,60568,1,8,0:0:0:0:
301,59,60634,1,8,0:0:0:0:
301,59,60701,1,8,0:0:0:0:
301,59,60768,1,8,0:0:0:0:
301,59,60835,1,0,0:0:0:0:
301,59,60902,1,0,0:0:0:0:
301,59,60969,1,8,0:0:0:0:
301,59,61036,1,8,0:0:0:0:
301,59,61103,1,0,0:0:0:0:
301,59,61170,1,0,0:0:0:0:
301,59,61237,1,8,0:0:0:0:
301,59,61304,1,0,0:0:0:0:
301,59,61371,1,8,0:0:0:0:
301,59,61505,1,8,0:0:0:0:
301,59,61639,1,0,0:0:0:0:
301,59,61706,1,0,0:0:0:0:
301,59,61773,1,8,0:0:0:0:
313,59,61840,1,0,0:0:0:0:
301,59,61907,1,8,0:0:0:0:
312,63,61974,1,8,0:0:0:0:
313,59,62041,1,8,0:0:0:0:
311,63,62108,1,8,0:0:0:0:
308,55,62175,1,0,0:0:0:0:
313,59,62242,1,0,0:0:0:0:
308,55,62309,1,0,0:0:0:0:
308,55,62376,1,0,0:0:0:0:
313,59,62443,1,8,0:0:0:0:
308,55,62509,1,0,0:0:0:0:
308,55,62576,1,8,0:0:0:0:
307,53,62643,1,0,0:0:0:0:
308,55,62710,1,8,0:0:0:0:
308,55,62777,1,8,0:0:0:0:
307,53,62844,1,8,0:0:0:0:
308,55,62911,1,8,0:0:0:0:
308,55,62978,1,0,0:0:0:0:
307,53,63045,1,0,0:0:0:0:
308,55,63112,1,8,0:0:0:0:
307,53,63246,1,0,0:0:0:0:
307,53,63380,1,8,0:0:0:0:
307,53,63447,1,8,0:0:0:0:
307,53,63514,1,0,0:0:0:0:
307,53,63581,1,0,0:0:0:0:
307,53,63648,1,8,0:0:0:0:
307,53,63782,1,0,0:0:0:0:
307,53,63849,1,0,0:0:0:0:
307,53,63916,1,8,0:0:0:0:
307,53,63983,1,8,0:0:0:0:
307,53,64050,1,8,0:0:0:0:
313,49,64184,1,8,0:0:0:0:
313,49,64318,1,0,0:0:0:0:
313,49,64384,1,0,0:0:0:0:
313,49,64451,1,0,0:0:0:0:
313,49,64518,1,0,0:0:0:0:
313,49,64585,1,8,0:0:0:0:
313,49,64652,1,8,0:0:0:0:
313,49,64719,1,0,0:0:0:0:
313,49,64786,1,0,0:0:0:0:
313,49,64853,1,8,0:0:0:0:
313,49,64920,1,8,0:0:0:0:
313,49,64987,1,8,0:0:0:0:
313,49,65054,1,8,0:0:0:0:
313,49,65121,1,0,0:0:0:0:
313,49,65188,1,0,0:0:0:0:
305,48,65255,1,8,0:0:0:0:
306,46,65389,1,8,0:0:0:0:
306,46,65523,1,0,0:0:0:0:
306,46,65590,1,8,0:0:0:0:
306,46,65724,1,0,0:0:0:0:
306,46,65791,1,8,0:0:0:0:
306,46,65925,1,0,0:0:0:0:
306,46,65992,1,0,0:0:0:0:
306,46,66059,1,8,0:0:0:0:
306,46,66126,1,0,0:0:0:0:
306,46,66193,1,8,0:0:0:0:
306,46,66259,1,8,0:0:0:0:
324,65,66326,1,8,0:0:0:0:
321,62,66393,1,8,0:0:0:0:
321,62,66460,1,0,0:0:0:0:
307,50,66527,1,0,0:0:0:0:
307,50,66594,1,0,0:0:0:0:
307,50,66661,1,0,0:0:0:0:
307,50,66728,1,8,0:0:0:0:
307,50,66795,1,0,0:0:0:0:
307,50,66862,1,8,0:0:0:0:
307,50,66929,1,0,0:0:0:0:
307,50,66996,1,8,0:0:0:0:
307,50,67063,1,8,0:0:0:0:
307,50,67130,1,8,0:0:0:0:
307,50,67197,1,8,0:0:0:0:
307,50,67264,1,0,0:0:0:0:
307,50,67331,1,0,0:0:0:0:
307,50,67398,1,8,0:0:0:0:
307,50,67465,1,0,0:0:0:0:
307,50,67532,1,8,0:0:0:0:
298,48,67599,1,0,0:0:0:0:
298,48,67666,1,0,0:0:0:0:
298,48,67733,1,8,0:0:0:0:
298,48,67800,1,0,0:0:0:0:
298,48,67867,1,0,0:0:0:0:
298,48,67934,1,8,0:0:0:0:
298,48,68001,1,0,0:0:0:0:
298,48,68068,1,8,0:0:0:0:
298,48,68134,1,0,0:0:0:0:
298,48,68201,1,0,0:0:0:0:
298,48,68268,1,8,0:0:0:0:
298,48,68335,1,0,0:0:0:0:
298,48,68402,1,0,0:0:0:0:
298,48,68469,1,8,0:0:0:0:
298,48,68536,1,8,0:0:0:0:
298,48,68603,1,0,0:0:0:0:
298,48,68737,1,0,0:0:0:0:
298,48,68871,1,8,0:0:0:0:
298,48,69005,1,0,0:0:0:0:
298,48,69072,1,8,0:0:0:0:
298,48,69206,1,0,0:0:0:0:
298,48,69273,1,8,0:0:0:0:
298,48,69407,1,8,0:0:0:0:
298,48,69541,1,0,0:0:0:0:
298,48,69675,1,8,0:0:0:0:
298,48,69809,1,0,0:0:0:0:
298,48,69943,1,8,0:0:0:0:
291,50,70076,1,8,0:0:0:0:
291,50,70210,1,0,0:0:0:0:
291,50,70344,1,0,0:0:0:0:
291,50,70478,1,8,0:0:0:0:
291,50,70612,1,8,0:0:0:0:
291,50,70746,1,0,0:0:0:0:
291,50,70880,1,0,0:0:0:0:
291,50,71014,1,8,0:0:0:0:
291,50,71148,1,0,0:0:0:0:
291,50,71215,1,0,0:0:0:0:
291,50,71349,1,8,0:0:0:0:
291,50,71416,1,8,0:0:0:0:
295,43,71550,1,8,0:0:0:0:
295,43,71684,1,0,0:0:0:0:
295,43,71818,1,8,0:0:0:0:
295,43,71951,1,0,0:0:0:0:
285,46,72085,1,8,0:0:0:0:
285,46,72219,1,0,0:0:0:0:
285,46,72353,1,8,0:0:0:0:
285,46,72487,1,8,0:0:0:0:
285,46,72621,1,0,0:0:0:0:
285,46,72755,1,0,0:0:0:0:
285,46,72889,1,8,0:0:0:0:
272,73,73023,1,0,0:0:0:0:
276,58,73157,1,8,0:0:0:0:
287,46,73291,1,8,0:0:0:0:
287,46,73425,1,0,0:0:0:0:
287,46,73492,1,8,0:0:0:0:
287,46,73626,1,8,0:0:0:0:
287,46,73693,1,0,0:0:0:0:
287,46,73826,1,0,0:0:0:0:
287,46,73960,1,8,0:0:0:0:
287,46,74094,1,0,0:0:0:0:
287,46,74228,1,8,0:0:0:0:
287,46,74362,1,8,0:0:0:0:
287,46,74496,1,0,0:0:0:0:
287,46,74563,1,8,0:0:0:0:
287,46,74697,1,8,0:0:0:0:
287,46,74764,1,0,0:0:0:0:
287,46,74898,1,0,0:0:0:0:
305,69,75032,1,0,0:0:0:0:
298,61,75099,1,0,0:0:0:0:
295,59,75166,1,8,0:0:0:0:
295,59,75233,1,8,0:0:0:0:
298,61,75300,1,0,0:0:0:0:
295,59,75367,1,0,0:0:0:0:
295,59,75434,1,8,0:0:0:0:
298,61,75501,1,0,0:0:0:0:
298,61,75568,1,8,0:0:0:0:
295,59,75634,1,8,0:0:0:0:
298,61,75701,1,0,0:0:0:0:
298,61,75768,1,0,0:0:0:0:
295,59,75835,1,8,0:0:0:0:
298,61,75902,1,8,0:0:0:0:
298,61,75969,1,0,0:0:0:0:
295,59,76036,1,0,0:0:0:0:
289,56,76103,1,8,0:0:0:0:
298,61,76170,1,0,0:0:0:0:
295,59,76237,1,8,0:0:0:0:
289,56,76304,1,8,0:0:0:0:
298,61,76371,1,0,0:0:0:0:
295,59,76438,1,0,0:0:0:0:
289,56,76505,1,8,0:0:0:0:
298,61,76572,1,0,0:0:0:0:
283,61,76639,1,8,0:0:0:0:
283,61,76706,1,8,0:0:0:0:
283,60,76773,1,0,0:0:0:0:
283,61,76840,1,0,0:0:0:0:
283,61,76907,1,8,0:0:0:0:
283,60,76974,1,0,0:0:0:0:
283,61,77041,1,8,0:0:0:0:
283,61,77108,1,8,0:0:0:0:
298,48,77175,1,0,0:0:0:0:
298,48,77309,1,0,0:0:0:0:
298,48,77443,1,8,0:0:0:0:
298,48,77576,1,0,0:0:0:0:
298,48,77643,1,8,0:0:0:0:
298,48,77777,1,0,0:0:0:0:
298,48,77844,1,8,0:0:0:0:
298,48,77978,1,8,0:0:0:0:
298,48,78112,1,0,0:0:0:0:
298,48,78246,1,8,0:0:0:0:
298,48,78380,1,0,0:0:0:0:
298,48,78514,1,8,0:0:0:0:
291,50,78648,1,8,0:0:0:0:
291,50,78782,1,0,0:0:0:0:
291,50,78916,1,0,0:0:0:0:
291,50,79050,1,8,0:0:0:0:
291,50,79184,1,8,0:0:0:0:
291,50,79318,1,0,0:0:0:0:
291,50,79451,1,0,0:0:0:0:
291,50,79585,1,8,0:0:0:0:
291,50,79719,1,0,0:0:0:0:
291,50,79786,1,0,0:0:0:0:
291,50,79920,1,8,0:0:0:0:
291,50,79987,1,8,0:0:0:0:
295,43,80121,1,8,0:0:0:0:
295,43,80255,1,0,0:0:0:0:
295,43,80389,1,8,0:0:0:0:
295,43,80523,1,0,0:0:0:0:
285,46,80657,1,8,0:0:0:0:
285,46,80791,1,0,0:0:0:0:
285,46,80925,1,8,0:0:0:0:
285,46,81059,1,8,0:0:0:0:
285,46,81193,1,0,0:0:0:0:
285,46,81326,1,0,0:0:0:0:
285,46,81460,1,8,0:0:0:0:
299,49,81527,1,8,0:0:0:0:
272,73,81594,1,0,0:0:0:0:
276,58,81728,1,8,0:0:0:0:
287,46,81862,1,8,0:0:0:0:
299,51,81929,1,0,0:0:0:0:
287,46,81996,1,0,0:0:0:0:
287,46,82063,1,8,0:0:0:0:
287,46,82197,1,8,0:0:0:0:
287,46,82264,1,0,0:0:0:0:
287,46,82398,1,0,0:0:0:0:
287,46,82532,1,8,0:0:0:0:
297,50,82599,1,8,0:0:0:0:
287,46,82666,1,0,0:0:0:0:
287,46,82800,1,8,0:0:0:0:
287,46,82934,1,8,0:0:0:0:
294,50,83001,1,0,0:0:0:0:
287,46,83068,1,0,0:0:0:0:
287,46,83134,1,8,0:0:0:0:
287,46,83268,1,8,0:0:0:0:
287,46,83335,1,0,0:0:0:0:
287,46,83469,1,0,0:0:0:0:
305,69,83603,1,0,0:0:0:0:
298,61,83670,1,0,0:0:0:0:
295,59,83737,1,8,0:0:0:0:
295,59,83804,1,8,0:0:0:0:
298,61,83871,1,0,0:0:0:0:
295,59,83938,1,0,0:0:0:0:
295,59,84005,1,8,0:0:0:0:
298,61,84072,1,0,0:0:0:0:
298,61,84139,1,8,0:0:0:0:
295,59,84206,1,8,0:0:0:0:
298,61,84273,1,0,0:0:0:0:
298,61,84340,1,0,0:0:0:0:
295,59,84407,1,8,0:0:0:0:
298,61,84474,1,8,0:0:0:0:
298,61,84541,1,0,0:0:0:0:
295,59,84608,1,0,0:0:0:0:
289,56,84675,1,8,0:0:0:0:
298,61,84742,1,0,0:0:0:0:
295,59,84809,1,8,0:0:0:0:
289,56,84876,1,8,0:0:0:0:
298,61,84943,1,0,0:0:0:0:
295,59,85009,1,0,0:0:0:0:
289,56,85076,1,8,0:0:0:0:
298,61,85143,1,0,0:0:0:0:
283,61,85210,1,8,0:0:0:0:
283,61,85277,1,8,0:0:0:0:
283,60,85344,1,0,0:0:0:0:
283,61,85411,1,0,0:0:0:0:
283,61,85478,1,8,0:0:0:0:
283,60,85545,1,0,0:0:0:0:
283,61,85612,1,8,0:0:0:0:
292,57,85679,1,8,0:0:0:0:
291,58,85746,1,8,0:0:0:0:
289,48,86148,1,8,0:0:0:0:
277,49,86818,1,0,0:0:0:0:
287,48,87219,1,0,0:0:0:0:
287,48,87353,1,8,0:0:0:0:
284,43,87621,1,8,0:0:0:0:
284,43,87755,1,8,0:0:0:0:
284,43,87889,1,0,0:0:0:0:
282,43,88157,1,0,0:0:0:0:
285,50,88291,1,0,0:0:0:0:
275,43,88425,1,8,0:0:0:0:
285,50,88693,1,0,0:0:0:0:
285,50,88960,1,8,0:0:0:0:
283,50,89228,1,0,0:0:0:0:
286,48,89496,1,0,0:0:0:0:
284,49,89764,1,8,0:0:0:0:
284,49,89898,1,0,0:0:0:0:
284,49,90032,1,0,0:0:0:0:
283,49,90300,1,0,0:0:0:0:
283,49,90434,1,0,0:0:0:0:
283,49,90568,1,8,0:0:0:0:
283,49,90835,1,0,0:0:0:0:
283,49,91103,1,8,0:0:0:0:
283,49,91237,1,0,0:0:0:0:
283,49,91371,1,8,0:0:0:0:
283,49,91505,1,8,0:0:0:0:
283,49,91639,1,8,0:0:0:0:
289,43,91907,1,0,0:0:0:0:
289,43,92175,1,8,0:0:0:0:
289,43,92309,1,0,0:0:0:0:
289,43,92443,1,8,0:0:0:0:
289,43,92576,1,8,0:0:0:0:
289,43,92710,1,8,0:0:0:0:
289,43,92844,1,0,0:0:0:0:
289,43,92978,1,8,0:0:0:0:
289,43,93112,1,8,0:0:0:0:
289,43,93246,1,8,0:0:0:0:
289,43,93380,1,0,0:0:0:0:
289,43,93514,1,8,0:0:0:0:
289,43,93648,1,0,0:0:0:0:
289,43,93782,1,8,0:0:0:0:
283,44,94050,1,0,0:0:0:0:
283,44,94184,1,0,0:0:0:0:
283,44,94318,1,8,0:0:0:0:
282,56,94585,1,0,0:0:0:0:
285,42,94719,1,8,0:0:0:0:
284,67,94853,1,0,0:0:0:0:
286,73,95121,1,8,0:0:0:0:
300,77,95389,1,0,0:0:0:0:
285,71,95657,1,8,0:0:0:0:
285,71,95791,1,0,0:0:0:0:
291,81,95925,1,8,0:0:0:0:
291,81,96193,1,8,0:0:0:0:
291,81,96326,1,0,0:0:0:0:
291,81,96460,1,0,0:0:0:0:
291,81,96728,1,8,0:0:0:0:
291,81,96862,1,0,0:0:0:0:
291,81,96996,1,8,0:0:0:0:
286,55,97264,1,0,0:0:0:0:
278,58,97532,1,8,0:0:0:0:
277,55,97800,1,0,0:0:0:0:
285,58,98068,1,0,0:0:0:0:
285,58,98335,1,8,0:0:0:0:
285,58,98469,1,8,0:0:0:0:
285,58,98603,1,0,0:0:0:0:
300,54,98670,1,0,0:0:0:0:
313,54,98737,1,0,0:0:0:0:
313,53,98804,1,0,0:0:0:0:
308,54,98871,1,8,0:0:0:0:
303,52,98938,1,0,0:0:0:0:
313,53,99005,1,8,0:0:0:0:
308,54,99072,1,0,0:0:0:0:
308,54,99139,1,8,0:0:0:0:
313,53,99206,1,8,0:0:0:0:
308,54,99273,1,8,0:0:0:0:
308,54,99340,1,8,0:0:0:0:
313,53,99407,1,0,0:0:0:0:
308,54,99474,1,0,0:0:0:0:
308,54,99541,1,0,0:0:0:0:
306,47,99608,1,0,0:0:0:0:
290,50,99675,1,8,0:0:0:0:
305,47,99742,1,0,0:0:0:0:
290,50,99809,1,8,0:0:0:0:
304,47,99876,1,0,0:0:0:0:
290,50,99943,1,8,0:0:0:0:
304,47,100009,1,8,0:0:0:0:
304,47,100076,1,0,0:0:0:0:
304,47,100143,1,0,0:0:0:0:
290,50,100210,1,8,0:0:0:0:
304,47,100277,1,8,0:0:0:0:
304,47,100344,1,8,0:0:0:0:
304,46,100411,1,8,0:0:0:0:
304,47,100478,1,0,0:0:0:0:
304,47,100545,1,0,0:0:0:0:
304,46,100612,1,0,0:0:0:0:
304,47,100679,1,0,0:0:0:0:
288,49,100746,1,8,0:0:0:0:
304,46,100813,1,0,0:0:0:0:
288,49,100880,1,8,0:0:0:0:
308,48,100947,1,0,0:0:0:0:
288,49,101014,1,8,0:0:0:0:
308,48,101081,1,8,0:0:0:0:
308,48,101148,1,0,0:0:0:0:
308,48,101215,1,0,0:0:0:0:
288,49,101282,1,8,0:0:0:0:
308,48,101349,1,0,0:0:0:0:
288,49,101416,1,8,0:0:0:0:
308,48,101483,1,0,0:0:0:0:
288,49,101550,1,8,0:0:0:0:
308,48,101617,1,8,0:0:0:0:
308,48,101684,1,0,0:0:0:0:
308,48,101751,1,0,0:0:0:0:
288,49,101818,1,8,0:0:0:0:
288,49,101884,1,0,0:0:0:0:
288,49,101951,1,0,0:0:0:0:
288,49,102018,1,8,0:0:0:0:
292,41,102085,1,0,0:0:0:0:
292,41,102152,1,0,0:0:0:0:
288,49,102219,1,8,0:0:0:0:
292,41,102286,1,0,0:0:0:0:
288,49,102353,1,8,0:0:0:0:
292,40,102420,1,0,0:0:0:0:
292,41,102487,1,0,0:0:0:0:
288,49,102554,1,8,0:0:0:0:
292,40,102621,1,0,0:0:0:0:
292,41,102688,1,0,0:0:0:0:
288,49,102755,1,8,0:0:0:0:
292,40,102822,1,0,0:0:0:0:
298,48,105032,1,0,0:0:0:0:
298,48,105166,1,0,0:0:0:0:
298,48,105300,1,8,0:0:0:0:
298,48,105434,1,0,0:0:0:0:
298,48,105501,1,8,0:0:0:0:
298,48,105634,1,0,0:0:0:0:
298,48,105701,1,8,0:0:0:0:
298,48,105835,1,8,0:0:0:0:
298,48,105969,1,0,0:0:0:0:
298,48,106103,1,8,0:0:0:0:
298,48,106237,1,0,0:0:0:0:
298,48,106371,1,8,0:0:0:0:
291,50,106505,1,8,0:0:0:0:
291,50,106639,1,0,0:0:0:0:
291,50,106773,1,0,0:0:0:0:
291,50,106907,1,8,0:0:0:0:
291,50,107041,1,8,0:0:0:0:
291,50,107175,1,0,0:0:0:0:
291,50,107309,1,0,0:0:0:0:
291,50,107443,1,8,0:0:0:0:
291,50,107576,1,0,0:0:0:0:
291,50,107643,1,0,0:0:0:0:
291,50,107777,1,8,0:0:0:0:
291,50,107844,1,8,0:0:0:0:
295,43,107978,1,8,0:0:0:0:
295,43,108112,1,0,0:0:0:0:
295,43,108246,1,8,0:0:0:0:
295,43,108380,1,0,0:0:0:0:
285,46,108514,1,8,0:0:0:0:
285,46,108648,1,0,0:0:0:0:
285,46,108782,1,8,0:0:0:0:
285,46,108916,1,8,0:0:0:0:
285,46,109050,1,0,0:0:0:0:
285,46,109184,1,0,0:0:0:0:
285,46,109318,1,8,0:0:0:0:
272,73,109451,1,0,0:0:0:0:
286,73,109518,1,0,0:0:0:0:
276,58,109585,1,8,0:0:0:0:
287,46,109719,1,8,0:0:0:0:
287,46,109853,1,0,0:0:0:0:
287,46,109920,1,8,0:0:0:0:
287,46,110054,1,8,0:0:0:0:
287,46,110121,1,0,0:0:0:0:
287,46,110255,1,0,0:0:0:0:
287,46,110389,1,8,0:0:0:0:
287,46,110523,1,0,0:0:0:0:
305,64,110590,1,0,0:0:0:0:
287,46,110657,1,8,0:0:0:0:
287,46,110791,1,8,0:0:0:0:
287,46,110925,1,0,0:0:0:0:
287,46,110992,1,8,0:0:0:0:
287,46,111126,1,8,0:0:0:0:
287,46,111193,1,0,0:0:0:0:
287,46,111326,1,0,0:0:0:0:
305,69,111460,1,0,0:0:0:0:
298,61,111527,1,0,0:0:0:0:
295,59,111594,1,8,0:0:0:0:
295,59,111661,1,8,0:0:0:0:
298,61,111728,1,0,0:0:0:0:
295,59,111795,1,0,0:0:0:0:
295,59,111862,1,8,0:0:0:0:
298,61,111929,1,0,0:0:0:0:
298,61,111996,1,8,0:0:0:0:
295,59,112063,1,8,0:0:0:0:
298,61,112130,1,0,0:0:0:0:
298,61,112197,1,0,0:0:0:0:
295,59,112264,1,8,0:0:0:0:
298,61,112331,1,8,0:0:0:0:
298,61,112398,1,0,0:0:0:0:
295,59,112465,1,0,0:0:0:0:
289,56,112532,1,8,0:0:0:0:
298,61,112599,1,0,0:0:0:0:
295,59,112666,1,8,0:0:0:0:
289,56,112733,1,8,0:0:0:0:
298,61,112800,1,0,0:0:0:0:
295,59,112867,1,0,0:0:0:0:
289,56,112934,1,8,0:0:0:0:
298,61,113001,1,0,0:0:0:0:
283,61,113068,1,8,0:0:0:0:
283,61,113134,1,8,0:0:0:0:
283,60,113201,5,0,0:0:0:0:
283,61,113268,1,0,0:0:0:0:
283,61,113335,1,8,0:0:0:0:
283,60,113402,1,0,0:0:0:0:
283,61,113469,1,8,0:0:0:0:
283,61,113536,1,8,0:0:0:0:
298,48,113603,5,0,0:0:0:0:
298,48,113737,1,0,0:0:0:0:
298,48,113871,1,8,0:0:0:0:
298,48,114005,1,0,0:0:0:0:
298,48,114072,1,8,0:0:0:0:
298,48,114206,1,0,0:0:0:0:
298,48,114273,1,8,0:0:0:0:
298,48,114407,1,8,0:0:0:0:
298,48,114541,1,0,0:0:0:0:
298,48,114675,1,8,0:0:0:0:
298,48,114809,1,0,0:0:0:0:
298,48,114943,1,8,0:0:0:0:
291,50,115076,1,8,0:0:0:0:
291,50,115210,1,0,0:0:0:0:
291,50,115344,1,0,0:0:0:0:
291,50,115478,1,8,0:0:0:0:
291,50,115612,1,8,0:0:0:0:
291,50,115746,1,0,0:0:0:0:
291,50,115880,1,0,0:0:0:0:
291,50,116014,1,8,0:0:0:0:
291,50,116148,1,0,0:0:0:0:
291,50,116215,1,0,0:0:0:0:
291,50,116349,1,8,0:0:0:0:
291,50,116416,1,8,0:0:0:0:
295,43,116550,1,8,0:0:0:0:
295,43,116684,1,0,0:0:0:0:
295,43,116818,1,8,0:0:0:0:
295,43,116951,1,0,0:0:0:0:
285,46,117085,1,8,0:0:0:0:
285,46,117219,1,0,0:0:0:0:
285,46,117353,1,8,0:0:0:0:
285,46,117487,1,8,0:0:0:0:
285,46,117621,1,0,0:0:0:0:
285,46,117755,1,0,0:0:0:0:
285,46,117889,1,8,0:0:0:0:
272,73,118023,1,0,0:0:0:0:
300,67,118090,1,0,0:0:0:0:
276,58,118157,1,8,0:0:0:0:
287,46,118291,1,8,0:0:0:0:
287,46,118425,1,0,0:0:0:0:
287,46,118492,1,8,0:0:0:0:
287,46,118626,1,8,0:0:0:0:
287,46,118693,1,0,0:0:0:0:
287,46,118826,1,0,0:0:0:0:
287,46,118960,1,8,0:0:0:0:
307,62,119027,1,0,0:0:0:0:
287,46,119094,1,0,0:0:0:0:
307,62,119161,1,0,0:0:0:0:
287,46,119228,1,8,0:0:0:0:
287,46,119362,1,8,0:0:0:0:
287,46,119496,1,0,0:0:0:0:
287,46,119563,1,8,0:0:0:0:
287,46,119697,1,8,0:0:0:0:
287,46,119764,1,0,0:0:0:0:
287,46,119898,1,0,0:0:0:0:
305,69,120032,1,0,0:0:0:0:
298,61,120099,1,0,0:0:0:0:
295,59,120166,1,8,0:0:0:0:
295,59,120233,1,8,0:0:0:0:
298,61,120300,1,0,0:0:0:0:
295,59,120367,1,0,0:0:0:0:
295,59,120434,1,8,0:0:0:0:
298,61,120501,1,0,0:0:0:0:
298,61,120568,1,8,0:0:0:0:
295,59,120634,1,8,0:0:0:0:
298,61,120701,1,0,0:0:0:0:
298,61,120768,1,0,0:0:0:0:
295,59,120835,1,8,0:0:0:0:
298,61,120902,1,8,0:0:0:0:
298,61,120969,1,0,0:0:0:0:
295,59,121036,1,0,0:0:0:0:
289,56,121103,1,8,0:0:0:0:
298,61,121170,1,0,0:0:0:0:
295,59,121237,1,8,0:0:0:0:
289,56,121304,1,8,0:0:0:0:
298,61,121371,1,0,0:0:0:0:
295,59,121438,1,0,0:0:0:0:
289,56,121505,1,8,0:0:0:0:
298,61,121572,1,0,0:0:0:0:
283,61,121639,1,8,0:0:0:0:
283,61,121706,1,8,0:0:0:0:
283,60,121773,1,0,0:0:0:0:
283,61,121840,1,0,0:0:0:0:
283,61,121907,1,8,0:0:0:0:
283,60,121974,1,0,0:0:0:0:
283,61,122041,1,8,0:0:0:0:
283,61,122108,1,8,0:0:0:0:
298,48,122175,1,8,0:0:0:0:
305,86,125925,1,12,0:0:0:0:
305,86,126059,1,8,0:0:0:0:
