osu file format v14

[General]
AudioFilename: audio.mp3
AudioLeadIn: 0
PreviewTime: 68603
Countdown: 0
SampleSet: Normal
StackLeniency: 0.7
Mode: 1
LetterboxInBreaks: 0
WidescreenStoryboard: 0

[Editor]
DistanceSpacing: 2.6
BeatDivisor: 4
GridSize: 32
TimelineZoom: 2.200001

[Metadata]
Title:Naopura2000 -Daybreak-
TitleUnicode:なおぷら2000 -Daybreak-
Artist:katagiri
ArtistUnicode:かたぎり
Creator:Nifty
Version:Beginner
Source:
Tags:BMS hard renaissance rhythm video game instrumental electronic nao+ nao4plus
BeatmapID:2048813
BeatmapSetID:969821

[Difficulty]
HPDrainRate:7
CircleSize:2
OverallDifficulty:3
ApproachRate:10
SliderMultiplier:1.4
SliderTickRate:1

[Events]
//Background and Video events
0,0,"daybreak.jpg",0,-50
//Break Periods
2,4517,12439
//Storyboard Layer 0 (Background)
//Storyboard Layer 1 (Fail)
//Storyboard Layer 2 (Pass)
//Storyboard Layer 3 (Foreground)
//Storyboard Layer 4 (Overlay)
//Storyboard Sound Samples

[TimingPoints]
4318,267.857142857143,4,1,0,100,1,0
68603,-100,4,1,0,100,0,1
85746,-100,4,1,0,100,0,0
102914,-100,4,1,0,60,0,0
109209,-100,4,1,0,80,0,0
111351,-100,4,1,0,100,0,0
113603,-100,4,1,0,100,0,1
122175,-100,4,1,0,100,0,0

[HitObjects]
278,137,4317,5,12,0:0:0:0:
270,101,12889,5,0,0:0:0:0:
261,87,13425,1,0,0:0:0:0:
261,86,13693,1,8,0:0:0:0:
270,101,13960,5,0,0:0:0:0:
261,87,14496,1,0,0:0:0:0:
261,86,14764,1,8,0:0:0:0:
271,86,15300,1,8,0:0:0:0:
294,73,15835,1,8,0:0:0:0:
267,61,16103,1,0,0:0:0:0:
284,55,17175,1,0,0:0:0:0:
284,55,17443,1,8,0:0:0:0:
284,46,17978,1,8,0:0:0:0:
280,46,18246,1,0,0:0:0:0:
280,46,18514,1,8,0:0:0:0:
280,46,19050,1,8,0:0:0:0:
279,46,19318,1,0,0:0:0:0:
279,46,19585,1,8,0:0:0:0:
279,46,20389,1,8,0:0:0:0:
279,46,20657,1,8,0:0:0:0:
277,43,20925,1,0,0:0:0:0:
284,55,21460,1,0,0:0:0:0:
284,55,21728,1,8,0:0:0:0:
284,46,22264,1,8,0:0:0:0:
280,46,22532,1,0,0:0:0:0:
280,46,22800,1,8,0:0:0:0:
280,46,23335,1,8,0:0:0:0:
279,46,23603,1,0,0:0:0:0:
279,46,23871,1,8,0:0:0:0:
279,46,24675,1,8,0:0:0:0:
279,46,24943,1,8,0:0:0:0:
277,43,25210,1,0,0:0:0:0:
268,61,25746,1,0,0:0:0:0:
282,70,26014,1,8,0:0:0:0:
276,58,26550,1,4,0:0:0:0:
271,51,26818,1,0,0:0:0:0:
271,51,27085,1,8,0:0:0:0:
287,55,27621,1,12,0:0:0:0:
277,57,27889,1,0,0:0:0:0:
277,57,28157,1,8,0:0:0:0:
277,57,28693,1,8,0:0:0:0:
286,59,29764,1,12,0:0:0:0:
285,59,30032,1,0,0:0:0:0:
285,59,30300,1,8,0:0:0:0:
280,77,30835,1,8,0:0:0:0:
285,59,31103,1,0,0:0:0:0:
285,59,31371,1,8,0:0:0:0:
280,77,31907,1,8,0:0:0:0:
285,59,32175,1,0,0:0:0:0:
285,59,32443,1,8,0:0:0:0:
286,81,33246,1,8,0:0:0:0:
280,77,33514,1,8,0:0:0:0:
282,68,33782,1,0,0:0:0:0:
282,73,34050,1,8,0:0:0:0:
269,71,34318,1,8,0:0:0:0:
285,70,34719,1,0,0:0:0:0:
261,73,35121,1,0,0:0:0:0:
285,70,35389,1,8,0:0:0:0:
285,70,35791,1,8,0:0:0:0:
285,70,36460,1,8,0:0:0:0:
285,70,36862,1,0,0:0:0:0:
285,70,37532,1,8,0:0:0:0:
285,70,37800,1,0,0:0:0:0:
285,70,38068,1,8,0:0:0:0:
285,70,38603,1,8,0:0:0:0:
293,77,39005,1,0,0:0:0:0:
294,78,39407,1,0,0:0:0:0:
290,69,39675,1,8,0:0:0:0:
290,69,40076,1,8,0:0:0:0:
290,69,40746,1,8,0:0:0:0:
280,57,41148,1,0,0:0:0:0:
292,61,41550,1,0,0:0:0:0:
291,71,41818,1,8,0:0:0:0:
286,52,42353,1,8,0:0:0:0:
284,52,42889,1,0,0:0:0:0:
290,73,43425,1,8,0:0:0:0:
280,79,44496,1,8,0:0:0:0:
280,80,45032,1,0,0:0:0:0:
280,80,45568,1,8,0:0:0:0:
276,71,46639,1,8,0:0:0:0:
276,71,46907,1,0,0:0:0:0:
276,71,47175,1,0,0:0:0:0:
276,68,47710,1,8,0:0:0:0:
273,68,48782,1,8,0:0:0:0:
275,61,49318,1,0,0:0:0:0:
278,57,50389,1,0,0:0:0:0:
278,57,50925,1,8,0:0:0:0:
278,57,51460,1,0,0:0:0:0:
278,57,51728,1,0,0:0:0:0:
278,57,51996,1,8,0:0:0:0:
280,48,52264,1,8,0:0:0:0:
280,48,52532,1,0,0:0:0:0:
280,48,53335,1,8,0:0:0:0:
280,48,53603,1,0,0:0:0:0:
280,48,54139,1,8,0:0:0:0:
293,55,54407,1,0,0:0:0:0:
280,48,54675,1,8,0:0:0:0:
280,48,55210,1,0,0:0:0:0:
280,48,55746,1,0,0:0:0:0:
286,45,56014,1,0,0:0:0:0:
288,41,56282,1,8,0:0:0:0:
287,45,56550,1,8,0:0:0:0:
294,44,56818,1,0,0:0:0:0:
294,44,57621,1,8,0:0:0:0:
294,50,57889,1,0,0:0:0:0:
294,44,58425,1,8,0:0:0:0:
296,43,58693,1,0,0:0:0:0:
312,76,58960,1,8,0:0:0:0:
300,69,59496,1,8,0:0:0:0:
301,59,60032,1,0,0:0:0:0:
301,59,60300,1,0,0:0:0:0:
301,59,60568,1,8,0:0:0:0:
301,59,60835,1,8,0:0:0:0:
301,59,61103,1,0,0:0:0:0:
301,59,61907,1,8,0:0:0:0:
308,55,62175,1,0,0:0:0:0:
308,55,62710,1,8,0:0:0:0:
308,55,62978,1,0,0:0:0:0:
307,53,63246,1,0,0:0:0:0:
307,53,63782,1,8,0:0:0:0:
313,49,64318,1,0,0:0:0:0:
313,49,64585,1,0,0:0:0:0:
313,49,64853,1,8,0:0:0:0:
313,49,65121,1,0,0:0:0:0:
306,46,65389,1,8,0:0:0:0:
306,46,66193,1,8,0:0:0:0:
321,62,66460,1,0,0:0:0:0:
307,50,66996,1,8,0:0:0:0:
307,50,67264,1,0,0:0:0:0:
307,50,67532,1,8,0:0:0:0:
298,48,68068,1,8,0:0:0:0:
298,48,68603,1,0,0:0:0:0:
298,48,68871,1,8,0:0:0:0:
298,48,69407,1,8,0:0:0:0:
298,48,69675,1,0,0:0:0:0:
298,48,69943,1,8,0:0:0:0:
291,50,70210,1,0,0:0:0:0:
291,50,70746,1,0,0:0:0:0:
291,50,71014,1,8,0:0:0:0:
295,43,71550,1,8,0:0:0:0:
295,43,71818,1,0,0:0:0:0:
285,46,72085,1,8,0:0:0:0:
285,46,72353,1,8,0:0:0:0:
285,46,72889,1,8,0:0:0:0:
287,46,73693,1,0,0:0:0:0:
287,46,73960,1,8,0:0:0:0:
287,46,74764,1,0,0:0:0:0:
305,69,75032,1,0,0:0:0:0:
298,61,75568,1,8,0:0:0:0:
289,56,76103,1,0,0:0:0:0:
283,61,76639,1,8,0:0:0:0:
283,61,76907,1,8,0:0:0:0:
298,48,77175,1,0,0:0:0:0:
298,48,77443,1,8,0:0:0:0:
298,48,77978,1,8,0:0:0:0:
298,48,78246,1,0,0:0:0:0:
298,48,78514,1,8,0:0:0:0:
291,50,78782,1,0,0:0:0:0:
291,50,79318,1,0,0:0:0:0:
291,50,79585,1,8,0:0:0:0:
295,43,80121,1,8,0:0:0:0:
295,43,80389,1,0,0:0:0:0:
285,46,80657,1,8,0:0:0:0:
285,46,80925,1,8,0:0:0:0:
285,46,81460,1,8,0:0:0:0:
287,46,82264,1,0,0:0:0:0:
287,46,82532,1,8,0:0:0:0:
287,46,83335,1,0,0:0:0:0:
305,69,83603,1,0,0:0:0:0:
298,61,84139,1,8,0:0:0:0:
289,56,84674,1,0,0:0:0:0:
283,61,85210,1,8,0:0:0:0:
283,61,85478,1,0,0:0:0:0:
298,48,85746,1,8,0:0:0:0:
277,49,86818,1,0,0:0:0:0:
287,48,87353,1,8,0:0:0:0:
284,43,87889,1,0,0:0:0:0:
285,50,88960,1,8,0:0:0:0:
286,48,89496,1,0,0:0:0:0:
284,49,90032,1,0,0:0:0:0:
283,49,91103,1,8,0:0:0:0:
283,49,91639,1,0,0:0:0:0:
289,43,92175,1,8,0:0:0:0:
289,43,93246,1,0,0:0:0:0:
289,43,93782,1,8,0:0:0:0:
283,44,94318,1,8,0:0:0:0:
286,73,95121,1,8,0:0:0:0:
300,77,95389,1,0,0:0:0:0:
291,81,95925,1,8,0:0:0:0:
291,81,96460,1,0,0:0:0:0:
286,55,97264,1,0,0:0:0:0:
278,58,97532,1,8,0:0:0:0:
285,58,98068,1,0,0:0:0:0:
285,58,98603,1,0,0:0:0:0:
308,54,98871,1,0,0:0:0:0:
308,54,99139,1,8,0:0:0:0:
290,50,99675,1,0,0:0:0:0:
290,50,99943,1,8,0:0:0:0:
290,50,100210,1,8,0:0:0:0:
288,49,100746,1,8,0:0:0:0:
288,49,101014,1,8,0:0:0:0:
288,49,101282,1,8,0:0:0:0:
288,49,101550,1,0,0:0:0:0:
288,49,101818,1,8,0:0:0:0:
288,49,102353,1,8,0:0:0:0:
298,48,105032,1,0,0:0:0:0:
298,48,105835,1,8,0:0:0:0:
298,48,106103,1,0,0:0:0:0:
291,50,106639,1,0,0:0:0:0:
291,50,106907,1,8,0:0:0:0:
291,50,107175,1,0,0:0:0:0:
295,43,107978,1,8,0:0:0:0:
295,43,108246,1,0,0:0:0:0:
285,46,108782,1,8,0:0:0:0:
285,46,109318,1,8,0:0:0:0:
299,57,109853,1,0,0:0:0:0:
287,46,110121,1,0,0:0:0:0:
287,46,110389,1,8,0:0:0:0:
287,46,110925,1,0,0:0:0:0:
287,46,111193,1,8,0:0:0:0:
305,69,111460,1,0,0:0:0:0:
298,61,111996,1,8,0:0:0:0:
289,56,112531,1,0,0:0:0:0:
298,61,112799,1,8,0:0:0:0:
283,61,113067,1,8,0:0:0:0:
298,48,113603,1,0,0:0:0:0:
298,48,113871,1,8,0:0:0:0:
298,48,114406,1,8,0:0:0:0:
298,48,114674,1,0,0:0:0:0:
298,48,114942,1,8,0:0:0:0:
291,50,115210,1,0,0:0:0:0:
291,50,115746,1,0,0:0:0:0:
291,50,116013,1,8,0:0:0:0:
295,43,116549,1,8,0:0:0:0:
295,43,116817,1,0,0:0:0:0:
285,46,117085,1,8,0:0:0:0:
285,46,117353,1,8,0:0:0:0:
285,46,117888,1,8,0:0:0:0:
287,46,118692,1,0,0:0:0:0:
287,46,118960,1,8,0:0:0:0:
287,46,119763,1,0,0:0:0:0:
305,69,120031,1,0,0:0:0:0:
298,61,120567,1,8,0:0:0:0:
289,56,121102,1,0,0:0:0:0:
283,61,121638,1,8,0:0:0:0:
283,61,121906,1,0,0:0:0:0:
298,48,122174,1,8,0:0:0:0:
305,86,125925,5,12,0:0:0:0:
