osu file format v14

[General]
AudioFilename: audio.mp3
AudioLeadIn: 0
PreviewTime: 221990
Countdown: 0
SampleSet: Soft
StackLeniency: 0.2
Mode: 0
LetterboxInBreaks: 0
WidescreenStoryboard: 1

[Editor]
Bookmarks: 15365,27990,35990,44990,52990,68990,83990,92990,100990,108990,124990,125990,129990,145990,153990,169990,189990,193990
DistanceSpacing: 0.5
BeatDivisor: 4
GridSize: 32
TimelineZoom: 2.3

[Metadata]
Title:NXC Fanatics
TitleUnicode:NXC Fanatics
Artist:katagiri
ArtistUnicode:かたぎり
Creator:Silverboxer
Version:Ultra Rave
Source:
Tags:katagiri #addbreak breakcore hardcore nightcore mashcore speedcore lolicore
BeatmapID:1850246
BeatmapSetID:883718

[Difficulty]
HPDrainRate:4.8
CircleSize:4
OverallDifficulty:8.5
ApproachRate:10
SliderMultiplier:1.8
SliderTickRate:1

[Events]
//Background and Video events
0,0,"hatsune-miku-hd.jpg",0,0
//Break Periods
2,28440,35540
2,101190,103540
2,105190,107865
2,125190,127540
2,190190,191540
//Storyboard Layer 0 (Background)
//Storyboard Layer 1 (Fail)
//Storyboard Layer 2 (Pass)
//Storyboard Layer 3 (Foreground)
//Storyboard Sound Samples

[TimingPoints]
-10,250,4,1,0,100,1,0
0,-100,4,2,0,50,0,0
3740,-50,4,2,0,50,0,0
3990,-66.6666666666667,4,3,0,70,0,0
13490,-40,4,3,0,70,0,0
13990,-66.6666666666667,4,3,0,70,0,0
28240,-66.6666666666667,4,3,0,5,0,0
35990,-133.333333333333,4,1,0,50,0,0
38990,-100,4,2,0,50,0,0
43990,-200,4,2,0,50,0,0
44990,-200,4,2,0,5,0,0
45990,-142.857142857143,4,2,0,20,0,0
46990,-111.111111111111,4,2,0,40,0,0
47990,-100,4,2,0,50,0,0
48490,-100,4,2,0,21,0,0
48552,-100,4,2,0,50,0,0
48990,-90.9090909090909,4,2,0,60,0,0
49990,-80,4,2,0,70,0,0
51990,-66.6666666666667,4,2,0,50,0,0
52740,-40,4,2,0,50,0,0
52990,-66.6666666666667,4,2,0,70,0,1
67990,-133.333333333333,4,2,0,70,0,0
68740,-50,4,2,0,70,0,0
68990,-57.1428571428571,4,2,0,70,0,1
83990,-133.333333333333,4,2,0,70,0,0
84365,-333.333333333333,4,2,0,70,0,0
85240,-133.333333333333,4,2,0,70,0,0
88740,-66.6666666666667,4,2,0,70,0,0
88990,-100,4,2,0,70,0,0
96740,-66.6666666666667,4,2,0,70,0,0
96990,-83.3333333333333,4,2,0,70,0,0
108990,-50,4,2,0,70,0,1
112740,-28.5714285714286,4,2,0,70,0,1
112990,-50,4,2,0,70,0,1
115990,-100,4,2,0,70,0,1
116240,-66.6666666666667,4,2,0,70,0,1
116490,-50,4,2,0,70,0,1
116740,-50,4,2,0,70,0,1
123990,-100,4,2,0,70,0,1
124990,-100,4,2,0,70,0,0
129990,-100,4,3,0,70,0,0
145990,-133.333333333333,4,2,0,20,0,0
149990,-100,4,2,0,50,0,0
153740,-50,4,2,0,50,0,0
153990,-66.6666666666667,4,2,0,70,0,1
168990,-66.6666666666667,4,2,0,70,0,0
169990,-83.3333333333333,4,2,0,70,0,0
193990,-66.6666666666667,4,2,0,70,0,1
209740,-66.6666666666667,4,2,0,70,0,0
209990,-40,4,2,0,80,0,1
217990,-133.333333333333,4,2,0,70,0,0
220490,-200,4,2,0,70,0,0
220865,-400,4,2,0,70,0,0
222240,-100,4,2,0,70,0,0
222990,-66.6666666666667,4,2,0,70,0,1
238990,-166.666666666667,4,2,0,70,0,0
239990,-166.666666666667,4,2,0,5,0,0

[Colours]
Combo1 : 255,106,143
Combo2 : 255,136,234
Combo3 : 35,73,143
Combo4 : 1,166,166

[HitObjects]
256,192,1990,12,0,3490,0:0:0:0:
75,200,3740,6,0,B|83:244|119:272|119:272|144:227|76:163|178:124|196:184,1,270,4|0,2:0|0:0,0:0:0:0:
206,220,3990,6,0,B|203:287|203:287|210:355,1,135.000005149842,2|0,0:0|0:0,0:0:0:0:
294,168,4240,1,8,1:0:0:0:
314,303,4365,1,0,0:0:0:0:
314,303,4427,1,0,0:0:0:0:
314,303,4490,6,0,L|383:312,1,67.5000025749208
330,265,4615,2,0,L|400:262,1,67.5000025749208
502,213,4740,2,0,L|433:222,1,67.5000025749208,8|0,1:0|0:0,0:0:0:0:
486,175,4865,2,0,L|416:172,1,67.5000025749208
386,92,4990,5,2,0:0:0:0:
386,92,5052,1,0,0:0:0:0:
386,92,5115,1,0,0:0:0:0:
308,157,5240,2,0,B|241:167|241:167|173:152,1,135.000005149842,8|0,1:0|0:0,0:0:0:0:
240,76,5490,1,0,0:0:0:0:
251,264,5615,1,0,0:0:0:0:
255,81,5740,2,0,L|363:0,1,135.000005149842,8|0,1:0|0:0,0:0:0:0:
146,22,5990,6,0,B|105:68|98:98|101:151,1,135.000005149842,2|0,0:0|0:0,0:0:0:0:
71,261,6240,1,8,1:0:0:0:
71,261,6302,1,0,0:0:0:0:
71,261,6365,2,0,L|81:331,1,67.5000025749208
193,198,6490,6,0,P|197:160|187:132,1,67.5000025749208
207,313,6615,2,0,P|227:349|264:371,1,67.5000025749208
224,187,6740,2,0,P|231:144|230:112,1,67.5000025749208,8|0,1:0|0:0,0:0:0:0:
239,293,6865,1,0,0:0:0:0:
239,293,6927,1,0,0:0:0:0:
239,293,6990,6,0,P|283:348|346:330,1,135.000005149842,2|0,0:0|0:0,0:0:0:0:
382,128,7240,2,0,P|451:141|460:221,1,135.000005149842,8|0,1:0|0:0,0:0:0:0:
239,167,7490,2,0,B|220:101|220:101|217:33,1,135.000005149842
180,256,7740,2,0,L|138:384,1,135.000005149842,8|0,1:0|0:0,0:0:0:0:
121,184,7990,5,2,0:0:0:0:
121,184,8115,1,0,0:0:0:0:
48,264,8240,2,0,P|59:363|111:371,1,135.000005149842,8|0,1:0|0:0,0:0:0:0:
209,252,8490,1,0,0:0:0:0:
209,252,8552,1,0,0:0:0:0:
209,252,8615,2,0,L|223:175,1,67.5000025749208
252,278,8740,2,0,L|252:206,1,67.5000025749208,8|0,1:0|0:0,0:0:0:0:
307,251,8865,2,0,L|298:178,1,67.5000025749208
252,114,8990,6,0,L|251:77,4,33.7500012874604,2|0|0|0|0,0:0|0:0|0:0|0:0|0:0,0:0:0:0:
323,338,9240,2,0,B|374:384|429:369|429:369|432:334,1,135.000005149842,8|0,1:0|0:0,0:0:0:0:
461,85,9490,2,0,B|447:70|447:70|395:92|383:160,1,135.000005149842
233,286,9740,2,0,P|155:299|102:268,1,135.000005149842,8|0,1:0|0:0,0:0:0:0:
49,161,9990,5,2,0:0:0:0:
188,197,10115,1,0,0:0:0:0:
121,74,10240,1,8,1:0:0:0:
121,74,10302,1,0,0:0:0:0:
121,74,10365,2,0,L|126:143,1,67.5000025749208
264,147,10490,6,0,P|255:109|252:73,1,67.5000025749208
319,78,10615,2,0,P|301:32|298:4,1,67.5000025749208
359,159,10740,2,0,P|369:104|385:77,1,67.5000025749208,8|0,1:0|0:0,0:0:0:0:
420,98,10865,2,0,P|407:56|405:22,1,67.5000025749208
488,137,10990,6,0,L|474:283,1,135.000005149842,2|0,0:0|0:0,0:0:0:0:
384,360,11240,1,8,1:0:0:0:
384,360,11365,1,0,0:0:0:0:
367,236,11490,2,0,B|357:207|358:188|358:188|329:229|222:256,1,202.500007724762,2|0,1:0|0:0,0:0:0:0:
181,224,11740,1,8,1:0:0:0:
158,199,11802,1,0,1:0:0:0:
148,160,11865,1,0,1:0:0:0:
156,119,11927,1,0,1:0:0:0:
137,75,11990,6,0,B|76:47|76:47|9:49,1,135.000005149842,2|0,0:0|0:0,0:0:0:0:
231,154,12240,2,0,B|298:156|298:156|359:128,1,135.000005149842,8|0,1:0|0:0,0:0:0:0:
64,162,12490,1,0,0:0:0:0:
48,167,12552,1,0,0:0:0:0:
28,173,12615,2,0,L|6:244,1,67.5000025749208,2|0,1:0|0:0,0:0:0:0:
271,54,12740,1,2,1:0:0:0:
271,54,12865,1,0,1:0:0:0:
399,97,12990,6,0,L|437:84,6,33.7500012874604,2|0|0|0|0|0|0,0:0|0:0|0:0|0:0|0:0|0:0|0:0,0:0:0:0:
394,116,13240,1,8,1:0:0:0:
431,246,13365,1,0,0:0:0:0:
297,172,13490,6,0,B|262:168|262:168|238:177,4,56.25
262,257,13740,2,0,B|227:261|227:261|203:252,4,56.25
293,341,13990,6,0,P|360:336|436:373,1,135.000005149842,2|0,0:0|0:0,0:0:0:0:
193,343,14240,2,0,L|126:368,1,67.5000025749208,8|0,1:0|0:0,0:0:0:0:
172,256,14365,2,0,L|113:289,1,67.5000025749208
101,206,14490,6,0,L|93:136,1,67.5000025749208
118,103,14615,2,0,L|130:37,1,67.5000025749208
184,205,14740,2,0,L|189:133,1,67.5000025749208
218,114,14865,2,0,L|209:38,1,67.5000025749208
279,185,14990,5,2,0:0:0:0:
321,98,15115,1,0,0:0:0:0:
340,99,15177,1,0,0:0:0:0:
361,101,15240,2,0,B|398:101|398:101|428:112,1,67.5000025749208,8|0,1:0|0:0,0:0:0:0:
506,143,15365,2,0,B|469:143|469:143|439:154,1,67.5000025749208
387,212,15490,6,0,B|387:298|394:338|394:338|410:319,1,135.000005149842,8|0,0:0|0:0,0:0:0:0:
359,371,15677,2,0,B|317:318|301:282|301:282|278:300,1,135.000005149842,8|0,0:0|0:0,0:0:0:0:
252,341,15865,2,0,P|206:350|176:345,1,67.5000025749208,8|0,0:0|0:0,0:0:0:0:
222,230,15990,6,0,P|231:149|220:79,1,135.000005149842,2|0,0:0|0:0,0:0:0:0:
384,247,16240,2,0,L|429:379,1,135.000005149842,8|0,1:0|0:0,0:0:0:0:
411,147,16490,2,0,P|377:71|392:10,1,135.000005149842
272,225,16740,2,0,L|258:365,1,135.000005149842,8|0,1:0|0:0,0:0:0:0:
51,219,16990,6,0,B|118:207|118:207|189:212,1,135.000005149842,2|0,0:0|0:0,0:0:0:0:
213,346,17240,2,0,B|146:350|146:350|79:338,1,135.000005149842,8|0,1:0|0:0,0:0:0:0:
108,59,17490,2,0,B|175:47|175:47|246:52,1,135.000005149842
270,186,17740,2,0,B|203:190|203:190|136:178,1,135.000005149842,8|0,1:0|0:0,0:0:0:0:
325,112,17990,5,2,0:0:0:0:
325,112,18115,1,0,0:0:0:0:
315,265,18240,1,8,1:0:0:0:
315,265,18302,1,0,0:0:0:0:
315,265,18365,2,0,L|265:215,1,67.5000025749208
193,157,18490,6,0,P|149:158|117:151,1,67.5000025749208
146,219,18615,2,0,P|104:207|71:206,1,67.5000025749208
176,268,18740,2,0,P|129:268|97:277,1,67.5000025749208,8|0,1:0|0:0,0:0:0:0:
175,316,18865,2,0,P|121:356|98:363,1,67.5000025749208
266,372,18990,6,0,P|344:341|393:370,1,135.000005149842,2|0,0:0|0:0,0:0:0:0:
470,290,19240,1,8,1:0:0:0:
468,273,19302,1,0,0:0:0:0:
465,260,19365,1,0,0:0:0:0:
421,158,19490,1,0,0:0:0:0:
430,130,19552,1,0,0:0:0:0:
421,93,19615,1,0,0:0:0:0:
321,23,19740,1,8,1:0:0:0:
288,32,19802,1,0,1:0:0:0:
263,60,19865,1,0,1:0:0:0:
253,101,19927,1,0,1:0:0:0:
263,142,19990,6,0,B|266:173|284:239|284:239|236:192|178:187,1,202.500007724762,2|0,1:0|0:0,0:0:0:0:
161,203,20240,2,0,P|97:226|28:234,1,135.000005149842,8|0,1:0|0:0,0:0:0:0:
51,131,20490,6,0,L|44:58,1,67.5000025749208
90,136,20615,2,0,L|115:73,1,67.5000025749208
110,306,20740,2,0,L|126:381,1,67.5000025749208,8|0,1:0|0:0,0:0:0:0:
143,308,20865,2,0,L|181:368,1,67.5000025749208
214,126,20990,5,2,0:0:0:0:
235,110,21052,1,0,0:0:0:0:
257,104,21115,1,0,0:0:0:0:
289,96,21177,1,0,0:0:0:0:
304,111,21240,5,8,1:0:0:0:
337,103,21302,1,0,0:0:0:0:
347,107,21365,1,0,0:0:0:0:
373,83,21427,1,0,0:0:0:0:
406,72,21490,5,0,0:0:0:0:
442,86,21552,1,0,0:0:0:0:
455,117,21615,2,0,L|441:200,1,67.5000025749208
432,347,21740,2,0,B|417:229|417:229|410:243,1,135.000005149842,8|0,1:0|0:0,0:0:0:0:
332,346,21990,5,2,0:0:0:0:
296,235,22115,1,0,0:0:0:0:
226,335,22240,2,0,L|153:323,1,67.5000025749208,8|0,1:0|0:0,0:0:0:0:
315,344,22365,1,0,0:0:0:0:
296,235,22490,6,0,P|291:197|303:168,1,67.5000025749208
260,236,22615,2,0,P|230:201|220:172,1,67.5000025749208
245,25,22740,2,0,P|238:66|245:107,1,67.5000025749208,8|0,1:0|0:0,0:0:0:0:
200,14,22865,2,0,P|161:57|153:93,1,67.5000025749208
176,154,22990,5,2,0:0:0:0:
344,42,23115,1,0,0:0:0:0:
344,42,23177,1,0,0:0:0:0:
344,42,23240,2,0,B|391:54|422:22|492:51,1,135.000005149842,8|0,1:0|0:0,0:0:0:0:
322,252,23490,2,0,P|277:176|282:116,1,135.000005149842
459,268,23740,1,8,1:0:0:0:
429,111,23865,1,0,0:0:0:0:
446,301,23990,6,0,B|396:346|396:346|334:372,1,135.000005149842,2|0,0:0|0:0,0:0:0:0:
138,326,24240,2,0,L|69:332,1,67.5000025749208,8|0,1:0|0:0,0:0:0:0:
245,262,24365,1,0,0:0:0:0:
245,262,24427,1,0,0:0:0:0:
245,262,24490,6,0,P|289:259|316:264,1,67.5000025749208
224,221,24615,2,0,P|268:218|295:223,1,67.5000025749208
241,172,24740,2,0,P|197:169|170:174,1,67.5000025749208,8|0,1:0|0:0,0:0:0:0:
232,138,24865,2,0,P|188:135|161:140,1,67.5000025749208
254,91,24990,6,0,B|288:79|288:79|331:109|320:175,1,135.000005149842,2|0,0:0|0:0,0:0:0:0:
140,316,25240,2,0,B|106:328|106:328|63:298|74:232,1,135.000005149842,8|0,1:0|0:0,0:0:0:0:
76,67,25490,2,0,L|52:140,1,67.5000025749208
99,88,25615,2,0,L|104:158,1,67.5000025749208
138,116,25740,2,0,B|182:4|182:4|208:39,1,135.000005149842,8|0,1:0|0:0,0:0:0:0:
251,189,25990,5,2,0:0:0:0:
362,40,26115,1,0,0:0:0:0:
329,238,26240,2,0,P|322:305|327:313,1,67.5000025749208,8|0,1:0|0:0,0:0:0:0:
357,69,26365,1,0,0:0:0:0:
226,227,26490,6,0,L|214:296,1,67.5000025749208,0|0,1:0|0:0,0:0:0:0:
167,206,26615,2,0,L|161:287,1,67.5000025749208,0|0,1:0|0:0,0:0:0:0:
93,206,26740,2,0,L|113:277,1,67.5000025749208,8|0,1:0|0:0,0:0:0:0:
36,256,26865,2,0,L|69:315,1,67.5000025749208,0|0,1:0|0:0,0:0:0:0:
3,74,26990,6,0,L|33:146,1,67.5000025749208,0|0,1:0|0:0,0:0:0:0:
85,10,27115,2,0,L|85:88,1,67.5000025749208,0|0,1:0|0:0,0:0:0:0:
185,15,27240,2,0,L|172:103,1,67.5000025749208,8|0,1:0|0:0,0:0:0:0:
280,61,27365,2,0,L|241:138,1,67.5000025749208,0|0,1:0|0:0,0:0:0:0:
348,137,27490,5,4,2:0:0:0:
504,97,27615,1,4,2:0:0:0:
410,225,27740,1,0,1:0:0:0:
395,248,27802,1,0,1:0:0:0:
393,284,27865,1,0,1:0:0:0:
371,322,27927,1,0,1:0:0:0:
373,345,27990,6,0,B|421:387|536:384|503:254|503:254|475:253|459:278,1,270.000010299683,8|0,1:0|0:0,0:0:0:0:
86,300,35990,5,0,0:0:0:0:
86,300,36240,1,0,0:0:0:0:
86,300,36490,1,0,0:0:0:0:
86,300,36740,1,0,0:0:0:0:
144,221,36990,5,0,0:0:0:0:
166,273,37240,1,0,0:0:0:0:
245,171,37490,1,0,0:0:0:0:
249,233,37740,1,0,0:0:0:0:
340,214,37990,5,0,0:0:0:0:
348,308,38240,1,0,0:0:0:0:
501,193,38490,1,0,0:0:0:0:
452,296,38740,1,0,0:0:0:0:
322,112,38990,6,0,L|304:18,1,90,0|0,1:0|0:0,0:0:0:0:
329,203,39240,2,0,L|345:108,1,90,0|0,1:0|0:0,0:0:0:0:
475,101,39490,2,0,L|481:50,2,45,0|0|0,1:0|1:0|1:0,1:0:0:0:
476,214,39740,2,0,L|469:118,1,90,0|0,1:0|0:0,0:0:0:0:
388,24,39990,6,0,P|375:77|375:127,1,90,0|0,1:0|0:0,0:0:0:0:
320,93,40240,2,0,P|320:167|351:207,1,90,0|0,1:0|0:0,0:0:0:0:
323,257,40490,2,0,P|372:284|435:285,1,90,0|0,1:0|0:0,0:0:0:0:
331,361,40740,2,0,P|283:313|223:315,1,90,0|0,1:0|0:0,0:0:0:0:
182,267,40990,6,0,P|128:304|118:353,1,90,0|0,1:0|0:0,0:0:0:0:
96,212,41240,2,0,P|71:253|70:313,1,90,0|0,1:0|0:0,0:0:0:0:
81,113,41490,2,0,P|56:52|21:35,1,90,0|0,1:0|0:0,0:0:0:0:
195,105,41740,2,0,P|231:63|248:17,1,90,0|0,1:0|0:0,0:0:0:0:
206,212,41990,6,0,P|239:271|283:293,1,90,0|0,1:0|0:0,0:0:0:0:
342,227,42240,1,0,1:0:0:0:
447,265,42365,1,0,0:0:0:0:
447,292,42427,1,0,0:0:0:0:
434,315,42490,1,0,1:0:0:0:
417,338,42552,1,0,0:0:0:0:
392,352,42615,1,0,0:0:0:0:
280,338,42740,2,0,L|182:351,1,90,0|0,1:0|0:0,0:0:0:0:
266,249,42990,5,0,1:0:0:0:
160,280,43115,1,0,0:0:0:0:
211,166,43240,1,0,1:0:0:0:
101,153,43365,1,0,0:0:0:0:
86,149,43427,1,0,0:0:0:0:
67,142,43490,2,0,P|139:121|170:70,1,135,4|0,1:2|0:0,0:0:0:0:
229,18,43740,5,0,1:0:0:0:
242,32,43802,1,0,1:0:0:0:
260,53,43865,1,0,1:0:0:0:
273,80,43927,1,0,1:0:0:0:
263,113,43990,6,0,L|313:119,1,45,2|0,0:0|0:0,0:0:0:0:
272,133,44240,2,0,L|320:136,1,45,2|0,0:0|0:0,0:0:0:0:
399,124,44490,1,2,0:0:0:0:
400,254,44615,1,2,0:0:0:0:
390,101,44740,2,0,L|381:42,1,45,2|0,0:0|0:0,0:0:0:0:
286,30,44990,5,0,0:0:0:0:
286,30,45240,1,0,0:0:0:0:
286,30,45490,1,0,0:0:0:0:
265,36,45552,1,0,0:0:0:0:
232,46,45615,1,0,0:0:0:0:
147,45,45740,2,0,P|115:54|92:69,1,45
47,132,45990,6,0,P|63:202|70:213,1,62.9999980773926
145,200,46240,1,0,0:0:0:0:
171,169,46365,1,0,0:0:0:0:
171,169,46427,1,0,0:0:0:0:
171,169,46490,2,0,L|180:257,1,62.9999980773926
266,221,46740,1,0,0:0:0:0:
264,247,46802,1,0,0:0:0:0:
275,268,46865,1,0,0:0:0:0:
347,316,46990,6,0,P|397:319|432:331,1,80.9999975280763
272,362,47240,1,0,0:0:0:0:
191,298,47365,1,0,0:0:0:0:
171,305,47427,1,0,0:0:0:0:
147,324,47490,2,0,L|109:358,2,40.4999987640381
69,275,47740,2,0,L|78:190,1,80.9999975280763
22,117,47990,6,0,L|119:108,1,90
170,24,48240,2,0,P|229:52|281:51,1,90
357,36,48490,2,0,B|415:51|460:46|460:46|409:96|414:140,1,180,4|0,0:0|0:0,0:0:0:0:
328,127,48865,1,0,0:1:0:0:
318,137,48927,1,0,0:1:0:0:
309,151,48990,6,0,P|301:208|306:256,1,99.0000030212403
400,212,49240,1,0,0:1:0:0:
481,273,49365,1,0,0:1:0:0:
485,259,49427,1,0,0:1:0:0:
491,236,49490,2,0,L|495:181,2,49.5000015106202
355,336,49740,1,0,0:0:0:0:
227,317,49865,1,0,0:0:0:0:
216,321,49927,1,0,0:0:0:0:
195,327,49990,6,0,P|129:330|59:325,1,112.5
71,122,50240,1,0,0:0:0:0:
11,213,50365,1,0,0:0:0:0:
23,214,50427,1,0,0:0:0:0:
44,217,50490,2,0,B|101:221|101:221|158:212,1,112.5
215,125,50740,1,2,0:0:0:0:
213,97,50802,1,0,0:0:0:0:
213,71,50865,1,2,0:0:0:0:
266,210,50990,6,0,B|283:237|287:261|287:261|317:267|342:280,1,112.5
386,92,51240,2,0,L|374:32,1,56.25,2|0,0:0|0:0,0:0:0:0:
402,112,51365,2,0,L|418:56,1,56.25,2|0,0:0|0:0,0:0:0:0:
458,118,51490,1,2,0:0:0:0:
458,118,51552,1,0,0:0:0:0:
458,118,51615,1,2,0:0:0:0:
485,273,51740,2,0,L|514:331,1,56.25,2|0,0:0|0:0,0:0:0:0:
444,306,51865,2,0,L|441:365,1,56.25,2|0,0:0|0:0,0:0:0:0:
399,290,51990,6,0,B|328:277|265:280|235:357|187:373|121:363|85:298|85:298|121:243|191:231|240:294|240:294|230:229|256:190|311:154|367:165,1,742.500028324128
385,176,52740,6,0,B|486:192|516:83|516:83|434:20|367:65,1,337.5,4|0,0:0|0:0,0:0:0:0:
161,90,52990,6,0,B|107:129|107:129|69:119|36:119,1,135.000005149842,4|0,0:0|0:0,0:0:0:0:
307,240,53240,2,0,B|361:279|361:279|399:269|432:269,1,135.000005149842,4|0,0:0|0:0,0:0:0:0:
461,286,53427,1,0,0:0:0:0:
446,309,53490,2,0,P|374:313|304:319,1,135.000005149842,8|0,0:0|0:0,0:0:0:0:
159,263,53740,1,0,1:0:0:0:
371,163,53865,2,0,P|461:173|509:173,1,135.000005149842,0|0,0:0|1:0,0:0:0:0:
120,174,54115,6,0,B|74:135|74:135|20:183|24:267|80:305,1,202.500007724762,6|0,0:1|0:0,0:0:0:0:
62,291,54365,2,0,L|77:368,1,67.5000025749208
217,180,54490,2,0,L|225:138,4,33.7500012874604,0|0|0|0|0,1:0|1:0|1:0|1:0|1:0,1:0:0:0:
251,332,54740,2,0,P|212:386|196:386,1,67.5000025749208,2|0,0:0|0:0,0:0:0:0:
267,322,54865,2,0,P|289:354|319:370,1,67.5000025749208,2|0,0:0|0:0,0:0:0:0:
343,284,54990,5,0,1:0:0:0:
336,88,55115,1,0,1:0:0:0:
436,230,55240,2,0,L|499:267,1,67.5000025749208,2|0,0:0|0:0,0:0:0:0:
418,172,55365,2,0,P|468:156|495:142,1,67.5000025749208,2|0,0:0|0:0,0:0:0:0:
327,186,55490,2,0,B|261:176|263:238|181:210,1,135.000005149842
122,146,55740,1,8,0:0:0:0:
68,250,55865,6,0,L|88:389,1,135.000005149842,2|0,1:0|0:0,0:0:0:0:
162,27,56115,2,0,L|142:166,1,135.000005149842,2|0,1:0|0:0,0:0:0:0:
194,330,56365,1,2,1:0:0:0:
303,220,56490,2,0,L|282:359,1,135.000005149842,10|0,1:0|0:0,0:0:0:0:
323,11,56740,2,0,L|362:149,1,135.000005149842,6|0,1:0|0:0,0:0:0:0:
259,104,56990,5,0,1:0:0:0:
454,75,57115,1,0,1:0:0:0:
394,287,57240,1,2,0:0:0:0:
374,286,57302,1,0,0:0:0:0:
348,288,57365,1,2,0:0:0:0:
331,300,57427,1,0,0:0:0:0:
311,309,57490,2,0,L|277:304,4,33.7500012874604,0|0|0|0|0,1:0|1:0|1:0|1:0|1:0,1:0:0:0:
333,192,57740,1,8,0:0:0:0:
225,218,57865,2,0,B|176:247|117:220|117:220|133:187,1,135.000005149842
295,25,58115,6,0,L|434:45,1,135.000005149842,2|2,0:1|0:0,0:0:0:0:
445,56,58302,1,0,0:0:0:0:
467,77,58365,1,2,0:0:0:0:
473,103,58427,1,0,0:0:0:0:
463,128,58490,2,0,B|438:154|432:187|432:187|470:231|487:270,1,135.000005149842,2|0,0:0|0:0,0:0:0:0:
389,356,58740,1,2,0:0:0:0:
386,330,58802,1,0,0:0:0:0:
368,314,58865,1,2,0:0:0:0:
341,296,58927,1,0,0:0:0:0:
308,304,58990,6,0,B|249:330|249:330|171:338,1,135.000005149842,4|0,0:0|0:0,0:0:0:0:
7,211,59240,2,0,B|66:237|66:237|144:245,1,135.000005149842,0|8,1:0|0:0,0:0:0:0:
296,130,59490,1,0,0:0:0:0:
283,132,59552,1,0,0:0:0:0:
267,136,59615,1,0,0:0:0:0:
250,139,59677,1,0,0:0:0:0:
233,144,59740,2,0,L|145:152,1,67.5000025749208,8|0,0:0|0:0,0:0:0:0:
239,35,59865,6,0,L|380:40,1,135.000005149842,0|0,0:0|1:0,0:0:0:0:
396,36,60052,1,0,0:0:0:0:
421,41,60115,1,0,0:0:0:0:
414,142,60240,1,0,1:0:0:0:
414,156,60302,1,0,1:0:0:0:
411,177,60365,1,0,1:0:0:0:
409,194,60427,1,0,1:0:0:0:
408,213,60490,2,0,L|403:281,1,67.5000025749208,0|0,1:0|0:0,0:0:0:0:
501,246,60615,2,0,L|492:179,1,67.5000025749208,0|0,1:0|0:0,0:0:0:0:
315,232,60740,5,2,1:1:0:0:
281,242,60802,1,0,1:0:0:0:
249,274,60865,1,0,1:0:0:0:
232,313,60927,1,0,1:0:0:0:
191,329,60990,6,0,P|123:346|79:289,1,135.000005149842,2|0,1:0|0:0,0:0:0:0:
81,80,61240,2,0,P|129:36|191:55,1,135.000005149842,10|2,0:1|0:0,0:0:0:0:
211,79,61427,1,0,0:0:0:0:
240,100,61490,2,0,P|305:131|345:80,1,135.000005149842,2|0,0:1|0:0,0:0:0:0:
481,48,61740,1,10,1:0:0:0:
479,65,61802,1,0,1:0:0:0:
472,80,61865,1,2,1:0:0:0:
465,97,61927,1,0,1:0:0:0:
460,113,61990,5,0,1:0:0:0:
461,139,62052,1,0,1:0:0:0:
461,167,62115,2,2,L|451:245,1,67.5000025749208,2|0,0:1|0:0,0:1:0:0:
391,358,62240,2,0,B|370:312|382:255|382:255|355:286,1,135.000005149842,4|0,0:0|0:0,0:0:0:0:
323,189,62490,2,0,L|330:152,4,33.7500012874604,0|0|0|0|0,1:0|1:0|1:0|1:0|1:0,1:0:0:0:
273,356,62740,1,0,0:0:0:0:
247,359,62802,1,0,0:0:0:0:
220,355,62865,1,0,0:0:0:0:
195,358,62927,1,0,0:0:0:0:
165,361,62990,6,0,B|147:296|147:296|171:229,1,135.000005149842,2|0,0:1|0:0,0:0:0:0:
56,20,63240,2,0,B|78:83|78:83|60:148,1,135.000005149842,2|2,0:1|0:0,0:0:0:0:
176,26,63490,1,2,0:1:0:0:
176,26,63615,1,0,0:0:0:0:
220,131,63740,1,10,0:1:0:0:
304,44,63865,1,2,0:1:0:0:
325,47,63927,1,0,0:0:0:0:
352,41,63990,6,0,P|382:48|421:49,1,67.5000025749208,2|2,0:0|0:0,0:0:0:0:
507,90,64115,2,0,P|474:97|440:98,1,67.5000025749208,10|0,0:1|0:0,0:0:0:0:
309,137,64240,2,0,P|349:132|376:150,1,67.5000025749208,0|0,1:0|0:0,0:0:0:0:
447,188,64365,2,0,P|390:202|330:197,1,67.5000025749208,2|0,1:0|0:0,0:0:0:0:
117,253,64490,6,0,B|90:257|90:257|53:325|145:346,1,135.000005149842,6|0,2:1|0:0,0:0:0:0:
387,340,64740,2,0,B|451:322|422:257|422:257|395:253,1,135.000005149842,6|0,2:1|0:0,0:0:0:0:
231,235,64990,5,2,1:0:0:0:
266,339,65115,1,0,1:0:0:0:
297,159,65240,1,2,1:0:0:0:
303,140,65302,1,0,1:0:0:0:
310,123,65365,1,0,1:0:0:0:
171,149,65490,2,0,P|119:178|36:178,1,135.000005149842,2|0,1:0|0:0,0:0:0:0:
83,77,65740,1,2,1:0:0:0:
111,262,65865,1,2,0:1:0:0:
116,276,65927,1,0,0:0:0:0:
119,290,65990,6,0,B|111:347|164:380|164:380|191:349,1,135.000005149842,0|10,0:0|0:1,0:0:0:0:
326,172,66240,2,0,B|334:115|281:82|281:82|254:113,1,135.000005149842,0|2,0:0|0:1,0:0:0:0:
226,252,66490,2,0,L|241:319,1,67.5000025749208,10|0,0:1|0:0,0:0:0:0:
245,247,66615,2,0,L|250:327,1,67.5000025749208,2|0,0:0|0:0,0:0:0:0:
349,310,66740,1,2,0:1:0:0:
367,313,66802,1,0,0:0:0:0:
393,307,66865,1,0,0:0:0:0:
419,289,66927,1,0,0:0:0:0:
431,255,66990,6,0,B|405:207|439:170|414:117,1,135.000005149842,6|0,0:1|0:0,0:0:0:0:
155,13,67240,2,0,B|177:60|143:97|169:145,1,135.000005149842,2|0,1:0|0:0,0:0:0:0:
306,83,67490,1,2,0:1:0:0:
309,69,67552,1,0,0:0:0:0:
315,56,67615,1,0,0:0:0:0:
256,193,67740,5,2,1:0:0:0:
244,229,67802,1,0,1:0:0:0:
257,269,67865,1,2,1:0:0:0:
263,309,67927,1,0,1:0:0:0:
249,353,67990,6,0,P|179:334|135:378,2,135.000005149842,0|0|0,1:0|0:0|0:0,0:0:0:0:
141,307,68740,6,0,P|58:257|126:201,1,180,4|0,0:0|0:0,0:0:0:0:
324,310,68990,6,0,B|401:321|401:321|436:291|473:272,1,157.500001502037,8|0,1:2|1:0,0:0:0:0:
172,220,69240,2,0,B|108:175|108:175|103:129|88:90,1,157.500001502037,8|0,0:0|0:0,0:0:0:0:
391,170,69490,1,8,0:0:0:0:
403,168,69552,1,0,0:0:0:0:
420,163,69615,1,0,0:0:0:0:
141,242,69740,2,0,B|90:312|157:370|157:370|178:348,1,157.500001502037,12|0,0:0|0:0,0:0:0:0:
213,139,69990,6,0,B|194:63|194:63|143:2,1,157.500001502037,8|0,0:0|0:0,0:0:0:0:
278,298,70240,2,0,B|325:332|372:336|421:373,1,157.500001502037,8|0,0:0|0:0,0:0:0:0:
116,273,70490,1,8,0:0:0:0:
116,273,70552,1,0,0:0:0:0:
116,273,70615,1,0,0:0:0:0:
295,182,70740,2,8,P|326:183|369:203,1,78.7500007510185,10|8,0:0|0:0,0:0:0:0:
456,150,70865,2,0,P|408:166|376:191,1,78.7500007510185,2|0,0:0|0:0,0:0:0:0:
345,97,70990,6,0,B|285:140|227:108|227:108|256:106|270:82,1,157.500001502037,8|0,0:0|0:0,0:0:0:0:
5,223,71240,2,0,P|84:210|131:264,1,157.500001502037,8|0,0:0|0:0,0:0:0:0:
436,294,71490,2,0,P|384:348|310:334,1,157.500001502037,8|0,0:0|0:0,0:0:0:0:
92,168,71740,2,0,B|70:123|70:123|63:67|39:14,1,157.500001502037,8|0,0:0|0:0,0:0:0:0:
167,227,71990,6,0,B|151:273|151:302|151:302|110:331|80:363,1,157.500001502037,12|0,0:0|0:0,0:0:0:0:
182,129,72240,1,8,0:0:0:0:
255,258,72365,1,0,0:0:0:0:
261,274,72427,1,0,0:0:0:0:
267,294,72490,1,8,0:0:0:0:
302,156,72615,1,0,0:0:0:0:
361,247,72740,1,8,0:0:0:0:
366,262,72802,1,0,0:0:0:0:
374,277,72865,1,0,0:0:0:0:
387,288,72927,1,0,0:0:0:0:
406,297,72990,6,0,B|495:323|508:248|508:248|466:222,1,157.500001502037,8|0,0:0|0:0,0:0:0:0:
475,211,73177,1,0,0:0:0:0:
459,192,73240,2,0,P|392:123|414:39,1,157.500001502037,8|0,0:0|0:0,0:0:0:0:
489,98,73490,1,8,1:0:0:0:
489,98,73552,1,0,1:0:0:0:
489,98,73615,1,0,1:0:0:0:
349,127,73740,2,0,B|282:165|249:111|194:171,1,157.500001502037,8|0,0:0|0:0,0:0:0:0:
71,266,73990,6,0,B|61:308|62:343|62:343|113:336|152:313,1,157.500001502037,8|0,1:0|1:0,1:0:0:0:
150,37,74240,2,0,B|108:27|73:28|73:28|80:79|103:118,1,157.500001502037,8|0,0:0|0:0,0:0:0:0:
241,244,74490,1,8,1:0:0:0:
255,250,74552,1,0,1:0:0:0:
279,254,74615,1,0,1:0:0:0:
452,147,74740,2,8,B|482:117|482:117|519:104,1,78.7500007510185,10|8,0:0|0:0,0:0:0:0:
408,161,74865,2,0,B|408:119|408:119|422:82,1,78.7500007510185,2|0,0:0|0:0,0:0:0:0:
408,199,74990,6,0,P|431:292|379:324,1,157.500001502037,8|0,0:0|0:0,0:0:0:0:
226,83,75240,2,0,P|287:21|370:52,1,157.500001502037,8|0,0:0|0:0,0:0:0:0:
151,197,75490,2,0,L|-4:150,1,157.500001502037,8|0,0:0|0:0,0:0:0:0:
340,323,75740,2,0,B|409:292|429:369|519:337,1,157.500001502037,8|0,0:0|0:0,0:0:0:0:
171,296,75990,6,0,B|91:288|56:337|56:337|86:343,1,157.500001502037,12|0,0:0|0:0,0:0:0:0:
366,156,76240,2,0,B|386:120|412:94|412:94|376:70|368:30,1,157.500001502037,8|0,1:0|1:0,1:0:0:0:
144,30,76490,2,0,B|136:70|100:94|100:94|126:120|146:156,1,157.500001502037,8|0,0:0|0:0,0:0:0:0:
303,241,76740,1,8,0:0:0:0:
322,237,76802,1,0,0:0:0:0:
349,242,76865,1,0,0:0:0:0:
371,251,76927,1,0,0:0:0:0:
392,272,76990,6,0,P|410:339|334:361,1,157.500001502037,8|0,1:0|1:0,1:0:0:0:
217,138,77240,2,0,P|247:61|320:110,1,157.500001502037,10|2,0:0|0:0,0:0:0:0:
178,236,77490,1,8,1:0:0:0:
152,232,77552,1,0,1:0:0:0:
117,220,77615,1,0,1:0:0:0:
319,168,77740,2,0,B|400:156|400:156|475:165,1,157.500001502037,8|0,0:0|0:0,0:0:0:0:
233,235,77990,6,0,B|217:312|217:312|243:386,1,157.500001502037,12|0,0:0|0:0,0:0:0:0:
189,148,78240,1,8,0:0:0:0:
111,311,78365,1,0,0:0:0:0:
111,311,78427,1,0,0:0:0:0:
111,311,78490,1,8,0:0:0:0:
74,166,78615,1,0,0:0:0:0:
11,254,78740,1,8,0:0:0:0:
6,268,78802,1,0,0:0:0:0:
4,287,78865,1,0,0:0:0:0:
16,92,78990,6,0,P|73:37|153:57,1,157.500001502037,8|0,0:0|0:0,0:0:0:0:
162,66,79177,1,0,0:0:0:0:
180,79,79240,2,0,B|236:103|272:61,1,78.7500007510185,8|0,0:0|0:0,0:0:0:0:
344,38,79365,2,0,L|350:-2,2,39.3750003755093
342,68,79490,2,0,L|362:227,1,157.500001502037,8|0,0:0|0:0,0:0:0:0:
383,205,79677,1,0,0:0:0:0:
394,219,79740,2,0,P|376:288|370:376,1,157.500001502037,8|0,0:0|0:0,0:0:0:0:
481,187,79990,5,2,0:1:0:0:
263,229,80115,1,2,0:1:0:0:
263,229,80177,1,2,0:1:0:0:
263,229,80240,2,0,P|255:277|262:312,1,78.7500007510185,2|0,0:1|0:0,0:0:0:0:
95,199,80365,1,2,0:1:0:0:
95,199,80427,1,2,0:1:0:0:
95,199,80490,2,0,P|120:273|65:353,1,157.500001502037,2|0,0:1|0:0,0:0:0:0:
30,93,80740,2,0,P|103:36|167:82,1,157.500001502037,2|0,0:1|0:0,0:0:0:0:
212,227,80990,5,8,1:0:0:0:
261,33,81115,1,0,1:0:0:0:
284,250,81240,2,0,P|284:203|291:167,1,78.7500007510185,10|0,0:0|0:0,0:0:0:0:
310,9,81365,2,0,P|338:39|355:73,1,78.7500007510185,2|0,0:0|0:0,0:0:0:0:
367,212,81490,2,0,B|389:250|397:283|397:283|470:331,1,157.500001502037,8|0,1:2|0:0,0:0:0:0:
282,358,81740,1,8,0:0:0:0:
267,348,81802,1,0,0:0:0:0:
246,338,81865,1,0,0:0:0:0:
219,332,81927,1,0,0:0:0:0:
188,331,81990,6,0,P|147:337|107:363,2,78.7500007510185,12|0|0,0:0|0:0|0:0,0:0:0:0:
324,224,82240,2,0,B|401:209|401:209|458:154,1,157.500001502037,8|0,0:0|0:0,0:0:0:0:
186,133,82490,2,0,B|109:118|109:118|52:63,1,157.500001502037,8|0,0:0|0:0,0:0:0:0:
322,79,82740,1,10,0:3:0:0:
339,73,82802,1,2,0:3:0:0:
362,68,82865,1,2,0:3:0:0:
385,62,82927,1,2,0:3:0:0:
416,53,82990,6,0,B|455:42|455:42|493:98|465:161,1,157.500001502037,8|0,0:0|0:0,0:0:0:0:
43,153,83240,2,0,B|19:98|57:42|57:42|96:53,1,157.500001502037,8|0,0:0|0:0,0:0:0:0:
468,256,83490,2,0,B|493:312|455:368|455:368|416:357,1,157.500001502037,8|0,0:0|0:0,0:0:0:0:
95,356,83740,2,0,B|56:367|56:367|18:311|43:256,1,157.500001502037,8|0,0:0|0:0,0:0:0:0:
256,379,83990,5,4,0:0:0:0:
276,239,84240,2,0,L|287:196,1,33.7500012874604,2|0,0:0|0:0,0:0:0:0:
306,160,84365,6,0,B|305:192|305:192|327:254|331:299,1,134.999995880127,2|0,0:0|0:0,0:0:0:0:
430,273,85240,5,0,0:0:0:0:
438,254,85427,1,0,0:0:0:0:
446,235,85615,1,0,0:0:0:0:
430,149,85740,5,0,0:0:0:0:
365,207,85865,1,0,0:0:0:0:
337,166,85990,2,0,L|343:58,1,101.250003862381
283,17,86240,5,0,0:0:0:0:
265,26,86427,1,0,0:0:0:0:
246,33,86615,1,0,0:0:0:0:
222,110,86740,5,0,0:0:0:0:
200,189,86865,1,0,0:0:0:0:
202,232,86990,2,0,P|152:226|93:237,1,101.250003862381
40,286,87240,5,0,0:0:0:0:
46,305,87427,1,0,0:0:0:0:
58,320,87615,1,0,0:0:0:0:
138,352,87740,5,0,0:0:0:0:
205,295,87865,1,0,0:0:0:0:
169,263,87990,2,0,B|176:225|176:178|176:178|187:190,1,101.250003862381
249,145,88240,5,0,0:0:0:0:
252,125,88427,1,0,0:0:0:0:
255,105,88615,1,0,0:0:0:0:
293,34,88740,6,0,B|348:66|348:130|348:130|358:68|384:47,1,202.500007724762,2|0,0:1|0:0,0:0:0:0:
512,110,88990,6,0,B|501:148|477:167|477:167|440:146|439:104,1,135,2|0,0:0|0:0,0:0:0:0:
474,86,89240,5,0,0:0:0:0:
472,112,89427,1,0,0:0:0:0:
470,139,89615,1,0,0:0:0:0:
461,232,89740,5,0,0:0:0:0:
474,86,89865,1,0,0:0:0:0:
461,232,89990,2,0,P|428:288|361:249,1,135
360,246,90240,5,0,0:0:0:0:
356,272,90427,1,0,0:0:0:0:
352,298,90615,1,0,0:0:0:0:
341,381,90740,5,0,0:0:0:0:
360,246,90865,1,0,0:0:0:0:
341,381,90990,2,0,B|269:328|211:350,1,135
141,318,91240,5,0,0:0:0:0:
114,320,91427,1,0,0:0:0:0:
87,322,91615,1,0,0:0:0:0:
4,331,91740,5,0,0:0:0:0:
141,318,91865,1,0,0:0:0:0:
40,220,91990,5,0,1:0:0:0:
40,220,92115,1,0,1:0:0:0:
121,119,92240,2,0,L|113:74,1,45,8|0,0:0|0:0,0:0:0:0:
156,214,92365,1,0,1:0:0:0:
175,220,92427,1,0,1:0:0:0:
199,222,92490,1,0,1:0:0:0:
222,217,92552,1,0,0:0:0:0:
251,202,92615,1,0,1:0:0:0:
317,64,92740,5,0,1:0:0:0:
356,69,92802,1,0,1:0:0:0:
394,96,92865,1,0,1:0:0:0:
408,146,92927,1,0,1:0:0:0:
396,196,92990,6,0,P|389:275|409:310,1,90,0|0,1:0|0:0,0:0:0:0:
305,377,93240,2,0,L|291:282,1,90,0|0,1:0|0:0,0:0:0:0:
199,139,93490,2,0,P|207:209|187:241,1,90,0|0,1:0|0:0,0:0:0:0:
47,280,93740,2,0,L|36:176,1,90,0|0,1:0|0:0,0:0:0:0:
155,294,93990,6,0,B|149:339|149:339|127:382,1,90,0|0,1:0|0:0,0:0:0:0:
312,218,94240,2,0,L|416:192,1,90,0|0,1:0|0:0,0:0:0:0:
141,147,94490,2,0,B|100:130|100:130|65:98,1,90,0|0,1:0|0:0,0:0:0:0:
304,18,94740,2,0,P|351:40|380:88,1,90,0|0,1:0|0:0,0:0:0:0:
123,255,94990,6,0,B|103:211|103:211|108:168,1,90,0|0,1:0|0:0,0:0:0:0:
404,169,95240,2,0,B|409:211|409:211|389:255,1,90,0|0,1:0|0:0,0:0:0:0:
216,123,95490,2,0,L|258:24,1,90,0|0,1:0|0:0,0:0:0:0:
257,263,95740,1,0,1:0:0:0:
257,263,95865,1,0,0:0:0:0:
347,95,95990,6,0,P|401:67|457:86,1,90,0|0,1:0|0:0,0:0:0:0:
477,370,96240,2,0,P|432:369|395:345,1,90,0|0,1:0|0:0,0:0:0:0:
191,120,96490,2,0,P|132:142|107:188,1,90,0|0,1:0|0:0,0:0:0:0:
141,315,96740,6,0,L|157:387,1,67.5000025749208,0|0,1:0|0:0,0:0:0:0:
158,97,96865,2,0,L|131:23,1,67.5000025749208,0|0,1:0|0:0,0:0:0:0:
162,316,96990,6,0,P|203:346|269:344,1,107.999996704102,0|0,1:0|0:0,0:0:0:0:
314,208,97240,1,0,1:0:0:0:
379,344,97365,1,0,0:0:0:0:
344,198,97490,2,0,B|322:147|322:147|316:90,1,107.999996704102,0|0,1:0|0:0,0:0:0:0:
207,284,97740,2,0,L|89:327,1,107.999996704102,0|0,1:0|0:0,0:0:0:0:
145,157,97990,6,0,P|167:84|160:34,1,107.999996704102,0|0,1:0|0:0,0:0:0:0:
345,275,98240,2,0,P|345:328|364:378,1,107.999996704102,0|0,1:0|0:0,0:0:0:0:
391,138,98490,2,0,P|369:64|338:39,1,107.999996704102,0|0,1:0|0:0,0:0:0:0:
121,246,98740,2,0,P|143:320|174:345,1,107.999996704102,0|0,1:0|0:0,0:0:0:0:
163,153,98990,6,0,L|51:164,1,107.999996704102,0|0,1:0|0:0,0:0:0:0:
376,257,99240,2,0,L|499:287,1,107.999996704102,0|0,1:0|0:0,0:0:0:0:
141,313,99490,2,0,L|33:356,1,107.999996704102,0|0,1:0|0:0,0:0:0:0:
412,132,99740,2,0,L|446:24,1,107.999996704102,0|0,1:0|0:0,0:0:0:0:
257,288,99990,6,0,B|240:333|268:379|268:379|278:362,1,107.999996704102,0|0,1:0|0:0,0:0:0:0:
255,96,100240,2,0,B|272:51|244:5|244:5|234:22,1,107.999996704102,0|0,1:0|0:0,0:0:0:0:
50,187,100490,2,0,P|113:204|173:201,1,107.999996704102,0|0,1:0|0:0,0:0:0:0:
360,225,100740,6,0,L|366:191,1,26.9999991760254,0|0,1:0|0:0,0:0:0:0:
355,256,100802,2,0,L|341:228,1,26.9999991760254,0|0,1:0|0:0,0:0:0:0:
363,281,100865,2,0,L|389:253,1,26.9999991760254,0|0,1:0|0:0,0:0:0:0:
366,313,100927,2,0,L|341:292,1,26.9999991760254,0|0,1:0|0:0,0:0:0:0:
363,338,100990,1,0,1:0:0:0:
63,172,103990,5,2,0:0:0:0:
73,175,104052,1,0,0:0:0:0:
83,178,104115,1,0,0:0:0:0:
93,181,104177,1,0,0:0:0:0:
103,184,104240,1,0,0:0:0:0:
119,183,104302,1,0,0:0:0:0:
140,188,104365,1,2,0:0:0:0:
160,193,104427,1,0,0:0:0:0:
180,199,104490,1,0,0:0:0:0:
199,217,104552,1,0,0:0:0:0:
224,225,104615,1,0,0:0:0:0:
249,233,104677,1,0,0:0:0:0:
286,226,104740,1,2,0:0:0:0:
314,249,104802,1,0,0:0:0:0:
341,275,104865,1,0,0:0:0:0:
367,301,104927,1,0,0:0:0:0:
394,326,104990,1,4,0:0:0:0:
106,320,108740,6,0,L|171:327,1,53.9999983520508,4|0,0:0|0:0,0:0:0:0:
82,313,108990,6,0,B|297:300|297:300|255:334,1,270
416,339,109240,2,0,B|201:326|201:326|243:360,1,270,8|0,0:0|0:0,0:0:0:0:
151,270,109490,2,0,B|212:307|313:314|342:228|342:228|300:213,1,270,0|0,1:0|0:0,0:0:0:0:
466,225,109740,2,0,B|405:262|304:269|275:183|275:183|317:168,1,270,8|0,0:0|0:0,0:0:0:0:
198,196,109990,6,0,B|146:133|146:94|163:11|163:11|120:32|118:73,1,270,0|0,1:0|0:0,0:0:0:0:
76,132,110240,2,0,P|89:182|89:229,1,90,8|0,0:0|0:0,0:0:0:0:
251,86,110365,1,0,1:0:0:0:
251,86,110427,1,0,1:0:0:0:
251,86,110490,2,0,B|223:202|243:320|243:320|236:368,1,270,0|0,1:0|0:0,0:0:0:0:
280,369,110740,2,0,B|218:239|301:170|301:170|356:193,1,270
351,269,110990,6,0,B|221:285|221:285|207:281|207:281|80:293,1,270,8|0,0:0|0:0,0:0:0:0:
173,318,111240,2,0,B|306:316|383:327|383:327|459:319,1,270,0|0,1:0|0:0,0:0:0:0:
466,237,111490,2,0,B|354:173|296:79|296:79|281:116,1,270,8|0,0:0|0:0,0:0:0:0:
319,49,111740,2,0,B|374:200|276:268|276:268|239:254,1,270,0|0,1:0|0:0,0:0:0:0:
220,151,111990,6,0,L|230:96,4,45,0|0|0|0|0,1:0|1:0|1:0|1:0|1:0,1:0:0:0:
154,31,112240,1,0,0:0:0:0:
77,131,112365,1,0,0:0:0:0:
77,163,112427,1,0,0:0:0:0:
82,192,112490,1,0,0:0:0:0:
82,212,112552,1,0,0:0:0:0:
86,241,112615,1,0,0:0:0:0:
236,139,112740,6,2,P|277:137|316:126,1,78.7500007510185,2|2,0:1|0:1,0:1:0:0:
238,171,112802,2,2,P|187:163|166:134,1,78.7500007510185,2|2,0:1|0:1,0:1:0:0:
253,205,112865,2,2,P|294:189|323:164,1,78.7500007510185,2|2,0:1|0:1,0:1:0:0:
274,223,112927,2,2,P|238:241|190:248,1,78.7500007510185,2|2,0:1|0:1,0:1:0:0:
302,235,112990,6,0,B|416:254|470:182|431:97|431:97|403:108,1,270,0|0,1:0|0:0,0:0:0:0:
393,133,113240,2,0,B|380:354|380:354|352:315,1,270,8|0,0:0|0:0,0:0:0:0:
321,326,113490,2,0,B|207:294|107:337|107:337|137:363|163:355,1,270,0|0,1:0|0:0,0:0:0:0:
160,308,113740,2,0,B|61:203|107:103|107:103|120:133|138:156,1,270,8|0,0:0|0:0,0:0:0:0:
157,147,113990,6,0,P|241:143|276:59,1,180,0|0,1:0|0:0,0:0:0:0:
275,52,114177,1,0,0:0:0:0:
266,38,114240,1,8,0:0:0:0:
286,228,114365,1,0,1:0:0:0:
433,22,114490,2,0,B|426:87|426:87|436:107|436:107|405:215|406:303,1,270,0|0,1:0|0:0,0:0:0:0:
428,316,114740,2,0,P|401:220|283:283,1,270,8|0,0:0|0:0,0:0:0:0:
254,318,114990,6,0,B|255:267|238:223|238:223|299:172|332:75,1,270,0|0,1:0|0:0,0:0:0:0:
344,102,115240,2,0,B|269:113|201:103|201:103|111:106|51:134,1,270,8|0,0:0|0:0,0:0:0:0:
53,107,115490,2,0,B|80:209|47:328|47:328|71:375,1,270,0|0,1:0|0:0,0:0:0:0:
96,373,115740,5,8,0:0:0:0:
174,192,115865,1,0,0:0:0:0:
178,213,115927,1,0,0:0:0:0:
186,243,115990,6,0,B|200:317|200:317|217:297,1,90,0|0,1:0|0:0,0:0:0:0:
266,136,116240,6,0,B|261:246|261:246|284:218,1,135.000005149842,0|0,1:0|0:0,0:0:0:0:
375,36,116490,6,0,B|342:178|342:178|379:146,1,180,0|0,1:0|0:0,0:0:0:0:
479,98,116740,6,0,L|473:151,1,45
458,144,116802,2,0,L|447:194,1,45
462,178,116865,2,0,L|456:235,1,45
438,212,116927,2,0,L|421:258,1,45
441,248,116990,6,0,B|409:309|404:380|404:380|337:325|243:342,1,270,0|0,1:0|0:0,0:0:0:0:
270,295,117240,2,0,B|214:281|147:336|147:336|142:265|110:204,1,270,8|0,0:0|0:0,0:0:0:0:
86,180,117490,2,0,B|176:118|321:148|321:148|289:174,1,270,0|0,1:0|0:0,0:0:0:0:
271,155,117740,2,0,B|136:167|89:32|89:32|119:33,1,270,8|0,0:0|0:0,0:0:0:0:
148,49,117990,6,0,B|265:-20|321:112|416:45,1,270,0|0,1:0|0:0,0:0:0:0:
421,26,118240,1,8,0:0:0:0:
445,148,118365,1,0,1:0:0:0:
445,148,118427,1,0,1:0:0:0:
445,148,118490,2,0,B|500:243|481:304|481:304|418:292|384:252,1,270,0|0,1:0|0:0,0:0:0:0:
361,231,118740,2,0,B|276:137|392:63|312:4|255:42|284:92,1,270,8|0,0:0|0:0,0:0:0:0:
286,123,118990,6,0,P|193:165|33:118,1,270,0|0,1:0|0:0,0:0:0:0:
55,103,119240,2,0,P|175:156|260:271,1,270,8|0,0:0|0:0,0:0:0:0:
294,288,119490,2,0,B|157:331|54:301|54:301|88:284,1,270,0|0,1:0|0:0,0:0:0:0:
108,300,119740,2,0,P|202:368|380:352,1,270,8|0,0:0|0:0,0:0:0:0:
377,337,119990,5,0,1:0:0:0:
256,227,120115,1,0,1:0:0:0:
282,238,120177,1,0,1:0:0:0:
311,248,120240,1,0,1:0:0:0:
331,147,120365,1,0,1:0:0:0:
362,165,120427,1,0,1:0:0:0:
396,187,120490,1,0,1:0:0:0:
298,42,120615,1,0,1:0:0:0:
344,37,120677,1,0,1:0:0:0:
372,24,120740,6,0,P|419:38|435:37,1,45
343,15,120802,2,0,L|401:5,1,45
301,17,120865,2,0,L|355:33,1,45
268,24,120927,2,0,L|313:6,1,45
236,15,120990,6,0,B|157:33|78:-2|78:-2|119:52|111:108,1,270,0|0,1:0|0:0,0:0:0:0:
88,106,121240,2,0,B|24:210|101:292|101:292|148:254|150:222,1,270,8|0,0:0|0:0,0:0:0:0:
155,201,121490,1,0,1:0:0:0:
250,325,121615,1,0,1:0:0:0:
265,347,121677,1,0,1:0:0:0:
271,376,121740,2,0,P|265:407|228:385,1,90,0|0,1:0|0:0,0:0:0:0:
308,207,121865,2,0,P|326:166|321:122,1,90
356,304,121990,6,0,P|455:354|463:218,1,270,0|0,1:0|0:0,0:0:0:0:
463,217,122240,2,0,B|424:118|435:23|435:23|374:82,1,270,8|0,0:0|0:0,0:0:0:0:
307,160,122490,1,0,1:0:0:0:
288,182,122552,1,0,1:0:0:0:
265,209,122615,1,0,1:0:0:0:
296,14,122740,1,8,0:0:0:0:
195,103,122865,1,0,1:0:0:0:
176,132,122927,1,0,1:0:0:0:
166,158,122990,6,0,P|145:249|157:340,1,180,0|0,1:0|0:0,0:0:0:0:
27,103,123240,2,0,P|46:206|113:268,1,180,0|0,1:0|0:0,0:0:0:0:
368,99,123490,2,0,P|286:37|201:32,1,180,0|0,1:0|0:0,0:0:0:0:
488,135,123740,2,0,P|382:130|302:174,1,180,0|0,1:0|0:0,0:0:0:0:
258,288,123990,6,0,B|322:167|230:103|230:103|190:129|195:183,1,270,8|0,0:0|0:0,0:0:0:0:
238,251,124490,6,0,L|280:259,1,22.5
256,239,124552,2,0,L|287:245,1,22.5
282,251,124615,2,0,L|311:249,1,22.5
303,262,124677,2,0,L|332:259,1,22.5
328,254,124740,2,0,L|352:262,1,22.5
352,271,124802,2,0,L|389:270,1,22.5
375,292,124865,2,0,L|396:309,1,22.5
406,294,124927,2,0,L|431:289,1,22.5
436,303,124990,1,4,0:0:0:0:
369,337,127990,5,4,0:0:0:0:
369,337,128240,1,0,0:0:0:0:
369,337,128489,1,0,0:0:0:0:
351,353,128656,5,0,0:0:0:0:
244,327,128739,1,0,0:0:0:0:
371,246,128906,5,0,0:0:0:0:
219,298,128990,1,0,0:0:0:0:
219,298,129239,1,0,0:0:0:0:
219,298,129489,1,0,0:0:0:0:
184,191,129656,5,0,0:0:0:0:
202,318,129739,2,0,L|199:350,2,30
250,252,129906,1,0,0:0:0:0:
292,343,129989,6,0,P|351:362|396:320,1,120
380,163,130239,2,0,P|448:166|470:226,1,120
289,222,130489,2,0,P|256:169|268:112,1,120
208,187,130739,2,0,P|164:228|103:212,1,120
72,102,130989,5,0,0:0:0:0:
72,102,131073,2,0,L|85:31,1,60
31,94,131240,2,0,L|42:228,1,120
76,324,131490,2,0,L|55:384,1,60
179,174,131656,1,0,0:0:0:0:
179,174,131740,2,0,P|179:254|235:303,1,120
325,319,131990,6,0,L|330:355,2,30
340,261,132156,1,0,0:0:0:0:
414,337,132240,2,0,B|433:353|433:353|471:296|428:228,1,120
413,171,132490,2,0,P|408:127|412:105,1,60
282,12,132656,1,0,0:0:0:0:
287,193,132740,2,0,P|292:275|277:330,1,120
173,182,132990,5,0,0:0:0:0:
162,152,133073,1,0,0:0:0:0:
164,108,133156,1,0,0:0:0:0:
163,209,133240,1,0,0:0:0:0:
138,234,133323,1,0,0:0:0:0:
100,245,133406,1,0,0:0:0:0:
197,204,133490,2,0,P|255:203|288:255,1,120
476,273,133740,2,0,P|464:175|422:178,1,120
349,124,133990,5,0,0:0:0:0:
330,101,134073,1,0,0:0:0:0:
318,70,134156,1,0,0:0:0:0:
322,25,134240,2,0,L|273:142,1,120
192,274,134490,2,0,L|176:144,1,120
51,50,134740,1,0,0:0:0:0:
52,82,134823,1,0,0:0:0:0:
51,122,134906,1,0,0:0:0:0:
51,151,134990,6,0,L|55:224,1,60
66,339,135156,1,0,0:0:0:0:
169,206,135240,1,0,0:0:0:0:
171,242,135323,1,0,0:0:0:0:
181,274,135406,1,0,0:0:0:0:
202,303,135490,2,0,P|272:307|310:350,1,120
185,114,135740,2,0,P|146:53|157:7,1,120
326,19,135990,6,0,L|361:12,2,30
223,47,136156,1,0,0:0:0:0:
315,47,136240,2,0,L|443:52,1,120
309,132,136490,2,0,L|242:143,1,60
413,149,136656,1,0,0:0:0:0:
296,161,136740,2,0,P|234:175|208:227,1,120
283,289,136990,5,0,0:0:0:0:
310,299,137073,1,0,0:0:0:0:
345,304,137156,1,0,0:0:0:0:
382,303,137240,2,0,L|256:328,1,120
29,177,137490,2,0,L|137:243,1,120
275,178,137740,2,0,L|260:39,1,120
391,121,137990,6,0,L|381:191,1,60
378,34,138156,1,0,0:0:0:0:
401,198,138240,2,0,P|382:258|329:283,1,120
237,213,138490,2,0,P|196:222|171:235,1,60
280,141,138656,1,0,0:0:0:0:
206,186,138740,2,0,P|141:196|82:189,1,120
23,302,138990,6,0,P|63:355|125:362,1,120
231,308,139240,1,0,0:0:0:0:
268,299,139323,1,0,0:0:0:0:
310,313,139406,1,0,0:0:0:0:
195,298,139490,1,0,0:0:0:0:
168,270,139573,1,0,0:0:0:0:
159,227,139656,1,0,0:0:0:0:
376,150,139740,2,0,P|380:197|323:234,1,120
215,136,139990,6,0,L|212:69,1,60
286,0,140156,1,0,0:0:0:0:
251,122,140240,2,0,L|230:245,1,120
385,165,140490,2,0,P|393:128|396:91,1,60
446,7,140656,1,0,0:0:0:0:
362,155,140740,2,0,P|379:226|395:276,1,120
467,365,140990,5,0,0:0:0:0:
430,344,141073,1,0,0:0:0:0:
389,340,141156,1,0,0:0:0:0:
368,355,141240,1,0,0:0:0:0:
342,370,141323,1,0,0:0:0:0:
306,366,141406,1,0,0:0:0:0:
272,363,141490,1,0,0:0:0:0:
241,336,141573,1,0,0:0:0:0:
211,316,141656,1,0,0:0:0:0:
174,321,141740,2,0,P|121:329|48:330,1,120
27,202,141990,6,0,P|95:226|162:225,1,120
301,102,142240,2,0,P|302:34|243:47,1,120
238,237,142490,2,0,P|301:282|352:299,1,120
181,84,142740,1,0,0:0:0:0:
151,57,142823,1,0,0:0:0:0:
114,42,142906,1,0,0:0:0:0:
74,38,142990,6,0,P|12:66|24:150,1,120
305,179,143240,1,0,0:0:0:0:
344,166,143323,1,0,0:0:0:0:
377,141,143406,1,0,0:0:0:0:
391,103,143490,2,0,P|365:57|281:86,1,120
196,207,143740,2,0,L|212:332,1,120
92,304,143990,6,0,L|85:336,4,30
58,347,144240,2,0,L|69:219,1,120
192,241,144490,2,0,L|182:170,1,60
198,80,144656,1,0,0:0:0:0:
211,274,144740,2,0,L|234:152,1,120
321,32,144990,5,0,0:0:0:0:
329,64,145073,1,0,0:0:0:0:
330,101,145156,1,0,0:0:0:0:
324,142,145240,1,0,0:0:0:0:
325,175,145323,1,0,0:0:0:0:
332,211,145406,1,0,0:0:0:0:
359,241,145490,2,0,P|428:257|478:216,1,120
179,147,145740,2,0,P|107:170|93:233,1,120
133,356,145990,5,0,0:0:0:0:
133,356,146240,1,0,0:0:0:0:
133,356,146490,2,0,L|224:367,1,90.0000034332277
246,353,146740,1,0,0:0:0:0:
221,264,146990,5,0,0:0:0:0:
221,264,147240,1,0,0:0:0:0:
221,264,147490,2,0,L|313:287,1,90.0000034332277
312,304,147740,1,0,0:0:0:0:
306,218,147990,6,0,P|290:165|290:126,1,90.0000034332277,0|0,0:0|1:0,0:0:0:0:
305,108,148240,1,0,1:0:0:0:
266,229,148490,2,0,P|200:241|150:237,1,90.0000034332277,0|0,0:0|1:0,0:0:0:0:
160,232,148740,1,0,1:0:0:0:
107,148,148906,5,0,0:0:0:0:
98,137,148990,2,0,L|105:84,2,45.0000017166138,0|0|0,1:0|1:0|1:0,1:0:0:0:
77,146,149240,2,0,L|61:237,1,90.0000034332277,0|0,1:0|0:0,0:0:0:0:
155,313,149490,2,0,L|147:215,1,90.0000034332277,0|0,1:0|0:0,0:0:0:0:
208,165,149740,2,0,L|302:182,1,90.0000034332277,0|0,1:0|0:0,0:0:0:0:
391,204,149990,5,0,0:0:0:0:
397,186,150073,1,0,0:0:0:0:
406,210,150156,1,0,0:0:0:0:
416,181,150240,2,0,P|399:115|430:73,1,120,8|0,0:0|0:0,0:0:0:0:
493,322,150490,2,0,P|439:367|374:347,1,120,8|0,0:0|0:0,0:0:0:0:
297,279,150740,1,8,0:0:0:0:
269,280,150823,1,0,0:0:0:0:
249,298,150906,1,0,0:0:0:0:
227,323,150990,2,0,L|103:319,1,120,8|0,0:0|0:0,0:0:0:0:
26,194,151240,5,8,0:0:0:0:
44,201,151323,1,0,0:0:0:0:
75,201,151406,1,0,0:0:0:0:
109,192,151490,2,0,P|132:132|104:80,1,120,8|0,0:0|0:0,0:0:0:0:
231,215,151740,2,0,P|269:267|335:277,1,120,8|0,0:0|0:0,0:0:0:0:
397,208,151990,6,0,L|401:174,4,30,8|0|0|0|0,0:0|0:0|0:0|0:0|0:0,0:0:0:0:
411,229,152240,2,0,L|404:103,1,120,8|0,0:0|0:0,0:0:0:0:
288,131,152490,1,8,0:0:0:0:
283,99,152573,1,0,0:0:0:0:
279,72,152656,1,0,0:0:0:0:
273,48,152740,2,0,L|269:17,4,30,8|0|0|0|0,0:0|0:0|0:0|0:0|0:0,0:0:0:0:
153,25,152990,6,0,B|215:107|210:196|127:245|127:245|51:201|54:132|81:105|81:105|95:109|103:118,1,450,4|0,0:0|0:0,0:0:0:0:
65,243,153740,6,0,P|72:334|154:359,1,180
267,307,153990,6,0,B|333:318|333:318|392:357,1,135.000005149842,0|0,1:0|0:0,0:0:0:0:
306,222,154240,2,0,L|240:239,1,67.5000025749208,8|0,0:0|0:0,0:0:0:0:
341,186,154365,1,0,0:0:0:0:
341,186,154427,2,0,L|410:194,1,67.5000025749208,0|0,0:0|1:0,0:0:0:0:
301,113,154552,1,0,0:0:0:0:
301,113,154615,2,0,L|237:87,1,67.5000025749208
313,22,154740,2,0,L|432:100,1,135.000005149842,8|0,0:0|0:0,0:0:0:0:
200,160,154990,6,0,B|178:127|147:111|147:111|152:40,1,135.000005149842,0|0,1:0|0:0,0:0:0:0:
374,169,155240,2,0,B|378:230|378:230|347:246|325:279,1,135.000005149842,8|0,0:0|0:0,0:0:0:0:
288,188,155490,1,0,1:0:0:0:
288,188,155552,1,0,0:0:0:0:
288,188,155615,1,0,0:0:0:0:
262,336,155740,2,0,P|194:371|155:331,1,135.000005149842,8|0,0:0|0:0,0:0:0:0:
79,217,155990,6,0,B|53:152|114:140|100:84,1,135.000005149842,0|0,1:0|0:0,0:0:0:0:
160,187,156240,2,0,P|163:229|161:258,1,67.5000025749208,8|0,0:0|0:0,0:0:0:0:
216,128,156365,1,0,0:0:0:0:
216,128,156427,2,0,P|194:91|188:62,1,67.5000025749208,0|0,0:0|1:0,0:0:0:0:
277,170,156552,1,0,0:0:0:0:
277,170,156615,2,0,P|284:219|275:244,1,67.5000025749208
331,104,156740,1,8,0:0:0:0:
375,254,156865,1,0,0:0:0:0:
455,104,156990,6,0,B|420:46|420:46|367:5,1,135.000005149842,0|0,1:0|0:0,0:0:0:0:
385,358,157240,2,0,B|438:317|438:317|473:259,1,135.000005149842,8|0,0:0|0:0,0:0:0:0:
331,104,157490,2,0,L|192:121,1,135.000005149842,0|0,1:0|0:0,0:0:0:0:
60,127,157740,1,8,0:0:0:0:
190,23,157865,1,0,1:0:0:0:
145,202,157990,6,0,P|133:271|171:324,1,135.000005149842,0|0,1:0|1:0,0:0:0:0:
287,297,158240,2,0,L|356:311,1,67.5000025749208,0|0,1:0|0:0,0:0:0:0:
316,228,158365,1,0,0:0:0:0:
316,228,158427,2,0,L|247:249,1,67.5000025749208,0|0,0:0|1:0,0:0:0:0:
281,158,158552,1,0,0:0:0:0:
281,158,158615,2,0,L|347:187,1,67.5000025749208
354,83,158740,2,0,L|392:219,1,135.000005149842,0|0,1:0|0:0,0:0:0:0:
424,26,158990,6,0,P|354:-5|290:20,1,135.000005149842,0|0,1:0|0:0,0:0:0:0:
282,34,159177,1,0,0:0:0:0:
254,51,159240,2,0,B|184:76|152:31|101:68,1,135.000005149842,8|0,0:0|0:0,0:0:0:0:
228,211,159490,1,0,1:0:0:0:
240,181,159552,1,0,1:0:0:0:
238,150,159615,1,0,1:0:0:0:
55,172,159740,2,0,B|72:222|69:276|69:276|86:308,1,135.000005149842,12|0,0:0|0:0,0:0:0:0:
246,356,159990,6,0,P|253:280|272:224,1,135.000005149842,0|0,1:0|0:0,0:0:0:0:
390,178,160240,2,0,L|456:192,1,67.5000025749208,8|0,0:0|0:0,0:0:0:0:
321,124,160365,1,0,0:0:0:0:
321,124,160427,2,0,L|390:114,1,67.5000025749208,0|0,0:0|1:0,0:0:0:0:
243,160,160552,1,0,0:0:0:0:
243,160,160615,2,0,L|321:173,1,67.5000025749208
157,121,160740,2,0,P|239:113|295:91,1,135.000005149842,8|0,0:0|0:0,0:0:0:0:
45,148,160990,6,0,P|7:214|25:270,1,135.000005149842,0|0,1:0|0:0,0:0:0:0:
152,203,161240,2,0,P|148:164|138:132,1,67.5000025749208,8|0,0:0|0:0,0:0:0:0:
189,264,161365,1,0,0:0:0:0:
189,264,161427,2,0,P|201:217|198:185,1,67.5000025749208,0|0,0:0|1:0,0:0:0:0:
247,304,161552,1,0,0:0:0:0:
247,304,161615,2,0,P|244:249|232:230,1,67.5000025749208
319,308,161740,2,0,P|301:268|284:248,1,67.5000025749208,8|0,0:0|0:0,0:0:0:0:
318,90,161865,2,0,P|329:131|328:163,1,67.5000025749208,0|0,1:0|0:0,0:0:0:0:
427,286,161990,6,0,B|389:229|389:229|410:195|419:157,1,135.000005149842,0|0,1:0|0:0,0:0:0:0:
498,351,162240,1,8,0:0:0:0:
314,323,162365,1,0,0:0:0:0:
314,323,162427,2,0,P|298:358|292:387,1,67.5000025749208,0|0,0:0|1:0,0:0:0:0:
241,215,162552,1,0,0:0:0:0:
241,215,162615,2,0,P|234:260|234:297,1,67.5000025749208
148,251,162740,2,0,P|152:324|181:381,1,135.000005149842,8|0,0:0|0:0,0:0:0:0:
152,143,162990,6,0,P|89:97|25:137,1,135.000005149842,0|0,0:0|0:0,1:0:0:0:
273,347,163240,2,0,P|335:362|383:318,1,135.000005149842,8|0,0:0|0:0,0:0:0:0:
336,99,163490,2,0,L|340:63,4,33.7500012874604,0|0|0|0|0,1:0|1:0|1:0|1:0|1:0,1:0:0:0:
310,29,163740,2,0,L|308:171,1,135.000005149842,10|0,0:0|0:0,0:0:0:0:
179,125,163990,6,0,P|168:32|154:-7,1,135.000005149842,0|0,0:0|0:0,1:0:0:0:
107,182,164240,2,0,L|100:253,1,67.5000025749208,0|0,1:0|0:0,0:0:0:0:
179,199,164365,1,0,0:0:0:0:
179,199,164427,2,0,L|174:122,1,67.5000025749208,0|0,0:0|1:0,0:0:0:0:
235,181,164552,1,0,0:0:0:0:
235,181,164615,2,0,L|225:251,1,67.5000025749208
292,194,164740,2,0,L|287:150,4,33.7500012874604,0|0|0|0|0,1:0|1:0|1:0|1:0|1:0,1:0:0:0:
352,283,164990,6,0,B|379:304|395:333|395:333|436:335|466:353,1,135.000005149842,0|0,1:0|0:0,0:0:0:0:
108,195,165240,2,0,P|67:115|106:53,1,135.000005149842,10|2,0:0|0:0,0:0:0:0:
229,267,165490,2,0,P|240:331|201:384,1,135.000005149842,0|0,1:0|0:0,0:0:0:0:
269,99,165740,1,0,1:0:0:0:
303,79,165802,1,0,1:0:0:0:
350,82,165865,1,0,1:0:0:0:
392,109,165927,1,0,1:0:0:0:
406,158,165990,6,0,B|426:210|349:237|390:311,1,135.000005149842,0|0,1:0|0:0,0:0:0:0:
326,166,166240,2,0,P|284:177|246:182,1,67.5000025749208,8|0,0:0|0:0,0:0:0:0:
124,134,166365,1,0,0:0:0:0:
124,134,166427,2,0,L|198:143,1,67.5000025749208,0|0,0:0|1:0,0:0:0:0:
126,214,166552,1,0,0:0:0:0:
126,214,166615,2,0,L|201:190,1,67.5000025749208
99,286,166740,2,0,P|181:265|242:302,1,135.000005149842,8|0,0:0|0:0,0:0:0:0:
27,205,166990,6,0,L|2:66,1,135.000005149842,0|0,1:0|0:0,0:0:0:0:
245,145,167240,2,0,L|203:277,1,135.000005149842,8|0,0:0|0:0,0:0:0:0:
427,144,167490,2,0,B|459:85|459:85|512:37,1,135.000005149842,0|0,1:0|0:0,0:0:0:0:
353,337,167740,2,0,P|297:376|229:359,1,135.000005149842,12|0,0:0|0:0,0:0:0:0:
339,229,167990,6,0,L|481:274,1,135.000005149842,0|0,1:0|0:0,0:0:0:0:
354,135,168240,2,0,L|418:111,1,67.5000025749208,4|0,0:0|0:0,0:0:0:0:
306,116,168365,1,0,0:0:0:0:
306,116,168427,2,0,L|357:73,1,67.5000025749208,0|0,0:0|1:0,0:0:0:0:
256,125,168552,1,0,0:0:0:0:
256,125,168615,2,0,L|281:58,1,67.5000025749208
186,52,168740,2,0,L|196:125,1,67.5000025749208,8|0,0:0|0:0,0:0:0:0:
207,275,168865,2,0,L|220:200,1,67.5000025749208
275,33,168990,6,0,L|297:171,1,135.000005149842,8|0,0:0|0:0,0:0:0:0:
376,89,169240,2,0,L|332:225,1,135.000005149842,0|0,0:0|1:0,0:0:0:0:
351,250,169427,2,0,B|509:271|509:271|473:293,1,202.500007724762
254,331,169740,2,0,L|258:368,6,33.7500012874604
249,318,169990,6,0,P|182:345|124:330,1,107.999996704102,0|0,1:0|0:0,0:0:0:0:
46,296,170240,2,0,P|24:236|55:187,1,107.999996704102,0|0,1:0|0:0,0:0:0:0:
207,143,170490,2,0,P|164:200|126:205,1,107.999996704102,0|0,1:0|0:0,0:0:0:0:
102,46,170740,2,0,P|176:38|214:65,1,107.999996704102,0|0,1:0|0:0,0:0:0:0:
332,93,170990,6,0,P|418:66|467:46,1,107.999996704102,0|0,1:0|0:0,0:0:0:0:
307,151,171240,2,0,P|362:175|440:199,1,107.999996704102,0|0,1:0|0:0,0:0:0:0:
285,254,171490,2,0,P|317:315|345:358,1,107.999996704102,0|0,1:0|0:0,0:0:0:0:
160,243,171740,2,0,P|152:308|141:358,1,107.999996704102,0|0,1:0|0:0,0:0:0:0:
142,88,171990,6,0,B|112:59|104:45|104:45|75:47|42:44,1,107.999996704102,0|0,1:0|0:0,0:0:0:0:
272,264,172240,2,0,B|323:247|323:247|356:202,1,107.999996704102,0|0,1:0|0:0,0:0:0:0:
91,231,172490,2,0,L|51:345,1,107.999996704102,0|0,1:0|0:0,0:0:0:0:
266,166,172740,2,0,L|249:50,1,107.999996704102,0|2,1:0|0:0,0:0:0:0:
267,24,172927,1,0,0:0:0:0:
288,55,172990,6,0,P|290:89|296:117,1,53.9999983520508,2|0,0:0|0:0,0:0:0:0:
377,24,173115,2,0,L|371:93,1,53.9999983520508,2|0,0:0|0:0,0:0:0:0:
461,68,173240,2,0,P|404:128|427:188,1,107.999996704102,0|0,1:0|0:0,0:0:0:0:
476,359,173490,2,0,P|464:307|419:279,1,107.999996704102,0|0,1:0|0:0,0:0:0:0:
295,234,173740,2,0,L|237:243,1,53.9999983520508,0|0,1:0|0:0,0:0:0:0:
408,253,173865,2,0,L|466:257,1,53.9999983520508,0|0,1:0|0:0,0:0:0:0:
204,238,173990,6,0,L|141:268,1,53.9999983520508,0|0,1:0|0:0,0:0:0:0:
340,339,174115,2,0,L|389:370,1,53.9999983520508,0|0,1:0|0:0,0:0:0:0:
302,141,174240,2,0,P|307:60|300:25,1,107.999996704102,0|0,1:0|0:0,0:0:0:0:
125,128,174490,1,0,1:0:0:0:
138,159,174552,1,2,0:3:0:0:
156,183,174615,1,0,1:0:0:0:
411,71,174740,1,0,1:0:0:0:
370,233,174865,1,0,0:0:0:0:
386,83,174990,6,0,L|380:21,1,53.9999983520508,0|0,1:0|0:0,0:0:0:0:
326,277,175115,2,0,L|339:337,1,53.9999983520508
232,62,175240,2,0,P|181:38|149:108,1,107.999996704102,0|0,1:0|0:0,0:0:0:0:
406,215,175490,2,0,P|449:270|444:323,1,107.999996704102,0|0,1:0|0:0,0:0:0:0:
121,345,175740,2,0,P|118:270|152:237,1,107.999996704102,0|0,1:0|0:0,0:0:0:0:
333,348,175990,6,0,B|290:375|243:360|243:360|248:332,1,107.999996704102,0|0,1:0|0:0,0:0:0:0:
366,126,176240,2,0,B|409:99|456:114|456:114|453:127,1,107.999996704102,0|0,1:0|0:0,0:0:0:0:
287,258,176490,1,0,1:0:0:0:
239,132,176615,1,0,0:0:0:0:
241,117,176677,1,0,0:0:0:0:
242,97,176740,2,0,P|235:31|189:17,1,107.999996704102,0|0,1:0|0:0,0:0:0:0:
51,113,176990,6,0,P|59:206|64:233,1,107.999996704102,0|0,1:0|0:0,0:0:0:0:
160,373,177240,2,0,P|173:298|174:256,1,107.999996704102,0|0,1:0|0:0,0:0:0:0:
242,99,177490,2,0,P|279:171|304:199,1,107.999996704102,0|0,1:0|0:0,0:0:0:0:
496,146,177740,1,2,0:3:0:0:
490,117,177802,1,2,0:3:0:0:
456,97,177865,1,2,0:3:0:0:
408,107,177927,1,2,0:3:0:0:
386,153,177990,6,0,P|388:192|393:215,1,53.9999983520508,0|0,1:0|0:0,0:0:0:0:
347,373,178115,2,0,L|359:316,1,53.9999983520508,0|0,1:0|0:0,0:0:0:0:
292,61,178240,2,0,L|276:200,1,107.999996704102,0|0,1:0|0:0,0:0:0:0:
226,353,178490,2,0,B|176:372|176:372|122:377,1,107.999996704102,0|0,1:0|0:0,0:0:0:0:
74,222,178740,1,0,1:0:0:0:
95,226,178802,1,0,1:0:0:0:
119,232,178865,1,0,1:0:0:0:
136,233,178927,1,0,1:0:0:0:
158,237,178990,6,0,L|217:247,2,53.9999983520508,0|0|0,1:0|0:0|0:0,0:0:0:0:
16,137,179240,2,0,B|-14:79|16:47|16:47|46:54,1,107.999996704102,4|0,0:0|0:0,0:0:0:0:
167,70,179490,2,0,L|193:57,4,26.9999991760254,0|0|0|0|0,1:0|0:0|0:0|0:0|0:0,0:0:0:0:
124,191,179740,1,0,0:0:0:0:
107,220,179802,1,0,0:0:0:0:
106,243,179865,1,0,0:0:0:0:
114,268,179927,1,0,0:0:0:0:
143,294,179990,6,0,L|197:335,1,53.9999983520508,0|0,1:0|0:0,0:0:0:0:
236,168,180115,2,0,L|280:128,1,53.9999983520508
302,298,180240,2,0,L|332:345,1,53.9999983520508,0|0,1:0|0:0,0:0:0:0:
351,146,180365,1,0,0:0:0:0:
393,288,180490,2,0,L|449:382,1,107.999996704102,0|0,1:0|0:0,0:0:0:0:
434,83,180740,2,0,B|384:51|384:51|324:37,1,107.999996704102,0|0,1:0|0:0,0:0:0:0:
246,120,180990,5,2,0:0:0:0:
243,142,181052,1,2,0:3:0:0:
246,161,181115,1,2,0:0:0:0:
156,51,181240,2,0,P|107:19|61:38,1,107.999996704102,0|0,1:0|0:0,0:0:0:0:
361,151,181490,2,0,P|426:163|491:156,1,107.999996704102,0|0,1:0|0:0,0:0:0:0:
129,142,181740,1,8,1:2:0:0:
371,59,181865,1,0,1:0:0:0:
145,175,181990,6,0,L|70:168,1,53.9999983520508,0|0,1:0|0:0,0:0:0:0:
312,202,182115,2,0,L|383:186,1,53.9999983520508,0|0,1:0|0:0,0:0:0:0:
166,264,182240,2,0,B|127:275|111:276|111:276|94:312|85:324,1,107.999996704102,0|0,1:0|0:0,0:0:0:0:
263,293,182490,1,0,1:0:0:0:
302,111,182615,5,0,0:0:0:0:
282,303,182740,1,0,1:0:0:0:
392,169,182865,1,0,0:0:0:0:
211,218,182990,5,0,1:0:0:0:
197,232,183052,1,0,0:0:0:0:
171,250,183115,2,0,P|106:244|80:232,1,53.9999983520508
41,173,183240,2,0,P|34:108|76:69,1,107.999996704102,0|0,1:0|0:0,0:0:0:0:
278,97,183490,2,0,B|302:145|302:145|299:207,1,107.999996704102,2|2,1:2|0:0,0:0:0:0:
399,305,183740,1,2,1:2:0:0:
400,282,183802,1,0,0:0:0:0:
402,258,183865,1,2,0:0:0:0:
406,234,183927,1,0,0:0:0:0:
414,208,183990,6,0,P|435:272|438:329,1,107.999996704102,2|0,1:2|0:0,0:0:0:0:
290,144,184240,1,0,1:0:0:0:
273,170,184302,1,0,0:0:0:0:
268,190,184365,2,0,P|245:264|242:312,1,107.999996704102,2|2,0:0|1:2,0:0:0:0:
220,60,184615,1,0,0:0:0:0:
135,133,184740,1,0,1:0:0:0:
144,154,184802,1,2,0:3:0:0:
146,183,184865,1,0,0:0:0:0:
138,217,184927,1,0,0:0:0:0:
122,246,184990,6,0,L|8:256,1,107.999996704102,0|0,1:0|0:0,0:0:0:0:
220,60,185240,2,0,L|341:87,1,107.999996704102,2|0,1:2|0:0,0:0:0:0:
446,132,185490,5,2,0:3:0:0:
452,154,185552,1,2,0:3:0:0:
450,173,185615,1,2,0:3:0:0:
437,196,185677,1,2,0:3:0:0:
417,216,185740,1,0,1:0:0:0:
406,244,185802,1,0,1:0:0:0:
403,280,185865,1,0,1:0:0:0:
405,314,185927,1,0,1:0:0:0:
414,355,185990,6,0,L|459:383,1,53.9999983520508,0|0,1:0|0:0,0:0:0:0:
361,148,186115,2,0,L|346:93,1,53.9999983520508
305,322,186240,2,0,B|307:338|307:338|258:357|221:314,1,107.999996704102,0|2,1:0|0:0,0:0:0:0:
211,294,186427,1,0,0:0:0:0:
191,267,186490,2,0,P|136:265|92:300,1,107.999996704102,2|2,1:2|0:0,0:0:0:0:
261,198,186740,2,0,P|284:146|263:91,1,107.999996704102
168,100,186990,5,0,1:0:0:0:
384,119,187115,1,0,0:0:0:0:
177,123,187240,2,0,B|116:112|116:112|58:116,1,107.999996704102,0|0,1:0|0:0,0:0:0:0:
291,245,187490,1,0,1:0:0:0:
313,237,187552,1,2,0:3:0:0:
339,221,187615,1,0,1:0:0:0:
118,261,187740,2,0,B|69:286|69:286|36:338,1,107.999996704102,2|2,1:2|0:0,0:0:0:0:
213,341,187990,6,0,L|207:373,4,26.9999991760254,0|0|0|0|0,1:0|1:0|1:0|1:0|1:0,1:0:0:0:
242,162,188240,1,0,1:0:0:0:
306,332,188365,1,0,0:0:0:0:
282,155,188490,2,0,P|318:116|396:114,1,107.999996704102,0|0,1:0|0:0,0:0:0:0:
161,246,188740,2,0,P|108:236|72:197,1,107.999996704102,0|2,1:0|0:0,0:0:0:0:
66,175,188927,1,0,0:0:0:0:
75,140,188990,6,0,L|83:86,2,53.9999983520508,2|0|2,1:2|0:0|0:0,0:0:0:0:
198,243,189240,2,0,L|184:356,1,107.999996704102,0|0,1:0|0:0,0:0:0:0:
337,161,189490,2,0,L|323:50,1,107.999996704102,0|0,1:0|0:0,0:0:0:0:
332,267,189740,1,0,1:0:0:0:
438,78,189865,1,0,1:0:0:0:
486,363,189990,5,4,1:2:0:0:
256,192,191990,12,4,193490,0:0:0:0:
264,57,193740,5,0,1:0:0:0:
297,67,193802,1,0,1:0:0:0:
331,80,193865,1,0,1:0:0:0:
366,90,193927,1,0,1:0:0:0:
400,101,193990,6,0,B|449:122|498:129|498:129|470:152,1,135.000005149842,0|0,1:0|0:0,0:0:0:0:
290,168,194240,2,0,L|211:183,1,67.5000025749208,4|0,0:0|0:0,0:0:0:0:
448,208,194365,2,0,L|511:165,1,67.5000025749208
247,235,194490,2,0,L|170:224,1,67.5000025749208
444,279,194615,2,0,B|457:280|479:263|479:263|505:310|492:378|395:367,1,202.500007724762
377,346,194865,2,0,L|308:360,1,67.5000025749208
233,346,194990,2,0,L|205:370,4,33.7500012874604,0|0|0|0|0,1:0|1:0|1:0|1:0|1:0,1:0:0:0:
203,260,195240,6,0,P|193:219|186:184,1,67.5000025749208,4|0,0:0|0:0,0:0:0:0:
265,18,195365,2,0,P|258:51|249:83,1,67.5000025749208
237,267,195490,2,0,P|261:222|267:185,1,67.5000025749208,0|0,1:0|0:0,0:0:0:0:
190,7,195615,2,0,P|191:41|199:74,1,67.5000025749208
129,208,195740,2,0,P|136:160|136:132,1,67.5000025749208,4|0,0:0|0:0,0:0:0:0:
297,89,195865,2,0,P|300:139|294:169,1,67.5000025749208
326,244,195990,6,0,B|364:268|380:310|380:310|413:283|451:276,1,135.000005149842,0|0,1:0|0:0,0:0:0:0:
406,182,196240,1,4,0:0:0:0:
401,172,196302,1,0,0:0:0:0:
399,159,196365,1,2,0:0:0:0:
279,345,196490,2,0,P|239:358|206:362,1,67.5000025749208,0|0,1:0|0:0,0:0:0:0:
55,304,196615,2,0,L|136:317,1,67.5000025749208
281,232,196740,1,4,0:0:0:0:
272,236,196802,1,0,0:0:0:0:
251,240,196865,2,0,L|178:249,1,67.5000025749208
97,187,196990,5,0,1:0:0:0:
172,68,197115,1,0,0:0:0:0:
228,186,197240,2,0,L|301:197,1,67.5000025749208,6|0,0:0|0:0,0:0:0:0:
392,114,197365,2,0,L|302:140,1,67.5000025749208,2|0,0:0|0:0,0:0:0:0:
170,165,197490,6,0,L|243:150,1,67.5000025749208,0|0,1:0|0:0,0:0:0:0:
444,163,197615,2,0,L|371:141,1,67.5000025749208
118,96,197740,2,0,L|182:132,1,67.5000025749208,0|0,1:0|1:0,0:0:0:0:
480,88,197865,2,0,L|403:118,1,67.5000025749208,2|0,0:3|0:0,0:0:0:0:
269,180,197990,5,0,1:0:0:0:
301,65,198115,1,0,1:0:0:0:
302,54,198177,1,0,0:0:0:0:
306,35,198240,2,0,P|267:14|238:12,1,67.5000025749208,2|0,1:2|0:0,0:0:0:0:
356,202,198365,2,0,P|408:196|427:183,1,67.5000025749208,2|0,0:0|0:0,0:0:0:0:
403,32,198490,2,0,P|458:40|486:55,1,67.5000025749208,2|0,1:2|0:0,0:0:0:0:
445,233,198615,2,0,P|481:244|514:244,1,67.5000025749208
363,113,198740,1,4,0:0:0:0:
333,288,198865,1,0,0:0:0:0:
332,299,198927,1,0,0:0:0:0:
328,314,198990,6,0,P|259:358|202:320,1,135.000005149842,2|2,1:2|0:0,0:0:0:0:
168,85,199240,2,0,P|199:73|234:77,1,67.5000025749208,4|0,0:0|0:0,0:0:0:0:
212,257,199365,2,0,P|160:263|136:248,1,67.5000025749208
192,90,199490,2,0,P|228:74|260:71,1,67.5000025749208,2|0,1:2|0:0,0:0:0:0:
207,280,199615,2,0,P|167:293|138:293,1,67.5000025749208
212,76,199740,2,0,P|264:92|284:114,1,67.5000025749208,4|0,0:0|0:0,0:0:0:0:
246,292,199865,2,0,P|208:302|177:301,1,67.5000025749208
103,135,199990,6,0,L|86:2,1,135.000005149842,0|0,1:0|1:0,0:0:0:0:
63,258,200240,1,0,1:0:0:0:
63,258,200302,1,0,1:0:0:0:
63,258,200365,2,0,P|82:331|38:372,1,135.000005149842,2|0,0:0|0:0,0:0:0:0:
201,190,200615,2,0,P|191:231|193:259,1,67.5000025749208,0|0,1:0|0:0,0:0:0:0:
233,339,200740,1,0,1:0:0:0:
243,343,200802,1,0,1:0:0:0:
253,343,200865,1,2,0:3:0:0:
264,344,200927,1,2,0:3:0:0:
276,343,200990,6,0,B|348:367|372:308|372:308|353:301,1,135.000005149842,4|0,1:2|0:0,0:0:0:0:
97,231,201240,1,4,1:2:0:0:
370,182,201365,2,0,B|442:158|466:217|466:217|447:224,1,135.000005149842,4|0,0:0|1:0,0:0:0:0:
231,163,201615,1,0,0:0:0:0:
348,75,201740,1,2,0:3:0:0:
367,65,201802,1,2,0:3:0:0:
395,62,201865,1,2,0:3:0:0:
430,69,201927,1,2,0:3:0:0:
448,85,201990,6,0,B|468:154|468:154|463:235,1,135.000005149842,0|0,1:0|0:0,0:0:0:0:
411,371,202240,2,0,L|402:298,1,67.5000025749208,4|0,0:0|0:0,0:0:0:0:
337,202,202365,2,0,L|322:270,1,67.5000025749208,2|2,0:0|0:0,0:0:0:0:
284,345,202490,2,0,L|291:255,1,67.5000025749208,0|0,1:0|1:0,0:0:0:0:
241,217,202615,2,0,L|253:288,1,67.5000025749208,2|0,0:3|0:0,0:0:0:0:
200,369,202740,1,4,0:0:0:0:
162,192,202865,1,0,0:0:0:0:
161,176,202927,1,0,0:0:0:0:
160,163,202990,6,0,L|159:122,4,33.7500012874604,0|0|0|0|0,1:0|0:0|0:0|0:0|0:0,0:0:0:0:
54,170,203240,2,0,P|50:125|51:96,1,67.5000025749208,4|0,0:0|0:0,0:0:0:0:
261,161,203365,2,0,P|262:107|261:93,1,67.5000025749208
29,196,203490,2,0,P|11:144|11:123,1,67.5000025749208,0|0,1:0|1:0,0:0:0:0:
283,189,203615,2,0,P|296:140|301:114,1,67.5000025749208
19,123,203740,2,0,P|24:70|29:47,1,67.5000025749208,4|0,0:0|0:0,0:0:0:0:
338,88,203865,2,0,P|331:39|324:16,1,67.5000025749208
65,26,203990,6,0,P|46:104|108:165,1,135.000005149842,0|0,1:0|0:0,0:0:0:0:
199,80,204240,2,0,P|206:38|208:9,1,67.5000025749208,4|0,0:0|0:0,0:0:0:0:
232,197,204365,2,0,P|224:245|226:276,1,67.5000025749208,2|0,0:0|0:0,0:0:0:0:
299,87,204490,2,0,P|293:37|291:10,1,67.5000025749208,2|0,1:2|0:0,0:0:0:0:
280,208,204615,2,0,B|284:292|271:353|271:353|317:325|356:322,1,202.500007724762
359,260,204865,2,0,L|366:185,1,67.5000025749208
390,42,204990,5,2,0:3:0:0:
390,42,205052,1,2,0:3:0:0:
390,42,205115,1,2,0:3:0:0:
463,181,205240,2,0,L|481:253,1,67.5000025749208,4|0,0:0|0:0,0:0:0:0:
383,165,205365,2,0,L|376:237,1,67.5000025749208
291,197,205490,2,0,L|302:284,1,67.5000025749208,0|0,1:0|0:0,0:0:0:0:
212,7,205615,2,0,L|198:82,1,67.5000025749208
173,280,205740,2,0,L|195:347,1,67.5000025749208,4|0,0:0|0:0,0:0:0:0:
75,57,205865,2,0,L|39:115,1,67.5000025749208
65,284,205990,5,0,1:0:0:0:
133,125,206115,1,0,1:0:0:0:
203,288,206240,2,0,P|203:333|200:360,1,67.5000025749208,4|0,0:0|0:0,0:0:0:0:
229,180,206365,2,0,P|235:228|241:256,1,67.5000025749208
329,283,206490,1,0,1:0:0:0:
329,283,206552,1,0,0:0:0:0:
329,283,206615,2,0,P|324:323|309:358,1,67.5000025749208
295,102,206740,2,0,P|300:62|306:33,1,67.5000025749208,4|0,0:0|0:0,0:0:0:0:
406,187,206865,1,0,0:0:0:0:
406,187,206927,1,0,0:0:0:0:
406,187,206990,6,0,P|483:207|520:152,1,135.000005149842,0|0,1:0|1:0,0:0:0:0:
291,54,207240,2,0,P|259:31|228:27,1,67.5000025749208,4|0,0:0|0:0,0:0:0:0:
260,267,207365,2,0,P|292:260|319:239,1,67.5000025749208
260,16,207490,2,0,P|221:22|183:44,1,67.5000025749208,0|0,1:0|0:0,0:0:0:0:
197,231,207615,2,0,P|233:240|277:240,1,67.5000025749208
196,64,207740,2,0,P|152:46|110:61,1,67.5000025749208,4|0,0:0|0:0,0:0:0:0:
104,254,207865,2,0,P|149:251|189:241,1,67.5000025749208
57,74,207990,6,0,P|12:132|27:190,1,135.000005149842,0|0,1:0|0:0,0:0:0:0:
141,129,208240,1,4,0:0:0:0:
132,279,208365,2,0,B|145:302|153:342|153:342|183:320|226:312,1,135.000005149842,0|0,0:0|1:0,0:0:0:0:
255,218,208615,1,0,0:0:0:0:
340,324,208740,2,0,L|405:342,1,67.5000025749208,0|0,1:0|1:0,0:0:0:0:
351,298,208865,2,0,L|276:321,1,67.5000025749208,2|0,0:3|0:0,0:0:0:0:
490,252,208990,6,0,P|475:317|486:383,1,135.000005149842,0|0,1:0|0:0,0:0:0:0:
340,117,209240,2,0,P|303:69|279:-4,1,135.000005149842,4|0,0:0|0:0,0:0:0:0:
276,238,209490,1,2,0:3:0:0:
270,255,209552,1,2,0:3:0:0:
257,273,209615,1,2,0:3:0:0:
82,164,209740,1,0,1:0:0:0:
66,139,209802,1,0,1:0:0:0:
59,101,209865,1,0,1:0:0:0:
68,62,209927,1,0,1:0:0:0:
134,15,209990,5,0,1:0:0:0:
134,15,210052,1,0,0:0:0:0:
134,15,210115,1,0,0:0:0:0:
291,21,210240,2,0,P|341:27|407:38,1,112.5,2|0,0:3|0:0,0:0:0:0:
276,51,210365,2,0,P|362:55|401:52,1,112.5
171,146,210490,6,0,L|58:126,1,112.5,0|0,1:0|0:0,0:0:0:0:
297,148,210615,2,0,L|407:108,1,112.5
196,219,210740,2,0,L|71:237,1,112.5,2|0,0:3|0:0,0:0:0:0:
371,212,210865,2,0,L|466:141,1,112.5
332,303,210990,5,0,1:0:0:0:
332,303,211052,1,0,0:0:0:0:
332,303,211115,1,0,0:0:0:0:
225,312,211240,2,0,P|177:324|143:374,1,112.5,2|0,0:3|0:0,0:0:0:0:
221,291,211365,2,0,P|157:296|116:338,1,112.5
331,194,211490,6,0,P|356:154|353:83,1,112.5,0|0,1:0|0:0,0:0:0:0:
172,181,211615,2,0,P|169:236|196:284,1,112.5
341,159,211740,2,0,P|332:90|295:57,1,112.5,2|0,0:3|0:0,0:0:0:0:
148,128,211865,2,0,P|122:197|144:251,1,112.5
195,41,211990,5,0,1:0:0:0:
195,41,212052,1,0,0:0:0:0:
195,41,212115,1,0,0:0:0:0:
254,121,212240,2,0,L|267:242,1,112.5,2|0,0:3|0:0,0:0:0:0:
284,80,212365,2,0,L|276:199,1,112.5
491,122,212490,6,0,L|512:243,1,112.5,0|0,1:0|0:0,0:0:0:0:
371,142,212615,2,0,L|366:267,1,112.5
484,24,212740,2,0,L|468:159,1,112.5,2|0,0:3|0:0,0:0:0:0:
361,24,212865,2,0,L|388:156,1,112.5
407,248,212990,5,0,1:0:0:0:
407,248,213052,1,0,0:0:0:0:
407,248,213115,1,0,0:0:0:0:
276,178,213240,2,0,P|253:135|251:73,1,112.5,2|0,0:3|0:0,0:0:0:0:
264,195,213365,2,0,P|222:125|181:99,1,112.5
210,263,213490,6,0,P|212:316|191:370,1,112.5,0|0,1:0|0:0,0:0:0:0:
29,227,213615,2,0,P|27:280|48:334,1,112.5
230,248,213740,2,0,P|247:314|239:367,1,112.5,2|0,0:3|0:0,0:0:0:0:
56,211,213865,2,0,P|35:272|34:335,1,112.5
146,176,213990,5,0,1:0:0:0:
146,176,214052,1,0,0:0:0:0:
146,176,214115,1,0,0:0:0:0:
40,111,214240,2,0,L|26:0,1,112.5,2|0,0:3|0:0,0:0:0:0:
57,130,214365,2,0,L|77:14,1,112.5
159,79,214490,6,0,L|252:12,1,112.5,0|0,1:0|0:0,0:0:0:0:
234,126,214615,2,0,L|343:102,1,112.5
287,196,214740,2,0,L|387:139,1,112.5,2|0,0:3|0:0,0:0:0:0:
309,279,214865,2,0,L|426:293,1,112.5
299,364,214990,5,0,1:0:0:0:
299,364,215052,1,0,0:0:0:0:
299,364,215115,1,0,0:0:0:0:
197,332,215240,2,0,P|138:350|88:376,1,112.5,2|0,0:3|0:0,0:0:0:0:
204,320,215365,2,0,P|136:311|62:323,1,112.5
212,225,215490,6,0,P|140:183|97:177,1,112.5,0|0,1:0|0:0,0:0:0:0:
244,125,215615,2,0,P|217:50|187:15,1,112.5
357,117,215740,2,0,P|386:37|427:-7,1,112.5,2|0,0:3|0:0,0:0:0:0:
411,209,215865,2,0,P|500:166|551:158,1,112.5
316,280,215990,5,0,1:0:0:0:
316,280,216052,1,0,0:0:0:0:
316,280,216115,1,0,0:0:0:0:
369,363,216240,2,0,L|490:332,1,112.5,2|0,0:3|0:0,0:0:0:0:
386,339,216365,2,0,L|503:353,1,112.5
251,347,216490,6,0,L|139:369,1,112.5,0|0,1:0|0:0,0:0:0:0:
241,162,216615,2,0,L|372:182,1,112.5
224,328,216740,2,0,L|103:322,1,112.5,2|0,0:3|0:0,0:0:0:0:
226,130,216865,2,0,L|338:134,1,112.5
66,233,216990,5,0,1:0:0:0:
66,233,217052,1,0,0:0:0:0:
66,233,217115,1,0,0:0:0:0:
92,112,217240,2,0,L|118:-1,1,112.5,2|0,0:3|0:0,0:0:0:0:
153,200,217365,2,0,L|174:314,1,112.5,0|0,1:0|0:0,0:0:0:0:
218,109,217490,2,0,L|194:0,1,112.5,0|0,1:0|0:0,0:0:0:0:
269,247,217615,2,0,L|252:364,1,112.5,0|0,1:0|0:0,0:0:0:0:
346,111,217740,2,0,L|363:0,1,112.5,0|0,1:0|0:0,0:0:0:0:
397,279,217865,2,0,L|422:389,1,112.5,0|0,1:0|0:0,0:0:0:0:
470,47,217990,5,4,0:0:0:0:
470,47,218240,1,0,0:0:0:0:
470,47,218490,2,0,P|423:67|399:70,1,67.5000025749208
304,57,218740,2,0,P|336:64|366:79,1,67.5000025749208
371,167,218990,5,0,0:0:0:0:
371,167,219240,1,0,0:0:0:0:
371,167,219490,2,0,L|359:246,1,67.5000025749208
363,283,219740,2,0,L|320:225,1,67.5000025749208
268,168,219990,6,0,L|258:241,1,67.5000025749208
220,268,220240,2,0,L|235:343,1,67.5000025749208
155,345,220490,6,0,L|167:248,1,90
229,83,220865,6,0,B|200:134|204:193|250:227|250:227|267:208,1,180
299,132,222240,5,0,1:0:0:0:
310,118,222302,1,0,0:0:0:0:
331,111,222365,1,0,0:0:0:0:
360,110,222427,1,0,1:0:0:0:
380,118,222490,1,0,0:0:0:0:
399,137,222552,1,0,1:0:0:0:
415,167,222615,1,0,1:0:0:0:
413,202,222677,1,0,0:0:0:0:
397,230,222740,1,0,0:0:0:0:
370,252,222802,1,0,0:0:0:0:
335,263,222865,1,0,0:0:0:0:
291,253,222927,1,0,0:0:0:0:
249,261,222990,6,0,B|205:309|229:361|229:361|254:352,1,135.000005149842,4|0,0:0|0:0,0:0:0:0:
217,69,223240,2,0,B|193:8|135:7|135:7|133:33,1,135.000005149842,4|0,0:0|0:0,0:0:0:0:
130,61,223427,1,0,0:0:0:0:
123,84,223490,1,6,0:3:0:0:
113,105,223552,1,2,0:3:0:0:
98,124,223615,1,2,0:3:0:0:
12,12,223740,1,4,0:0:0:0:
67,262,223865,1,0,0:0:0:0:
230,137,223990,6,0,P|288:92|366:98,1,135.000005149842,4|0,0:0|0:0,0:0:0:0:
366,101,224177,1,0,0:0:0:0:
386,116,224240,1,4,0:0:0:0:
398,137,224302,1,0,0:0:0:0:
404,162,224365,1,0,0:0:0:0:
382,312,224490,1,4,0:0:0:0:
276,232,224615,1,0,0:0:0:0:
260,231,224677,1,0,0:0:0:0:
234,235,224740,1,4,0:0:0:0:
216,253,224802,1,0,0:0:0:0:
204,279,224865,1,0,0:0:0:0:
177,297,224927,1,0,0:0:0:0:
140,298,224990,6,0,B|71:288|71:288|17:244,1,135.000005149842,4|0,0:0|0:0,0:0:0:0:
311,122,225240,2,0,L|429:209,1,135.000005149842,4|0,0:0|0:0,0:0:0:0:
177,124,225490,1,4,0:0:0:0:
169,103,225552,1,2,0:3:0:0:
163,74,225615,1,2,0:3:0:0:
320,274,225740,2,0,B|294:327|294:381|294:381|264:351,1,135.000005149842,4|0,0:0|0:0,0:0:0:0:
225,207,225990,5,4,0:0:0:0:
403,311,226115,1,0,0:0:0:0:
171,313,226240,1,4,0:0:0:0:
346,222,226365,1,0,0:0:0:0:
364,212,226427,1,0,0:0:0:0:
379,197,226490,1,4,1:2:0:0:
391,181,226552,1,0,0:0:0:0:
403,163,226615,1,0,1:0:0:0:
410,129,226677,1,0,0:0:0:0:
391,91,226740,1,4,1:2:0:0:
358,68,226802,1,0,0:0:0:0:
322,64,226865,1,0,1:0:0:0:
291,82,226927,1,0,0:0:0:0:
268,117,226990,6,0,P|262:157|267:190,1,67.5000025749208
272,363,227115,2,0,L|281:284,1,67.5000025749208
166,22,227240,2,0,P|170:109|181:165,1,135.000005149842,4|0,0:0|0:0,0:0:0:0:
129,368,227490,1,2,0:3:0:0:
132,356,227552,1,2,0:3:0:0:
136,338,227615,1,2,0:3:0:0:
136,317,227677,1,2,0:3:0:0:
134,296,227740,2,0,L|126:224,1,67.5000025749208,4|0,0:0|0:0,0:0:0:0:
48,47,227865,2,0,L|36:120,1,67.5000025749208
38,360,227990,6,0,P|15:269|47:227,1,135.000005149842
243,249,228240,2,0,P|287:297|363:289,1,135.000005149842,4|0,0:0|0:0,0:0:0:0:
370,283,228427,1,0,0:0:0:0:
384,268,228490,1,0,0:0:0:0:
394,245,228552,1,0,0:0:0:0:
399,221,228615,1,0,0:0:0:0:
240,8,228740,2,0,B|216:71|268:108|268:108|285:82,1,135.000005149842,4|0,0:0|0:0,0:0:0:0:
139,83,228990,6,0,P|71:33|17:38,1,135.000005149842
363,110,229240,2,0,P|429:107|478:62,1,135.000005149842,4|0,0:0|0:0,0:0:0:0:
168,178,229490,1,2,0:3:0:0:
162,204,229552,1,2,0:3:0:0:
161,232,229615,1,2,0:3:0:0:
393,345,229740,2,0,B|405:279|405:279|396:209,1,135.000005149842,4|0,0:0|0:0,0:0:0:0:
180,329,229990,6,0,B|119:358|119:358|50:368,1,135.000005149842
250,200,230240,1,4,0:0:0:0:
274,189,230302,1,0,0:0:0:0:
297,189,230365,1,0,0:0:0:0:
325,198,230427,1,0,0:0:0:0:
344,217,230490,2,0,P|416:238|473:219,1,135.000005149842
399,37,230740,1,4,0:0:0:0:
386,44,230802,1,0,0:0:0:0:
372,58,230865,1,0,0:0:0:0:
276,295,230990,6,0,P|317:356|382:368,1,135.000005149842
244,149,231240,1,4,0:0:0:0:
227,139,231302,1,0,0:0:0:0:
206,135,231365,1,0,0:0:0:0:
181,133,231427,1,0,0:0:0:0:
160,140,231490,2,0,L|16:166,1,135.000005149842
372,58,231740,2,0,L|516:84,1,135.000005149842,4|0,0:0|0:0,0:0:0:0:
341,215,231990,5,0,0:0:0:0:
274,27,232115,1,0,0:0:0:0:
222,224,232240,1,4,0:0:0:0:
221,249,232302,1,0,0:0:0:0:
215,268,232365,1,0,0:0:0:0:
207,293,232427,1,0,0:0:0:0:
189,316,232490,1,0,0:0:0:0:
211,316,232552,1,0,0:0:0:0:
238,319,232615,1,0,0:0:0:0:
265,328,232677,1,0,0:0:0:0:
290,337,232740,2,0,P|348:341|421:313,1,135.000005149842,4|0,0:0|0:0,0:0:0:0:
81,246,232990,6,0,B|73:284|63:310|63:310|90:335|107:365,1,135.000005149842
346,232,233240,2,0,B|361:203|388:178|388:178|378:152|370:114,1,135.000005149842,4|0,0:0|0:0,0:0:0:0:
93,31,233490,2,0,B|85:69|75:95|75:95|102:120|119:150,1,135.000005149842
412,31,233740,2,0,B|374:23|348:13|348:13|323:40|293:57,1,135.000005149842,4|0,0:0|0:0,0:0:0:0:
256,187,233990,5,0,0:0:0:0:
375,166,234115,1,2,0:3:0:0:
373,177,234177,1,2,0:3:0:0:
370,188,234240,1,6,0:3:0:0:
468,211,234365,1,2,0:3:0:0:
461,226,234427,1,2,0:3:0:0:
454,248,234490,1,2,0:3:0:0:
441,273,234552,1,2,0:3:0:0:
432,292,234615,2,0,L|404:363,1,67.5000025749208,2|0,0:3|0:0,0:0:0:0:
256,166,234740,2,0,L|248:91,1,67.5000025749208,4|0,0:0|0:0,0:0:0:0:
230,330,234865,2,0,L|187:382,1,67.5000025749208
161,184,234990,5,0,0:0:0:0:
313,276,235115,1,0,0:0:0:0:
109,276,235240,2,0,B|1:289|1:289|36:313,1,135.000005149842,4|0,0:0|0:0,0:0:0:0:
275,173,235490,2,0,B|383:160|383:160|348:136,1,135.000005149842
61,47,235740,2,0,P|45:123|93:167,1,135.000005149842,4|0,0:0|0:0,0:0:0:0:
210,93,235990,5,0,0:0:0:0:
277,274,236115,1,0,0:0:0:0:
359,109,236240,1,4,0:0:0:0:
384,240,236365,1,0,0:0:0:0:
385,262,236427,1,0,0:0:0:0:
383,281,236490,1,0,0:0:0:0:
377,300,236552,1,0,0:0:0:0:
366,319,236615,1,0,0:0:0:0:
349,127,236740,2,0,P|438:108|500:155,1,135.000005149842,4|0,0:0|0:0,0:0:0:0:
265,214,236990,6,0,L|127:186,1,135.000005149842
380,356,237240,2,0,L|521:314,1,135.000005149842,4|0,0:0|0:0,0:0:0:0:
139,308,237490,2,0,B|81:262|81:262|51:196,1,135.000005149842
465,162,237740,2,0,B|487:95|487:95|485:26,1,135.000005149842,4|0,0:0|0:0,0:0:0:0:
336,132,237990,6,0,L|364:271,1,135.000005149842,0|0,1:0|0:0,0:0:0:0:
251,68,238240,1,4,0:0:0:0:
238,59,238302,1,2,0:3:0:0:
222,55,238365,1,2,0:3:0:0:
202,55,238427,1,2,0:3:0:0:
186,62,238490,2,0,P|144:75|117:82,1,67.5000025749208,0|0,1:0|0:0,0:0:0:0:
8,142,238615,2,0,P|58:154|89:168,1,67.5000025749208,0|0,1:0|0:0,0:0:0:0:
148,216,238740,5,0,1:0:0:0:
131,251,238802,1,0,1:0:0:0:
136,282,238865,1,0,1:0:0:0:
158,313,238927,1,0,1:0:0:0:
187,323,238990,6,0,B|256:358|346:342|296:249|443:254|434:352|434:352|462:320|470:297|470:297|476:323|506:353,1,431.999986816407,4|0,1:0|0:0,0:0:0:0:
