osu file format v14

[General]
AudioFilename: audio.mp3
AudioLeadIn: 0
PreviewTime: 77451
Countdown: 1
SampleSet: Normal
StackLeniency: 0.2
Mode: 0
LetterboxInBreaks: 0
WidescreenStoryboard: 0

[Editor]
DistanceSpacing: 0.2
BeatDivisor: 8
GridSize: 8
TimelineZoom: 3.599999

[Metadata]
Title:Lu*nya*cy Act 2017
TitleUnicode:Lu*nya*cy Act 2017
Artist:katagiri
ArtistUnicode:katagiri
Creator:LowComboFC
Version:asdf
Source:BMS
Tags:mashcore zen zense pen pineapple lcfc
BeatmapID:1671239
BeatmapSetID:795798

[Difficulty]
HPDrainRate:6
CircleSize:4.3
OverallDifficulty:8.8
ApproachRate:9.6
SliderMultiplier:2
SliderTickRate:1

[Events]
//Background and Video events
0,0,"landscape__13_by_sylar113-d6xge7h.jpg",0,0
//Break Periods
//Storyboard Layer 0 (Background)
//Storyboard Layer 1 (Fail)
//Storyboard Layer 2 (Pass)
//Storyboard Layer 3 (Foreground)
//Storyboard Sound Samples

[TimingPoints]
1438,270.27027027027,4,1,0,50,1,0
1438,-133.333333333333,4,1,0,50,0,0
2519,-100,4,1,0,50,0,0
3059,-133.333333333333,4,1,0,50,0,0
3329,-66.6666666666667,4,1,0,50,0,0
3600,-100,4,1,0,50,0,0
11167,-80,4,1,0,50,0,0
12248,-100,4,1,0,50,0,0
15492,-80,4,1,0,50,0,0
16573,-100,4,1,0,50,0,0
19816,-80,4,1,0,50,0,0
20897,-133.333333333333,4,1,0,50,0,0
27113,-200,4,1,0,50,0,0
27383,-133.333333333333,4,1,0,50,0,0
29546,-166.666666666667,4,1,0,50,0,0
33870,-100,4,1,0,50,0,0
38194,-133.333333333333,4,1,0,50,0,0
46843,-100,4,1,0,50,0,0
55221,-80,4,1,0,50,0,0
55492,-133.333333333333,4,1,0,50,0,0
59816,-100,4,1,0,50,0,0
64140,-133.333333333333,4,1,0,50,0,0
67789,-200,4,1,0,50,0,0
68465,-133.333333333333,4,1,0,50,0,0
73870,-100,4,1,0,50,0,0
74140,-111.111111111111,4,1,0,50,0,0
74410,-125,4,1,0,50,0,0
74681,-142.857142857143,4,1,0,50,0,0
74951,-166.666666666667,4,1,0,50,0,0
75221,-200,4,1,0,50,0,0
75492,-250,4,1,0,50,0,0
78194,-100,4,1,0,50,0,1
83329,-66.6666666666667,4,1,0,50,0,1
83600,-100,4,1,0,50,0,1
84410,-66.6666666666667,4,1,0,50,0,1
84681,-100,4,1,0,50,0,1
95492,-100,4,1,0,50,0,0
110627,-80,4,1,0,50,0,0
112789,-133.333333333333,4,1,0,50,0,0
114951,-100,4,1,0,50,0,0
123329,-80,4,1,0,50,0,0
123600,-80,4,1,0,50,0,1
132248,-100,4,1,0,50,0,0
140356,-66.6666666666667,4,1,0,50,0,0

[Colours]
Combo1 : 255,170,191
Combo2 : 180,250,175
Combo3 : 255,170,249
Combo4 : 170,172,255

[HitObjects]
99,289,1438,5,0,0:0:0:0:
35,155,1573,2,0,L|51:235,1,75.0000028610231
180,323,1843,1,0,0:0:0:0:
180,323,1910,1,0,0:0:0:0:
180,323,1978,1,0,0:0:0:0:
160,97,2113,2,0,L|176:177,1,75.0000028610231
254,277,2383,1,0,0:0:0:0:
254,277,2451,1,0,0:0:0:0:
254,277,2519,6,0,L|363:296,1,100
479,294,2721,2,0,L|380:276,1,100
336,209,2924,1,0,0:0:0:0:
336,209,2992,1,0,0:0:0:0:
336,209,3059,6,0,L|449:189,1,112.500004291535
462,196,3329,6,0,P|442:91|323:126,1,225.000008583069
281,140,3600,6,0,P|226:127|167:126,1,100
67,324,3870,2,0,P|122:337|181:338,1,100
336,209,4140,1,0,0:0:0:0:
134,244,4275,1,0,0:0:0:0:
134,244,4343,1,0,0:0:0:0:
134,244,4410,1,0,0:0:0:0:
313,340,4546,2,0,L|303:288,1,50
352,192,4681,6,0,B|404:184|404:184|441:211,1,100
387,372,4951,1,0,0:0:0:0:
215,209,5086,1,0,0:0:0:0:
296,41,5221,2,0,P|293:90|280:139,1,100
280,139,5424,1,0,0:0:0:0:
280,139,5492,1,0,0:0:0:0:
132,178,5627,2,0,P|106:169|56:166,1,50
18,207,5762,6,0,L|38:304,1,100
247,379,6032,2,0,L|267:281,1,100
166,86,6302,1,0,0:0:0:0:
183,297,6437,1,0,0:0:0:0:
183,297,6505,1,0,0:0:0:0:
183,297,6573,1,0,0:0:0:0:
329,128,6708,2,0,L|280:139,1,50
217,217,6843,5,0,0:0:0:0:
445,245,6978,1,0,0:0:0:0:
267,281,7113,5,0,0:0:0:0:
381,295,7248,1,0,0:0:0:0:
317,345,7383,5,0,0:0:0:0:
317,345,7518,1,0,0:0:0:0:
332,210,7654,5,0,0:0:0:0:
349,198,7924,5,0,0:0:0:0:
122,271,8059,1,0,0:0:0:0:
219,91,8194,2,0,P|213:145|194:200,1,100
15,293,8465,1,0,0:0:0:0:
66,72,8600,1,0,0:0:0:0:
66,72,8667,1,0,0:0:0:0:
66,72,8735,1,0,0:0:0:0:
1,201,8870,1,0,0:0:0:0:
6,211,8937,1,0,0:0:0:0:
11,219,9005,6,0,L|125:190,1,100
334,209,9275,1,0,0:0:0:0:
219,91,9410,1,0,0:0:0:0:
218,310,9546,2,0,B|190:271|190:271|198:219,1,100
198,219,9748,1,0,0:0:0:0:
198,219,9816,1,0,0:0:0:0:
356,59,9951,2,0,P|349:82|334:102,1,50
160,137,10086,6,0,P|112:122|62:117,1,100
69,125,10289,1,0,0:0:0:0:
69,125,10356,1,0,0:0:0:0:
152,349,10492,1,0,0:0:0:0:
265,135,10627,1,0,0:0:0:0:
260,147,10694,2,0,L|291:263,1,100
351,335,10897,2,0,L|367:273,1,50
339,107,11032,1,0,0:0:0:0:
339,107,11100,1,0,0:0:0:0:
339,107,11167,6,0,P|294:93|218:129,1,125
79,240,11370,2,0,P|130:206|149:148,1,125
291,0,11573,2,0,P|239:33|220:91,1,125
31,134,11775,2,0,P|75:147|151:111,1,125
30,38,11978,6,0,P|52:59|81:70,1,62.5
233,199,12113,2,0,P|262:190|287:171,1,62.5
370,27,12248,6,0,P|355:85|359:138,1,100
479,316,12519,2,0,P|494:258|490:205,1,100
492,218,12721,1,0,0:0:0:0:
492,218,12789,1,0,0:0:0:0:
300,256,12924,1,0,0:0:0:0:
447,92,13059,1,0,0:0:0:0:
399,283,13194,2,0,L|388:234,1,50
281,85,13329,5,0,0:0:0:0:
89,214,13465,2,0,L|83:242,2,25
163,272,13600,2,0,L|214:283,1,50
317,354,13735,2,0,L|298:245,1,100
299,255,13937,1,0,0:0:0:0:
299,255,14005,1,0,0:0:0:0:
144,156,14140,1,0,0:0:0:0:
75,352,14275,2,0,P|106:346|127:335,1,50
229,185,14410,6,0,B|237:133|237:133|209:95,1,100
0,15,14681,2,0,B|-8:67|-8:67|19:104,1,100
20,105,14883,1,0,0:0:0:0:
20,105,14951,1,0,0:0:0:0:
259,28,15086,1,0,0:0:0:0:
144,156,15221,1,0,0:0:0:0:
416,85,15356,2,0,L|427:31,1,50
349,19,15492,6,0,P|334:79|357:137,1,125
493,329,15762,2,0,P|448:286|387:277,1,125
376,284,15965,1,0,0:0:0:0:
365,290,16032,6,0,P|377:335|378:365,1,62.5
177,294,16167,2,0,P|165:249|164:219,1,62.5
270,146,16302,5,0,0:0:0:0:
223,367,16437,1,0,0:0:0:0:
55,215,16573,6,0,L|70:116,1,100
296,216,16843,2,0,L|280:314,1,100
280,314,17046,1,0,0:0:0:0:
280,314,17113,1,0,0:0:0:0:
91,356,17248,1,0,0:0:0:0:
190,100,17383,1,0,0:0:0:0:
210,216,17519,2,0,P|177:230|148:234,1,50
55,215,17654,5,0,0:0:0:0:
221,17,17789,2,0,L|249:11,2,25
291,82,17924,2,0,L|302:133,1,50
296,216,18059,2,0,B|348:208|348:208|385:235,1,100
386,235,18262,1,0,0:0:0:0:
386,235,18329,1,0,0:0:0:0:
196,307,18465,1,0,0:0:0:0:
386,372,18600,2,0,L|374:311,1,50
287,309,18735,6,0,P|234:327|190:329,1,100
12,131,19005,2,0,P|65:113|109:111,1,100
108,110,19208,1,0,0:0:0:0:
108,110,19275,1,0,0:0:0:0:
83,282,19410,1,0,0:0:0:0:
206,97,19546,1,0,0:0:0:0:
163,232,19681,2,0,P|180:189|181:164,1,50
161,20,19816,6,0,P|216:50|277:42,1,125
472,140,20086,2,0,P|410:132|356:161,1,125
353,173,20289,1,0,0:0:0:0:
349,184,20356,6,0,L|363:244,1,62.5
380,323,20492,2,0,L|320:337,1,62.5
149,337,20627,6,0,L|135:277,1,62.5
118,198,20763,2,0,L|178:184,1,62.5
250,264,20897,5,0,0:0:0:0:
179,184,21032,2,0,L|192:110,1,75.0000028610231
259,22,21302,1,0,0:0:0:0:
259,22,21370,1,0,0:0:0:0:
259,22,21437,2,0,L|269:73,1,37.5000014305115
103,112,21573,2,0,L|29:99,1,75.0000028610231
85,18,21843,1,0,0:0:0:0:
275,154,21978,5,0,0:0:0:0:
420,122,22113,2,0,P|387:104|351:98,1,75.0000028610231
347,91,22316,1,0,0:0:0:0:
343,84,22383,1,0,0:0:0:0:
338,77,22451,1,0,0:0:0:0:
334,70,22519,1,0,0:0:0:0:
418,21,22654,1,0,0:0:0:0:
479,197,22789,1,0,0:0:0:0:
444,10,22924,2,0,L|431:55,1,37.5000014305115
363,171,23059,6,0,L|349:87,1,75.0000028610231
161,97,23329,2,0,L|149:171,1,75.0000028610231
148,171,23532,1,0,0:0:0:0:
148,171,23600,1,0,0:0:0:0:
256,152,23735,1,0,0:0:0:0:
120,16,23870,1,0,0:0:0:0:
256,48,24005,1,0,0:0:0:0:
392,16,24140,5,0,0:0:0:0:
392,16,25221,5,0,0:0:0:0:
201,126,25356,1,0,0:0:0:0:
351,94,25492,2,0,L|262:77,1,75.0000028610231
109,142,25762,1,0,0:0:0:0:
109,142,25829,1,0,0:0:0:0:
109,142,25897,1,0,0:0:0:0:
228,15,26032,1,0,0:0:0:0:
166,216,26167,1,0,0:0:0:0:
17,71,26302,5,0,0:0:0:0:
109,7,26437,2,0,L|95:56,1,37.5000014305115
203,111,26573,2,0,P|230:104|283:102,1,75.0000028610231
276,101,26775,1,0,0:0:0:0:
276,101,26843,1,0,0:0:0:0:
374,217,26978,1,0,0:0:0:0:
510,162,27113,6,0,L|500:114,1,50
499,113,27383,6,0,L|487:189,1,75.0000028610231
316,278,27654,2,0,L|328:353,1,75.0000028610231
337,357,27856,1,0,0:0:0:0:
343,366,27924,2,0,L|373:375,4,18.7500007152558
259,215,28194,1,0,0:0:0:0:
208,311,28329,1,0,0:0:0:0:
72,163,28465,6,0,L|82:200,1,37.5000014305115
14,284,28600,1,0,0:0:0:0:
106,87,28735,1,0,0:0:0:0:
158,230,28870,1,0,0:0:0:0:
24,97,29005,1,0,0:0:0:0:
24,97,29073,1,0,0:0:0:0:
24,97,29140,1,0,0:0:0:0:
165,26,29275,1,0,0:0:0:0:
286,118,29410,2,0,P|316:114|336:106,1,37.5000014305115
375,54,29546,6,0,P|447:102|440:188,1,179.999994506836
427,311,30086,2,0,P|355:263|362:177,1,179.999994506836
511,10,30627,6,0,L|497:50,5,29.9999990844727
423,58,31032,2,0,L|437:98,1,29.9999990844727
505,234,31167,2,0,L|491:274,3,29.9999990844727
417,282,31437,2,0,L|431:322,1,29.9999990844727
357,358,31573,2,0,L|347:329,1,29.9999990844727
362,177,31708,6,0,B|263:155|299:232|192:209,1,179.999994506836
13,77,32248,2,0,B|112:99|76:22|182:44,1,179.999994506836
122,188,32789,6,0,P|108:198|91:202,2,29.9999990844727
190,238,32992,2,0,P|194:223|193:209,2,29.9999990844727
246,158,33194,2,0,P|261:165|273:177,1,29.9999990844727
304,245,33329,1,0,0:0:0:0:
186,322,33465,1,0,0:0:0:0:
37,299,33600,1,0,0:0:0:0:
45,295,33667,1,0,0:0:0:0:
53,293,33735,1,0,0:0:0:0:
61,292,33802,1,0,0:0:0:0:
72,293,33870,6,0,P|99:318|125:324,1,50
273,322,34005,1,0,0:0:0:0:
110,160,34140,2,0,L|11:186,1,100
13,185,34343,1,0,0:0:0:0:
13,185,34410,1,0,0:0:0:0:
171,43,34546,2,0,L|160:105,1,50
187,284,34681,1,0,0:0:0:0:
265,92,34816,1,0,0:0:0:0:
207,160,34951,6,0,P|234:177|308:171,1,100
300,175,35154,1,0,0:0:0:0:
300,175,35221,1,0,0:0:0:0:
474,112,35356,1,0,0:0:0:0:
369,234,35492,2,0,L|355:339,1,100
405,62,35762,1,0,0:0:0:0:
456,250,35897,2,0,L|441:200,1,50
333,0,36032,6,0,L|319:105,1,100
258,300,36302,1,0,0:0:0:0:
258,300,36370,1,0,0:0:0:0:
258,300,36437,2,0,L|243:250,1,50
252,172,36573,6,0,L|258:136,2,25
199,62,36708,2,0,L|205:98,2,25
178,222,36843,5,0,0:0:0:0:
77,63,36978,1,0,0:0:0:0:
59,304,37113,5,0,0:0:0:0:
233,379,37248,1,0,0:0:0:0:
89,192,37383,6,0,L|106:243,1,50
246,360,37519,2,0,L|277:351,2,25
148,374,37654,6,0,L|163:326,1,50
348,326,37789,2,0,L|364:374,1,50
209,253,37924,6,0,P|197:231|192:206,1,50
319,206,38059,2,0,P|314:231|302:253,1,50
256,127,38194,6,0,P|326:61|380:73,1,150.000005722046
423,133,38600,1,0,0:0:0:0:
488,243,38735,2,0,P|490:206|499:170,1,75.0000028610231
486,11,39005,2,0,P|494:47|497:84,1,75.0000028610231
497,84,39208,1,0,0:0:0:0:
497,84,39275,5,0,0:0:0:0:
406,215,39410,1,0,0:0:0:0:
256,160,39546,1,0,0:0:0:0:
256,72,39681,1,0,0:0:0:0:
256,72,39748,1,0,0:0:0:0:
256,72,39816,2,0,L|345:86,1,75.0000028610231
179,120,40086,1,0,0:0:0:0:
362,14,40221,1,0,0:0:0:0:
406,215,40356,6,0,P|327:227|259:251,2,150.000005722046
354,304,41032,1,0,0:0:0:0:
191,188,41167,1,0,0:0:0:0:
79,366,41302,1,0,0:0:0:0:
79,366,41370,1,0,0:0:0:0:
79,366,41437,6,0,P|107:291|121:220,2,150.000005722046
30,269,42113,1,0,0:0:0:0:
163,366,42248,1,0,0:0:0:0:
260,250,42383,1,0,0:0:0:0:
206,114,42519,6,0,L|190:192,1,75.0000028610231
329,312,42789,1,0,0:0:0:0:
339,308,42856,1,0,0:0:0:0:
349,304,42924,1,0,0:0:0:0:
359,300,42992,1,0,0:0:0:0:
369,297,43059,2,0,P|386:259|383:222,1,75.0000028610231
260,54,43329,1,0,0:0:0:0:
441,173,43465,1,0,0:0:0:0:
441,173,43532,1,0,0:0:0:0:
441,173,43600,5,0,0:0:0:0:
487,35,43735,1,0,0:0:0:0:
319,131,43870,1,0,0:0:0:0:
372,47,44005,1,0,0:0:0:0:
206,114,44140,2,0,L|221:187,1,75.0000028610231
287,384,44410,1,0,0:0:0:0:
379,277,44545,1,0,0:0:0:0:
314,157,44681,6,0,L|298:230,1,75.0000028610231
198,363,44951,2,0,L|182:289,1,75.0000028610231
182,289,45154,1,0,0:0:0:0:
182,289,45221,1,0,0:0:0:0:
2,230,45356,1,0,0:0:0:0:
113,157,45492,2,0,L|117:179,4,18.7500007152558
55,296,45762,5,0,0:0:0:0:
69,91,45897,1,0,0:0:0:0:
191,210,46032,2,0,P|204:171|207:125,1,75.0000028610231
131,29,46302,5,0,0:0:0:0:
274,87,46437,1,0,0:0:0:0:
399,6,46573,5,0,0:0:0:0:
294,169,46708,1,0,0:0:0:0:
482,113,46843,6,0,P|435:95|385:91,1,100
207,137,47113,1,0,0:0:0:0:
344,247,47248,2,0,P|374:243|405:231,1,50
489,205,47383,2,0,P|471:251|467:301,1,100
250,383,47654,2,0,P|267:336|271:286,1,100
131,114,47924,5,0,0:0:0:0:
42,314,48059,1,0,0:0:0:0:
244,210,48194,1,0,0:0:0:0:
44,121,48329,1,0,0:0:0:0:
132,295,48465,2,0,L|150:195,1,100
177,25,48735,1,0,0:0:0:0:
300,60,48870,1,0,0:0:0:0:
300,60,48937,1,0,0:0:0:0:
300,60,49005,5,0,0:0:0:0:
131,114,49140,2,0,L|75:128,1,50
240,258,49275,2,0,L|222:158,1,100
399,65,49546,1,0,0:0:0:0:
335,217,49681,1,0,0:0:0:0:
335,217,49748,1,0,0:0:0:0:
335,217,49816,1,0,0:0:0:0:
430,163,49951,1,0,0:0:0:0:
454,366,50086,6,0,P|432:320|425:271,1,100
268,103,50356,2,0,P|260:152|239:197,1,100
78,273,50627,1,0,0:0:0:0:
68,270,50694,1,0,0:0:0:0:
58,267,50762,1,0,0:0:0:0:
48,265,50829,1,0,0:0:0:0:
38,261,50897,2,0,P|60:249|84:247,1,50
223,344,51032,2,0,P|245:355|269:357,1,50
408,263,51167,5,0,0:0:0:0:
178,249,51302,1,0,0:0:0:0:
348,164,51437,1,0,0:0:0:0:
271,284,51539,2,0,P|291:270|306:250,1,50
378,79,51708,2,0,B|326:71|326:71|287:99,1,100
205,329,51978,2,0,B|153:337|153:337|114:309,1,100
55,77,52248,5,0,0:0:0:0:
234,172,52383,1,0,0:0:0:0:
38,232,52519,1,0,0:0:0:0:
133,53,52654,1,0,0:0:0:0:
127,180,52789,2,0,L|15:205,1,100
228,26,53059,1,0,0:0:0:0:
344,147,53194,1,0,0:0:0:0:
344,147,53262,1,0,0:0:0:0:
344,147,53329,5,0,0:0:0:0:
271,284,53465,2,0,L|282:218,1,50
448,157,53600,2,0,L|472:263,1,100
316,361,53870,1,0,0:0:0:0:
137,307,54005,1,0,0:0:0:0:
137,307,54073,1,0,0:0:0:0:
137,307,54140,1,0,0:0:0:0:
189,239,54275,1,0,0:0:0:0:
127,180,54410,6,0,P|77:172|33:149,1,100
279,234,54681,2,0,P|328:241|372:264,1,100
219,374,54951,1,0,0:0:0:0:
219,374,55019,1,0,0:0:0:0:
219,374,55086,2,0,L|206:320,1,50
184,122,55221,6,0,P|189:91|205:64,1,62.5
306,64,55356,2,0,P|322:91|328:122,1,62.5
189,239,55492,5,0,0:0:0:0:
132,295,55627,2,0,P|94:287|49:285,1,75.0000028610231
266,274,55897,2,0,P|304:282|349:284,1,75.0000028610231
158,92,56167,2,0,L|191:252,1,150.000005722046
146,372,56573,5,0,0:0:0:0:
256,352,56708,1,0,0:0:0:0:
366,372,56843,1,0,0:0:0:0:
422,277,56978,2,0,P|430:239|432:194,1,75.0000028610231
283,29,57248,2,0,P|262:101|256:176,1,150.000005722046
313,239,57654,5,0,0:0:0:0:
172,197,57789,1,0,0:0:0:0:
197,277,57924,1,0,0:0:0:0:
29,335,58059,1,0,0:0:0:0:
63,153,58194,2,0,L|30:3,1,150.000005722046
122,55,58600,1,0,0:0:0:0:
144,207,58735,6,0,P|146:172|159:117,1,75.0000028610231
358,132,59005,2,0,P|365:169|367:207,1,75.0000028610231
256,304,59275,2,0,L|256:224,1,75.0000028610231
256,56,59546,1,0,0:0:0:0:
256,64,59613,1,0,0:0:0:0:
256,72,59681,1,0,0:0:0:0:
256,80,59748,1,0,0:0:0:0:
256,88,59816,5,0,0:0:0:0:
472,40,59951,1,0,0:0:0:0:
358,132,60086,2,0,P|376:77|378:12,1,100
132,35,60356,1,0,0:0:0:0:
185,188,60492,1,0,0:0:0:0:
0,282,60627,1,0,0:0:0:0:
52,129,60763,1,0,0:0:0:0:
146,277,60897,6,0,L|164:379,1,100
348,375,61167,2,0,L|366:277,1,100
323,128,61437,1,0,0:0:0:0:
459,255,61573,1,0,0:0:0:0:
459,255,61640,1,0,0:0:0:0:
459,255,61708,1,0,0:0:0:0:
273,315,61843,1,0,0:0:0:0:
131,237,61978,6,0,P|179:250|231:250,1,100
300,216,62181,1,0,0:0:0:0:
309,227,62248,2,0,P|331:208|371:195,1,50
404,90,62383,2,0,P|409:118|400:159,1,50
417,348,62519,1,0,0:0:0:0:
409,340,62586,2,0,P|409:290|422:242,1,100
512,156,62789,2,0,P|493:172|470:183,1,50
233,168,62924,2,0,P|228:143|230:118,1,50
276,55,63059,5,0,0:0:0:0:
46,15,63194,1,0,0:0:0:0:
122,220,63329,1,0,0:0:0:0:
130,102,63465,2,0,L|122:69,2,25
74,157,63600,1,0,0:0:0:0:
300,216,63735,1,0,0:0:0:0:
233,372,63870,1,0,0:0:0:0:
459,313,64005,1,0,0:0:0:0:
459,313,64073,1,0,0:0:0:0:
459,313,64140,5,0,0:0:0:0:
361,283,64275,1,0,0:0:0:0:
464,140,64410,2,0,L|475:217,1,75.0000028610231
343,117,64681,1,0,0:0:0:0:
343,117,64748,1,0,0:0:0:0:
343,117,64816,1,0,0:0:0:0:
250,182,64951,2,0,L|261:259,1,75.0000028610231
129,159,65222,5,0,0:0:0:0:
221,81,65356,1,0,0:0:0:0:
10,128,65492,1,0,0:0:0:0:
139,308,65627,2,0,P|155:274|166:237,1,75.0000028610231
165,238,65829,1,0,0:0:0:0:
165,238,65897,1,0,0:0:0:0:
55,317,66032,1,0,0:0:0:0:
189,377,66167,1,0,0:0:0:0:
387,271,66302,5,0,0:0:0:0:
245,307,66437,1,0,0:0:0:0:
392,368,66573,2,0,L|408:286,1,75.0000028610231
325,176,66843,1,0,0:0:0:0:
325,176,66910,1,0,0:0:0:0:
325,176,66978,1,0,0:0:0:0:
486,163,67114,2,0,L|472:237,1,75.0000028610231
284,241,67383,5,0,0:0:0:0:
247,54,67519,1,0,0:0:0:0:
427,115,67654,1,0,0:0:0:0:
205,220,67789,6,0,B|192:173|192:173|209:123,1,100
209,124,68465,5,0,0:0:0:0:
2,204,68600,1,0,0:0:0:0:
97,112,68735,2,0,P|98:157|88:197,1,75.0000028610231
91,186,68937,1,0,0:0:0:0:
91,186,69005,1,0,0:0:0:0:
6,298,69140,1,0,0:0:0:0:
149,326,69275,2,0,L|66:346,1,75.0000028610231
202,254,69546,5,0,0:0:0:0:
352,364,69681,1,0,0:0:0:0:
265,335,69816,2,0,L|285:252,1,75.0000028610231
282,262,70019,1,0,0:0:0:0:
282,262,70086,1,0,0:0:0:0:
486,229,70221,1,0,0:0:0:0:
441,295,70356,2,0,P|396:296|356:286,1,75.0000028610231
254,189,70627,5,0,0:0:0:0:
317,24,70762,1,0,0:0:0:0:
492,9,70897,1,0,0:0:0:0:
429,174,71032,1,0,0:0:0:0:
429,174,71100,1,0,0:0:0:0:
429,174,71167,2,0,L|357:156,1,75.0000028610231
238,49,71437,2,0,L|166:67,1,75.0000028610231
84,194,71708,5,0,0:0:0:0:
84,194,73465,5,0,0:0:0:0:
256,248,73600,1,0,0:0:0:0:
428,194,73735,1,0,0:0:0:0:
256,56,73870,6,0,P|229:93|225:161,1,100
210,129,74140,6,0,P|224:87|256:56,1,89.9999972534181
256,56,74410,6,0,P|223:78|204:113,1,80
200,94,74681,6,0,P|223:69|256:55,1,69.9999978637696
256,56,74951,6,0,P|226:61|201:77,1,59.9999981689454
207,62,75221,6,0,P|231:55|256:56,1,50
256,56,75492,6,0,P|236:52|216:53,1,40
207,62,75762,5,0,0:0:0:0:
207,62,77519,5,0,0:0:0:0:
126,241,77654,1,0,0:0:0:0:
305,322,77789,1,0,0:0:0:0:
386,143,77924,1,0,0:0:0:0:
256,192,78059,1,0,0:0:0:0:
256,192,78127,1,0,0:0:0:0:
256,192,78194,6,0,L|277:300,1,100
486,175,78465,2,0,L|466:76,1,100
459,70,78667,1,0,0:0:0:0:
451,62,78735,1,0,0:0:0:0:
365,246,78870,1,0,0:0:0:0:
365,246,78937,1,0,0:0:0:0:
365,246,79005,1,0,0:0:0:0:
222,113,79140,2,0,L|231:52,1,50
294,2,79275,6,0,B|322:40|322:40|314:92,1,100
156,175,79546,2,0,B|128:137|128:137|136:85,1,100
132,75,79748,1,0,0:0:0:0:
128,65,79816,1,0,0:0:0:0:
171,261,79951,1,0,0:0:0:0:
351,163,80086,1,0,0:0:0:0:
311,356,80221,2,0,P|276:346|260:336,1,50
266,257,80356,6,0,P|307:257|368:245,1,100
419,93,80627,1,0,0:0:0:0:
199,69,80762,1,0,0:0:0:0:
199,69,80829,1,0,0:0:0:0:
199,69,80897,2,0,P|158:69|97:81,1,100
93,87,81100,1,0,0:0:0:0:
86,94,81167,1,0,0:0:0:0:
171,261,81302,2,0,L|186:214,1,50
76,238,81437,6,0,L|107:351,1,100
308,182,81708,2,0,L|281:85,1,100
110,3,81978,2,0,L|136:99,1,100
266,257,82248,1,0,0:0:0:0:
321,16,82383,1,0,0:0:0:0:
223,189,82519,5,0,0:0:0:0:
364,84,82654,1,0,0:0:0:0:
390,247,82789,2,0,P|383:297|367:359,1,100
140,345,83059,2,0,P|128:296|122:247,1,100
128,239,83262,1,0,0:0:0:0:
133,230,83329,6,0,P|208:157|148:73,1,225.000008583069
79,27,83600,6,0,L|60:134,1,100
308,182,83870,1,0,0:0:0:0:
225,26,84005,1,0,0:0:0:0:
124,195,84140,2,0,L|231:214,1,100
229,219,84343,1,0,0:0:0:0:
235,225,84410,6,0,B|348:258|329:153|446:184,1,225.000008583069
488,253,84681,6,0,P|481:295|487:351,1,100
352,117,84951,2,0,P|359:75|353:19,1,100
343,15,85154,1,0,0:0:0:0:
333,12,85221,1,0,0:0:0:0:
244,143,85356,1,0,0:0:0:0:
471,100,85492,2,0,L|488:1,1,100
235,44,85762,5,0,0:0:0:0:
321,224,85897,1,0,0:0:0:0:
321,224,85965,1,0,0:0:0:0:
321,224,86032,1,0,0:0:0:0:
159,130,86167,1,0,0:0:0:0:
131,330,86302,1,0,0:0:0:0:
331,358,86437,1,0,0:0:0:0:
359,158,86572,1,0,0:0:0:0:
135,229,86708,1,0,0:0:0:0:
135,229,86775,1,0,0:0:0:0:
135,229,86843,6,0,P|181:247|230:252,1,100
454,181,87113,2,0,P|407:162|358:157,1,100
351,164,87316,1,0,0:0:0:0:
344,171,87383,1,0,0:0:0:0:
217,330,87519,1,0,0:0:0:0:
217,330,87586,1,0,0:0:0:0:
217,330,87654,1,0,0:0:0:0:
269,128,87789,2,0,L|255:59,1,50
189,15,87924,6,0,P|184:62|165:122,1,100
290,322,88194,2,0,P|275:274|270:224,1,100
277,218,88397,1,0,0:0:0:0:
284,211,88465,1,0,0:0:0:0:
159,195,88600,1,0,0:0:0:0:
395,249,88735,1,0,0:0:0:0:
350,99,88870,2,0,L|362:147,1,50
468,309,89005,6,0,B|496:271|496:271|488:219,1,100
397,29,89275,1,0,0:0:0:0:
178,120,89410,2,0,P|223:133|282:133,1,100
466,75,89681,1,0,0:0:0:0:
466,75,89748,1,0,0:0:0:0:
466,75,89816,1,0,0:0:0:0:
286,37,89951,2,0,P|262:43|240:55,1,50
164,217,90086,6,0,P|177:172|177:113,1,100
348,167,90356,2,0,P|335:212|335:271,1,100
401,338,90627,1,0,0:0:0:0:
256,192,90762,1,0,0:0:0:0:
111,338,90897,1,0,0:0:0:0:
256,296,91032,1,0,0:0:0:0:
256,88,91167,5,0,0:0:0:0:
24,144,91302,1,0,0:0:0:0:
156,35,91437,2,0,L|133:146,1,100
348,167,91708,2,0,L|368:69,1,100
270,8,91978,1,0,0:0:0:0:
446,138,92113,1,0,0:0:0:0:
226,220,92248,6,0,P|176:220|126:211,1,100
256,88,92519,1,0,0:0:0:0:
285,281,92654,1,0,0:0:0:0:
367,151,92789,2,0,P|367:200|358:250,1,100
207,316,93059,1,0,0:0:0:0:
429,371,93194,2,0,L|415:312,1,50
285,281,93329,6,0,P|284:330|293:380,1,100
447,239,93600,1,0,0:0:0:0:
211,147,93735,1,0,0:0:0:0:
185,279,93870,2,0,P|204:252|214:221,1,50
137,95,94005,1,0,0:0:0:0:
303,31,94140,1,0,0:0:0:0:
415,160,94275,1,0,0:0:0:0:
318,205,94410,6,0,L|341:93,1,100
167,15,94681,1,0,0:0:0:0:
96,193,94816,2,0,L|109:231,2,25
25,148,94951,1,0,0:0:0:0:
210,236,95086,1,0,0:0:0:0:
113,99,95221,1,0,0:0:0:0:
57,298,95356,2,0,P|78:313|104:321,1,50
256,354,95492,6,0,L|281:244,1,100
195,92,95762,1,0,0:0:0:0:
65,217,95897,1,0,0:0:0:0:
310,189,96032,2,0,L|296:137,1,50
266,13,96167,1,0,0:0:0:0:
266,13,96235,1,0,0:0:0:0:
266,13,96302,1,0,0:0:0:0:
107,136,96437,1,0,0:0:0:0:
107,136,96505,1,0,0:0:0:0:
107,136,96573,5,0,0:0:0:0:
200,172,96708,2,0,L|228:167,2,25
84,307,96843,2,0,B|56:269|56:269|64:217,1,100
90,42,97113,2,0,P|118:24|145:16,1,50
289,87,97248,1,0,0:0:0:0:
287,96,97316,1,0,0:0:0:0:
285,105,97383,2,0,P|242:87|184:87,1,100
161,255,97654,6,0,P|204:273|262:273,1,100
323,234,97856,1,0,0:0:0:0:
334,240,97924,2,0,L|343:293,1,50
364,366,98059,2,0,L|373:313,1,50
397,174,98194,1,0,0:0:0:0:
512,266,98329,2,0,P|469:248|411:248,1,100
280,371,98600,2,0,P|248:379|213:373,1,50
149,354,98735,6,0,L|162:243,1,100
160,254,98937,1,0,0:0:0:0:
160,254,99005,1,0,0:0:0:0:
35,98,99140,1,0,0:0:0:0:
246,58,99275,1,0,0:0:0:0:
255,62,99343,1,0,0:0:0:0:
264,66,99410,2,0,L|248:126,1,50
163,157,99546,1,0,0:0:0:0:
369,53,99681,1,0,0:0:0:0:
374,281,99816,5,0,0:0:0:0:
309,155,99951,1,0,0:0:0:0:
435,90,100086,1,0,0:0:0:0:
500,216,100221,1,0,0:0:0:0:
405,186,100356,2,0,L|394:291,1,100
250,374,100627,2,0,L|239:274,1,100
220,74,100897,5,0,0:0:0:0:
187,204,101032,2,0,L|175:248,2,25
158,123,101167,2,0,P|123:140|54:150,1,100
54,144,101370,1,0,0:0:0:0:
45,138,101437,1,0,0:0:0:0:
188,7,101573,1,0,0:0:0:0:
377,75,101708,2,0,P|371:104|356:123,1,50
271,87,101843,2,0,P|277:58|292:39,1,50
442,143,101978,6,0,P|412:181|366:200,1,100
158,123,102248,2,0,P|206:129|245:160,1,100
462,320,102519,2,0,P|413:313|374:282,1,100
286,222,102721,1,0,0:0:0:0:
276,235,102789,2,0,P|298:270|300:299,1,50
217,358,102924,1,0,0:0:0:0:
217,358,102992,1,0,0:0:0:0:
217,358,103059,6,0,L|118:338,1,100
110,342,103262,1,0,0:0:0:0:
101,346,103329,1,0,0:0:0:0:
12,248,103465,2,0,L|66:234,1,50
170,53,103600,5,0,0:0:0:0:
219,111,103667,1,0,0:0:0:0:
217,177,103735,1,0,0:0:0:0:
188,229,103802,1,0,0:0:0:0:
148,261,103870,1,0,0:0:0:0:
108,274,103937,1,0,0:0:0:0:
77,266,104005,1,0,0:0:0:0:
62,249,104073,1,0,0:0:0:0:
60,235,104140,6,0,P|74:188|75:138,1,100
269,277,104410,2,0,P|254:324|253:374,1,100
457,344,104681,1,0,0:0:0:0:
457,344,104748,1,0,0:0:0:0:
457,344,104816,1,0,0:0:0:0:
416,150,104951,1,0,0:0:0:0:
382,246,105086,2,0,L|392:295,1,50
306,169,105221,6,0,L|328:58,1,100
325,70,105424,1,0,0:0:0:0:
325,70,105492,1,0,0:0:0:0:
121,4,105627,1,0,0:0:0:0:
31,190,105762,1,0,0:0:0:0:
31,190,105829,1,0,0:0:0:0:
31,190,105897,1,0,0:0:0:0:
219,141,106032,2,0,P|192:132|170:132,1,50
43,78,106167,2,0,P|70:87|92:87,1,50
270,16,106302,6,0,P|311:5|379:0,1,100
450,39,106505,1,0,0:0:0:0:
435,46,106573,2,0,L|422:99,1,50
404,170,106708,2,0,L|392:121,1,50
186,33,106843,2,0,P|175:74|170:142,1,100
209,213,107046,1,0,0:0:0:0:
216,198,107114,2,0,L|269:185,1,50
452,240,107248,1,0,0:0:0:0:
452,240,107316,1,0,0:0:0:0:
452,240,107383,6,0,L|446:277,4,25
356,246,107586,1,0,0:0:0:0:
352,260,107654,2,0,L|362:311,1,50
322,381,107789,2,0,L|331:331,1,50
314,119,107924,1,0,0:0:0:0:
189,298,108059,1,0,0:0:0:0:
189,298,108127,1,0,0:0:0:0:
189,298,108194,1,0,0:0:0:0:
12,149,108329,2,0,L|21:99,1,50
91,55,108465,5,0,0:0:0:0:
72,260,108600,1,0,0:0:0:0:
277,279,108735,1,0,0:0:0:0:
296,74,108870,1,0,0:0:0:0:
296,74,108937,1,0,0:0:0:0:
296,74,109005,2,0,L|189:95,1,100
194,102,109208,1,0,0:0:0:0:
190,111,109275,1,0,0:0:0:0:
360,184,109410,2,0,L|341:239,1,50
277,279,109546,6,0,B|239:251|239:251|187:259,1,100
20,99,109816,2,0,B|58:127|58:127|110:119,1,100
221,8,110086,1,0,0:0:0:0:
221,8,110154,1,0,0:0:0:0:
221,8,110221,1,0,0:0:0:0:
146,194,110356,1,0,0:0:0:0:
339,160,110492,2,0,P|352:139|358:115,1,50
316,46,110627,5,0,0:0:0:0:
316,46,110694,2,0,P|288:72|263:81,1,62.5
218,154,110829,2,0,P|186:121|94:130,1,125
54,184,111032,2,0,L|65:249,1,62.5
240,346,111167,6,0,P|284:334|321:250,1,125
218,154,111370,2,0,P|205:197|259:272,1,125
395,230,111573,1,0,0:0:0:0:
395,230,111640,1,0,0:0:0:0:
395,230,111708,6,0,P|363:197|271:206,1,125
459,114,111910,2,0,P|427:146|335:137,1,125
389,79,112113,2,0,P|349:49|335:49,1,62.5
264,72,112248,5,0,0:0:0:0:
252,76,112316,1,0,0:0:0:0:
240,80,112383,1,0,0:0:0:0:
228,84,112451,1,0,0:0:0:0:
216,88,112519,5,0,0:0:0:0:
228,135,112586,1,0,0:0:0:0:
241,183,112654,1,0,0:0:0:0:
254,230,112721,1,0,0:0:0:0:
267,278,112789,6,0,P|263:311|249:359,1,75.0000028610231
29,317,113059,2,0,P|32:283|47:236,1,75.0000028610231
166,181,113329,1,0,0:0:0:0:
151,299,113465,1,0,0:0:0:0:
151,299,113532,1,0,0:0:0:0:
151,299,113600,1,0,0:0:0:0:
87,101,113735,2,0,L|96:60,1,37.5000014305115
167,20,113870,5,0,0:0:0:0:
0,129,114005,2,0,L|9:170,1,37.5000014305115
191,166,114140,2,0,L|210:82,1,75.0000028610231
25,17,114410,1,0,0:0:0:0:
25,17,114478,1,0,0:0:0:0:
25,17,114546,1,0,0:0:0:0:
144,231,114681,1,0,0:0:0:0:
383,122,114816,1,0,0:0:0:0:
383,122,114883,1,0,0:0:0:0:
383,122,114951,6,0,P|340:96|291:88,1,100
202,283,115221,2,0,P|244:308|293:316,1,100
454,159,115492,1,0,0:0:0:0:
334,253,115627,1,0,0:0:0:0:
470,314,115762,2,0,L|463:253,1,50
445,55,115897,1,0,0:0:0:0:
445,55,115965,1,0,0:0:0:0:
445,55,116032,5,0,0:0:0:0:
276,187,116167,2,0,L|292:78,1,100
92,63,116437,1,0,0:0:0:0:
175,4,116573,2,0,L|189:102,1,100
185,111,116775,1,0,0:0:0:0:
180,120,116843,1,0,0:0:0:0:
44,159,116978,2,0,L|32:207,1,50
70,282,117113,5,0,0:0:0:0:
233,212,117248,2,0,P|180:212|133:232,1,100
10,61,117519,2,0,P|63:61|110:41,1,100
297,149,117789,1,0,0:0:0:0:
297,149,117856,1,0,0:0:0:0:
297,149,117924,1,0,0:0:0:0:
140,127,118059,1,0,0:0:0:0:
379,124,118194,6,0,B|387:176|387:176|359:214,1,100
358,214,118397,1,0,0:0:0:0:
358,214,118465,1,0,0:0:0:0:
180,293,118600,1,0,0:0:0:0:
274,364,118735,2,0,B|266:312|266:312|294:274,1,100
474,197,119005,1,0,0:0:0:0:
321,64,119140,1,0,0:0:0:0:
356,166,119275,5,0,0:0:0:0:
140,127,119410,1,0,0:0:0:0:
227,68,119546,2,0,P|230:114|244:171,1,100
87,290,119816,2,0,P|84:244|70:187,1,100
115,34,120086,1,0,0:0:0:0:
189,243,120221,2,0,L|179:295,1,50
236,351,120356,6,0,B|274:323|274:323|326:331,1,100
419,350,120627,1,0,0:0:0:0:
500,217,120762,2,0,B|462:245|462:245|410:237,1,100
242,166,121032,2,0,L|247:137,2,25
282,234,121167,1,0,0:0:0:0:
436,119,121302,2,0,L|428:68,1,50
368,17,121437,5,0,0:0:0:0:
202,78,121573,1,0,0:0:0:0:
202,78,121640,1,0,0:0:0:0:
202,78,121708,1,0,0:0:0:0:
102,40,121843,2,0,P|115:84|120:144,1,100
57,331,122113,1,0,0:0:0:0:
268,214,122248,2,0,P|258:237|246:258,1,50
177,358,122383,1,0,0:0:0:0:
43,216,122519,6,0,P|30:172|25:112,1,100
29,109,122721,1,0,0:0:0:0:
33,100,122789,1,0,0:0:0:0:
268,18,122924,1,0,0:0:0:0:
155,60,123059,2,0,P|180:66|202:78,1,50
294,206,123194,2,0,P|318:200|340:188,1,50
461,49,123329,6,0,B|405:22|405:22|378:78,1,125
503,295,123600,6,0,B|511:202|432:240|441:126,1,187.5
461,49,123870,2,0,P|434:98|377:78,1,125
155,60,124140,2,0,P|206:42|270:94,1,125
295,149,124343,1,0,0:0:0:0:
276,160,124410,2,0,B|253:280|253:280|289:342,1,187.5
361,289,124681,6,0,L|350:227,1,62.5
189,182,124816,1,0,0:0:0:0:
37,329,124951,2,0,P|86:363|144:345,1,125
181,277,125154,1,0,0:0:0:0:
175,264,125221,1,0,0:0:0:0:
150,113,125356,1,0,0:0:0:0:
325,76,125492,1,0,0:0:0:0:
350,227,125627,1,0,0:0:0:0:
350,227,125694,1,0,0:0:0:0:
350,227,125762,6,0,B|257:219|295:298|181:288,1,187.5
98,289,126032,2,0,P|147:243|122:180,1,125
45,28,126302,1,0,0:0:0:0:
65,157,126437,2,0,P|41:137|34:107,1,62.5
138,44,126573,2,0,P|115:66|110:96,1,62.5
213,184,126708,1,0,0:0:0:0:
332,92,126843,6,0,P|383:58|443:68,1,125
488,135,127046,1,0,0:0:0:0:
477,151,127113,2,0,P|481:184|492:218,1,62.5
425,337,127248,2,0,P|433:307|437:276,1,62.5
373,207,127383,2,0,P|324:281|235:277,1,187.5
194,208,127654,1,0,0:0:0:0:
248,17,127789,1,0,0:0:0:0:
56,65,127924,6,0,P|149:71|237:102,1,187.5
136,149,128194,2,0,P|74:155|17:179,1,125
315,325,128465,2,0,P|291:267|285:205,1,125
386,124,128667,1,0,0:0:0:0:
397,140,128735,2,0,B|346:178|346:178|221:142,1,187.5
186,233,129005,6,0,L|201:299,1,62.5
163,368,129140,1,0,0:0:0:0:
435,331,129275,2,0,L|457:204,1,125
478,130,129478,1,0,0:0:0:0:
473,117,129546,1,0,0:0:0:0:
313,14,129681,1,0,0:0:0:0:
197,159,129816,1,0,0:0:0:0:
357,262,129951,1,0,0:0:0:0:
357,262,130019,1,0,0:0:0:0:
357,262,130086,6,0,P|359:197|248:122,1,187.5
228,323,130356,2,0,P|270:278|269:218,1,125
145,93,130627,1,0,0:0:0:0:
56,246,130762,1,0,0:0:0:0:
138,232,130897,2,0,P|153:204|153:173,1,62.5
176,20,131032,2,0,P|202:35|219:61,1,62.5
146,164,131167,5,0,0:0:0:0:
292,40,131302,2,0,P|286:101|236:135,1,125
54,130,131573,1,0,0:0:0:0:
278,218,131708,1,0,0:0:0:0:
278,218,131775,1,0,0:0:0:0:
278,218,131843,1,0,0:0:0:0:
66,277,131978,1,0,0:0:0:0:
290,365,132113,1,0,0:0:0:0:
290,365,132180,1,0,0:0:0:0:
290,365,132248,6,0,L|387:341,1,100
445,139,132519,2,0,L|347:162,1,100
230,220,132789,1,0,0:0:0:0:
469,298,132924,1,0,0:0:0:0:
388,241,133059,2,0,P|382:279|388:345,1,100
264,140,133329,5,0,0:0:0:0:
264,140,133397,1,0,0:0:0:0:
264,140,133465,1,0,0:0:0:0:
195,298,133600,2,0,P|145:303|95:296,1,100
48,109,133870,1,0,0:0:0:0:
194,204,134005,1,0,0:0:0:0:
328,95,134140,1,0,0:0:0:0:
182,0,134275,1,0,0:0:0:0:
182,0,134343,1,0,0:0:0:0:
182,0,134410,6,0,L|202:102,1,100
406,205,134681,2,0,L|425:106,1,100
273,26,134951,1,0,0:0:0:0:
326,244,135086,1,0,0:0:0:0:
109,180,135221,1,0,0:0:0:0:
283,119,135356,1,0,0:0:0:0:
283,119,135424,1,0,0:0:0:0:
283,119,135492,6,0,P|251:131|174:133,1,100
57,107,135762,1,0,0:0:0:0:
75,285,135897,1,0,0:0:0:0:
75,285,135965,1,0,0:0:0:0:
75,285,136033,2,0,P|107:273|184:271,1,100
337,341,136302,1,0,0:0:0:0:
472,238,136437,1,0,0:0:0:0:
472,238,136505,1,0,0:0:0:0:
472,238,136573,5,0,0:0:0:0:
252,299,136708,1,0,0:0:0:0:
123,130,136843,2,0,L|148:20,1,100
154,28,137046,1,0,0:0:0:0:
163,24,137113,1,0,0:0:0:0:
79,198,137248,1,0,0:0:0:0:
272,184,137383,2,0,P|279:139|274:67,1,100
277,84,137586,1,0,0:0:0:0:
277,84,137654,5,0,0:0:0:0:
50,62,137789,1,0,0:0:0:0:
144,270,137924,1,0,0:0:0:0:
155,149,138059,1,0,0:0:0:0:
2,263,138194,2,0,P|7:298|31:361,1,100
235,317,138465,1,0,0:0:0:0:
79,198,138600,1,0,0:0:0:0:
260,122,138735,5,0,0:0:0:0:
285,206,138870,1,0,0:0:0:0:
405,72,139005,1,0,0:0:0:0:
445,181,139140,2,0,L|427:234,1,50
209,292,139275,5,0,0:0:0:0:
234,376,139410,1,0,0:0:0:0:
354,242,139546,2,0,L|336:295,1,50
150,354,139681,1,0,0:0:0:0:
140,351,139748,1,0,0:0:0:0:
129,347,139816,5,0,0:0:0:0:
91,317,139883,1,0,0:0:0:0:
72,271,139951,1,0,0:0:0:0:
80,222,140018,1,0,0:0:0:0:
111,184,140086,1,0,0:0:0:0:
142,145,140154,1,0,0:0:0:0:
149,96,140221,1,0,0:0:0:0:
131,50,140289,1,0,0:0:0:0:
91,20,140356,6,0,P|164:16|214:69,1,150.000005722046
420,20,140559,2,0,P|347:16|297:69,1,150.000005722046
256,136,140762,2,0,L|256:216,1,75.0000028610231
256,352,140897,5,0,0:0:0:0:
