osu file format v14

[General]
AudioFilename: audio.mp3
AudioLeadIn: 0
PreviewTime: 40005
Countdown: 0
SampleSet: Normal
StackLeniency: 0.7
Mode: 3
LetterboxInBreaks: 0
EpilepsyWarning: 1
SpecialStyle: 0
WidescreenStoryboard: 1

[Editor]
Bookmarks: 4450,40005,57783,75561,102227,125930,149634,169634,196300,214078,240745,258522,276300,294078,320745
DistanceSpacing: 1.3
BeatDivisor: 12
GridSize: 4
TimelineZoom: 3

[Metadata]
Title:Kyuukou
TitleUnicode:九皋
Artist:katagiri
ArtistUnicode:かたぎり
Creator:_underjoy
Version:Overflow
Source:osu!mania 7K World Cup 2023
Tags:blocko jinjin maplesyrup- remuring collab tiebreaker grand finals breakcore instrumental electronic MWC MWC23 MWC7K fa featured artist long notes ln marathon hybrid technical gftb osu! original arcade bass hardcore oriental ricess
BeatmapID:4009375
BeatmapSetID:1939261

[Difficulty]
HPDrainRate:7.7
CircleSize:7
OverallDifficulty:6.6
ApproachRate:5
SliderMultiplier:1.4
SliderTickRate:1

[Events]
//Background and Video events
0,0,"bg.jpg",0,0
//Break Periods
//Storyboard Layer 0 (Background)
//Storyboard Layer 1 (Fail)
//Storyboard Layer 2 (Pass)
//Storyboard Layer 3 (Foreground)
//Storyboard Layer 4 (Overlay)
//Storyboard Sound Samples

[TimingPoints]
4450,277.777777777778,4,1,1,30,1,0
100005,370.37037037037,4,1,1,30,1,0
100005,-75.187969924812,4,1,1,30,0,0
102227,370.37037037037,4,1,1,30,1,0
102227,-75.187969924812,4,1,1,30,0,0
149634,277.777777777778,4,1,1,30,1,0

[HitObjects]
256,192,4450,128,0,6672:0:0:0:0:
36,192,4450,1,0,0:0:0:0:
109,192,4450,1,0,0:0:0:0:
329,192,4450,1,0,0:0:0:0:
475,192,4450,1,0,0:0:0:0:
329,192,4565,1,0,0:0:0:0:
182,192,4727,1,0,0:0:0:0:
109,192,4727,1,0,0:0:0:0:
475,192,4866,1,0,0:0:0:0:
36,192,5005,1,0,0:0:0:0:
402,192,5005,1,0,0:0:0:0:
329,192,5005,1,0,0:0:0:0:
109,192,5144,1,0,0:0:0:0:
402,192,5144,1,0,0:0:0:0:
329,192,5283,1,0,0:0:0:0:
182,192,5283,1,0,0:0:0:0:
475,192,5422,1,0,0:0:0:0:
36,192,5561,1,0,0:0:0:0:
402,192,5561,1,0,0:0:0:0:
329,192,5561,1,0,0:0:0:0:
182,192,5700,1,0,0:0:0:0:
329,192,5838,1,0,0:0:0:0:
36,192,5838,1,0,0:0:0:0:
109,192,5908,1,0,0:0:0:0:
475,192,5977,1,0,0:0:0:0:
402,192,6047,1,0,0:0:0:0:
329,192,6116,1,0,0:0:0:0:
36,192,6116,1,0,0:0:0:0:
182,192,6116,1,0,0:0:0:0:
109,192,6255,1,0,0:0:0:0:
329,192,6394,1,0,0:0:0:0:
182,192,6394,1,0,0:0:0:0:
475,192,6533,1,0,0:0:0:0:
109,192,6672,128,0,8894:0:0:0:0:
329,192,6672,1,0,0:0:0:0:
402,192,6672,1,0,0:0:0:0:
182,192,6672,1,0,0:0:0:0:
36,192,6672,1,0,0:0:0:0:
182,192,6811,1,0,0:0:0:0:
329,192,6811,1,0,0:0:0:0:
402,192,6950,1,0,0:0:0:0:
256,192,6950,1,0,0:0:0:0:
475,192,7088,1,0,0:0:0:0:
36,192,7227,1,0,0:0:0:0:
182,192,7227,1,0,0:0:0:0:
256,192,7227,1,0,0:0:0:0:
329,192,7366,1,0,0:0:0:0:
402,192,7505,1,0,0:0:0:0:
182,192,7505,1,0,0:0:0:0:
475,192,7644,1,0,0:0:0:0:
36,192,7783,1,0,0:0:0:0:
256,192,7783,1,0,0:0:0:0:
182,192,7783,1,0,0:0:0:0:
329,192,7922,1,0,0:0:0:0:
402,192,8061,1,0,0:0:0:0:
256,192,8061,1,0,0:0:0:0:
475,192,8200,1,0,0:0:0:0:
329,192,8269,1,0,0:0:0:0:
182,192,8338,1,0,0:0:0:0:
36,192,8338,1,0,0:0:0:0:
402,192,8338,1,0,0:0:0:0:
329,192,8477,1,0,0:0:0:0:
36,192,8524,1,0,0:0:0:0:
402,192,8616,1,0,0:0:0:0:
256,192,8616,1,0,0:0:0:0:
36,192,8709,1,0,0:0:0:0:
475,192,8755,1,0,0:0:0:0:
256,192,8894,128,0,10005:0:0:0:0:
36,192,8894,1,0,0:0:0:0:
329,192,8894,1,0,0:0:0:0:
402,192,8894,1,0,0:0:0:0:
475,192,8894,1,0,0:0:0:0:
109,192,9033,1,0,0:0:0:0:
402,192,9033,1,0,0:0:0:0:
182,192,9172,1,0,0:0:0:0:
475,192,9172,1,0,0:0:0:0:
329,192,9311,1,0,0:0:0:0:
36,192,9450,1,0,0:0:0:0:
402,192,9450,1,0,0:0:0:0:
475,192,9450,1,0,0:0:0:0:
109,192,9588,1,0,0:0:0:0:
475,192,9588,1,0,0:0:0:0:
182,192,9727,1,0,0:0:0:0:
402,192,9727,1,0,0:0:0:0:
329,192,9866,1,0,0:0:0:0:
402,192,10005,128,0,11116:0:0:0:0:
475,192,10005,1,0,0:0:0:0:
109,192,10005,1,0,0:0:0:0:
182,192,10005,1,0,0:0:0:0:
36,192,10005,1,0,0:0:0:0:
109,192,10144,1,0,0:0:0:0:
329,192,10144,1,0,0:0:0:0:
256,192,10283,1,0,0:0:0:0:
475,192,10283,1,0,0:0:0:0:
109,192,10352,1,0,0:0:0:0:
329,192,10422,1,0,0:0:0:0:
182,192,10491,1,0,0:0:0:0:
36,192,10561,1,0,0:0:0:0:
475,192,10561,1,0,0:0:0:0:
256,192,10561,1,0,0:0:0:0:
109,192,10607,1,0,0:0:0:0:
182,192,10700,1,0,0:0:0:0:
475,192,10700,1,0,0:0:0:0:
329,192,10746,1,0,0:0:0:0:
109,192,10838,1,0,0:0:0:0:
256,192,10885,1,0,0:0:0:0:
182,192,10931,1,0,0:0:0:0:
475,192,10977,1,0,0:0:0:0:
36,192,11024,1,0,0:0:0:0:
182,192,11116,128,0,12227:0:0:0:0:
329,192,11116,1,0,0:0:0:0:
256,192,11116,1,0,0:0:0:0:
109,192,11116,1,0,0:0:0:0:
475,192,11116,1,0,0:0:0:0:
475,192,11255,1,0,0:0:0:0:
36,192,11255,1,0,0:0:0:0:
256,192,11255,1,0,0:0:0:0:
329,192,11394,1,0,0:0:0:0:
109,192,11394,1,0,0:0:0:0:
402,192,11533,1,0,0:0:0:0:
109,192,11672,1,0,0:0:0:0:
36,192,11672,1,0,0:0:0:0:
475,192,11672,1,0,0:0:0:0:
256,192,11811,1,0,0:0:0:0:
402,192,11811,1,0,0:0:0:0:
329,192,11950,1,0,0:0:0:0:
109,192,11950,1,0,0:0:0:0:
475,192,11950,1,0,0:0:0:0:
402,192,12088,1,0,0:0:0:0:
256,192,12088,1,0,0:0:0:0:
329,192,12227,128,0,13200:0:0:0:0:
36,192,12227,1,0,0:0:0:0:
475,192,12227,1,0,0:0:0:0:
109,192,12227,1,0,0:0:0:0:
182,192,12366,1,0,0:0:0:0:
36,192,12366,1,0,0:0:0:0:
475,192,12366,1,0,0:0:0:0:
402,192,12505,1,0,0:0:0:0:
109,192,12505,1,0,0:0:0:0:
475,192,12644,1,0,0:0:0:0:
256,192,12644,1,0,0:0:0:0:
182,192,12644,1,0,0:0:0:0:
36,192,12783,1,0,0:0:0:0:
109,192,12783,1,0,0:0:0:0:
402,192,12783,1,0,0:0:0:0:
256,192,12922,1,0,0:0:0:0:
182,192,12991,1,0,0:0:0:0:
402,192,13061,1,0,0:0:0:0:
109,192,13061,1,0,0:0:0:0:
36,192,13061,128,0,15422:0:0:0:0:
256,192,13130,1,0,0:0:0:0:
475,192,13200,1,0,0:0:0:0:
109,192,13200,128,0,13894:0:0:0:0:
182,192,13200,1,0,0:0:0:0:
475,192,13338,1,0,0:0:0:0:
402,192,13338,1,0,0:0:0:0:
329,192,13338,128,0,15144:0:0:0:0:
182,192,13338,128,0,15283:0:0:0:0:
256,192,13338,1,0,0:0:0:0:
475,192,13477,1,0,0:0:0:0:
475,192,13616,1,0,0:0:0:0:
475,192,13755,1,0,0:0:0:0:
402,192,13894,128,0,15005:0:0:0:0:
475,192,13894,128,0,14450:0:0:0:0:
256,192,13894,1,0,0:0:0:0:
256,192,14033,1,0,0:0:0:0:
256,192,14172,1,0,0:0:0:0:
256,192,14311,1,0,0:0:0:0:
256,192,14450,1,0,0:0:0:0:
475,192,14519,128,0,14588:0:0:0:0:
109,192,14588,1,0,0:0:0:0:
475,192,14727,1,0,0:0:0:0:
475,192,14866,1,0,0:0:0:0:
256,192,14866,128,0,14936:0:0:0:0:
109,192,14936,128,0,15561:0:0:0:0:
475,192,15005,1,0,0:0:0:0:
256,192,15005,128,0,15561:0:0:0:0:
475,192,15144,1,0,0:0:0:0:
402,192,15144,128,0,15352:0:0:0:0:
475,192,15283,1,0,0:0:0:0:
329,192,15283,128,0,15491:0:0:0:0:
402,192,15422,1,0,0:0:0:0:
182,192,15422,128,0,17227:0:0:0:0:
329,192,15561,1,0,0:0:0:0:
36,192,15561,128,0,16533:0:0:0:0:
402,192,15561,128,0,16950:0:0:0:0:
475,192,15561,128,0,16116:0:0:0:0:
329,192,15700,1,0,0:0:0:0:
329,192,15838,1,0,0:0:0:0:
329,192,15977,1,0,0:0:0:0:
256,192,16116,1,0,0:0:0:0:
109,192,16116,128,0,16672:0:0:0:0:
256,192,16255,1,0,0:0:0:0:
256,192,16394,1,0,0:0:0:0:
256,192,16533,1,0,0:0:0:0:
36,192,16672,128,0,17227:0:0:0:0:
475,192,16672,1,0,0:0:0:0:
109,192,16811,128,0,17088:0:0:0:0:
329,192,16811,1,0,0:0:0:0:
256,192,16950,128,0,17366:0:0:0:0:
475,192,16950,1,0,0:0:0:0:
402,192,17088,128,0,17505:0:0:0:0:
329,192,17088,1,0,0:0:0:0:
109,192,17227,128,0,17644:0:0:0:0:
475,192,17227,1,0,0:0:0:0:
182,192,17366,128,0,17644:0:0:0:0:
329,192,17366,1,0,0:0:0:0:
475,192,17505,128,0,17783:0:0:0:0:
256,192,17505,1,0,0:0:0:0:
402,192,17644,128,0,17783:0:0:0:0:
329,192,17644,1,0,0:0:0:0:
36,192,17783,128,0,20838:0:0:0:0:
109,192,17783,1,0,0:0:0:0:
256,192,17783,1,0,0:0:0:0:
182,192,17818,128,0,18338:0:0:0:0:
329,192,17852,128,0,19866:0:0:0:0:
109,192,17922,1,0,0:0:0:0:
109,192,18061,1,0,0:0:0:0:
109,192,18200,1,0,0:0:0:0:
402,192,18338,128,0,19241:0:0:0:0:
256,192,18338,1,0,0:0:0:0:
475,192,18338,128,0,19311:0:0:0:0:
256,192,18477,1,0,0:0:0:0:
256,192,18616,1,0,0:0:0:0:
256,192,18755,1,0,0:0:0:0:
109,192,18894,1,0,0:0:0:0:
109,192,19033,1,0,0:0:0:0:
109,192,19172,1,0,0:0:0:0:
109,192,19311,1,0,0:0:0:0:
256,192,19311,128,0,19380:0:0:0:0:
402,192,19380,128,0,19866:0:0:0:0:
256,192,19450,128,0,19727:0:0:0:0:
475,192,19450,1,0,0:0:0:0:
182,192,19588,128,0,19866:0:0:0:0:
475,192,19588,1,0,0:0:0:0:
109,192,19727,128,0,20005:0:0:0:0:
475,192,19727,1,0,0:0:0:0:
256,192,19866,1,0,0:0:0:0:
475,192,19866,1,0,0:0:0:0:
182,192,20005,1,0,0:0:0:0:
475,192,20005,128,0,20977:0:0:0:0:
329,192,20005,128,0,20422:0:0:0:0:
402,192,20040,1,0,0:0:0:0:
182,192,20144,1,0,0:0:0:0:
182,192,20283,1,0,0:0:0:0:
182,192,20422,1,0,0:0:0:0:
256,192,20422,128,0,21811:0:0:0:0:
329,192,20561,1,0,0:0:0:0:
109,192,20561,128,0,20908:0:0:0:0:
329,192,20700,1,0,0:0:0:0:
329,192,20838,1,0,0:0:0:0:
329,192,20977,1,0,0:0:0:0:
36,192,20977,128,0,21255:0:0:0:0:
109,192,21047,128,0,21325:0:0:0:0:
475,192,21116,1,0,0:0:0:0:
182,192,21116,128,0,21394:0:0:0:0:
475,192,21255,1,0,0:0:0:0:
402,192,21255,128,0,21533:0:0:0:0:
475,192,21394,1,0,0:0:0:0:
109,192,21394,128,0,21672:0:0:0:0:
475,192,21533,1,0,0:0:0:0:
329,192,21533,128,0,21811:0:0:0:0:
402,192,21672,1,0,0:0:0:0:
36,192,21672,128,0,21880:0:0:0:0:
402,192,21811,1,0,0:0:0:0:
182,192,21811,128,0,22158:0:0:0:0:
402,192,21950,1,0,0:0:0:0:
256,192,21950,128,0,22158:0:0:0:0:
36,192,21950,128,0,22158:0:0:0:0:
402,192,22088,1,0,0:0:0:0:
329,192,22088,128,0,22227:0:0:0:0:
109,192,22088,128,0,22158:0:0:0:0:
402,192,22227,1,0,0:0:0:0:
475,192,22227,1,0,0:0:0:0:
256,192,22227,128,0,22644:0:0:0:0:
182,192,22227,128,0,22297:0:0:0:0:
109,192,22227,128,0,22436:0:0:0:0:
36,192,22227,128,0,22575:0:0:0:0:
182,192,22366,128,0,22783:0:0:0:0:
329,192,22366,1,0,0:0:0:0:
109,192,22505,128,0,22922:0:0:0:0:
402,192,22505,1,0,0:0:0:0:
475,192,22505,1,0,0:0:0:0:
36,192,22644,128,0,23061:0:0:0:0:
329,192,22644,1,0,0:0:0:0:
256,192,22783,128,0,23269:0:0:0:0:
402,192,22783,1,0,0:0:0:0:
329,192,22922,128,0,23269:0:0:0:0:
475,192,22922,1,0,0:0:0:0:
182,192,22922,1,0,0:0:0:0:
402,192,23061,128,0,23269:0:0:0:0:
109,192,23061,1,0,0:0:0:0:
475,192,23061,1,0,0:0:0:0:
475,192,23200,128,0,23269:0:0:0:0:
36,192,23200,1,0,0:0:0:0:
256,192,23338,128,0,23408:0:0:0:0:
329,192,23338,128,0,23547:0:0:0:0:
402,192,23338,128,0,23686:0:0:0:0:
475,192,23338,128,0,23825:0:0:0:0:
182,192,23338,1,0,0:0:0:0:
256,192,23477,1,0,0:0:0:0:
109,192,23477,1,0,0:0:0:0:
329,192,23616,1,0,0:0:0:0:
182,192,23616,1,0,0:0:0:0:
402,192,23755,1,0,0:0:0:0:
256,192,23755,128,0,23825:0:0:0:0:
109,192,23825,128,0,24102:0:0:0:0:
475,192,23894,1,0,0:0:0:0:
256,192,23894,128,0,24380:0:0:0:0:
329,192,23894,1,0,0:0:0:0:
36,192,23894,1,0,0:0:0:0:
182,192,24033,128,0,24241:0:0:0:0:
402,192,24033,1,0,0:0:0:0:
109,192,24172,128,0,25561:0:0:0:0:
475,192,24172,1,0,0:0:0:0:
329,192,24172,1,0,0:0:0:0:
182,192,24311,128,0,24936:0:0:0:0:
402,192,24311,1,0,0:0:0:0:
256,192,24450,128,0,25283:0:0:0:0:
329,192,24450,1,0,0:0:0:0:
36,192,24450,1,0,0:0:0:0:
475,192,24450,1,0,0:0:0:0:
402,192,24450,1,0,0:0:0:0:
329,192,24588,128,0,24797:0:0:0:0:
475,192,24727,1,0,0:0:0:0:
36,192,24727,1,0,0:0:0:0:
402,192,24727,128,0,24797:0:0:0:0:
36,192,24866,128,0,25561:0:0:0:0:
329,192,24866,128,0,24936:0:0:0:0:
475,192,25005,1,0,0:0:0:0:
182,192,25005,128,0,25075:0:0:0:0:
182,192,25144,1,0,0:0:0:0:
329,192,25190,128,0,25491:0:0:0:0:
402,192,25237,128,0,25352:0:0:0:0:
475,192,25283,128,0,25491:0:0:0:0:
182,192,25283,1,0,0:0:0:0:
256,192,25352,128,0,25491:0:0:0:0:
182,192,25422,1,0,0:0:0:0:
402,192,25422,128,0,25491:0:0:0:0:
402,192,25561,1,0,0:0:0:0:
475,192,25561,1,0,0:0:0:0:
256,192,25561,128,0,26394:0:0:0:0:
329,192,25561,1,0,0:0:0:0:
402,192,25700,1,0,0:0:0:0:
182,192,25700,128,0,26116:0:0:0:0:
109,192,25700,1,0,0:0:0:0:
36,192,25838,1,0,0:0:0:0:
109,192,25838,128,0,25977:0:0:0:0:
329,192,25838,1,0,0:0:0:0:
329,192,25977,128,0,26394:0:0:0:0:
402,192,25977,1,0,0:0:0:0:
402,192,26116,128,0,26394:0:0:0:0:
109,192,26116,1,0,0:0:0:0:
36,192,26116,1,0,0:0:0:0:
182,192,26255,1,0,0:0:0:0:
36,192,26394,128,0,26602:0:0:0:0:
182,192,26440,128,0,26602:0:0:0:0:
329,192,26487,128,0,26672:0:0:0:0:
402,192,26579,128,0,27644:0:0:0:0:
475,192,26672,128,0,27783:0:0:0:0:
256,192,26672,128,0,26741:0:0:0:0:
182,192,26672,128,0,26880:0:0:0:0:
109,192,26672,128,0,27019:0:0:0:0:
36,192,26672,128,0,27158:0:0:0:0:
256,192,26811,1,0,0:0:0:0:
182,192,26950,1,0,0:0:0:0:
329,192,26950,1,0,0:0:0:0:
329,192,27088,128,0,27922:0:0:0:0:
109,192,27088,1,0,0:0:0:0:
256,192,27088,128,0,27227:0:0:0:0:
36,192,27227,1,0,0:0:0:0:
182,192,27227,128,0,27366:0:0:0:0:
256,192,27366,1,0,0:0:0:0:
109,192,27366,128,0,27505:0:0:0:0:
182,192,27505,128,0,27922:0:0:0:0:
36,192,27505,128,0,27644:0:0:0:0:
256,192,27505,1,0,0:0:0:0:
256,192,27644,128,0,27713:0:0:0:0:
109,192,27713,128,0,27783:0:0:0:0:
402,192,27783,128,0,28894:0:0:0:0:
36,192,27783,1,0,0:0:0:0:
256,192,27783,128,0,28061:0:0:0:0:
109,192,27922,1,0,0:0:0:0:
475,192,27922,1,0,0:0:0:0:
182,192,28061,1,0,0:0:0:0:
329,192,28061,1,0,0:0:0:0:
329,192,28200,128,0,28269:0:0:0:0:
109,192,28200,1,0,0:0:0:0:
36,192,28234,1,0,0:0:0:0:
256,192,28269,128,0,28894:0:0:0:0:
182,192,28338,1,0,0:0:0:0:
36,192,28338,1,0,0:0:0:0:
109,192,28338,1,0,0:0:0:0:
475,192,28338,128,0,28616:0:0:0:0:
182,192,28477,1,0,0:0:0:0:
36,192,28477,1,0,0:0:0:0:
109,192,28616,128,0,28894:0:0:0:0:
182,192,28616,1,0,0:0:0:0:
36,192,28616,1,0,0:0:0:0:
329,192,28616,1,0,0:0:0:0:
36,192,28755,128,0,28825:0:0:0:0:
182,192,28755,128,0,28825:0:0:0:0:
329,192,28755,128,0,28825:0:0:0:0:
475,192,28755,128,0,28825:0:0:0:0:
475,192,28894,128,0,29450:0:0:0:0:
329,192,28894,1,0,0:0:0:0:
182,192,28894,128,0,29102:0:0:0:0:
36,192,28894,128,0,31116:0:0:0:0:
402,192,29033,128,0,29450:0:0:0:0:
256,192,29033,1,0,0:0:0:0:
109,192,29033,128,0,29241:0:0:0:0:
329,192,29172,128,0,29450:0:0:0:0:
182,192,29172,1,0,0:0:0:0:
256,192,29172,1,0,0:0:0:0:
256,192,29311,128,0,29450:0:0:0:0:
109,192,29311,128,0,29380:0:0:0:0:
109,192,29450,1,0,0:0:0:0:
402,192,29588,1,0,0:0:0:0:
256,192,29588,1,0,0:0:0:0:
109,192,29588,128,0,29936:0:0:0:0:
182,192,29658,128,0,29797:0:0:0:0:
329,192,29658,128,0,29866:0:0:0:0:
402,192,29727,1,0,0:0:0:0:
475,192,29727,128,0,30283:0:0:0:0:
256,192,29727,128,0,30005:0:0:0:0:
402,192,29866,128,0,30283:0:0:0:0:
182,192,29866,128,0,29936:0:0:0:0:
329,192,30005,128,0,30283:0:0:0:0:
109,192,30005,128,0,30075:0:0:0:0:
182,192,30005,1,0,0:0:0:0:
109,192,30144,128,0,30213:0:0:0:0:
256,192,30144,128,0,30283:0:0:0:0:
109,192,30283,1,0,0:0:0:0:
329,192,30422,1,0,0:0:0:0:
402,192,30422,1,0,0:0:0:0:
475,192,30422,1,0,0:0:0:0:
182,192,30422,128,0,30491:0:0:0:0:
109,192,30491,1,0,0:0:0:0:
256,192,30491,128,0,30561:0:0:0:0:
329,192,30561,1,0,0:0:0:0:
402,192,30561,1,0,0:0:0:0:
475,192,30561,128,0,31047:0:0:0:0:
182,192,30561,128,0,30700:0:0:0:0:
329,192,30700,1,0,0:0:0:0:
109,192,30700,128,0,30838:0:0:0:0:
256,192,30700,128,0,30838:0:0:0:0:
402,192,30700,128,0,30838:0:0:0:0:
182,192,30838,128,0,31116:0:0:0:0:
329,192,30838,128,0,31116:0:0:0:0:
109,192,30977,128,0,31047:0:0:0:0:
256,192,30977,128,0,31047:0:0:0:0:
402,192,30977,128,0,31047:0:0:0:0:
256,192,31116,1,0,0:0:0:0:
475,192,31116,1,0,0:0:0:0:
402,192,31116,1,0,0:0:0:0:
109,192,31116,1,0,0:0:0:0:
109,192,31255,1,0,0:0:0:0:
256,192,31255,1,0,0:0:0:0:
402,192,31394,1,0,0:0:0:0:
475,192,31394,1,0,0:0:0:0:
36,192,31394,1,0,0:0:0:0:
182,192,31394,1,0,0:0:0:0:
329,192,31394,1,0,0:0:0:0:
182,192,31533,1,0,0:0:0:0:
329,192,31533,1,0,0:0:0:0:
475,192,31672,1,0,0:0:0:0:
402,192,31672,1,0,0:0:0:0:
256,192,31672,1,0,0:0:0:0:
109,192,31672,1,0,0:0:0:0:
36,192,31672,1,0,0:0:0:0:
402,192,31811,1,0,0:0:0:0:
256,192,31811,1,0,0:0:0:0:
475,192,31950,1,0,0:0:0:0:
329,192,31950,1,0,0:0:0:0:
256,192,31950,1,0,0:0:0:0:
182,192,31950,1,0,0:0:0:0:
36,192,31950,1,0,0:0:0:0:
182,192,32088,1,0,0:0:0:0:
329,192,32088,1,0,0:0:0:0:
402,192,32227,1,0,0:0:0:0:
109,192,32227,1,0,0:0:0:0:
36,192,32227,1,0,0:0:0:0:
475,192,32227,1,0,0:0:0:0:
256,192,32227,1,0,0:0:0:0:
36,192,32366,1,0,0:0:0:0:
256,192,32366,1,0,0:0:0:0:
109,192,32366,1,0,0:0:0:0:
36,192,32505,1,0,0:0:0:0:
109,192,32505,1,0,0:0:0:0:
182,192,32505,1,0,0:0:0:0:
329,192,32505,1,0,0:0:0:0:
402,192,32505,1,0,0:0:0:0:
329,192,32644,1,0,0:0:0:0:
402,192,32644,1,0,0:0:0:0:
182,192,32644,1,0,0:0:0:0:
402,192,32783,1,0,0:0:0:0:
475,192,32783,1,0,0:0:0:0:
256,192,32783,1,0,0:0:0:0:
109,192,32783,1,0,0:0:0:0:
36,192,32783,1,0,0:0:0:0:
256,192,32922,1,0,0:0:0:0:
402,192,32922,1,0,0:0:0:0:
475,192,32922,1,0,0:0:0:0:
329,192,33061,1,0,0:0:0:0:
182,192,33061,1,0,0:0:0:0:
36,192,33061,1,0,0:0:0:0:
109,192,33061,1,0,0:0:0:0:
475,192,33061,1,0,0:0:0:0:
402,192,33200,1,0,0:0:0:0:
256,192,33200,1,0,0:0:0:0:
182,192,33200,1,0,0:0:0:0:
109,192,33200,1,0,0:0:0:0:
475,192,33200,1,0,0:0:0:0:
182,192,33338,1,0,0:0:0:0:
256,192,33338,1,0,0:0:0:0:
329,192,33338,1,0,0:0:0:0:
402,192,33338,1,0,0:0:0:0:
475,192,33338,1,0,0:0:0:0:
36,192,33338,1,0,0:0:0:0:
402,192,33477,1,0,0:0:0:0:
329,192,33477,1,0,0:0:0:0:
256,192,33477,1,0,0:0:0:0:
109,192,33477,1,0,0:0:0:0:
109,192,33616,1,0,0:0:0:0:
36,192,33616,1,0,0:0:0:0:
182,192,33616,1,0,0:0:0:0:
256,192,33616,1,0,0:0:0:0:
329,192,33616,1,0,0:0:0:0:
402,192,33616,1,0,0:0:0:0:
475,192,33616,1,0,0:0:0:0:
109,192,33755,1,0,0:0:0:0:
182,192,33755,1,0,0:0:0:0:
36,192,33755,1,0,0:0:0:0:
475,192,33894,1,0,0:0:0:0:
402,192,33894,1,0,0:0:0:0:
256,192,33894,1,0,0:0:0:0:
329,192,33894,1,0,0:0:0:0:
182,192,33894,1,0,0:0:0:0:
109,192,33894,1,0,0:0:0:0:
36,192,33894,1,0,0:0:0:0:
182,192,34033,1,0,0:0:0:0:
256,192,34033,1,0,0:0:0:0:
329,192,34033,1,0,0:0:0:0:
402,192,34033,1,0,0:0:0:0:
475,192,34172,1,0,0:0:0:0:
402,192,34172,1,0,0:0:0:0:
329,192,34172,1,0,0:0:0:0:
256,192,34172,1,0,0:0:0:0:
182,192,34172,1,0,0:0:0:0:
109,192,34172,1,0,0:0:0:0:
36,192,34172,1,0,0:0:0:0:
109,192,34311,1,0,0:0:0:0:
36,192,34311,1,0,0:0:0:0:
256,192,34311,1,0,0:0:0:0:
402,192,34311,1,0,0:0:0:0:
475,192,34311,1,0,0:0:0:0:
475,192,34450,1,0,0:0:0:0:
402,192,34450,1,0,0:0:0:0:
329,192,34450,1,0,0:0:0:0:
256,192,34450,1,0,0:0:0:0:
109,192,34450,1,0,0:0:0:0:
36,192,34450,1,0,0:0:0:0:
182,192,34450,1,0,0:0:0:0:
182,192,34588,1,0,0:0:0:0:
329,192,34588,1,0,0:0:0:0:
402,192,34658,1,0,0:0:0:0:
475,192,34658,1,0,0:0:0:0:
36,192,34658,1,0,0:0:0:0:
256,192,34658,1,0,0:0:0:0:
109,192,34658,1,0,0:0:0:0:
182,192,34727,1,0,0:0:0:0:
329,192,34727,1,0,0:0:0:0:
182,192,34866,1,0,0:0:0:0:
36,192,34866,1,0,0:0:0:0:
256,192,34866,1,0,0:0:0:0:
329,192,34866,1,0,0:0:0:0:
475,192,34866,1,0,0:0:0:0:
36,192,35005,1,0,0:0:0:0:
109,192,35005,1,0,0:0:0:0:
475,192,35005,1,0,0:0:0:0:
402,192,35005,1,0,0:0:0:0:
182,192,35028,1,0,0:0:0:0:
256,192,35051,1,0,0:0:0:0:
329,192,35075,1,0,0:0:0:0:
475,192,35144,1,0,0:0:0:0:
402,192,35144,1,0,0:0:0:0:
182,192,35144,1,0,0:0:0:0:
36,192,35144,1,0,0:0:0:0:
109,192,35213,1,0,0:0:0:0:
256,192,35213,1,0,0:0:0:0:
182,192,35283,1,0,0:0:0:0:
402,192,35283,1,0,0:0:0:0:
329,192,35283,1,0,0:0:0:0:
475,192,35283,1,0,0:0:0:0:
36,192,35283,1,0,0:0:0:0:
256,192,35422,1,0,0:0:0:0:
402,192,35422,1,0,0:0:0:0:
475,192,35561,1,0,0:0:0:0:
402,192,35561,1,0,0:0:0:0:
329,192,35561,1,0,0:0:0:0:
256,192,35561,1,0,0:0:0:0:
182,192,35561,1,0,0:0:0:0:
109,192,35561,1,0,0:0:0:0:
36,192,35561,1,0,0:0:0:0:
109,192,35700,1,0,0:0:0:0:
182,192,35700,1,0,0:0:0:0:
256,192,35700,1,0,0:0:0:0:
329,192,35700,1,0,0:0:0:0:
402,192,35700,1,0,0:0:0:0:
475,192,35700,1,0,0:0:0:0:
182,192,35838,1,0,0:0:0:0:
36,192,35838,1,0,0:0:0:0:
256,192,35838,1,0,0:0:0:0:
329,192,35838,1,0,0:0:0:0:
402,192,35838,1,0,0:0:0:0:
475,192,35838,1,0,0:0:0:0:
329,192,35977,1,0,0:0:0:0:
402,192,35977,1,0,0:0:0:0:
475,192,35977,1,0,0:0:0:0:
256,192,35977,1,0,0:0:0:0:
182,192,35995,1,0,0:0:0:0:
109,192,36012,1,0,0:0:0:0:
36,192,36029,1,0,0:0:0:0:
475,192,36047,1,0,0:0:0:0:
402,192,36064,1,0,0:0:0:0:
329,192,36081,1,0,0:0:0:0:
256,192,36099,1,0,0:0:0:0:
182,192,36116,1,0,0:0:0:0:
109,192,36116,1,0,0:0:0:0:
36,192,36116,1,0,0:0:0:0:
36,192,36255,1,0,0:0:0:0:
109,192,36255,1,0,0:0:0:0:
182,192,36255,1,0,0:0:0:0:
256,192,36255,1,0,0:0:0:0:
402,192,36255,1,0,0:0:0:0:
475,192,36255,1,0,0:0:0:0:
329,192,36394,1,0,0:0:0:0:
256,192,36533,1,0,0:0:0:0:
182,192,36579,1,0,0:0:0:0:
329,192,36625,1,0,0:0:0:0:
402,192,36672,1,0,0:0:0:0:
475,192,36672,1,0,0:0:0:0:
109,192,36672,1,0,0:0:0:0:
36,192,36672,1,0,0:0:0:0:
256,192,36672,1,0,0:0:0:0:
475,192,36811,1,0,0:0:0:0:
402,192,36811,1,0,0:0:0:0:
329,192,36811,1,0,0:0:0:0:
182,192,36811,1,0,0:0:0:0:
109,192,36811,1,0,0:0:0:0:
36,192,36811,1,0,0:0:0:0:
256,192,36950,1,0,0:0:0:0:
109,192,36950,1,0,0:0:0:0:
36,192,36950,1,0,0:0:0:0:
329,192,36950,1,0,0:0:0:0:
402,192,36950,1,0,0:0:0:0:
475,192,36950,1,0,0:0:0:0:
36,192,37088,1,0,0:0:0:0:
329,192,37088,1,0,0:0:0:0:
402,192,37088,1,0,0:0:0:0:
475,192,37088,1,0,0:0:0:0:
182,192,37088,1,0,0:0:0:0:
256,192,37158,1,0,0:0:0:0:
109,192,37158,1,0,0:0:0:0:
182,192,37227,1,0,0:0:0:0:
36,192,37227,1,0,0:0:0:0:
329,192,37227,1,0,0:0:0:0:
402,192,37227,1,0,0:0:0:0:
475,192,37227,1,0,0:0:0:0:
109,192,37366,1,0,0:0:0:0:
182,192,37366,1,0,0:0:0:0:
256,192,37366,1,0,0:0:0:0:
36,192,37366,1,0,0:0:0:0:
402,192,37366,1,0,0:0:0:0:
475,192,37366,1,0,0:0:0:0:
182,192,37505,1,0,0:0:0:0:
109,192,37505,1,0,0:0:0:0:
36,192,37505,1,0,0:0:0:0:
329,192,37505,128,0,37713:0:0:0:0:
475,192,37505,128,0,37713:0:0:0:0:
109,192,37644,128,0,37713:0:0:0:0:
36,192,37644,128,0,37713:0:0:0:0:
329,192,37783,1,0,0:0:0:0:
109,192,37783,1,0,0:0:0:0:
36,192,37783,1,0,0:0:0:0:
475,192,37783,1,0,0:0:0:0:
256,192,37852,1,0,0:0:0:0:
402,192,37852,1,0,0:0:0:0:
329,192,37922,1,0,0:0:0:0:
182,192,37922,1,0,0:0:0:0:
475,192,37922,1,0,0:0:0:0:
36,192,37922,1,0,0:0:0:0:
109,192,37991,1,0,0:0:0:0:
256,192,37991,1,0,0:0:0:0:
402,192,38061,1,0,0:0:0:0:
182,192,38061,1,0,0:0:0:0:
36,192,38061,1,0,0:0:0:0:
475,192,38061,1,0,0:0:0:0:
109,192,38130,1,0,0:0:0:0:
256,192,38130,1,0,0:0:0:0:
182,192,38200,1,0,0:0:0:0:
329,192,38200,1,0,0:0:0:0:
36,192,38200,1,0,0:0:0:0:
475,192,38200,1,0,0:0:0:0:
402,192,38269,1,0,0:0:0:0:
256,192,38269,1,0,0:0:0:0:
36,192,38338,1,0,0:0:0:0:
109,192,38356,1,0,0:0:0:0:
182,192,38373,1,0,0:0:0:0:
329,192,38390,1,0,0:0:0:0:
402,192,38408,1,0,0:0:0:0:
475,192,38425,1,0,0:0:0:0:
256,192,38443,1,0,0:0:0:0:
182,192,38460,1,0,0:0:0:0:
109,192,38477,1,0,0:0:0:0:
36,192,38477,1,0,0:0:0:0:
329,192,38547,1,0,0:0:0:0:
402,192,38547,1,0,0:0:0:0:
475,192,38547,1,0,0:0:0:0:
256,192,38616,1,0,0:0:0:0:
182,192,38616,1,0,0:0:0:0:
109,192,38616,1,0,0:0:0:0:
36,192,38616,1,0,0:0:0:0:
475,192,38686,1,0,0:0:0:0:
402,192,38686,1,0,0:0:0:0:
329,192,38755,1,0,0:0:0:0:
256,192,38755,1,0,0:0:0:0:
182,192,38755,1,0,0:0:0:0:
109,192,38755,1,0,0:0:0:0:
36,192,38755,1,0,0:0:0:0:
475,192,38825,1,0,0:0:0:0:
402,192,38894,1,0,0:0:0:0:
329,192,38894,1,0,0:0:0:0:
182,192,38894,1,0,0:0:0:0:
109,192,38894,1,0,0:0:0:0:
36,192,38894,1,0,0:0:0:0:
256,192,38894,1,0,0:0:0:0:
256,192,39033,1,0,0:0:0:0:
329,192,39172,1,0,0:0:0:0:
182,192,39172,1,0,0:0:0:0:
109,192,39311,1,0,0:0:0:0:
402,192,39311,1,0,0:0:0:0:
329,192,39380,1,0,0:0:0:0:
182,192,39380,1,0,0:0:0:0:
256,192,39450,1,0,0:0:0:0:
36,192,39450,1,0,0:0:0:0:
475,192,39450,1,0,0:0:0:0:
182,192,39519,1,0,0:0:0:0:
329,192,39519,1,0,0:0:0:0:
402,192,39588,1,0,0:0:0:0:
109,192,39588,1,0,0:0:0:0:
36,192,39727,128,0,39936:0:0:0:0:
182,192,39727,128,0,39936:0:0:0:0:
256,192,39727,128,0,39936:0:0:0:0:
329,192,39727,128,0,39936:0:0:0:0:
475,192,39727,128,0,39936:0:0:0:0:
36,192,40005,5,0,0:0:0:0:
109,192,40005,1,0,0:0:0:0:
182,192,40005,1,0,0:0:0:0:
329,192,40005,1,0,0:0:0:0:
402,192,40005,1,0,0:0:0:0:
475,192,40005,1,0,0:0:0:0:
256,192,40005,1,0,0:0:0:0:
36,192,40144,1,0,0:0:0:0:
109,192,40144,1,0,0:0:0:0:
329,192,40144,1,0,0:0:0:0:
402,192,40144,1,0,0:0:0:0:
182,192,40144,1,0,0:0:0:0:
256,192,40283,1,0,0:0:0:0:
475,192,40283,1,0,0:0:0:0:
182,192,40283,1,0,0:0:0:0:
402,192,40283,1,0,0:0:0:0:
36,192,40352,1,0,0:0:0:0:
109,192,40352,1,0,0:0:0:0:
182,192,40422,1,0,0:0:0:0:
329,192,40422,1,0,0:0:0:0:
36,192,40491,1,0,0:0:0:0:
109,192,40491,1,0,0:0:0:0:
256,192,40561,1,0,0:0:0:0:
402,192,40561,1,0,0:0:0:0:
475,192,40561,1,0,0:0:0:0:
329,192,40561,1,0,0:0:0:0:
182,192,40561,1,0,0:0:0:0:
402,192,40700,1,0,0:0:0:0:
475,192,40700,1,0,0:0:0:0:
182,192,40700,1,0,0:0:0:0:
329,192,40769,1,0,0:0:0:0:
109,192,40769,1,0,0:0:0:0:
182,192,40838,1,0,0:0:0:0:
475,192,40838,1,0,0:0:0:0:
402,192,40838,1,0,0:0:0:0:
402,192,40908,1,0,0:0:0:0:
475,192,40908,1,0,0:0:0:0:
109,192,40977,1,0,0:0:0:0:
182,192,40995,1,0,0:0:0:0:
256,192,41012,1,0,0:0:0:0:
329,192,41047,1,0,0:0:0:0:
109,192,41116,1,0,0:0:0:0:
182,192,41151,1,0,0:0:0:0:
256,192,41186,1,0,0:0:0:0:
329,192,41255,1,0,0:0:0:0:
402,192,41255,1,0,0:0:0:0:
475,192,41255,1,0,0:0:0:0:
36,192,41255,1,0,0:0:0:0:
109,192,41255,1,0,0:0:0:0:
182,192,41255,1,0,0:0:0:0:
36,192,41394,1,0,0:0:0:0:
109,192,41394,1,0,0:0:0:0:
182,192,41394,1,0,0:0:0:0:
329,192,41394,1,0,0:0:0:0:
402,192,41394,1,0,0:0:0:0:
475,192,41394,1,0,0:0:0:0:
36,192,41533,1,0,0:0:0:0:
182,192,41533,1,0,0:0:0:0:
329,192,41533,1,0,0:0:0:0:
475,192,41533,1,0,0:0:0:0:
109,192,41672,1,0,0:0:0:0:
256,192,41672,1,0,0:0:0:0:
36,192,41672,1,0,0:0:0:0:
402,192,41672,1,0,0:0:0:0:
475,192,41672,1,0,0:0:0:0:
329,192,41764,1,0,0:0:0:0:
182,192,41764,1,0,0:0:0:0:
329,192,41857,1,0,0:0:0:0:
182,192,41857,1,0,0:0:0:0:
109,192,41950,1,0,0:0:0:0:
256,192,41950,1,0,0:0:0:0:
36,192,41950,1,0,0:0:0:0:
475,192,41996,1,0,0:0:0:0:
402,192,41996,1,0,0:0:0:0:
329,192,42042,1,0,0:0:0:0:
182,192,42042,1,0,0:0:0:0:
109,192,42088,1,0,0:0:0:0:
36,192,42088,1,0,0:0:0:0:
256,192,42135,1,0,0:0:0:0:
402,192,42135,1,0,0:0:0:0:
36,192,42227,1,0,0:0:0:0:
182,192,42227,1,0,0:0:0:0:
329,192,42227,1,0,0:0:0:0:
475,192,42227,1,0,0:0:0:0:
109,192,42227,1,0,0:0:0:0:
182,192,42366,1,0,0:0:0:0:
329,192,42366,1,0,0:0:0:0:
475,192,42366,1,0,0:0:0:0:
109,192,42366,1,0,0:0:0:0:
256,192,42505,1,0,0:0:0:0:
402,192,42505,1,0,0:0:0:0:
109,192,42575,1,0,0:0:0:0:
182,192,42575,1,0,0:0:0:0:
329,192,42644,1,0,0:0:0:0:
475,192,42644,1,0,0:0:0:0:
256,192,42661,1,0,0:0:0:0:
329,192,42713,1,0,0:0:0:0:
109,192,42713,1,0,0:0:0:0:
36,192,42731,1,0,0:0:0:0:
182,192,42783,1,0,0:0:0:0:
475,192,42783,1,0,0:0:0:0:
402,192,42783,1,0,0:0:0:0:
256,192,42783,1,0,0:0:0:0:
182,192,42922,1,0,0:0:0:0:
329,192,42956,1,0,0:0:0:0:
256,192,42991,1,0,0:0:0:0:
475,192,43061,1,0,0:0:0:0:
402,192,43061,1,0,0:0:0:0:
109,192,43061,1,0,0:0:0:0:
36,192,43061,1,0,0:0:0:0:
109,192,43200,1,0,0:0:0:0:
182,192,43200,1,0,0:0:0:0:
329,192,43200,1,0,0:0:0:0:
402,192,43200,1,0,0:0:0:0:
256,192,43200,1,0,0:0:0:0:
256,192,43338,1,0,0:0:0:0:
475,192,43338,1,0,0:0:0:0:
182,192,43373,1,0,0:0:0:0:
109,192,43408,1,0,0:0:0:0:
36,192,43443,1,0,0:0:0:0:
329,192,43477,1,0,0:0:0:0:
402,192,43495,1,0,0:0:0:0:
329,192,43547,1,0,0:0:0:0:
182,192,43547,1,0,0:0:0:0:
402,192,43564,1,0,0:0:0:0:
109,192,43616,1,0,0:0:0:0:
36,192,43616,1,0,0:0:0:0:
256,192,43651,1,0,0:0:0:0:
475,192,43686,1,0,0:0:0:0:
402,192,43686,1,0,0:0:0:0:
109,192,43755,1,0,0:0:0:0:
182,192,43755,1,0,0:0:0:0:
329,192,43755,1,0,0:0:0:0:
109,192,43825,1,0,0:0:0:0:
182,192,43825,1,0,0:0:0:0:
329,192,43825,1,0,0:0:0:0:
256,192,43894,1,0,0:0:0:0:
475,192,43894,1,0,0:0:0:0:
402,192,43894,1,0,0:0:0:0:
36,192,44033,1,0,0:0:0:0:
402,192,44033,1,0,0:0:0:0:
475,192,44033,1,0,0:0:0:0:
329,192,44033,1,0,0:0:0:0:
109,192,44068,1,0,0:0:0:0:
182,192,44102,1,0,0:0:0:0:
256,192,44137,1,0,0:0:0:0:
475,192,44172,1,0,0:0:0:0:
402,192,44195,1,0,0:0:0:0:
329,192,44218,1,0,0:0:0:0:
256,192,44241,1,0,0:0:0:0:
182,192,44264,1,0,0:0:0:0:
109,192,44287,1,0,0:0:0:0:
36,192,44311,1,0,0:0:0:0:
329,192,44311,1,0,0:0:0:0:
402,192,44311,1,0,0:0:0:0:
475,192,44311,1,0,0:0:0:0:
256,192,44380,1,0,0:0:0:0:
329,192,44450,1,0,0:0:0:0:
402,192,44450,1,0,0:0:0:0:
475,192,44450,1,0,0:0:0:0:
36,192,44450,1,0,0:0:0:0:
109,192,44450,1,0,0:0:0:0:
182,192,44450,1,0,0:0:0:0:
36,192,44588,1,0,0:0:0:0:
329,192,44588,1,0,0:0:0:0:
109,192,44606,1,0,0:0:0:0:
256,192,44658,1,0,0:0:0:0:
475,192,44658,1,0,0:0:0:0:
182,192,44675,1,0,0:0:0:0:
329,192,44727,1,0,0:0:0:0:
36,192,44727,1,0,0:0:0:0:
402,192,44745,1,0,0:0:0:0:
329,192,44797,1,0,0:0:0:0:
402,192,44814,1,0,0:0:0:0:
182,192,44866,1,0,0:0:0:0:
109,192,44866,1,0,0:0:0:0:
182,192,44936,1,0,0:0:0:0:
109,192,44936,1,0,0:0:0:0:
329,192,45005,1,0,0:0:0:0:
475,192,45005,1,0,0:0:0:0:
36,192,45005,1,0,0:0:0:0:
402,192,45005,1,0,0:0:0:0:
256,192,45005,1,0,0:0:0:0:
182,192,45144,1,0,0:0:0:0:
329,192,45144,1,0,0:0:0:0:
402,192,45144,1,0,0:0:0:0:
109,192,45213,1,0,0:0:0:0:
256,192,45213,1,0,0:0:0:0:
182,192,45283,1,0,0:0:0:0:
402,192,45283,1,0,0:0:0:0:
475,192,45283,1,0,0:0:0:0:
36,192,45283,1,0,0:0:0:0:
402,192,45352,1,0,0:0:0:0:
475,192,45352,1,0,0:0:0:0:
36,192,45422,1,0,0:0:0:0:
109,192,45445,1,0,0:0:0:0:
182,192,45468,1,0,0:0:0:0:
329,192,45491,1,0,0:0:0:0:
402,192,45514,1,0,0:0:0:0:
475,192,45537,1,0,0:0:0:0:
36,192,45561,1,0,0:0:0:0:
109,192,45584,1,0,0:0:0:0:
182,192,45607,1,0,0:0:0:0:
329,192,45630,1,0,0:0:0:0:
402,192,45653,1,0,0:0:0:0:
475,192,45676,1,0,0:0:0:0:
36,192,45700,1,0,0:0:0:0:
109,192,45700,1,0,0:0:0:0:
256,192,45700,1,0,0:0:0:0:
109,192,45838,1,0,0:0:0:0:
36,192,45838,1,0,0:0:0:0:
182,192,45908,1,0,0:0:0:0:
329,192,45908,1,0,0:0:0:0:
109,192,45977,1,0,0:0:0:0:
256,192,45977,1,0,0:0:0:0:
402,192,45977,1,0,0:0:0:0:
475,192,45977,1,0,0:0:0:0:
36,192,45977,1,0,0:0:0:0:
402,192,46047,1,0,0:0:0:0:
475,192,46047,1,0,0:0:0:0:
256,192,46047,1,0,0:0:0:0:
36,192,46116,1,0,0:0:0:0:
182,192,46116,1,0,0:0:0:0:
329,192,46116,1,0,0:0:0:0:
36,192,46209,1,0,0:0:0:0:
182,192,46209,1,0,0:0:0:0:
402,192,46209,1,0,0:0:0:0:
475,192,46209,1,0,0:0:0:0:
182,192,46301,1,0,0:0:0:0:
36,192,46301,1,0,0:0:0:0:
329,192,46301,1,0,0:0:0:0:
109,192,46394,1,0,0:0:0:0:
402,192,46394,1,0,0:0:0:0:
475,192,46394,1,0,0:0:0:0:
256,192,46394,1,0,0:0:0:0:
182,192,46429,1,0,0:0:0:0:
329,192,46429,1,0,0:0:0:0:
36,192,46533,1,0,0:0:0:0:
109,192,46533,1,0,0:0:0:0:
256,192,46533,1,0,0:0:0:0:
402,192,46533,1,0,0:0:0:0:
475,192,46533,1,0,0:0:0:0:
36,192,46672,1,0,0:0:0:0:
109,192,46672,1,0,0:0:0:0:
182,192,46672,1,0,0:0:0:0:
329,192,46672,1,0,0:0:0:0:
402,192,46672,1,0,0:0:0:0:
475,192,46672,1,0,0:0:0:0:
256,192,46811,1,0,0:0:0:0:
182,192,46811,1,0,0:0:0:0:
329,192,46834,1,0,0:0:0:0:
109,192,46845,1,0,0:0:0:0:
402,192,46857,1,0,0:0:0:0:
475,192,46880,1,0,0:0:0:0:
36,192,46880,1,0,0:0:0:0:
329,192,46950,1,0,0:0:0:0:
256,192,46973,1,0,0:0:0:0:
109,192,46996,1,0,0:0:0:0:
36,192,47019,1,0,0:0:0:0:
475,192,47088,1,0,0:0:0:0:
402,192,47088,1,0,0:0:0:0:
329,192,47088,1,0,0:0:0:0:
182,192,47088,1,0,0:0:0:0:
36,192,47158,1,0,0:0:0:0:
109,192,47158,1,0,0:0:0:0:
329,192,47227,1,0,0:0:0:0:
402,192,47227,1,0,0:0:0:0:
475,192,47227,1,0,0:0:0:0:
256,192,47227,1,0,0:0:0:0:
36,192,47366,1,0,0:0:0:0:
109,192,47366,1,0,0:0:0:0:
329,192,47436,1,0,0:0:0:0:
182,192,47436,1,0,0:0:0:0:
256,192,47505,1,0,0:0:0:0:
402,192,47505,1,0,0:0:0:0:
475,192,47505,1,0,0:0:0:0:
36,192,47505,1,0,0:0:0:0:
109,192,47505,1,0,0:0:0:0:
402,192,47575,1,0,0:0:0:0:
475,192,47575,1,0,0:0:0:0:
36,192,47644,1,0,0:0:0:0:
109,192,47644,1,0,0:0:0:0:
182,192,47644,1,0,0:0:0:0:
329,192,47644,1,0,0:0:0:0:
256,192,47644,1,0,0:0:0:0:
36,192,47783,1,0,0:0:0:0:
109,192,47783,1,0,0:0:0:0:
182,192,47783,1,0,0:0:0:0:
329,192,47783,1,0,0:0:0:0:
402,192,47783,1,0,0:0:0:0:
475,192,47783,1,0,0:0:0:0:
256,192,47783,1,0,0:0:0:0:
475,192,47870,1,0,0:0:0:0:
402,192,47875,1,0,0:0:0:0:
329,192,47887,1,0,0:0:0:0:
475,192,47991,1,0,0:0:0:0:
402,192,47991,1,0,0:0:0:0:
329,192,47991,1,0,0:0:0:0:
256,192,47991,1,0,0:0:0:0:
182,192,47991,1,0,0:0:0:0:
109,192,47991,1,0,0:0:0:0:
36,192,47991,1,0,0:0:0:0:
36,192,48078,1,0,0:0:0:0:
109,192,48084,1,0,0:0:0:0:
182,192,48095,1,0,0:0:0:0:
36,192,48200,1,0,0:0:0:0:
109,192,48200,1,0,0:0:0:0:
256,192,48200,1,0,0:0:0:0:
329,192,48200,1,0,0:0:0:0:
182,192,48200,1,0,0:0:0:0:
402,192,48200,1,0,0:0:0:0:
475,192,48200,1,0,0:0:0:0:
182,192,48338,1,0,0:0:0:0:
402,192,48338,1,0,0:0:0:0:
475,192,48338,1,0,0:0:0:0:
329,192,48338,1,0,0:0:0:0:
36,192,48477,1,0,0:0:0:0:
109,192,48477,1,0,0:0:0:0:
256,192,48477,1,0,0:0:0:0:
36,192,48547,1,0,0:0:0:0:
109,192,48547,1,0,0:0:0:0:
256,192,48547,1,0,0:0:0:0:
182,192,48616,1,0,0:0:0:0:
329,192,48616,1,0,0:0:0:0:
402,192,48616,1,0,0:0:0:0:
475,192,48616,1,0,0:0:0:0:
109,192,48686,1,0,0:0:0:0:
36,192,48755,1,0,0:0:0:0:
182,192,48755,1,0,0:0:0:0:
256,192,48755,1,0,0:0:0:0:
329,192,48755,1,0,0:0:0:0:
402,192,48755,1,0,0:0:0:0:
475,192,48755,1,0,0:0:0:0:
36,192,48894,1,0,0:0:0:0:
109,192,48894,1,0,0:0:0:0:
182,192,48894,1,0,0:0:0:0:
256,192,48894,1,0,0:0:0:0:
329,192,48894,1,0,0:0:0:0:
402,192,48894,1,0,0:0:0:0:
475,192,48894,1,0,0:0:0:0:
109,192,49033,1,0,0:0:0:0:
329,192,49033,1,0,0:0:0:0:
256,192,49033,1,0,0:0:0:0:
36,192,49079,1,0,0:0:0:0:
402,192,49102,1,0,0:0:0:0:
109,192,49125,1,0,0:0:0:0:
182,192,49172,1,0,0:0:0:0:
329,192,49172,1,0,0:0:0:0:
402,192,49218,1,0,0:0:0:0:
36,192,49241,1,0,0:0:0:0:
475,192,49264,1,0,0:0:0:0:
256,192,49311,1,0,0:0:0:0:
329,192,49311,1,0,0:0:0:0:
182,192,49311,1,0,0:0:0:0:
109,192,49380,1,0,0:0:0:0:
36,192,49380,1,0,0:0:0:0:
36,192,49450,1,0,0:0:0:0:
109,192,49450,1,0,0:0:0:0:
256,192,49450,1,0,0:0:0:0:
402,192,49450,1,0,0:0:0:0:
475,192,49450,1,0,0:0:0:0:
329,192,49588,1,0,0:0:0:0:
109,192,49588,1,0,0:0:0:0:
402,192,49588,1,0,0:0:0:0:
182,192,49658,1,0,0:0:0:0:
329,192,49658,1,0,0:0:0:0:
402,192,49658,1,0,0:0:0:0:
256,192,49727,1,0,0:0:0:0:
182,192,49797,1,0,0:0:0:0:
329,192,49797,1,0,0:0:0:0:
402,192,49866,1,0,0:0:0:0:
109,192,49866,1,0,0:0:0:0:
475,192,49884,1,0,0:0:0:0:
36,192,49884,1,0,0:0:0:0:
256,192,49936,1,0,0:0:0:0:
475,192,50005,1,0,0:0:0:0:
402,192,50005,1,0,0:0:0:0:
329,192,50040,1,0,0:0:0:0:
256,192,50075,1,0,0:0:0:0:
182,192,50109,1,0,0:0:0:0:
109,192,50144,1,0,0:0:0:0:
402,192,50144,1,0,0:0:0:0:
36,192,50144,1,0,0:0:0:0:
475,192,50144,1,0,0:0:0:0:
402,192,50213,1,0,0:0:0:0:
329,192,50213,1,0,0:0:0:0:
256,192,50283,1,0,0:0:0:0:
475,192,50283,1,0,0:0:0:0:
109,192,50283,1,0,0:0:0:0:
36,192,50283,1,0,0:0:0:0:
182,192,50283,1,0,0:0:0:0:
329,192,50352,1,0,0:0:0:0:
36,192,50422,1,0,0:0:0:0:
109,192,50439,1,0,0:0:0:0:
182,192,50456,1,0,0:0:0:0:
256,192,50474,1,0,0:0:0:0:
329,192,50491,1,0,0:0:0:0:
475,192,50491,1,0,0:0:0:0:
402,192,50561,1,0,0:0:0:0:
36,192,50561,1,0,0:0:0:0:
109,192,50561,1,0,0:0:0:0:
475,192,50653,1,0,0:0:0:0:
109,192,50653,1,0,0:0:0:0:
182,192,50653,1,0,0:0:0:0:
329,192,50653,1,0,0:0:0:0:
475,192,50746,1,0,0:0:0:0:
256,192,50746,1,0,0:0:0:0:
182,192,50746,1,0,0:0:0:0:
402,192,50746,1,0,0:0:0:0:
256,192,50838,1,0,0:0:0:0:
329,192,50838,1,0,0:0:0:0:
402,192,50838,1,0,0:0:0:0:
475,192,50838,1,0,0:0:0:0:
36,192,50838,1,0,0:0:0:0:
109,192,50908,1,0,0:0:0:0:
182,192,50908,1,0,0:0:0:0:
329,192,50977,1,0,0:0:0:0:
402,192,50995,1,0,0:0:0:0:
475,192,51012,1,0,0:0:0:0:
182,192,51047,1,0,0:0:0:0:
109,192,51064,1,0,0:0:0:0:
36,192,51081,1,0,0:0:0:0:
256,192,51116,1,0,0:0:0:0:
329,192,51116,1,0,0:0:0:0:
402,192,51116,1,0,0:0:0:0:
475,192,51116,1,0,0:0:0:0:
182,192,51162,1,0,0:0:0:0:
109,192,51209,1,0,0:0:0:0:
256,192,51255,1,0,0:0:0:0:
36,192,51255,1,0,0:0:0:0:
329,192,51301,1,0,0:0:0:0:
402,192,51348,1,0,0:0:0:0:
36,192,51394,1,0,0:0:0:0:
109,192,51394,1,0,0:0:0:0:
256,192,51394,1,0,0:0:0:0:
475,192,51394,1,0,0:0:0:0:
109,192,51487,1,0,0:0:0:0:
182,192,51487,1,0,0:0:0:0:
329,192,51487,1,0,0:0:0:0:
182,192,51579,1,0,0:0:0:0:
256,192,51579,1,0,0:0:0:0:
402,192,51672,1,0,0:0:0:0:
475,192,51672,1,0,0:0:0:0:
256,192,51672,1,0,0:0:0:0:
36,192,51672,1,0,0:0:0:0:
329,192,51764,1,0,0:0:0:0:
402,192,51764,1,0,0:0:0:0:
182,192,51764,1,0,0:0:0:0:
256,192,51857,1,0,0:0:0:0:
329,192,51857,1,0,0:0:0:0:
109,192,51857,1,0,0:0:0:0:
182,192,51950,1,0,0:0:0:0:
36,192,51950,1,0,0:0:0:0:
475,192,51950,1,0,0:0:0:0:
256,192,51950,1,0,0:0:0:0:
402,192,51984,1,0,0:0:0:0:
329,192,52019,1,0,0:0:0:0:
36,192,52088,1,0,0:0:0:0:
109,192,52088,1,0,0:0:0:0:
329,192,52123,1,0,0:0:0:0:
182,192,52123,1,0,0:0:0:0:
475,192,52123,1,0,0:0:0:0:
402,192,52123,1,0,0:0:0:0:
256,192,52227,1,0,0:0:0:0:
182,192,52262,1,0,0:0:0:0:
109,192,52297,1,0,0:0:0:0:
402,192,52297,1,0,0:0:0:0:
329,192,52331,1,0,0:0:0:0:
256,192,52366,1,0,0:0:0:0:
475,192,52366,1,0,0:0:0:0:
36,192,52366,1,0,0:0:0:0:
256,192,52436,1,0,0:0:0:0:
36,192,52436,1,0,0:0:0:0:
109,192,52505,1,0,0:0:0:0:
182,192,52505,1,0,0:0:0:0:
329,192,52505,1,0,0:0:0:0:
402,192,52540,1,0,0:0:0:0:
475,192,52575,1,0,0:0:0:0:
36,192,52644,1,0,0:0:0:0:
109,192,52644,1,0,0:0:0:0:
182,192,52644,1,0,0:0:0:0:
256,192,52644,1,0,0:0:0:0:
329,192,52644,1,0,0:0:0:0:
182,192,52783,1,0,0:0:0:0:
256,192,52783,1,0,0:0:0:0:
329,192,52783,1,0,0:0:0:0:
402,192,52783,1,0,0:0:0:0:
475,192,52783,1,0,0:0:0:0:
36,192,52922,1,0,0:0:0:0:
109,192,52922,1,0,0:0:0:0:
182,192,52922,1,0,0:0:0:0:
329,192,52922,1,0,0:0:0:0:
475,192,52922,1,0,0:0:0:0:
402,192,52922,1,0,0:0:0:0:
36,192,53061,1,0,0:0:0:0:
109,192,53061,1,0,0:0:0:0:
182,192,53061,1,0,0:0:0:0:
256,192,53061,1,0,0:0:0:0:
329,192,53061,1,0,0:0:0:0:
402,192,53061,1,0,0:0:0:0:
475,192,53130,1,0,0:0:0:0:
402,192,53153,1,0,0:0:0:0:
329,192,53176,1,0,0:0:0:0:
256,192,53200,1,0,0:0:0:0:
182,192,53223,1,0,0:0:0:0:
109,192,53246,1,0,0:0:0:0:
36,192,53269,1,0,0:0:0:0:
109,192,53338,1,0,0:0:0:0:
256,192,53338,1,0,0:0:0:0:
329,192,53338,1,0,0:0:0:0:
182,192,53338,1,0,0:0:0:0:
402,192,53338,1,0,0:0:0:0:
475,192,53338,1,0,0:0:0:0:
36,192,53477,1,0,0:0:0:0:
109,192,53477,1,0,0:0:0:0:
329,192,53477,1,0,0:0:0:0:
182,192,53477,1,0,0:0:0:0:
256,192,53477,1,0,0:0:0:0:
475,192,53616,1,0,0:0:0:0:
402,192,53616,1,0,0:0:0:0:
329,192,53616,1,0,0:0:0:0:
182,192,53651,1,0,0:0:0:0:
109,192,53668,1,0,0:0:0:0:
36,192,53686,1,0,0:0:0:0:
256,192,53755,1,0,0:0:0:0:
329,192,53755,1,0,0:0:0:0:
402,192,53755,1,0,0:0:0:0:
36,192,53825,1,0,0:0:0:0:
109,192,53842,1,0,0:0:0:0:
182,192,53859,1,0,0:0:0:0:
329,192,53894,1,0,0:0:0:0:
402,192,53894,1,0,0:0:0:0:
475,192,53894,1,0,0:0:0:0:
329,192,54033,1,0,0:0:0:0:
475,192,54033,1,0,0:0:0:0:
329,192,54102,1,0,0:0:0:0:
475,192,54102,1,0,0:0:0:0:
36,192,54172,1,0,0:0:0:0:
109,192,54172,1,0,0:0:0:0:
256,192,54172,1,0,0:0:0:0:
402,192,54172,1,0,0:0:0:0:
36,192,54241,1,0,0:0:0:0:
109,192,54241,1,0,0:0:0:0:
475,192,54311,1,0,0:0:0:0:
402,192,54334,1,0,0:0:0:0:
329,192,54357,1,0,0:0:0:0:
256,192,54380,1,0,0:0:0:0:
182,192,54403,1,0,0:0:0:0:
109,192,54426,1,0,0:0:0:0:
475,192,54450,1,0,0:0:0:0:
402,192,54473,1,0,0:0:0:0:
329,192,54496,1,0,0:0:0:0:
256,192,54519,1,0,0:0:0:0:
182,192,54542,1,0,0:0:0:0:
109,192,54565,1,0,0:0:0:0:
36,192,54588,1,0,0:0:0:0:
402,192,54588,1,0,0:0:0:0:
475,192,54588,1,0,0:0:0:0:
329,192,54588,1,0,0:0:0:0:
109,192,54727,1,0,0:0:0:0:
182,192,54727,1,0,0:0:0:0:
329,192,54727,1,0,0:0:0:0:
402,192,54727,1,0,0:0:0:0:
475,192,54727,1,0,0:0:0:0:
256,192,54797,1,0,0:0:0:0:
109,192,54866,1,0,0:0:0:0:
182,192,54866,1,0,0:0:0:0:
329,192,54866,1,0,0:0:0:0:
402,192,54866,1,0,0:0:0:0:
256,192,54936,1,0,0:0:0:0:
36,192,55005,1,0,0:0:0:0:
109,192,55005,1,0,0:0:0:0:
182,192,55005,1,0,0:0:0:0:
329,192,55005,1,0,0:0:0:0:
475,192,55057,1,0,0:0:0:0:
402,192,55075,1,0,0:0:0:0:
329,192,55092,1,0,0:0:0:0:
256,192,55109,1,0,0:0:0:0:
182,192,55127,1,0,0:0:0:0:
109,192,55144,1,0,0:0:0:0:
36,192,55161,1,0,0:0:0:0:
182,192,55213,1,0,0:0:0:0:
256,192,55213,1,0,0:0:0:0:
329,192,55213,1,0,0:0:0:0:
402,192,55213,1,0,0:0:0:0:
475,192,55213,1,0,0:0:0:0:
36,192,55352,1,0,0:0:0:0:
109,192,55352,1,0,0:0:0:0:
182,192,55352,1,0,0:0:0:0:
329,192,55352,1,0,0:0:0:0:
256,192,55352,1,0,0:0:0:0:
402,192,55352,1,0,0:0:0:0:
109,192,55422,1,0,0:0:0:0:
182,192,55422,1,0,0:0:0:0:
256,192,55422,1,0,0:0:0:0:
329,192,55422,1,0,0:0:0:0:
402,192,55422,1,0,0:0:0:0:
475,192,55422,1,0,0:0:0:0:
182,192,55630,1,0,0:0:0:0:
109,192,55630,1,0,0:0:0:0:
256,192,55630,1,0,0:0:0:0:
329,192,55630,1,0,0:0:0:0:
402,192,55630,1,0,0:0:0:0:
475,192,55630,1,0,0:0:0:0:
109,192,55838,1,0,0:0:0:0:
182,192,55838,1,0,0:0:0:0:
256,192,55838,1,0,0:0:0:0:
329,192,55838,1,0,0:0:0:0:
402,192,55838,1,0,0:0:0:0:
475,192,55838,1,0,0:0:0:0:
109,192,56047,1,0,0:0:0:0:
182,192,56047,1,0,0:0:0:0:
256,192,56047,1,0,0:0:0:0:
329,192,56047,1,0,0:0:0:0:
402,192,56047,1,0,0:0:0:0:
475,192,56047,1,0,0:0:0:0:
36,192,56255,1,0,0:0:0:0:
109,192,56255,1,0,0:0:0:0:
182,192,56255,1,0,0:0:0:0:
256,192,56255,1,0,0:0:0:0:
329,192,56255,1,0,0:0:0:0:
402,192,56255,1,0,0:0:0:0:
36,192,56463,1,0,0:0:0:0:
109,192,56463,1,0,0:0:0:0:
182,192,56463,1,0,0:0:0:0:
256,192,56463,1,0,0:0:0:0:
329,192,56463,1,0,0:0:0:0:
402,192,56463,1,0,0:0:0:0:
36,192,56672,1,0,0:0:0:0:
109,192,56672,1,0,0:0:0:0:
182,192,56672,1,0,0:0:0:0:
329,192,56672,1,0,0:0:0:0:
402,192,56672,1,0,0:0:0:0:
475,192,56672,1,0,0:0:0:0:
36,192,56880,1,0,0:0:0:0:
109,192,56880,1,0,0:0:0:0:
182,192,56880,1,0,0:0:0:0:
329,192,56880,1,0,0:0:0:0:
402,192,56880,1,0,0:0:0:0:
475,192,56880,1,0,0:0:0:0:
36,192,57088,1,0,0:0:0:0:
109,192,57088,1,0,0:0:0:0:
182,192,57088,1,0,0:0:0:0:
329,192,57088,1,0,0:0:0:0:
402,192,57088,1,0,0:0:0:0:
36,192,57158,1,0,0:0:0:0:
109,192,57158,1,0,0:0:0:0:
182,192,57158,1,0,0:0:0:0:
475,192,57158,1,0,0:0:0:0:
36,192,57227,1,0,0:0:0:0:
109,192,57227,1,0,0:0:0:0:
182,192,57227,1,0,0:0:0:0:
329,192,57227,1,0,0:0:0:0:
402,192,57227,1,0,0:0:0:0:
329,192,57366,1,0,0:0:0:0:
256,192,57366,1,0,0:0:0:0:
36,192,57505,1,0,0:0:0:0:
109,192,57505,1,0,0:0:0:0:
182,192,57505,1,0,0:0:0:0:
256,192,57505,1,0,0:0:0:0:
402,192,57505,1,0,0:0:0:0:
475,192,57505,1,0,0:0:0:0:
36,192,57644,1,0,0:0:0:0:
109,192,57644,1,0,0:0:0:0:
182,192,57644,1,0,0:0:0:0:
329,192,57644,1,0,0:0:0:0:
402,192,57644,1,0,0:0:0:0:
475,192,57644,1,0,0:0:0:0:
475,192,57783,5,0,0:0:0:0:
256,192,57783,1,0,0:0:0:0:
109,192,57783,128,0,57875:0:0:0:0:
36,192,57783,1,0,0:0:0:0:
402,192,57783,1,0,0:0:0:0:
182,192,57783,1,0,0:0:0:0:
329,192,57852,1,0,0:0:0:0:
109,192,57922,1,0,0:0:0:0:
182,192,57922,128,0,58014:0:0:0:0:
256,192,57922,1,0,0:0:0:0:
475,192,57922,1,0,0:0:0:0:
402,192,57991,1,0,0:0:0:0:
475,192,58061,1,0,0:0:0:0:
182,192,58061,1,0,0:0:0:0:
256,192,58061,128,0,58153:0:0:0:0:
329,192,58061,1,0,0:0:0:0:
36,192,58061,1,0,0:0:0:0:
109,192,58130,1,0,0:0:0:0:
182,192,58200,1,0,0:0:0:0:
256,192,58200,1,0,0:0:0:0:
329,192,58200,128,0,58292:0:0:0:0:
402,192,58200,1,0,0:0:0:0:
109,192,58269,1,0,0:0:0:0:
36,192,58269,1,0,0:0:0:0:
475,192,58338,1,0,0:0:0:0:
329,192,58338,1,0,0:0:0:0:
256,192,58338,1,0,0:0:0:0:
402,192,58338,1,0,0:0:0:0:
182,192,58408,1,0,0:0:0:0:
329,192,58477,1,0,0:0:0:0:
109,192,58477,1,0,0:0:0:0:
475,192,58477,1,0,0:0:0:0:
256,192,58547,1,0,0:0:0:0:
402,192,58547,1,0,0:0:0:0:
109,192,58616,1,0,0:0:0:0:
329,192,58616,1,0,0:0:0:0:
475,192,58616,1,0,0:0:0:0:
182,192,58616,128,0,58709:0:0:0:0:
36,192,58616,1,0,0:0:0:0:
402,192,58686,1,0,0:0:0:0:
256,192,58755,128,0,58848:0:0:0:0:
109,192,58755,1,0,0:0:0:0:
182,192,58755,1,0,0:0:0:0:
36,192,58755,1,0,0:0:0:0:
402,192,58825,1,0,0:0:0:0:
256,192,58894,1,0,0:0:0:0:
182,192,58894,1,0,0:0:0:0:
329,192,58894,128,0,58987:0:0:0:0:
475,192,58894,1,0,0:0:0:0:
109,192,58940,1,0,0:0:0:0:
36,192,58987,1,0,0:0:0:0:
329,192,59033,1,0,0:0:0:0:
256,192,59033,1,0,0:0:0:0:
402,192,59033,128,0,59125:0:0:0:0:
182,192,59079,1,0,0:0:0:0:
109,192,59125,1,0,0:0:0:0:
329,192,59172,1,0,0:0:0:0:
256,192,59172,1,0,0:0:0:0:
36,192,59172,1,0,0:0:0:0:
402,192,59172,1,0,0:0:0:0:
475,192,59172,1,0,0:0:0:0:
109,192,59241,1,0,0:0:0:0:
402,192,59311,1,0,0:0:0:0:
182,192,59311,128,0,59380:0:0:0:0:
475,192,59311,1,0,0:0:0:0:
329,192,59380,1,0,0:0:0:0:
109,192,59380,128,0,59450:0:0:0:0:
36,192,59450,1,0,0:0:0:0:
256,192,59450,1,0,0:0:0:0:
402,192,59450,128,0,59542:0:0:0:0:
475,192,59450,1,0,0:0:0:0:
182,192,59496,1,0,0:0:0:0:
109,192,59542,1,0,0:0:0:0:
329,192,59588,128,0,59681:0:0:0:0:
402,192,59588,1,0,0:0:0:0:
36,192,59588,1,0,0:0:0:0:
182,192,59635,1,0,0:0:0:0:
475,192,59681,1,0,0:0:0:0:
256,192,59727,128,0,59820:0:0:0:0:
402,192,59727,1,0,0:0:0:0:
329,192,59727,1,0,0:0:0:0:
109,192,59727,1,0,0:0:0:0:
36,192,59727,128,0,59866:0:0:0:0:
182,192,59866,128,0,59959:0:0:0:0:
256,192,59866,1,0,0:0:0:0:
402,192,59866,1,0,0:0:0:0:
109,192,59866,1,0,0:0:0:0:
475,192,59866,128,0,60005:0:0:0:0:
402,192,60005,128,0,60098:0:0:0:0:
36,192,60005,1,0,0:0:0:0:
329,192,60005,1,0,0:0:0:0:
182,192,60005,1,0,0:0:0:0:
109,192,60075,1,0,0:0:0:0:
402,192,60144,1,0,0:0:0:0:
329,192,60144,128,0,60237:0:0:0:0:
256,192,60144,1,0,0:0:0:0:
475,192,60144,1,0,0:0:0:0:
182,192,60213,1,0,0:0:0:0:
475,192,60283,1,0,0:0:0:0:
329,192,60283,1,0,0:0:0:0:
256,192,60283,128,0,60375:0:0:0:0:
109,192,60283,1,0,0:0:0:0:
36,192,60283,1,0,0:0:0:0:
402,192,60352,1,0,0:0:0:0:
256,192,60422,1,0,0:0:0:0:
36,192,60422,1,0,0:0:0:0:
182,192,60422,128,0,60514:0:0:0:0:
109,192,60422,1,0,0:0:0:0:
402,192,60491,1,0,0:0:0:0:
475,192,60491,1,0,0:0:0:0:
182,192,60561,1,0,0:0:0:0:
256,192,60561,1,0,0:0:0:0:
329,192,60561,1,0,0:0:0:0:
36,192,60561,1,0,0:0:0:0:
109,192,60630,1,0,0:0:0:0:
475,192,60700,1,0,0:0:0:0:
402,192,60700,1,0,0:0:0:0:
182,192,60700,1,0,0:0:0:0:
109,192,60769,1,0,0:0:0:0:
256,192,60769,1,0,0:0:0:0:
402,192,60838,1,0,0:0:0:0:
36,192,60838,1,0,0:0:0:0:
329,192,60838,128,0,60931:0:0:0:0:
475,192,60838,1,0,0:0:0:0:
182,192,60838,1,0,0:0:0:0:
109,192,60908,1,0,0:0:0:0:
256,192,60977,128,0,61070:0:0:0:0:
475,192,60977,1,0,0:0:0:0:
36,192,60977,1,0,0:0:0:0:
329,192,60977,1,0,0:0:0:0:
402,192,61047,1,0,0:0:0:0:
109,192,61116,1,0,0:0:0:0:
256,192,61116,1,0,0:0:0:0:
182,192,61116,128,0,61209:0:0:0:0:
475,192,61116,1,0,0:0:0:0:
329,192,61186,1,0,0:0:0:0:
36,192,61255,1,0,0:0:0:0:
182,192,61255,1,0,0:0:0:0:
109,192,61255,128,0,61348:0:0:0:0:
402,192,61255,1,0,0:0:0:0:
256,192,61325,1,0,0:0:0:0:
329,192,61394,1,0,0:0:0:0:
402,192,61394,1,0,0:0:0:0:
475,192,61394,1,0,0:0:0:0:
109,192,61394,1,0,0:0:0:0:
36,192,61394,1,0,0:0:0:0:
182,192,61463,1,0,0:0:0:0:
36,192,61533,128,0,61602:0:0:0:0:
402,192,61533,1,0,0:0:0:0:
475,192,61533,1,0,0:0:0:0:
256,192,61533,1,0,0:0:0:0:
329,192,61602,1,0,0:0:0:0:
109,192,61602,128,0,61672:0:0:0:0:
475,192,61672,1,0,0:0:0:0:
256,192,61672,1,0,0:0:0:0:
182,192,61672,128,0,61764:0:0:0:0:
36,192,61672,1,0,0:0:0:0:
402,192,61718,1,0,0:0:0:0:
329,192,61764,1,0,0:0:0:0:
256,192,61811,128,0,61903:0:0:0:0:
475,192,61811,1,0,0:0:0:0:
182,192,61811,1,0,0:0:0:0:
109,192,61857,1,0,0:0:0:0:
36,192,61903,1,0,0:0:0:0:
329,192,61950,128,0,62042:0:0:0:0:
256,192,61950,1,0,0:0:0:0:
182,192,61950,1,0,0:0:0:0:
402,192,61950,1,0,0:0:0:0:
475,192,61950,1,0,0:0:0:0:
329,192,62088,1,0,0:0:0:0:
402,192,62088,1,0,0:0:0:0:
256,192,62088,128,0,62181:0:0:0:0:
109,192,62088,1,0,0:0:0:0:
182,192,62088,1,0,0:0:0:0:
256,192,62227,1,0,0:0:0:0:
36,192,62227,128,0,62320:0:0:0:0:
109,192,62227,1,0,0:0:0:0:
182,192,62227,128,0,62320:0:0:0:0:
475,192,62227,1,0,0:0:0:0:
402,192,62297,1,0,0:0:0:0:
329,192,62366,1,0,0:0:0:0:
182,192,62366,1,0,0:0:0:0:
109,192,62366,128,0,62459:0:0:0:0:
256,192,62366,128,0,62459:0:0:0:0:
475,192,62436,1,0,0:0:0:0:
36,192,62505,1,0,0:0:0:0:
402,192,62505,1,0,0:0:0:0:
256,192,62505,1,0,0:0:0:0:
182,192,62505,128,0,62598:0:0:0:0:
329,192,62505,128,0,62598:0:0:0:0:
109,192,62575,1,0,0:0:0:0:
475,192,62644,1,0,0:0:0:0:
256,192,62644,128,0,62737:0:0:0:0:
329,192,62644,1,0,0:0:0:0:
402,192,62644,128,0,62737:0:0:0:0:
109,192,62713,1,0,0:0:0:0:
36,192,62713,1,0,0:0:0:0:
182,192,62783,1,0,0:0:0:0:
402,192,62783,1,0,0:0:0:0:
475,192,62783,1,0,0:0:0:0:
329,192,62783,1,0,0:0:0:0:
36,192,62852,1,0,0:0:0:0:
109,192,62922,1,0,0:0:0:0:
402,192,62922,1,0,0:0:0:0:
256,192,62922,1,0,0:0:0:0:
329,192,62991,1,0,0:0:0:0:
475,192,62991,1,0,0:0:0:0:
36,192,63061,1,0,0:0:0:0:
402,192,63061,1,0,0:0:0:0:
109,192,63061,128,0,63153:0:0:0:0:
256,192,63061,128,0,63153:0:0:0:0:
182,192,63061,1,0,0:0:0:0:
475,192,63130,1,0,0:0:0:0:
182,192,63200,128,0,63292:0:0:0:0:
329,192,63200,128,0,63292:0:0:0:0:
256,192,63200,1,0,0:0:0:0:
36,192,63246,1,0,0:0:0:0:
109,192,63292,1,0,0:0:0:0:
475,192,63338,1,0,0:0:0:0:
329,192,63338,1,0,0:0:0:0:
256,192,63338,128,0,63431:0:0:0:0:
402,192,63338,128,0,63431:0:0:0:0:
182,192,63385,1,0,0:0:0:0:
36,192,63431,1,0,0:0:0:0:
402,192,63477,1,0,0:0:0:0:
329,192,63477,128,0,63570:0:0:0:0:
475,192,63477,128,0,63570:0:0:0:0:
109,192,63524,1,0,0:0:0:0:
256,192,63570,1,0,0:0:0:0:
402,192,63616,1,0,0:0:0:0:
475,192,63616,1,0,0:0:0:0:
36,192,63616,1,0,0:0:0:0:
182,192,63616,1,0,0:0:0:0:
329,192,63686,1,0,0:0:0:0:
256,192,63755,128,0,63825:0:0:0:0:
109,192,63755,128,0,63825:0:0:0:0:
36,192,63755,1,0,0:0:0:0:
329,192,63825,128,0,63894:0:0:0:0:
182,192,63825,128,0,63894:0:0:0:0:
475,192,63894,128,0,63987:0:0:0:0:
36,192,63894,1,0,0:0:0:0:
256,192,63894,1,0,0:0:0:0:
402,192,63894,128,0,63987:0:0:0:0:
109,192,63963,1,0,0:0:0:0:
475,192,64033,1,0,0:0:0:0:
256,192,64033,1,0,0:0:0:0:
402,192,64033,128,0,64125:0:0:0:0:
329,192,64033,128,0,64125:0:0:0:0:
182,192,64102,1,0,0:0:0:0:
475,192,64172,1,0,0:0:0:0:
256,192,64172,128,0,64311:0:0:0:0:
109,192,64172,128,0,64264:0:0:0:0:
36,192,64172,128,0,64264:0:0:0:0:
402,192,64218,1,0,0:0:0:0:
329,192,64264,1,0,0:0:0:0:
402,192,64311,128,0,64450:0:0:0:0:
182,192,64311,128,0,64403:0:0:0:0:
109,192,64311,128,0,64403:0:0:0:0:
475,192,64311,1,0,0:0:0:0:
36,192,64357,1,0,0:0:0:0:
256,192,64403,1,0,0:0:0:0:
182,192,64450,1,0,0:0:0:0:
475,192,64450,128,0,64542:0:0:0:0:
329,192,64450,128,0,64542:0:0:0:0:
109,192,64496,1,0,0:0:0:0:
36,192,64542,1,0,0:0:0:0:
329,192,64588,1,0,0:0:0:0:
182,192,64588,1,0,0:0:0:0:
256,192,64588,128,0,64681:0:0:0:0:
402,192,64588,128,0,64681:0:0:0:0:
109,192,64658,1,0,0:0:0:0:
36,192,64727,1,0,0:0:0:0:
402,192,64727,1,0,0:0:0:0:
256,192,64727,1,0,0:0:0:0:
329,192,64727,128,0,64820:0:0:0:0:
182,192,64727,128,0,64820:0:0:0:0:
475,192,64797,1,0,0:0:0:0:
329,192,64866,1,0,0:0:0:0:
182,192,64866,1,0,0:0:0:0:
256,192,64866,128,0,64959:0:0:0:0:
109,192,64866,128,0,64959:0:0:0:0:
402,192,64936,1,0,0:0:0:0:
475,192,64936,1,0,0:0:0:0:
329,192,65005,1,0,0:0:0:0:
109,192,65005,1,0,0:0:0:0:
36,192,65005,1,0,0:0:0:0:
256,192,65005,1,0,0:0:0:0:
182,192,65075,1,0,0:0:0:0:
475,192,65144,1,0,0:0:0:0:
36,192,65144,1,0,0:0:0:0:
402,192,65144,1,0,0:0:0:0:
109,192,65213,1,0,0:0:0:0:
256,192,65213,1,0,0:0:0:0:
402,192,65283,128,0,65375:0:0:0:0:
475,192,65283,128,0,65375:0:0:0:0:
36,192,65283,1,0,0:0:0:0:
329,192,65283,1,0,0:0:0:0:
182,192,65283,1,0,0:0:0:0:
256,192,65352,1,0,0:0:0:0:
329,192,65422,128,0,65491:0:0:0:0:
182,192,65422,128,0,65491:0:0:0:0:
109,192,65422,1,0,0:0:0:0:
36,192,65422,1,0,0:0:0:0:
402,192,65491,1,0,0:0:0:0:
475,192,65491,1,0,0:0:0:0:
256,192,65491,1,0,0:0:0:0:
182,192,65561,128,0,65792:0:0:0:0:
36,192,65561,1,0,0:0:0:0:
109,192,65561,128,0,65653:0:0:0:0:
329,192,65561,1,0,0:0:0:0:
402,192,65600,1,0,0:0:0:0:
475,192,65640,1,0,0:0:0:0:
256,192,65680,1,0,0:0:0:0:
109,192,65700,128,0,65792:0:0:0:0:
36,192,65700,128,0,65792:0:0:0:0:
329,192,65719,1,0,0:0:0:0:
402,192,65759,1,0,0:0:0:0:
475,192,65799,1,0,0:0:0:0:
329,192,65838,1,0,0:0:0:0:
256,192,65862,1,0,0:0:0:0:
182,192,65885,1,0,0:0:0:0:
109,192,65908,1,0,0:0:0:0:
36,192,65931,1,0,0:0:0:0:
402,192,65977,1,0,0:0:0:0:
475,192,65977,1,0,0:0:0:0:
329,192,66047,1,0,0:0:0:0:
182,192,66047,1,0,0:0:0:0:
256,192,66116,128,0,66255:0:0:0:0:
36,192,66116,1,0,0:0:0:0:
475,192,66116,1,0,0:0:0:0:
109,192,66116,1,0,0:0:0:0:
402,192,66116,128,0,66255:0:0:0:0:
329,192,66255,128,0,66394:0:0:0:0:
109,192,66255,1,0,0:0:0:0:
36,192,66255,1,0,0:0:0:0:
475,192,66255,1,0,0:0:0:0:
182,192,66255,128,0,66394:0:0:0:0:
475,192,66394,1,0,0:0:0:0:
109,192,66394,128,0,66533:0:0:0:0:
256,192,66394,128,0,66533:0:0:0:0:
36,192,66394,1,0,0:0:0:0:
402,192,66394,1,0,0:0:0:0:
36,192,66533,1,0,0:0:0:0:
475,192,66533,1,0,0:0:0:0:
402,192,66533,1,0,0:0:0:0:
329,192,66533,128,0,66672:0:0:0:0:
182,192,66533,128,0,66672:0:0:0:0:
109,192,66672,128,0,66764:0:0:0:0:
256,192,66672,1,0,0:0:0:0:
402,192,66672,1,0,0:0:0:0:
36,192,66672,128,0,66903:0:0:0:0:
475,192,66672,1,0,0:0:0:0:
329,192,66741,1,0,0:0:0:0:
182,192,66811,128,0,66903:0:0:0:0:
256,192,66811,1,0,0:0:0:0:
475,192,66811,1,0,0:0:0:0:
109,192,66811,128,0,67042:0:0:0:0:
402,192,66880,1,0,0:0:0:0:
182,192,66950,128,0,67181:0:0:0:0:
256,192,66950,128,0,67042:0:0:0:0:
329,192,66950,1,0,0:0:0:0:
475,192,66950,1,0,0:0:0:0:
36,192,67019,1,0,0:0:0:0:
329,192,67088,128,0,67181:0:0:0:0:
402,192,67088,1,0,0:0:0:0:
256,192,67088,128,0,67181:0:0:0:0:
109,192,67158,1,0,0:0:0:0:
36,192,67158,1,0,0:0:0:0:
475,192,67227,1,0,0:0:0:0:
182,192,67227,1,0,0:0:0:0:
402,192,67227,1,0,0:0:0:0:
256,192,67227,1,0,0:0:0:0:
36,192,67297,1,0,0:0:0:0:
329,192,67366,1,0,0:0:0:0:
182,192,67366,1,0,0:0:0:0:
109,192,67366,1,0,0:0:0:0:
402,192,67436,1,0,0:0:0:0:
475,192,67436,1,0,0:0:0:0:
329,192,67505,1,0,0:0:0:0:
36,192,67505,1,0,0:0:0:0:
109,192,67505,1,0,0:0:0:0:
182,192,67505,128,0,67737:0:0:0:0:
256,192,67505,128,0,67598:0:0:0:0:
402,192,67575,1,0,0:0:0:0:
475,192,67644,1,0,0:0:0:0:
36,192,67644,1,0,0:0:0:0:
256,192,67644,128,0,67875:0:0:0:0:
329,192,67644,128,0,67737:0:0:0:0:
109,192,67713,1,0,0:0:0:0:
182,192,67783,1,0,0:0:0:0:
329,192,67783,128,0,68014:0:0:0:0:
402,192,67783,128,0,67875:0:0:0:0:
475,192,67783,1,0,0:0:0:0:
109,192,67829,1,0,0:0:0:0:
36,192,67875,1,0,0:0:0:0:
402,192,67922,128,0,68014:0:0:0:0:
475,192,67922,128,0,68014:0:0:0:0:
182,192,67968,1,0,0:0:0:0:
256,192,68014,1,0,0:0:0:0:
109,192,68061,1,0,0:0:0:0:
329,192,68061,1,0,0:0:0:0:
36,192,68061,1,0,0:0:0:0:
475,192,68061,1,0,0:0:0:0:
402,192,68061,1,0,0:0:0:0:
256,192,68130,1,0,0:0:0:0:
36,192,68200,1,0,0:0:0:0:
329,192,68200,128,0,68269:0:0:0:0:
182,192,68200,128,0,68269:0:0:0:0:
475,192,68200,1,0,0:0:0:0:
256,192,68269,128,0,68338:0:0:0:0:
402,192,68269,128,0,68338:0:0:0:0:
109,192,68269,1,0,0:0:0:0:
36,192,68338,1,0,0:0:0:0:
182,192,68338,1,0,0:0:0:0:
329,192,68338,128,0,68431:0:0:0:0:
475,192,68338,128,0,68477:0:0:0:0:
182,192,68477,1,0,0:0:0:0:
329,192,68477,1,0,0:0:0:0:
256,192,68477,128,0,68570:0:0:0:0:
109,192,68477,1,0,0:0:0:0:
402,192,68477,128,0,68616:0:0:0:0:
182,192,68616,128,0,68709:0:0:0:0:
256,192,68616,1,0,0:0:0:0:
36,192,68616,1,0,0:0:0:0:
329,192,68616,128,0,68755:0:0:0:0:
475,192,68616,1,0,0:0:0:0:
109,192,68755,128,0,68848:0:0:0:0:
36,192,68755,1,0,0:0:0:0:
182,192,68755,1,0,0:0:0:0:
256,192,68755,128,0,68894:0:0:0:0:
475,192,68825,1,0,0:0:0:0:
402,192,68825,1,0,0:0:0:0:
36,192,68894,1,0,0:0:0:0:
182,192,68894,1,0,0:0:0:0:
109,192,68894,1,0,0:0:0:0:
329,192,68894,1,0,0:0:0:0:
329,192,68963,1,0,0:0:0:0:
182,192,69033,1,0,0:0:0:0:
182,192,69102,1,0,0:0:0:0:
402,192,69172,1,0,0:0:0:0:
402,192,69241,1,0,0:0:0:0:
109,192,69311,1,0,0:0:0:0:
109,192,69380,1,0,0:0:0:0:
329,192,69450,1,0,0:0:0:0:
475,192,69450,1,0,0:0:0:0:
402,192,69450,1,0,0:0:0:0:
329,192,69519,1,0,0:0:0:0:
182,192,69588,1,0,0:0:0:0:
182,192,69658,1,0,0:0:0:0:
36,192,69727,1,0,0:0:0:0:
475,192,69727,1,0,0:0:0:0:
109,192,69727,1,0,0:0:0:0:
402,192,69727,1,0,0:0:0:0:
329,192,69797,1,0,0:0:0:0:
182,192,69866,1,0,0:0:0:0:
256,192,69866,1,0,0:0:0:0:
329,192,69936,1,0,0:0:0:0:
256,192,69936,1,0,0:0:0:0:
109,192,70005,1,0,0:0:0:0:
36,192,70005,1,0,0:0:0:0:
402,192,70005,1,0,0:0:0:0:
475,192,70005,1,0,0:0:0:0:
182,192,70075,1,0,0:0:0:0:
329,192,70144,128,0,70231:0:0:0:0:
36,192,70144,1,0,0:0:0:0:
402,192,70161,128,0,70248:0:0:0:0:
475,192,70179,128,0,70265:0:0:0:0:
109,192,70213,1,0,0:0:0:0:
182,192,70213,1,0,0:0:0:0:
256,192,70213,1,0,0:0:0:0:
36,192,70283,1,0,0:0:0:0:
329,192,70283,128,0,70370:0:0:0:0:
402,192,70300,128,0,70387:0:0:0:0:
475,192,70318,128,0,70404:0:0:0:0:
329,192,70422,128,0,70509:0:0:0:0:
36,192,70422,1,0,0:0:0:0:
109,192,70422,1,0,0:0:0:0:
182,192,70422,1,0,0:0:0:0:
402,192,70439,128,0,70526:0:0:0:0:
475,192,70456,128,0,70543:0:0:0:0:
256,192,70491,1,0,0:0:0:0:
36,192,70561,128,0,70607:0:0:0:0:
109,192,70561,128,0,70607:0:0:0:0:
182,192,70561,128,0,70700:0:0:0:0:
329,192,70561,128,0,70700:0:0:0:0:
109,192,70653,128,0,70700:0:0:0:0:
36,192,70653,128,0,70700:0:0:0:0:
402,192,70700,128,0,70769:0:0:0:0:
256,192,70700,128,0,70838:0:0:0:0:
36,192,70746,128,0,70798:0:0:0:0:
109,192,70746,128,0,70798:0:0:0:0:
475,192,70838,1,0,0:0:0:0:
402,192,70838,1,0,0:0:0:0:
182,192,70838,128,0,71070:0:0:0:0:
329,192,70838,128,0,71070:0:0:0:0:
109,192,70977,128,0,71070:0:0:0:0:
256,192,70977,128,0,71070:0:0:0:0:
402,192,70977,128,0,71070:0:0:0:0:
36,192,70977,1,0,0:0:0:0:
475,192,70977,1,0,0:0:0:0:
475,192,71116,5,0,0:0:0:0:
109,192,71116,128,0,71209:0:0:0:0:
36,192,71116,1,0,0:0:0:0:
256,192,71116,1,0,0:0:0:0:
402,192,71116,1,0,0:0:0:0:
182,192,71116,1,0,0:0:0:0:
329,192,71186,1,0,0:0:0:0:
109,192,71255,1,0,0:0:0:0:
182,192,71255,128,0,71348:0:0:0:0:
256,192,71255,1,0,0:0:0:0:
475,192,71255,1,0,0:0:0:0:
36,192,71255,1,0,0:0:0:0:
402,192,71325,1,0,0:0:0:0:
475,192,71394,1,0,0:0:0:0:
182,192,71394,1,0,0:0:0:0:
256,192,71394,128,0,71487:0:0:0:0:
329,192,71394,1,0,0:0:0:0:
109,192,71394,1,0,0:0:0:0:
402,192,71463,1,0,0:0:0:0:
36,192,71533,1,0,0:0:0:0:
182,192,71533,1,0,0:0:0:0:
329,192,71533,128,0,71625:0:0:0:0:
475,192,71533,1,0,0:0:0:0:
109,192,71602,1,0,0:0:0:0:
256,192,71602,1,0,0:0:0:0:
475,192,71672,1,0,0:0:0:0:
36,192,71672,1,0,0:0:0:0:
182,192,71672,1,0,0:0:0:0:
402,192,71672,1,0,0:0:0:0:
329,192,71672,1,0,0:0:0:0:
256,192,71741,1,0,0:0:0:0:
402,192,71811,1,0,0:0:0:0:
182,192,71811,1,0,0:0:0:0:
109,192,71811,1,0,0:0:0:0:
475,192,71811,128,0,71903:0:0:0:0:
256,192,71880,1,0,0:0:0:0:
402,192,71950,1,0,0:0:0:0:
329,192,71950,1,0,0:0:0:0:
36,192,71950,1,0,0:0:0:0:
475,192,71950,1,0,0:0:0:0:
109,192,71950,1,0,0:0:0:0:
182,192,72019,1,0,0:0:0:0:
109,192,72088,128,0,72158:0:0:0:0:
475,192,72088,1,0,0:0:0:0:
256,192,72088,1,0,0:0:0:0:
182,192,72135,128,0,72204:0:0:0:0:
329,192,72135,1,0,0:0:0:0:
256,192,72181,128,0,72297:0:0:0:0:
402,192,72181,1,0,0:0:0:0:
109,192,72227,1,0,0:0:0:0:
329,192,72227,1,0,0:0:0:0:
475,192,72227,1,0,0:0:0:0:
36,192,72227,1,0,0:0:0:0:
182,192,72297,1,0,0:0:0:0:
402,192,72366,1,0,0:0:0:0:
475,192,72366,1,0,0:0:0:0:
109,192,72366,128,0,72459:0:0:0:0:
256,192,72366,1,0,0:0:0:0:
329,192,72436,1,0,0:0:0:0:
402,192,72505,1,0,0:0:0:0:
36,192,72505,1,0,0:0:0:0:
182,192,72505,1,0,0:0:0:0:
475,192,72505,1,0,0:0:0:0:
109,192,72505,1,0,0:0:0:0:
256,192,72575,1,0,0:0:0:0:
182,192,72644,1,0,0:0:0:0:
329,192,72644,1,0,0:0:0:0:
402,192,72644,1,0,0:0:0:0:
109,192,72713,1,0,0:0:0:0:
182,192,72713,1,0,0:0:0:0:
329,192,72783,1,0,0:0:0:0:
256,192,72783,1,0,0:0:0:0:
475,192,72783,128,0,72875:0:0:0:0:
402,192,72783,1,0,0:0:0:0:
36,192,72783,1,0,0:0:0:0:
109,192,72875,1,0,0:0:0:0:
329,192,72922,128,0,73014:0:0:0:0:
402,192,72922,1,0,0:0:0:0:
475,192,72922,1,0,0:0:0:0:
182,192,72968,1,0,0:0:0:0:
109,192,73061,128,0,73153:0:0:0:0:
329,192,73061,1,0,0:0:0:0:
36,192,73061,1,0,0:0:0:0:
256,192,73061,1,0,0:0:0:0:
402,192,73061,128,0,73200:0:0:0:0:
475,192,73061,1,0,0:0:0:0:
182,192,73200,128,0,73292:0:0:0:0:
329,192,73200,1,0,0:0:0:0:
36,192,73200,1,0,0:0:0:0:
109,192,73200,1,0,0:0:0:0:
475,192,73200,128,0,73338:0:0:0:0:
256,192,73269,1,0,0:0:0:0:
36,192,73338,128,0,73963:0:0:0:0:
109,192,73338,128,0,73477:0:0:0:0:
182,192,73338,128,0,73408:0:0:0:0:
329,192,73338,128,0,73408:0:0:0:0:
402,192,73338,1,0,0:0:0:0:
182,192,73477,128,0,73616:0:0:0:0:
256,192,73477,128,0,73547:0:0:0:0:
402,192,73477,128,0,73547:0:0:0:0:
329,192,73477,1,0,0:0:0:0:
475,192,73477,1,0,0:0:0:0:
329,192,73616,128,0,73755:0:0:0:0:
109,192,73616,128,0,73686:0:0:0:0:
475,192,73616,128,0,73686:0:0:0:0:
402,192,73616,1,0,0:0:0:0:
256,192,73616,1,0,0:0:0:0:
256,192,73755,128,0,74172:0:0:0:0:
402,192,73755,128,0,74033:0:0:0:0:
182,192,73755,128,0,73825:0:0:0:0:
109,192,73755,1,0,0:0:0:0:
475,192,73755,128,0,73825:0:0:0:0:
109,192,73894,128,0,73963:0:0:0:0:
182,192,73894,128,0,74102:0:0:0:0:
475,192,73963,128,0,74102:0:0:0:0:
329,192,73963,128,0,74033:0:0:0:0:
36,192,74033,128,0,74241:0:0:0:0:
109,192,74033,128,0,74102:0:0:0:0:
329,192,74102,128,0,74311:0:0:0:0:
402,192,74102,128,0,74172:0:0:0:0:
475,192,74172,128,0,74450:0:0:0:0:
109,192,74172,128,0,74380:0:0:0:0:
182,192,74172,128,0,74241:0:0:0:0:
402,192,74241,128,0,74311:0:0:0:0:
256,192,74241,128,0,74380:0:0:0:0:
182,192,74311,128,0,74380:0:0:0:0:
36,192,74311,128,0,74380:0:0:0:0:
402,192,74380,128,0,74450:0:0:0:0:
329,192,74380,128,0,74450:0:0:0:0:
256,192,74450,1,0,0:0:0:0:
182,192,74450,1,0,0:0:0:0:
109,192,74450,1,0,0:0:0:0:
36,192,74450,1,0,0:0:0:0:
475,192,74588,1,0,0:0:0:0:
329,192,74597,1,0,0:0:0:0:
256,192,74606,1,0,0:0:0:0:
182,192,74614,1,0,0:0:0:0:
109,192,74623,1,0,0:0:0:0:
36,192,74727,1,0,0:0:0:0:
109,192,74736,1,0,0:0:0:0:
182,192,74745,1,0,0:0:0:0:
256,192,74753,1,0,0:0:0:0:
402,192,74762,1,0,0:0:0:0:
475,192,74866,1,0,0:0:0:0:
329,192,74875,1,0,0:0:0:0:
182,192,74884,1,0,0:0:0:0:
109,192,74892,1,0,0:0:0:0:
36,192,74901,1,0,0:0:0:0:
36,192,75005,1,0,0:0:0:0:
109,192,75014,1,0,0:0:0:0:
256,192,75022,1,0,0:0:0:0:
402,192,75031,1,0,0:0:0:0:
475,192,75040,1,0,0:0:0:0:
475,192,75144,1,0,0:0:0:0:
402,192,75153,1,0,0:0:0:0:
329,192,75161,1,0,0:0:0:0:
182,192,75170,1,0,0:0:0:0:
36,192,75179,1,0,0:0:0:0:
109,192,75283,1,0,0:0:0:0:
256,192,75292,1,0,0:0:0:0:
329,192,75300,1,0,0:0:0:0:
402,192,75309,1,0,0:0:0:0:
475,192,75318,1,0,0:0:0:0:
402,192,75422,1,0,0:0:0:0:
329,192,75430,1,0,0:0:0:0:
256,192,75439,1,0,0:0:0:0:
182,192,75448,1,0,0:0:0:0:
36,192,75456,1,0,0:0:0:0:
256,192,75561,128,0,75630:0:0:0:0:
329,192,75561,128,0,75665:0:0:0:0:
402,192,75561,128,0,75700:0:0:0:0:
475,192,75561,128,0,75734:0:0:0:0:
36,192,75595,1,0,0:0:0:0:
109,192,75630,1,0,0:0:0:0:
182,192,75665,1,0,0:0:0:0:
256,192,75700,1,0,0:0:0:0:
329,192,75734,1,0,0:0:0:0:
402,192,75769,1,0,0:0:0:0:
475,192,75804,1,0,0:0:0:0:
256,192,75838,1,0,0:0:0:0:
182,192,75838,128,0,75908:0:0:0:0:
109,192,75838,128,0,75943:0:0:0:0:
36,192,75838,128,0,75977:0:0:0:0:
402,192,75873,1,0,0:0:0:0:
329,192,75908,1,0,0:0:0:0:
256,192,75943,1,0,0:0:0:0:
182,192,75977,1,0,0:0:0:0:
109,192,76012,1,0,0:0:0:0:
36,192,76047,1,0,0:0:0:0:
402,192,76047,1,0,0:0:0:0:
475,192,76047,1,0,0:0:0:0:
329,192,76081,1,0,0:0:0:0:
109,192,76116,1,0,0:0:0:0:
256,192,76151,1,0,0:0:0:0:
182,192,76186,1,0,0:0:0:0:
329,192,76255,1,0,0:0:0:0:
475,192,76255,1,0,0:0:0:0:
402,192,76272,1,0,0:0:0:0:
109,192,76307,1,0,0:0:0:0:
182,192,76325,1,0,0:0:0:0:
36,192,76325,1,0,0:0:0:0:
256,192,76394,128,0,76463:0:0:0:0:
329,192,76394,128,0,76463:0:0:0:0:
402,192,76394,128,0,76463:0:0:0:0:
475,192,76394,128,0,76463:0:0:0:0:
36,192,76533,1,0,0:0:0:0:
182,192,76533,1,0,0:0:0:0:
109,192,76550,1,0,0:0:0:0:
402,192,76585,1,0,0:0:0:0:
329,192,76602,1,0,0:0:0:0:
475,192,76602,1,0,0:0:0:0:
36,192,76672,1,0,0:0:0:0:
109,192,76672,1,0,0:0:0:0:
182,192,76672,1,0,0:0:0:0:
402,192,76706,1,0,0:0:0:0:
329,192,76741,1,0,0:0:0:0:
256,192,76776,1,0,0:0:0:0:
36,192,76811,1,0,0:0:0:0:
109,192,76834,1,0,0:0:0:0:
182,192,76857,1,0,0:0:0:0:
256,192,76880,1,0,0:0:0:0:
329,192,76915,1,0,0:0:0:0:
402,192,76950,1,0,0:0:0:0:
475,192,76950,1,0,0:0:0:0:
109,192,76950,1,0,0:0:0:0:
36,192,76950,1,0,0:0:0:0:
256,192,76984,1,0,0:0:0:0:
182,192,77019,1,0,0:0:0:0:
109,192,77054,1,0,0:0:0:0:
329,192,77088,1,0,0:0:0:0:
402,192,77088,1,0,0:0:0:0:
256,192,77158,1,0,0:0:0:0:
475,192,77158,1,0,0:0:0:0:
109,192,77158,128,0,77366:0:0:0:0:
36,192,77158,128,0,77366:0:0:0:0:
402,192,77193,1,0,0:0:0:0:
329,192,77227,1,0,0:0:0:0:
182,192,77297,1,0,0:0:0:0:
329,192,77366,1,0,0:0:0:0:
402,192,77389,1,0,0:0:0:0:
256,192,77436,1,0,0:0:0:0:
182,192,77459,1,0,0:0:0:0:
329,192,77505,1,0,0:0:0:0:
402,192,77505,1,0,0:0:0:0:
475,192,77505,1,0,0:0:0:0:
109,192,77528,1,0,0:0:0:0:
182,192,77551,1,0,0:0:0:0:
256,192,77575,1,0,0:0:0:0:
329,192,77598,1,0,0:0:0:0:
402,192,77621,1,0,0:0:0:0:
475,192,77644,1,0,0:0:0:0:
109,192,77644,1,0,0:0:0:0:
36,192,77644,1,0,0:0:0:0:
182,192,77713,1,0,0:0:0:0:
256,192,77713,1,0,0:0:0:0:
475,192,77783,1,0,0:0:0:0:
36,192,77783,1,0,0:0:0:0:
109,192,77818,1,0,0:0:0:0:
329,192,77823,1,0,0:0:0:0:
182,192,77852,1,0,0:0:0:0:
402,192,77862,1,0,0:0:0:0:
256,192,77875,1,0,0:0:0:0:
475,192,77902,1,0,0:0:0:0:
36,192,77922,1,0,0:0:0:0:
109,192,77962,1,0,0:0:0:0:
329,192,77972,1,0,0:0:0:0:
182,192,78001,1,0,0:0:0:0:
402,192,78007,1,0,0:0:0:0:
475,192,78041,1,0,0:0:0:0:
109,192,78061,1,0,0:0:0:0:
36,192,78061,1,0,0:0:0:0:
256,192,78061,1,0,0:0:0:0:
402,192,78200,1,0,0:0:0:0:
475,192,78200,1,0,0:0:0:0:
109,192,78200,1,0,0:0:0:0:
36,192,78200,1,0,0:0:0:0:
182,192,78269,1,0,0:0:0:0:
256,192,78269,1,0,0:0:0:0:
329,192,78269,1,0,0:0:0:0:
475,192,78338,1,0,0:0:0:0:
36,192,78338,1,0,0:0:0:0:
402,192,78373,1,0,0:0:0:0:
182,192,78378,1,0,0:0:0:0:
329,192,78408,1,0,0:0:0:0:
109,192,78417,1,0,0:0:0:0:
256,192,78431,1,0,0:0:0:0:
36,192,78457,1,0,0:0:0:0:
475,192,78477,1,0,0:0:0:0:
402,192,78517,1,0,0:0:0:0:
182,192,78527,1,0,0:0:0:0:
329,192,78556,1,0,0:0:0:0:
109,192,78562,1,0,0:0:0:0:
36,192,78596,1,0,0:0:0:0:
256,192,78616,1,0,0:0:0:0:
475,192,78616,1,0,0:0:0:0:
402,192,78616,1,0,0:0:0:0:
329,192,78755,1,0,0:0:0:0:
402,192,78755,1,0,0:0:0:0:
329,192,78825,1,0,0:0:0:0:
402,192,78825,1,0,0:0:0:0:
475,192,78894,1,0,0:0:0:0:
36,192,78894,1,0,0:0:0:0:
402,192,78929,1,0,0:0:0:0:
182,192,78934,1,0,0:0:0:0:
329,192,78963,1,0,0:0:0:0:
109,192,78973,1,0,0:0:0:0:
256,192,78987,1,0,0:0:0:0:
36,192,79013,1,0,0:0:0:0:
475,192,79033,1,0,0:0:0:0:
402,192,79073,1,0,0:0:0:0:
182,192,79083,1,0,0:0:0:0:
329,192,79112,1,0,0:0:0:0:
109,192,79118,1,0,0:0:0:0:
36,192,79152,1,0,0:0:0:0:
475,192,79172,1,0,0:0:0:0:
256,192,79172,1,0,0:0:0:0:
402,192,79172,1,0,0:0:0:0:
182,192,79241,1,0,0:0:0:0:
329,192,79311,1,0,0:0:0:0:
475,192,79311,1,0,0:0:0:0:
182,192,79380,1,0,0:0:0:0:
109,192,79380,1,0,0:0:0:0:
36,192,79380,1,0,0:0:0:0:
256,192,79415,1,0,0:0:0:0:
402,192,79450,1,0,0:0:0:0:
475,192,79450,1,0,0:0:0:0:
329,192,79450,128,0,79623:0:0:0:0:
182,192,79484,128,0,79588:0:0:0:0:
36,192,79519,128,0,79588:0:0:0:0:
475,192,79554,128,0,79623:0:0:0:0:
109,192,79588,1,0,0:0:0:0:
256,192,79623,128,0,79727:0:0:0:0:
109,192,79658,1,0,0:0:0:0:
36,192,79658,1,0,0:0:0:0:
402,192,79658,128,0,79727:0:0:0:0:
182,192,79658,1,0,0:0:0:0:
475,192,79727,1,0,0:0:0:0:
329,192,79727,1,0,0:0:0:0:
256,192,79797,1,0,0:0:0:0:
182,192,79866,1,0,0:0:0:0:
109,192,79866,1,0,0:0:0:0:
182,192,79936,1,0,0:0:0:0:
109,192,79936,1,0,0:0:0:0:
36,192,80005,1,0,0:0:0:0:
475,192,80005,1,0,0:0:0:0:
256,192,80005,128,0,80144:0:0:0:0:
329,192,80005,128,0,80213:0:0:0:0:
402,192,80005,128,0,80318:0:0:0:0:
36,192,80144,1,0,0:0:0:0:
109,192,80179,128,0,80491:0:0:0:0:
182,192,80213,128,0,80422:0:0:0:0:
256,192,80248,128,0,80387:0:0:0:0:
36,192,80283,128,0,80491:0:0:0:0:
329,192,80283,128,0,80352:0:0:0:0:
475,192,80283,1,0,0:0:0:0:
402,192,80387,1,0,0:0:0:0:
329,192,80422,128,0,80561:0:0:0:0:
256,192,80456,128,0,80561:0:0:0:0:
475,192,80491,128,0,80700:0:0:0:0:
402,192,80491,128,0,80630:0:0:0:0:
182,192,80491,128,0,80561:0:0:0:0:
36,192,80561,128,0,80769:0:0:0:0:
182,192,80630,128,0,80769:0:0:0:0:
256,192,80665,128,0,80977:0:0:0:0:
329,192,80700,128,0,80838:0:0:0:0:
402,192,80734,128,0,80838:0:0:0:0:
475,192,80769,1,0,0:0:0:0:
109,192,80838,1,0,0:0:0:0:
36,192,80838,128,0,81047:0:0:0:0:
182,192,80838,128,0,81047:0:0:0:0:
402,192,80908,128,0,80977:0:0:0:0:
329,192,80908,128,0,80977:0:0:0:0:
475,192,80977,128,0,81047:0:0:0:0:
109,192,80977,128,0,81047:0:0:0:0:
256,192,81047,128,0,81116:0:0:0:0:
329,192,81116,1,0,0:0:0:0:
402,192,81116,1,0,0:0:0:0:
475,192,81116,1,0,0:0:0:0:
182,192,81116,1,0,0:0:0:0:
109,192,81116,1,0,0:0:0:0:
36,192,81116,1,0,0:0:0:0:
182,192,81255,1,0,0:0:0:0:
109,192,81272,1,0,0:0:0:0:
36,192,81290,1,0,0:0:0:0:
256,192,81325,1,0,0:0:0:0:
329,192,81342,1,0,0:0:0:0:
402,192,81359,1,0,0:0:0:0:
109,192,81394,1,0,0:0:0:0:
182,192,81411,1,0,0:0:0:0:
256,192,81429,1,0,0:0:0:0:
475,192,81463,1,0,0:0:0:0:
402,192,81481,1,0,0:0:0:0:
329,192,81498,1,0,0:0:0:0:
182,192,81533,1,0,0:0:0:0:
109,192,81550,1,0,0:0:0:0:
36,192,81568,1,0,0:0:0:0:
256,192,81602,1,0,0:0:0:0:
402,192,81602,1,0,0:0:0:0:
475,192,81602,1,0,0:0:0:0:
182,192,81672,1,0,0:0:0:0:
109,192,81689,1,0,0:0:0:0:
256,192,81706,1,0,0:0:0:0:
329,192,81724,1,0,0:0:0:0:
402,192,81741,1,0,0:0:0:0:
182,192,81811,1,0,0:0:0:0:
109,192,81811,1,0,0:0:0:0:
36,192,81811,1,0,0:0:0:0:
329,192,81880,1,0,0:0:0:0:
402,192,81880,1,0,0:0:0:0:
475,192,81880,1,0,0:0:0:0:
109,192,81950,1,0,0:0:0:0:
182,192,81967,1,0,0:0:0:0:
256,192,81984,1,0,0:0:0:0:
402,192,82002,1,0,0:0:0:0:
329,192,82019,1,0,0:0:0:0:
256,192,82088,1,0,0:0:0:0:
109,192,82088,1,0,0:0:0:0:
36,192,82088,1,0,0:0:0:0:
475,192,82088,1,0,0:0:0:0:
402,192,82088,1,0,0:0:0:0:
182,192,82158,1,0,0:0:0:0:
329,192,82158,1,0,0:0:0:0:
256,192,82227,1,0,0:0:0:0:
402,192,82227,1,0,0:0:0:0:
475,192,82227,1,0,0:0:0:0:
109,192,82227,1,0,0:0:0:0:
36,192,82227,1,0,0:0:0:0:
182,192,82505,128,0,82575:0:0:0:0:
475,192,82505,128,0,82575:0:0:0:0:
256,192,82505,1,0,0:0:0:0:
109,192,82540,128,0,82713:0:0:0:0:
402,192,82540,128,0,82609:0:0:0:0:
36,192,82575,128,0,82713:0:0:0:0:
329,192,82575,128,0,82644:0:0:0:0:
256,192,82609,128,0,82783:0:0:0:0:
182,192,82644,128,0,82783:0:0:0:0:
329,192,82713,1,0,0:0:0:0:
402,192,82713,128,0,82783:0:0:0:0:
475,192,82713,128,0,82783:0:0:0:0:
36,192,82783,1,0,0:0:0:0:
109,192,82806,1,0,0:0:0:0:
182,192,82829,1,0,0:0:0:0:
402,192,82852,1,0,0:0:0:0:
329,192,82875,1,0,0:0:0:0:
256,192,82899,1,0,0:0:0:0:
109,192,82922,1,0,0:0:0:0:
182,192,82991,1,0,0:0:0:0:
36,192,83061,128,0,83130:0:0:0:0:
256,192,83061,1,0,0:0:0:0:
329,192,83061,128,0,83130:0:0:0:0:
109,192,83095,128,0,83165:0:0:0:0:
402,192,83095,128,0,83269:0:0:0:0:
182,192,83130,128,0,83200:0:0:0:0:
475,192,83130,128,0,83269:0:0:0:0:
256,192,83165,128,0,83338:0:0:0:0:
329,192,83200,128,0,83338:0:0:0:0:
36,192,83269,128,0,83338:0:0:0:0:
109,192,83269,128,0,83338:0:0:0:0:
182,192,83269,1,0,0:0:0:0:
475,192,83338,1,0,0:0:0:0:
402,192,83362,1,0,0:0:0:0:
329,192,83385,1,0,0:0:0:0:
109,192,83408,1,0,0:0:0:0:
182,192,83431,1,0,0:0:0:0:
256,192,83454,1,0,0:0:0:0:
402,192,83547,1,0,0:0:0:0:
329,192,83547,1,0,0:0:0:0:
109,192,83547,1,0,0:0:0:0:
36,192,83547,1,0,0:0:0:0:
182,192,83616,128,0,83686:0:0:0:0:
256,192,83616,1,0,0:0:0:0:
475,192,83616,128,0,83686:0:0:0:0:
109,192,83651,128,0,83825:0:0:0:0:
402,192,83651,128,0,83720:0:0:0:0:
36,192,83686,128,0,83825:0:0:0:0:
329,192,83686,128,0,83755:0:0:0:0:
256,192,83720,128,0,83894:0:0:0:0:
182,192,83755,128,0,83894:0:0:0:0:
329,192,83825,1,0,0:0:0:0:
402,192,83825,128,0,83894:0:0:0:0:
475,192,83825,128,0,83894:0:0:0:0:
36,192,83894,1,0,0:0:0:0:
109,192,83917,1,0,0:0:0:0:
182,192,83940,1,0,0:0:0:0:
402,192,83963,1,0,0:0:0:0:
329,192,83987,1,0,0:0:0:0:
256,192,84010,1,0,0:0:0:0:
109,192,84033,1,0,0:0:0:0:
182,192,84033,1,0,0:0:0:0:
36,192,84033,1,0,0:0:0:0:
475,192,84033,1,0,0:0:0:0:
36,192,84172,1,0,0:0:0:0:
475,192,84172,1,0,0:0:0:0:
182,192,84172,128,0,84241:0:0:0:0:
329,192,84172,1,0,0:0:0:0:
109,192,84241,1,0,0:0:0:0:
256,192,84241,128,0,84311:0:0:0:0:
402,192,84241,1,0,0:0:0:0:
182,192,84311,1,0,0:0:0:0:
329,192,84311,128,0,84380:0:0:0:0:
475,192,84311,1,0,0:0:0:0:
36,192,84311,1,0,0:0:0:0:
256,192,84380,1,0,0:0:0:0:
402,192,84380,128,0,84450:0:0:0:0:
109,192,84380,1,0,0:0:0:0:
329,192,84450,1,0,0:0:0:0:
475,192,84450,128,0,85561:0:0:0:0:
182,192,84450,1,0,0:0:0:0:
36,192,84450,1,0,0:0:0:0:
256,192,84519,1,0,0:0:0:0:
182,192,84554,1,0,0:0:0:0:
109,192,84588,1,0,0:0:0:0:
36,192,84588,1,0,0:0:0:0:
256,192,84658,1,0,0:0:0:0:
329,192,84658,1,0,0:0:0:0:
109,192,84727,1,0,0:0:0:0:
36,192,84727,1,0,0:0:0:0:
182,192,84727,128,0,84866:0:0:0:0:
256,192,84762,128,0,84936:0:0:0:0:
329,192,84797,128,0,84936:0:0:0:0:
402,192,84831,128,0,84936:0:0:0:0:
109,192,84866,128,0,85075:0:0:0:0:
36,192,84936,128,0,85075:0:0:0:0:
182,192,84936,128,0,85075:0:0:0:0:
402,192,85005,128,0,85144:0:0:0:0:
329,192,85040,128,0,85144:0:0:0:0:
256,192,85075,128,0,85144:0:0:0:0:
109,192,85144,128,0,85422:0:0:0:0:
36,192,85179,1,0,0:0:0:0:
182,192,85213,128,0,85422:0:0:0:0:
256,192,85283,128,0,85561:0:0:0:0:
329,192,85283,1,0,0:0:0:0:
402,192,85283,1,0,0:0:0:0:
36,192,85283,128,0,85422:0:0:0:0:
402,192,85422,128,0,85561:0:0:0:0:
329,192,85422,128,0,85561:0:0:0:0:
36,192,85561,128,0,86672:0:0:0:0:
109,192,85561,128,0,85734:0:0:0:0:
182,192,85595,128,0,85734:0:0:0:0:
256,192,85630,128,0,85734:0:0:0:0:
329,192,85665,128,0,85734:0:0:0:0:
475,192,85734,128,0,85908:0:0:0:0:
402,192,85769,128,0,85908:0:0:0:0:
329,192,85804,128,0,85908:0:0:0:0:
182,192,85838,1,0,0:0:0:0:
256,192,85838,128,0,85977:0:0:0:0:
109,192,85838,128,0,85977:0:0:0:0:
475,192,85977,128,0,86047:0:0:0:0:
402,192,85977,128,0,86047:0:0:0:0:
182,192,86047,1,0,0:0:0:0:
109,192,86047,1,0,0:0:0:0:
256,192,86047,128,0,86116:0:0:0:0:
329,192,86081,128,0,86151:0:0:0:0:
402,192,86116,128,0,86186:0:0:0:0:
475,192,86151,128,0,86255:0:0:0:0:
256,192,86186,128,0,86325:0:0:0:0:
402,192,86255,1,0,0:0:0:0:
329,192,86255,1,0,0:0:0:0:
182,192,86255,1,0,0:0:0:0:
109,192,86255,128,0,86325:0:0:0:0:
475,192,86325,128,0,86602:0:0:0:0:
402,192,86359,128,0,86463:0:0:0:0:
256,192,86394,128,0,86672:0:0:0:0:
182,192,86394,1,0,0:0:0:0:
109,192,86394,128,0,86463:0:0:0:0:
329,192,86394,128,0,86463:0:0:0:0:
109,192,86533,1,0,0:0:0:0:
182,192,86533,128,0,86602:0:0:0:0:
329,192,86533,1,0,0:0:0:0:
402,192,86533,128,0,86602:0:0:0:0:
475,192,86672,128,0,88547:0:0:0:0:
182,192,86672,128,0,86776:0:0:0:0:
402,192,86672,128,0,87019:0:0:0:0:
109,192,86672,128,0,86776:0:0:0:0:
256,192,86741,128,0,86828:0:0:0:0:
329,192,86741,128,0,86845:0:0:0:0:
36,192,86811,128,0,86880:0:0:0:0:
109,192,86834,128,0,86903:0:0:0:0:
182,192,86857,128,0,87019:0:0:0:0:
256,192,86880,128,0,87019:0:0:0:0:
109,192,86950,128,0,87088:0:0:0:0:
329,192,86950,128,0,87019:0:0:0:0:
36,192,86967,128,0,87088:0:0:0:0:
256,192,87088,128,0,87193:0:0:0:0:
329,192,87106,128,0,87175:0:0:0:0:
402,192,87123,1,0,0:0:0:0:
182,192,87158,128,0,87245:0:0:0:0:
109,192,87175,1,0,0:0:0:0:
36,192,87193,1,0,0:0:0:0:
402,192,87227,128,0,87297:0:0:0:0:
329,192,87227,128,0,87279:0:0:0:0:
256,192,87227,128,0,87470:0:0:0:0:
329,192,87314,128,0,87366:0:0:0:0:
109,192,87314,1,0,0:0:0:0:
402,192,87331,128,0,87384:0:0:0:0:
182,192,87331,1,0,0:0:0:0:
329,192,87418,128,0,87470:0:0:0:0:
109,192,87418,1,0,0:0:0:0:
402,192,87436,128,0,87470:0:0:0:0:
36,192,87436,1,0,0:0:0:0:
329,192,87505,1,0,0:0:0:0:
182,192,87505,128,0,87644:0:0:0:0:
256,192,87505,128,0,87575:0:0:0:0:
109,192,87575,128,0,87644:0:0:0:0:
402,192,87644,128,0,87713:0:0:0:0:
329,192,87644,128,0,87713:0:0:0:0:
36,192,87713,1,0,0:0:0:0:
182,192,87713,1,0,0:0:0:0:
109,192,87713,128,0,87852:0:0:0:0:
256,192,87713,128,0,87887:0:0:0:0:
329,192,87783,128,0,87922:0:0:0:0:
402,192,87783,128,0,87956:0:0:0:0:
36,192,87852,128,0,87922:0:0:0:0:
109,192,87887,128,0,87956:0:0:0:0:
182,192,87922,128,0,87991:0:0:0:0:
256,192,87956,128,0,88061:0:0:0:0:
329,192,87991,1,0,0:0:0:0:
182,192,88026,128,0,88095:0:0:0:0:
109,192,88061,128,0,88130:0:0:0:0:
402,192,88061,128,0,88130:0:0:0:0:
36,192,88095,128,0,88165:0:0:0:0:
329,192,88095,128,0,88165:0:0:0:0:
256,192,88130,128,0,88200:0:0:0:0:
182,192,88165,128,0,88234:0:0:0:0:
36,192,88200,1,0,0:0:0:0:
329,192,88200,1,0,0:0:0:0:
109,192,88200,128,0,88269:0:0:0:0:
402,192,88200,128,0,88269:0:0:0:0:
256,192,88269,128,0,88338:0:0:0:0:
182,192,88269,128,0,88338:0:0:0:0:
109,192,88338,1,0,0:0:0:0:
402,192,88338,1,0,0:0:0:0:
329,192,88338,128,0,88408:0:0:0:0:
36,192,88338,128,0,88547:0:0:0:0:
182,192,88408,128,0,88547:0:0:0:0:
256,192,88443,128,0,88547:0:0:0:0:
329,192,88477,128,0,88547:0:0:0:0:
402,192,88547,128,0,88616:0:0:0:0:
109,192,88547,128,0,88616:0:0:0:0:
329,192,88616,1,0,0:0:0:0:
182,192,88616,1,0,0:0:0:0:
36,192,88616,1,0,0:0:0:0:
475,192,88616,1,0,0:0:0:0:
402,192,88686,1,0,0:0:0:0:
109,192,88686,1,0,0:0:0:0:
256,192,88686,1,0,0:0:0:0:
182,192,88755,1,0,0:0:0:0:
329,192,88755,1,0,0:0:0:0:
256,192,88825,1,0,0:0:0:0:
402,192,88894,128,0,89693:0:0:0:0:
36,192,88894,128,0,90005:0:0:0:0:
109,192,88894,128,0,89137:0:0:0:0:
182,192,88894,128,0,89154:0:0:0:0:
329,192,88894,128,0,89172:0:0:0:0:
475,192,88894,128,0,89311:0:0:0:0:
109,192,89172,1,0,0:0:0:0:
182,192,89189,1,0,0:0:0:0:
256,192,89206,128,0,89380:0:0:0:0:
329,192,89224,1,0,0:0:0:0:
182,192,89311,128,0,89380:0:0:0:0:
109,192,89328,128,0,89450:0:0:0:0:
329,192,89380,128,0,89450:0:0:0:0:
475,192,89380,128,0,89693:0:0:0:0:
256,192,89450,1,0,0:0:0:0:
182,192,89484,1,0,0:0:0:0:
109,192,89519,128,0,89693:0:0:0:0:
256,192,89554,128,0,89693:0:0:0:0:
329,192,89588,128,0,89693:0:0:0:0:
182,192,89623,128,0,89693:0:0:0:0:
329,192,89727,128,0,90196:0:0:0:0:
402,192,89727,128,0,90144:0:0:0:0:
256,192,89727,128,0,89797:0:0:0:0:
182,192,89727,128,0,89814:0:0:0:0:
475,192,89727,128,0,89936:0:0:0:0:
109,192,89727,128,0,89884:0:0:0:0:
256,192,89849,128,0,89918:0:0:0:0:
182,192,89866,128,0,89901:0:0:0:0:
109,192,89936,128,0,90075:0:0:0:0:
182,192,89953,128,0,90040:0:0:0:0:
475,192,90005,128,0,91047:0:0:0:0:
256,192,90005,128,0,90213:0:0:0:0:
36,192,90144,1,0,0:0:0:0:
109,192,90161,128,0,90213:0:0:0:0:
182,192,90179,1,0,0:0:0:0:
402,192,90231,1,0,0:0:0:0:
329,192,90248,128,0,90300:0:0:0:0:
256,192,90265,1,0,0:0:0:0:
36,192,90283,1,0,0:0:0:0:
109,192,90283,1,0,0:0:0:0:
182,192,90283,128,0,90561:0:0:0:0:
329,192,90352,128,0,90422:0:0:0:0:
402,192,90352,128,0,90422:0:0:0:0:
36,192,90422,128,0,90491:0:0:0:0:
109,192,90422,128,0,90491:0:0:0:0:
402,192,90491,128,0,90630:0:0:0:0:
256,192,90491,128,0,90700:0:0:0:0:
329,192,90491,128,0,90630:0:0:0:0:
36,192,90561,128,0,91047:0:0:0:0:
109,192,90578,128,0,90700:0:0:0:0:
182,192,90595,128,0,90769:0:0:0:0:
402,192,90700,128,0,90769:0:0:0:0:
329,192,90700,128,0,90769:0:0:0:0:
109,192,90769,128,0,90838:0:0:0:0:
256,192,90769,128,0,90838:0:0:0:0:
182,192,90838,1,0,0:0:0:0:
329,192,90838,1,0,0:0:0:0:
402,192,90838,1,0,0:0:0:0:
256,192,90908,128,0,91012:0:0:0:0:
182,192,90943,128,0,90995:0:0:0:0:
329,192,90943,128,0,90995:0:0:0:0:
402,192,90977,1,0,0:0:0:0:
109,192,90977,1,0,0:0:0:0:
182,192,91047,128,0,91116:0:0:0:0:
329,192,91047,128,0,91116:0:0:0:0:
256,192,91064,128,0,91116:0:0:0:0:
109,192,91116,128,0,91255:0:0:0:0:
36,192,91116,128,0,91255:0:0:0:0:
402,192,91116,128,0,91255:0:0:0:0:
475,192,91116,128,0,91255:0:0:0:0:
36,192,91325,128,0,91463:0:0:0:0:
109,192,91325,128,0,91463:0:0:0:0:
402,192,91325,128,0,91463:0:0:0:0:
475,192,91325,128,0,91463:0:0:0:0:
329,192,91394,1,0,0:0:0:0:
256,192,91394,1,0,0:0:0:0:
182,192,91394,1,0,0:0:0:0:
182,192,91533,1,0,0:0:0:0:
36,192,91533,1,0,0:0:0:0:
329,192,91533,1,0,0:0:0:0:
475,192,91533,1,0,0:0:0:0:
256,192,91602,1,0,0:0:0:0:
109,192,91672,128,0,91811:0:0:0:0:
36,192,91672,128,0,91811:0:0:0:0:
402,192,91672,128,0,91811:0:0:0:0:
475,192,91672,128,0,91811:0:0:0:0:
182,192,91880,1,0,0:0:0:0:
109,192,91880,1,0,0:0:0:0:
329,192,91880,1,0,0:0:0:0:
402,192,91880,1,0,0:0:0:0:
256,192,91950,1,0,0:0:0:0:
475,192,91950,1,0,0:0:0:0:
36,192,91950,1,0,0:0:0:0:
329,192,92054,128,0,92123:0:0:0:0:
402,192,92088,1,0,0:0:0:0:
475,192,92088,1,0,0:0:0:0:
256,192,92088,128,0,92158:0:0:0:0:
182,192,92123,128,0,92193:0:0:0:0:
109,192,92158,128,0,92227:0:0:0:0:
36,192,92193,128,0,92297:0:0:0:0:
256,192,92227,128,0,92262:0:0:0:0:
329,192,92227,128,0,92297:0:0:0:0:
402,192,92227,128,0,92314:0:0:0:0:
475,192,92227,128,0,92331:0:0:0:0:
109,192,92262,128,0,92331:0:0:0:0:
182,192,92297,128,0,92366:0:0:0:0:
256,192,92331,128,0,92401:0:0:0:0:
329,192,92366,128,0,92436:0:0:0:0:
402,192,92384,128,0,92436:0:0:0:0:
475,192,92401,128,0,92436:0:0:0:0:
182,192,92436,1,0,0:0:0:0:
36,192,92436,1,0,0:0:0:0:
109,192,92436,128,0,92505:0:0:0:0:
256,192,92505,1,0,0:0:0:0:
402,192,92505,1,0,0:0:0:0:
329,192,92505,128,0,92575:0:0:0:0:
475,192,92505,128,0,92575:0:0:0:0:
36,192,92575,1,0,0:0:0:0:
182,192,92575,1,0,0:0:0:0:
109,192,92575,128,0,92644:0:0:0:0:
402,192,92644,1,0,0:0:0:0:
256,192,92644,128,0,92713:0:0:0:0:
475,192,92644,128,0,92713:0:0:0:0:
329,192,92713,1,0,0:0:0:0:
182,192,92713,128,0,92783:0:0:0:0:
109,192,92731,128,0,92783:0:0:0:0:
36,192,92748,128,0,92852:0:0:0:0:
402,192,92783,1,0,0:0:0:0:
256,192,92783,128,0,92852:0:0:0:0:
475,192,92783,128,0,92852:0:0:0:0:
182,192,92852,1,0,0:0:0:0:
329,192,92922,128,0,93009:0:0:0:0:
256,192,92939,128,0,93009:0:0:0:0:
182,192,92956,128,0,93009:0:0:0:0:
109,192,92974,128,0,93182:0:0:0:0:
36,192,92991,128,0,93165:0:0:0:0:
182,192,93061,128,0,93200:0:0:0:0:
256,192,93061,128,0,93217:0:0:0:0:
329,192,93061,128,0,93234:0:0:0:0:
402,192,93061,128,0,93252:0:0:0:0:
475,192,93061,128,0,93269:0:0:0:0:
109,192,93234,1,0,0:0:0:0:
182,192,93252,1,0,0:0:0:0:
256,192,93269,1,0,0:0:0:0:
329,192,93286,1,0,0:0:0:0:
402,192,93304,1,0,0:0:0:0:
182,192,93338,1,0,0:0:0:0:
109,192,93338,1,0,0:0:0:0:
36,192,93338,1,0,0:0:0:0:
475,192,93338,128,0,97436:0:0:0:0:
36,192,93894,1,0,0:0:0:0:
182,192,94033,1,0,0:0:0:0:
109,192,94172,1,0,0:0:0:0:
256,192,94241,1,0,0:0:0:0:
109,192,94311,1,0,0:0:0:0:
256,192,94380,1,0,0:0:0:0:
402,192,94450,1,0,0:0:0:0:
256,192,94588,1,0,0:0:0:0:
109,192,94727,1,0,0:0:0:0:
36,192,94727,1,0,0:0:0:0:
329,192,94866,1,0,0:0:0:0:
182,192,94936,1,0,0:0:0:0:
256,192,95005,1,0,0:0:0:0:
256,192,95144,1,0,0:0:0:0:
36,192,95283,1,0,0:0:0:0:
402,192,95283,1,0,0:0:0:0:
182,192,95422,1,0,0:0:0:0:
256,192,95491,1,0,0:0:0:0:
109,192,95561,1,0,0:0:0:0:
329,192,95700,1,0,0:0:0:0:
182,192,95838,1,0,0:0:0:0:
36,192,95838,1,0,0:0:0:0:
329,192,95977,1,0,0:0:0:0:
256,192,96047,1,0,0:0:0:0:
329,192,96116,1,0,0:0:0:0:
256,192,96186,1,0,0:0:0:0:
182,192,96255,1,0,0:0:0:0:
36,192,96255,1,0,0:0:0:0:
109,192,96394,1,0,0:0:0:0:
329,192,96463,1,0,0:0:0:0:
109,192,96533,1,0,0:0:0:0:
329,192,96602,1,0,0:0:0:0:
182,192,96672,1,0,0:0:0:0:
402,192,96672,1,0,0:0:0:0:
182,192,96811,1,0,0:0:0:0:
256,192,96950,1,0,0:0:0:0:
402,192,96950,1,0,0:0:0:0:
182,192,97088,1,0,0:0:0:0:
109,192,97158,1,0,0:0:0:0:
329,192,97227,1,0,0:0:0:0:
182,192,97297,1,0,0:0:0:0:
329,192,97366,1,0,0:0:0:0:
256,192,97436,1,0,0:0:0:0:
475,192,97505,1,0,0:0:0:0:
329,192,97505,1,0,0:0:0:0:
182,192,97505,1,0,0:0:0:0:
36,192,97505,1,0,0:0:0:0:
109,192,97644,1,0,0:0:0:0:
256,192,97644,1,0,0:0:0:0:
402,192,97644,1,0,0:0:0:0:
182,192,97783,1,0,0:0:0:0:
109,192,97783,1,0,0:0:0:0:
36,192,97783,1,0,0:0:0:0:
329,192,97783,1,0,0:0:0:0:
256,192,97783,1,0,0:0:0:0:
475,192,97783,1,0,0:0:0:0:
402,192,97852,1,0,0:0:0:0:
36,192,97922,1,0,0:0:0:0:
109,192,97922,1,0,0:0:0:0:
182,192,97922,1,0,0:0:0:0:
256,192,97922,1,0,0:0:0:0:
475,192,97922,1,0,0:0:0:0:
329,192,97991,1,0,0:0:0:0:
402,192,98061,1,0,0:0:0:0:
109,192,98061,1,0,0:0:0:0:
475,192,98061,1,0,0:0:0:0:
182,192,98061,1,0,0:0:0:0:
36,192,98061,1,0,0:0:0:0:
256,192,98130,1,0,0:0:0:0:
36,192,98200,1,0,0:0:0:0:
475,192,98200,1,0,0:0:0:0:
109,192,98200,1,0,0:0:0:0:
402,192,98200,1,0,0:0:0:0:
329,192,98200,1,0,0:0:0:0:
182,192,98269,1,0,0:0:0:0:
256,192,98338,1,0,0:0:0:0:
36,192,98338,1,0,0:0:0:0:
475,192,98338,1,0,0:0:0:0:
402,192,98338,1,0,0:0:0:0:
329,192,98338,1,0,0:0:0:0:
109,192,98408,1,0,0:0:0:0:
475,192,98477,1,0,0:0:0:0:
36,192,98477,1,0,0:0:0:0:
402,192,98495,1,0,0:0:0:0:
329,192,98512,1,0,0:0:0:0:
256,192,98529,1,0,0:0:0:0:
182,192,98547,1,0,0:0:0:0:
109,192,98564,1,0,0:0:0:0:
36,192,98581,1,0,0:0:0:0:
329,192,98616,1,0,0:0:0:0:
402,192,98616,1,0,0:0:0:0:
475,192,98616,1,0,0:0:0:0:
36,192,98686,1,0,0:0:0:0:
109,192,98703,1,0,0:0:0:0:
182,192,98720,1,0,0:0:0:0:
329,192,98755,1,0,0:0:0:0:
402,192,98755,1,0,0:0:0:0:
475,192,98755,1,0,0:0:0:0:
36,192,98825,1,0,0:0:0:0:
109,192,98842,1,0,0:0:0:0:
182,192,98859,1,0,0:0:0:0:
256,192,98894,1,0,0:0:0:0:
329,192,98894,1,0,0:0:0:0:
402,192,98894,1,0,0:0:0:0:
475,192,98894,1,0,0:0:0:0:
182,192,98963,1,0,0:0:0:0:
36,192,98963,1,0,0:0:0:0:
109,192,98963,1,0,0:0:0:0:
256,192,99033,1,0,0:0:0:0:
402,192,99033,1,0,0:0:0:0:
475,192,99033,1,0,0:0:0:0:
182,192,99102,1,0,0:0:0:0:
109,192,99102,1,0,0:0:0:0:
36,192,99102,1,0,0:0:0:0:
329,192,99172,1,0,0:0:0:0:
402,192,99172,1,0,0:0:0:0:
475,192,99172,1,0,0:0:0:0:
256,192,99172,1,0,0:0:0:0:
182,192,99241,1,0,0:0:0:0:
109,192,99241,1,0,0:0:0:0:
36,192,99241,1,0,0:0:0:0:
329,192,99311,1,0,0:0:0:0:
402,192,99311,1,0,0:0:0:0:
475,192,99311,1,0,0:0:0:0:
256,192,99380,1,0,0:0:0:0:
109,192,99380,1,0,0:0:0:0:
36,192,99380,1,0,0:0:0:0:
329,192,99450,1,0,0:0:0:0:
402,192,99450,1,0,0:0:0:0:
475,192,99450,1,0,0:0:0:0:
182,192,99519,1,0,0:0:0:0:
109,192,99519,1,0,0:0:0:0:
36,192,99519,1,0,0:0:0:0:
329,192,99588,1,0,0:0:0:0:
402,192,99588,1,0,0:0:0:0:
475,192,99588,1,0,0:0:0:0:
256,192,99588,1,0,0:0:0:0:
182,192,99658,1,0,0:0:0:0:
109,192,99658,1,0,0:0:0:0:
36,192,99658,1,0,0:0:0:0:
256,192,99727,1,0,0:0:0:0:
402,192,99727,1,0,0:0:0:0:
475,192,99727,1,0,0:0:0:0:
182,192,99797,1,0,0:0:0:0:
109,192,99797,1,0,0:0:0:0:
36,192,99797,1,0,0:0:0:0:
329,192,99866,1,0,0:0:0:0:
402,192,99866,1,0,0:0:0:0:
475,192,99866,1,0,0:0:0:0:
256,192,99866,1,0,0:0:0:0:
182,192,99936,1,0,0:0:0:0:
109,192,99936,1,0,0:0:0:0:
36,192,99936,1,0,0:0:0:0:
329,192,100005,1,0,0:0:0:0:
402,192,100005,1,0,0:0:0:0:
475,192,100005,1,0,0:0:0:0:
256,192,102227,5,0,0:0:0:0:
36,192,102227,128,0,102319:0:0:0:0:
475,192,102227,128,0,102319:0:0:0:0:
109,192,102273,128,0,102365:0:0:0:0:
402,192,102273,128,0,102365:0:0:0:0:
182,192,102319,128,0,102458:0:0:0:0:
329,192,102319,128,0,102458:0:0:0:0:
256,192,102365,128,0,102597:0:0:0:0:
109,192,102412,128,0,102504:0:0:0:0:
402,192,102412,128,0,102504:0:0:0:0:
36,192,102458,128,0,102551:0:0:0:0:
475,192,102458,128,0,102551:0:0:0:0:
36,192,102597,128,0,102689:0:0:0:0:
109,192,102628,128,0,102936:0:0:0:0:
256,192,102659,128,0,102720:0:0:0:0:
402,192,102689,128,0,102813:0:0:0:0:
475,192,102720,128,0,102782:0:0:0:0:
329,192,102751,128,0,102844:0:0:0:0:
256,192,102782,128,0,102875:0:0:0:0:
182,192,102813,128,0,102906:0:0:0:0:
36,192,102844,128,0,102967:0:0:0:0:
256,192,102967,128,0,103029:0:0:0:0:
475,192,102967,128,0,103029:0:0:0:0:
329,192,102967,128,0,103029:0:0:0:0:
36,192,103029,128,0,103091:0:0:0:0:
182,192,103029,128,0,103091:0:0:0:0:
329,192,103091,128,0,103152:0:0:0:0:
475,192,103091,128,0,103152:0:0:0:0:
36,192,103152,128,0,103214:0:0:0:0:
182,192,103152,128,0,103214:0:0:0:0:
475,192,103214,128,0,103276:0:0:0:0:
329,192,103214,128,0,103276:0:0:0:0:
36,192,103276,128,0,103338:0:0:0:0:
182,192,103276,128,0,103338:0:0:0:0:
402,192,103338,1,0,0:0:0:0:
475,192,103338,128,0,103523:0:0:0:0:
256,192,103338,128,0,103523:0:0:0:0:
109,192,103338,128,0,103399:0:0:0:0:
329,192,103461,1,0,0:0:0:0:
402,192,103461,128,0,103646:0:0:0:0:
182,192,103461,128,0,103646:0:0:0:0:
36,192,103461,128,0,103523:0:0:0:0:
329,192,103585,128,0,103770:0:0:0:0:
109,192,103585,128,0,103770:0:0:0:0:
256,192,103585,1,0,0:0:0:0:
475,192,103585,128,0,103646:0:0:0:0:
256,192,103708,128,0,103893:0:0:0:0:
182,192,103708,1,0,0:0:0:0:
36,192,103708,128,0,104078:0:0:0:0:
402,192,103708,128,0,103770:0:0:0:0:
329,192,103801,1,0,0:0:0:0:
109,192,103801,1,0,0:0:0:0:
109,192,103893,128,0,104078:0:0:0:0:
329,192,103893,128,0,104017:0:0:0:0:
475,192,103893,128,0,104017:0:0:0:0:
402,192,103893,128,0,104017:0:0:0:0:
182,192,103893,128,0,104078:0:0:0:0:
329,192,104078,1,0,0:0:0:0:
475,192,104078,128,0,104140:0:0:0:0:
402,192,104078,128,0,104140:0:0:0:0:
36,192,104140,128,0,104202:0:0:0:0:
109,192,104140,128,0,104202:0:0:0:0:
402,192,104202,128,0,104264:0:0:0:0:
475,192,104202,128,0,104264:0:0:0:0:
109,192,104264,128,0,104325:0:0:0:0:
36,192,104264,128,0,104325:0:0:0:0:
402,192,104325,128,0,104387:0:0:0:0:
475,192,104325,128,0,104387:0:0:0:0:
182,192,104387,128,0,104449:0:0:0:0:
329,192,104387,128,0,104449:0:0:0:0:
475,192,104449,128,0,104510:0:0:0:0:
109,192,104449,128,0,104510:0:0:0:0:
36,192,104449,128,0,104510:0:0:0:0:
402,192,104449,128,0,104510:0:0:0:0:
182,192,104510,128,0,104572:0:0:0:0:
329,192,104510,128,0,104572:0:0:0:0:
36,192,104572,128,0,104634:0:0:0:0:
109,192,104572,128,0,104634:0:0:0:0:
402,192,104634,128,0,104757:0:0:0:0:
475,192,104634,128,0,104696:0:0:0:0:
329,192,104665,128,0,104819:0:0:0:0:
256,192,104696,128,0,104850:0:0:0:0:
182,192,104727,128,0,104850:0:0:0:0:
109,192,104757,128,0,104850:0:0:0:0:
36,192,104788,128,0,104850:0:0:0:0:
475,192,104819,128,0,105004:0:0:0:0:
402,192,104865,128,0,104958:0:0:0:0:
109,192,104912,128,0,105035:0:0:0:0:
36,192,104912,128,0,104973:0:0:0:0:
329,192,104912,1,0,0:0:0:0:
182,192,104943,128,0,105097:0:0:0:0:
256,192,104973,128,0,105128:0:0:0:0:
329,192,105004,128,0,105128:0:0:0:0:
402,192,105035,128,0,105128:0:0:0:0:
475,192,105066,128,0,105128:0:0:0:0:
36,192,105097,128,0,105282:0:0:0:0:
109,192,105143,128,0,105236:0:0:0:0:
475,192,105189,128,0,105282:0:0:0:0:
402,192,105189,128,0,105436:0:0:0:0:
182,192,105189,1,0,0:0:0:0:
329,192,105220,128,0,105313:0:0:0:0:
256,192,105251,128,0,105467:0:0:0:0:
182,192,105282,128,0,105344:0:0:0:0:
109,192,105313,128,0,105498:0:0:0:0:
36,192,105344,128,0,105375:0:0:0:0:
475,192,105375,128,0,105498:0:0:0:0:
329,192,105406,128,0,105529:0:0:0:0:
182,192,105436,128,0,105560:0:0:0:0:
36,192,105467,128,0,105560:0:0:0:0:
402,192,105498,1,0,0:0:0:0:
256,192,105529,1,0,0:0:0:0:
475,192,105560,128,0,105930:0:0:0:0:
109,192,105560,128,0,105745:0:0:0:0:
182,192,105622,128,0,105745:0:0:0:0:
329,192,105652,128,0,105699:0:0:0:0:
256,192,105683,128,0,105745:0:0:0:0:
36,192,105745,128,0,105884:0:0:0:0:
402,192,105745,128,0,105930:0:0:0:0:
329,192,105807,128,0,105930:0:0:0:0:
182,192,105838,128,0,105884:0:0:0:0:
256,192,105868,128,0,105930:0:0:0:0:
109,192,105930,128,0,105961:0:0:0:0:
36,192,105930,128,0,106115:0:0:0:0:
329,192,105992,128,0,106054:0:0:0:0:
256,192,105992,128,0,106115:0:0:0:0:
182,192,106054,128,0,106085:0:0:0:0:
109,192,106054,128,0,106239:0:0:0:0:
402,192,106115,128,0,106177:0:0:0:0:
329,192,106115,128,0,106239:0:0:0:0:
256,192,106177,128,0,106208:0:0:0:0:
182,192,106177,128,0,106362:0:0:0:0:
475,192,106239,128,0,106301:0:0:0:0:
402,192,106239,128,0,106362:0:0:0:0:
329,192,106301,128,0,106486:0:0:0:0:
256,192,106301,128,0,106331:0:0:0:0:
109,192,106301,128,0,106547:0:0:0:0:
36,192,106301,128,0,106980:0:0:0:0:
402,192,106424,128,0,106455:0:0:0:0:
475,192,106424,128,0,106609:0:0:0:0:
182,192,106486,128,0,106547:0:0:0:0:
256,192,106486,128,0,106609:0:0:0:0:
329,192,106547,128,0,106578:0:0:0:0:
402,192,106547,128,0,106733:0:0:0:0:
109,192,106609,128,0,106856:0:0:0:0:
182,192,106609,128,0,106733:0:0:0:0:
256,192,106671,128,0,106702:0:0:0:0:
475,192,106671,128,0,107165:0:0:0:0:
329,192,106671,128,0,106856:0:0:0:0:
182,192,106794,128,0,106825:0:0:0:0:
402,192,106794,128,0,106918:0:0:0:0:
256,192,106794,128,0,106980:0:0:0:0:
109,192,106918,128,0,106949:0:0:0:0:
329,192,106918,128,0,107041:0:0:0:0:
182,192,106918,128,0,107103:0:0:0:0:
36,192,107041,128,0,107072:0:0:0:0:
109,192,107041,128,0,107165:0:0:0:0:
402,192,107103,128,0,107134:0:0:0:0:
329,192,107103,128,0,107227:0:0:0:0:
256,192,107165,128,0,107196:0:0:0:0:
182,192,107165,128,0,107288:0:0:0:0:
109,192,107227,128,0,107257:0:0:0:0:
475,192,107227,128,0,107257:0:0:0:0:
402,192,107227,128,0,107350:0:0:0:0:
36,192,107227,128,0,107350:0:0:0:0:
329,192,107288,128,0,107319:0:0:0:0:
256,192,107288,128,0,107412:0:0:0:0:
182,192,107350,128,0,107381:0:0:0:0:
109,192,107350,1,0,0:0:0:0:
475,192,107412,1,0,0:0:0:0:
36,192,107412,128,0,107473:0:0:0:0:
329,192,107412,1,0,0:0:0:0:
402,192,107412,1,0,0:0:0:0:
109,192,107443,128,0,107535:0:0:0:0:
182,192,107473,128,0,107597:0:0:0:0:
256,192,107504,128,0,107782:0:0:0:0:
402,192,107551,128,0,107689:0:0:0:0:
475,192,107597,128,0,107643:0:0:0:0:
329,192,107643,128,0,107736:0:0:0:0:
182,192,107689,128,0,107828:0:0:0:0:
109,192,107736,128,0,107875:0:0:0:0:
475,192,107782,128,0,107844:0:0:0:0:
36,192,107782,128,0,107921:0:0:0:0:
402,192,107813,128,0,107906:0:0:0:0:
329,192,107844,128,0,107967:0:0:0:0:
256,192,107875,128,0,108152:0:0:0:0:
109,192,107921,128,0,108060:0:0:0:0:
36,192,107967,128,0,108014:0:0:0:0:
182,192,108014,128,0,108106:0:0:0:0:
329,192,108060,128,0,108199:0:0:0:0:
402,192,108106,128,0,108245:0:0:0:0:
475,192,108152,128,0,108291:0:0:0:0:
36,192,108152,128,0,108245:0:0:0:0:
109,192,108199,128,0,108291:0:0:0:0:
182,192,108245,128,0,108384:0:0:0:0:
329,192,108245,128,0,108384:0:0:0:0:
256,192,108291,128,0,108523:0:0:0:0:
109,192,108338,128,0,108430:0:0:0:0:
402,192,108338,128,0,108430:0:0:0:0:
36,192,108384,128,0,108477:0:0:0:0:
475,192,108384,128,0,108477:0:0:0:0:
475,192,108523,128,0,108615:0:0:0:0:
402,192,108554,128,0,108862:0:0:0:0:
256,192,108585,128,0,108646:0:0:0:0:
109,192,108615,128,0,108739:0:0:0:0:
36,192,108646,128,0,108708:0:0:0:0:
182,192,108677,128,0,108770:0:0:0:0:
256,192,108708,128,0,108801:0:0:0:0:
329,192,108739,128,0,108831:0:0:0:0:
475,192,108770,128,0,109140:0:0:0:0:
36,192,108893,128,0,109017:0:0:0:0:
329,192,108893,1,0,0:0:0:0:
182,192,108893,1,0,0:0:0:0:
256,192,108955,128,0,109078:0:0:0:0:
109,192,108955,128,0,109078:0:0:0:0:
182,192,109017,128,0,109202:0:0:0:0:
402,192,109017,128,0,109264:0:0:0:0:
329,192,109017,1,0,0:0:0:0:
109,192,109140,128,0,109325:0:0:0:0:
329,192,109140,128,0,109387:0:0:0:0:
256,192,109140,1,0,0:0:0:0:
256,192,109264,128,0,109387:0:0:0:0:
36,192,109264,128,0,109572:0:0:0:0:
182,192,109264,1,0,0:0:0:0:
182,192,109387,128,0,109449:0:0:0:0:
402,192,109387,128,0,109449:0:0:0:0:
475,192,109387,128,0,109449:0:0:0:0:
256,192,109449,128,0,109510:0:0:0:0:
329,192,109449,128,0,109510:0:0:0:0:
402,192,109510,128,0,109572:0:0:0:0:
475,192,109510,128,0,109572:0:0:0:0:
182,192,109510,128,0,109572:0:0:0:0:
109,192,109634,1,0,0:0:0:0:
182,192,109634,128,0,109726:0:0:0:0:
329,192,109665,128,0,109757:0:0:0:0:
475,192,109696,128,0,109757:0:0:0:0:
36,192,109726,1,0,0:0:0:0:
109,192,109726,128,0,109819:0:0:0:0:
256,192,109757,128,0,109819:0:0:0:0:
402,192,109788,1,0,0:0:0:0:
329,192,109819,1,0,0:0:0:0:
182,192,109819,128,0,109943:0:0:0:0:
36,192,109819,1,0,0:0:0:0:
475,192,109819,128,0,110128:0:0:0:0:
36,192,109943,128,0,110004:0:0:0:0:
109,192,109943,128,0,110004:0:0:0:0:
329,192,109943,128,0,110004:0:0:0:0:
182,192,110004,128,0,110066:0:0:0:0:
256,192,110004,128,0,110066:0:0:0:0:
36,192,110066,128,0,110128:0:0:0:0:
109,192,110066,128,0,110128:0:0:0:0:
329,192,110066,128,0,110128:0:0:0:0:
402,192,110189,1,0,0:0:0:0:
329,192,110189,128,0,110282:0:0:0:0:
182,192,110220,128,0,110313:0:0:0:0:
36,192,110251,128,0,110313:0:0:0:0:
475,192,110282,1,0,0:0:0:0:
402,192,110282,128,0,110375:0:0:0:0:
256,192,110313,128,0,110375:0:0:0:0:
109,192,110344,1,0,0:0:0:0:
182,192,110375,128,0,110498:0:0:0:0:
329,192,110375,1,0,0:0:0:0:
36,192,110375,128,0,110498:0:0:0:0:
475,192,110375,128,0,110498:0:0:0:0:
329,192,110498,1,0,0:0:0:0:
109,192,110560,1,0,0:0:0:0:
36,192,110560,1,0,0:0:0:0:
475,192,110560,128,0,110791:0:0:0:0:
182,192,110560,128,0,110652:0:0:0:0:
256,192,110560,1,0,0:0:0:0:
402,192,110606,128,0,110791:0:0:0:0:
329,192,110652,128,0,110791:0:0:0:0:
36,192,110652,128,0,110791:0:0:0:0:
109,192,110652,128,0,110791:0:0:0:0:
256,192,110699,128,0,110791:0:0:0:0:
182,192,110745,128,0,110838:0:0:0:0:
402,192,110838,1,0,0:0:0:0:
36,192,110838,128,0,111069:0:0:0:0:
256,192,110838,1,0,0:0:0:0:
329,192,110838,128,0,110930:0:0:0:0:
475,192,110838,1,0,0:0:0:0:
109,192,110884,128,0,111069:0:0:0:0:
182,192,110930,128,0,111069:0:0:0:0:
475,192,110930,128,0,111069:0:0:0:0:
402,192,110930,128,0,111069:0:0:0:0:
256,192,110976,128,0,111069:0:0:0:0:
329,192,111023,128,0,111069:0:0:0:0:
36,192,111115,128,0,111331:0:0:0:0:
182,192,111115,128,0,111208:0:0:0:0:
109,192,111115,1,0,0:0:0:0:
329,192,111146,128,0,111208:0:0:0:0:
475,192,111177,128,0,111301:0:0:0:0:
256,192,111208,128,0,111270:0:0:0:0:
402,192,111239,128,0,111362:0:0:0:0:
182,192,111270,128,0,111331:0:0:0:0:
329,192,111301,128,0,111424:0:0:0:0:
109,192,111331,128,0,111393:0:0:0:0:
256,192,111362,128,0,111486:0:0:0:0:
36,192,111393,128,0,111486:0:0:0:0:
182,192,111424,128,0,111486:0:0:0:0:
475,192,111486,128,0,111764:0:0:0:0:
402,192,111509,128,0,111555:0:0:0:0:
329,192,111532,128,0,111717:0:0:0:0:
256,192,111555,128,0,111601:0:0:0:0:
182,192,111578,128,0,111671:0:0:0:0:
109,192,111601,128,0,111648:0:0:0:0:
36,192,111671,128,0,111856:0:0:0:0:
109,192,111694,128,0,111740:0:0:0:0:
182,192,111717,128,0,111856:0:0:0:0:
256,192,111740,128,0,111787:0:0:0:0:
329,192,111764,128,0,111856:0:0:0:0:
402,192,111787,128,0,111833:0:0:0:0:
256,192,111856,128,0,111918:0:0:0:0:
475,192,111856,128,0,111918:0:0:0:0:
109,192,111856,1,0,0:0:0:0:
182,192,111918,128,0,111980:0:0:0:0:
402,192,111918,128,0,111980:0:0:0:0:
109,192,111980,128,0,112041:0:0:0:0:
329,192,111980,128,0,112041:0:0:0:0:
36,192,112041,128,0,112103:0:0:0:0:
256,192,112041,128,0,112103:0:0:0:0:
475,192,112041,1,0,0:0:0:0:
329,192,112103,128,0,112165:0:0:0:0:
109,192,112103,128,0,112165:0:0:0:0:
402,192,112165,128,0,112226:0:0:0:0:
182,192,112165,128,0,112226:0:0:0:0:
256,192,112226,128,0,112350:0:0:0:0:
475,192,112226,128,0,112350:0:0:0:0:
36,192,112226,1,0,0:0:0:0:
182,192,112350,128,0,112412:0:0:0:0:
402,192,112350,128,0,112412:0:0:0:0:
109,192,112412,128,0,112473:0:0:0:0:
329,192,112412,128,0,112473:0:0:0:0:
36,192,112473,128,0,112535:0:0:0:0:
256,192,112473,128,0,112535:0:0:0:0:
402,192,112504,1,0,0:0:0:0:
475,192,112504,1,0,0:0:0:0:
109,192,112535,128,0,112638:0:0:0:0:
329,192,112535,128,0,112638:0:0:0:0:
402,192,112638,128,0,112761:0:0:0:0:
182,192,112638,128,0,112761:0:0:0:0:
256,192,112761,128,0,112885:0:0:0:0:
475,192,112761,128,0,112885:0:0:0:0:
36,192,112782,1,0,0:0:0:0:
109,192,112782,1,0,0:0:0:0:
182,192,112885,128,0,113029:0:0:0:0:
402,192,112885,128,0,113029:0:0:0:0:
109,192,113029,128,0,113091:0:0:0:0:
329,192,113029,128,0,113091:0:0:0:0:
475,192,113060,1,0,0:0:0:0:
402,192,113060,1,0,0:0:0:0:
36,192,113091,128,0,113152:0:0:0:0:
256,192,113091,128,0,113152:0:0:0:0:
109,192,113152,128,0,113214:0:0:0:0:
329,192,113152,128,0,113214:0:0:0:0:
402,192,113214,128,0,113276:0:0:0:0:
182,192,113214,128,0,113276:0:0:0:0:
256,192,113276,128,0,113338:0:0:0:0:
475,192,113276,128,0,113338:0:0:0:0:
329,192,113338,1,0,0:0:0:0:
182,192,113338,1,0,0:0:0:0:
109,192,113338,1,0,0:0:0:0:
402,192,113338,1,0,0:0:0:0:
36,192,113338,1,0,0:0:0:0:
256,192,113523,1,0,0:0:0:0:
256,192,113708,1,0,0:0:0:0:
256,192,113893,1,0,0:0:0:0:
256,192,114078,128,0,114510:0:0:0:0:
36,192,114449,128,0,114510:0:0:0:0:
475,192,114449,128,0,114510:0:0:0:0:
109,192,114480,128,0,114541:0:0:0:0:
402,192,114480,128,0,114541:0:0:0:0:
182,192,114510,128,0,114572:0:0:0:0:
329,192,114510,128,0,114572:0:0:0:0:
475,192,114634,1,0,0:0:0:0:
329,192,114634,128,0,114726:0:0:0:0:
109,192,114634,1,0,0:0:0:0:
36,192,114634,128,0,115004:0:0:0:0:
402,192,114726,128,0,114819:0:0:0:0:
109,192,114726,128,0,115004:0:0:0:0:
182,192,114726,1,0,0:0:0:0:
182,192,114819,128,0,115004:0:0:0:0:
329,192,114819,128,0,114912:0:0:0:0:
256,192,114819,1,0,0:0:0:0:
475,192,114819,128,0,114912:0:0:0:0:
475,192,115004,128,0,115039:0:0:0:0:
402,192,115016,128,0,115051:0:0:0:0:
329,192,115027,128,0,115062:0:0:0:0:
256,192,115039,128,0,115074:0:0:0:0:
182,192,115051,128,0,115085:0:0:0:0:
109,192,115062,128,0,115097:0:0:0:0:
36,192,115074,128,0,115108:0:0:0:0:
109,192,115189,128,0,115375:0:0:0:0:
36,192,115189,128,0,115467:0:0:0:0:
182,192,115189,128,0,115282:0:0:0:0:
402,192,115189,1,0,0:0:0:0:
475,192,115189,1,0,0:0:0:0:
329,192,115189,1,0,0:0:0:0:
256,192,115282,1,0,0:0:0:0:
182,192,115375,128,0,115467:0:0:0:0:
402,192,115375,1,0,0:0:0:0:
475,192,115375,128,0,115745:0:0:0:0:
109,192,115467,128,0,115560:0:0:0:0:
329,192,115467,1,0,0:0:0:0:
402,192,115467,128,0,115745:0:0:0:0:
329,192,115560,128,0,115745:0:0:0:0:
36,192,115560,1,0,0:0:0:0:
256,192,115560,1,0,0:0:0:0:
109,192,115606,1,0,0:0:0:0:
182,192,115652,1,0,0:0:0:0:
36,192,115699,1,0,0:0:0:0:
182,192,115745,128,0,115791:0:0:0:0:
256,192,115745,128,0,115791:0:0:0:0:
109,192,115745,128,0,116162:0:0:0:0:
256,192,115838,128,0,115976:0:0:0:0:
475,192,115930,128,0,115976:0:0:0:0:
329,192,115930,128,0,115976:0:0:0:0:
475,192,116023,128,0,116254:0:0:0:0:
329,192,116023,128,0,116254:0:0:0:0:
36,192,116115,128,0,116162:0:0:0:0:
182,192,116115,128,0,116162:0:0:0:0:
36,192,116208,128,0,116347:0:0:0:0:
182,192,116208,128,0,116347:0:0:0:0:
475,192,116301,128,0,116347:0:0:0:0:
256,192,116301,128,0,116486:0:0:0:0:
402,192,116301,128,0,116486:0:0:0:0:
329,192,116301,128,0,116347:0:0:0:0:
109,192,116486,1,0,0:0:0:0:
36,192,116486,128,0,116532:0:0:0:0:
182,192,116509,128,0,116578:0:0:0:0:
329,192,116532,128,0,116625:0:0:0:0:
475,192,116555,128,0,116671:0:0:0:0:
256,192,116671,128,0,116949:0:0:0:0:
109,192,116671,128,0,116949:0:0:0:0:
402,192,116671,128,0,116949:0:0:0:0:
329,192,116856,128,0,116902:0:0:0:0:
182,192,116856,128,0,116902:0:0:0:0:
36,192,116856,1,0,0:0:0:0:
475,192,116856,1,0,0:0:0:0:
182,192,116949,128,0,117041:0:0:0:0:
329,192,116949,128,0,117041:0:0:0:0:
36,192,117041,128,0,117226:0:0:0:0:
109,192,117041,128,0,117134:0:0:0:0:
402,192,117041,128,0,117103:0:0:0:0:
329,192,117072,128,0,117134:0:0:0:0:
256,192,117103,128,0,117165:0:0:0:0:
475,192,117134,128,0,117412:0:0:0:0:
182,192,117134,128,0,117196:0:0:0:0:
402,192,117180,128,0,117319:0:0:0:0:
109,192,117226,128,0,117288:0:0:0:0:
182,192,117257,128,0,117319:0:0:0:0:
256,192,117288,128,0,117350:0:0:0:0:
36,192,117319,128,0,117365:0:0:0:0:
329,192,117319,128,0,117381:0:0:0:0:
109,192,117365,128,0,117412:0:0:0:0:
182,192,117412,1,0,0:0:0:0:
402,192,117412,1,0,0:0:0:0:
109,192,117473,1,0,0:0:0:0:
329,192,117473,1,0,0:0:0:0:
182,192,117535,1,0,0:0:0:0:
402,192,117535,1,0,0:0:0:0:
329,192,117597,1,0,0:0:0:0:
109,192,117597,1,0,0:0:0:0:
182,192,117689,1,0,0:0:0:0:
402,192,117689,1,0,0:0:0:0:
36,192,117782,128,0,117875:0:0:0:0:
109,192,117782,128,0,117875:0:0:0:0:
256,192,117782,128,0,117875:0:0:0:0:
329,192,117782,128,0,117967:0:0:0:0:
475,192,117782,128,0,117967:0:0:0:0:
36,192,117967,128,0,118002:0:0:0:0:
109,192,117979,128,0,118014:0:0:0:0:
182,192,117990,128,0,118025:0:0:0:0:
256,192,118002,128,0,118037:0:0:0:0:
329,192,118014,128,0,118048:0:0:0:0:
402,192,118025,128,0,118060:0:0:0:0:
475,192,118037,128,0,118071:0:0:0:0:
109,192,118152,128,0,118338:0:0:0:0:
402,192,118152,128,0,118338:0:0:0:0:
36,192,118152,1,0,0:0:0:0:
475,192,118152,1,0,0:0:0:0:
256,192,118152,128,0,118338:0:0:0:0:
329,192,118338,128,0,118523:0:0:0:0:
182,192,118338,1,0,0:0:0:0:
36,192,118430,128,0,118492:0:0:0:0:
109,192,118461,128,0,118523:0:0:0:0:
182,192,118492,128,0,118554:0:0:0:0:
475,192,118523,128,0,118585:0:0:0:0:
402,192,118554,128,0,118615:0:0:0:0:
329,192,118585,128,0,118646:0:0:0:0:
256,192,118615,128,0,118677:0:0:0:0:
182,192,118646,128,0,118893:0:0:0:0:
475,192,118708,1,0,0:0:0:0:
402,192,118708,128,0,118893:0:0:0:0:
36,192,118708,1,0,0:0:0:0:
109,192,118708,128,0,118801:0:0:0:0:
256,192,118801,128,0,119078:0:0:0:0:
36,192,118893,1,0,0:0:0:0:
475,192,118893,1,0,0:0:0:0:
329,192,118893,128,0,118986:0:0:0:0:
109,192,118955,1,0,0:0:0:0:
402,192,118986,128,0,119078:0:0:0:0:
182,192,119017,1,0,0:0:0:0:
36,192,119078,128,0,119356:0:0:0:0:
475,192,119078,1,0,0:0:0:0:
329,192,119078,1,0,0:0:0:0:
475,192,119171,128,0,119356:0:0:0:0:
109,192,119171,1,0,0:0:0:0:
256,192,119171,1,0,0:0:0:0:
402,192,119171,1,0,0:0:0:0:
182,192,119264,128,0,119356:0:0:0:0:
109,192,119264,128,0,119356:0:0:0:0:
402,192,119264,128,0,119356:0:0:0:0:
329,192,119264,128,0,119356:0:0:0:0:
182,192,119449,128,0,119634:0:0:0:0:
329,192,119449,1,0,0:0:0:0:
402,192,119449,1,0,0:0:0:0:
475,192,119449,1,0,0:0:0:0:
36,192,119495,128,0,119634:0:0:0:0:
256,192,119541,128,0,119726:0:0:0:0:
109,192,119588,128,0,119726:0:0:0:0:
475,192,119634,1,0,0:0:0:0:
329,192,119634,1,0,0:0:0:0:
329,192,119726,128,0,119943:0:0:0:0:
475,192,119726,128,0,119943:0:0:0:0:
182,192,119726,1,0,0:0:0:0:
36,192,119726,1,0,0:0:0:0:
36,192,119819,128,0,120004:0:0:0:0:
182,192,119819,128,0,120004:0:0:0:0:
256,192,119881,128,0,119943:0:0:0:0:
402,192,119881,128,0,119943:0:0:0:0:
109,192,120004,128,0,120066:0:0:0:0:
329,192,120066,128,0,120128:0:0:0:0:
182,192,120128,128,0,120189:0:0:0:0:
402,192,120189,128,0,120251:0:0:0:0:
109,192,120251,128,0,120313:0:0:0:0:
402,192,120313,128,0,120375:0:0:0:0:
109,192,120375,128,0,120467:0:0:0:0:
256,192,120375,128,0,120868:0:0:0:0:
402,192,120467,128,0,120514:0:0:0:0:
109,192,120514,128,0,120560:0:0:0:0:
402,192,120560,128,0,120622:0:0:0:0:
109,192,120622,128,0,120683:0:0:0:0:
402,192,120683,128,0,120745:0:0:0:0:
182,192,120745,128,0,120868:0:0:0:0:
36,192,120745,128,0,120868:0:0:0:0:
329,192,120745,128,0,120868:0:0:0:0:
475,192,120745,128,0,120868:0:0:0:0:
256,192,120930,128,0,121115:0:0:0:0:
36,192,120930,1,0,0:0:0:0:
182,192,120930,1,0,0:0:0:0:
329,192,120930,1,0,0:0:0:0:
475,192,120930,1,0,0:0:0:0:
475,192,121115,128,0,121393:0:0:0:0:
402,192,121115,128,0,121301:0:0:0:0:
109,192,121115,1,0,0:0:0:0:
329,192,121115,1,0,0:0:0:0:
36,192,121115,128,0,121625:0:0:0:0:
109,192,121208,128,0,121486:0:0:0:0:
182,192,121208,1,0,0:0:0:0:
182,192,121301,128,0,121625:0:0:0:0:
256,192,121301,1,0,0:0:0:0:
256,192,121393,128,0,121486:0:0:0:0:
329,192,121393,1,0,0:0:0:0:
329,192,121486,128,0,121625:0:0:0:0:
402,192,121486,1,0,0:0:0:0:
475,192,121671,128,0,121764:0:0:0:0:
109,192,121671,128,0,121764:0:0:0:0:
256,192,121671,128,0,121856:0:0:0:0:
402,192,121671,128,0,121764:0:0:0:0:
182,192,121856,1,0,0:0:0:0:
475,192,121856,128,0,122365:0:0:0:0:
402,192,121856,1,0,0:0:0:0:
36,192,121856,1,0,0:0:0:0:
109,192,121856,1,0,0:0:0:0:
109,192,121949,128,0,122041:0:0:0:0:
329,192,121949,1,0,0:0:0:0:
36,192,121949,128,0,122134:0:0:0:0:
402,192,121949,128,0,122226:0:0:0:0:
329,192,122041,128,0,122365:0:0:0:0:
256,192,122041,1,0,0:0:0:0:
256,192,122134,128,0,122226:0:0:0:0:
182,192,122134,1,0,0:0:0:0:
182,192,122226,128,0,122365:0:0:0:0:
36,192,122226,1,0,0:0:0:0:
109,192,122226,1,0,0:0:0:0:
36,192,122412,128,0,122469:0:0:0:0:
109,192,122423,128,0,122481:0:0:0:0:
182,192,122435,128,0,122493:0:0:0:0:
256,192,122446,128,0,122504:0:0:0:0:
329,192,122458,128,0,122516:0:0:0:0:
402,192,122469,128,0,122527:0:0:0:0:
475,192,122481,128,0,122539:0:0:0:0:
36,192,122597,128,0,122782:0:0:0:0:
109,192,122597,1,0,0:0:0:0:
329,192,122597,1,0,0:0:0:0:
109,192,122689,128,0,122782:0:0:0:0:
182,192,122689,1,0,0:0:0:0:
329,192,122689,1,0,0:0:0:0:
475,192,122782,1,0,0:0:0:0:
182,192,122782,128,0,122967:0:0:0:0:
256,192,122782,1,0,0:0:0:0:
402,192,122782,1,0,0:0:0:0:
109,192,122875,128,0,123060:0:0:0:0:
402,192,122875,1,0,0:0:0:0:
475,192,122875,1,0,0:0:0:0:
329,192,122967,128,0,123106:0:0:0:0:
36,192,122967,128,0,123106:0:0:0:0:
256,192,122967,1,0,0:0:0:0:
475,192,123014,128,0,123106:0:0:0:0:
256,192,123060,128,0,123199:0:0:0:0:
402,192,123106,128,0,123199:0:0:0:0:
182,192,123152,128,0,123291:0:0:0:0:
329,192,123199,128,0,123291:0:0:0:0:
109,192,123245,128,0,123384:0:0:0:0:
256,192,123291,128,0,123430:0:0:0:0:
329,192,123338,1,0,0:0:0:0:
475,192,123338,128,0,123476:0:0:0:0:
36,192,123384,128,0,123523:0:0:0:0:
182,192,123384,1,0,0:0:0:0:
329,192,123430,128,0,123569:0:0:0:0:
402,192,123430,1,0,0:0:0:0:
182,192,123476,128,0,123615:0:0:0:0:
109,192,123476,1,0,0:0:0:0:
402,192,123523,128,0,123754:0:0:0:0:
475,192,123523,1,0,0:0:0:0:
36,192,123615,1,0,0:0:0:0:
109,192,123615,128,0,123754:0:0:0:0:
475,192,123708,1,0,0:0:0:0:
256,192,123708,1,0,0:0:0:0:
182,192,123708,128,0,123847:0:0:0:0:
329,192,123708,128,0,123847:0:0:0:0:
475,192,123893,128,0,123927:0:0:0:0:
402,192,123904,128,0,123939:0:0:0:0:
329,192,123916,128,0,123951:0:0:0:0:
256,192,123927,128,0,123963:0:0:0:0:
182,192,123939,128,0,123974:0:0:0:0:
109,192,123951,128,0,123986:0:0:0:0:
36,192,123963,128,0,123997:0:0:0:0:
329,192,124078,1,0,0:0:0:0:
475,192,124078,1,0,0:0:0:0:
402,192,124171,128,0,124264:0:0:0:0:
329,192,124171,128,0,124325:0:0:0:0:
36,192,124171,128,0,124233:0:0:0:0:
475,192,124171,128,0,124202:0:0:0:0:
109,192,124202,128,0,124294:0:0:0:0:
182,192,124233,128,0,124356:0:0:0:0:
256,192,124264,128,0,124418:0:0:0:0:
402,192,124356,1,0,0:0:0:0:
329,192,124449,128,0,124634:0:0:0:0:
475,192,124449,128,0,124634:0:0:0:0:
36,192,124449,1,0,0:0:0:0:
182,192,124449,1,0,0:0:0:0:
36,192,124541,128,0,124634:0:0:0:0:
182,192,124541,128,0,124634:0:0:0:0:
402,192,124634,128,0,124819:0:0:0:0:
256,192,124634,128,0,124819:0:0:0:0:
109,192,124634,128,0,124726:0:0:0:0:
36,192,124726,128,0,125004:0:0:0:0:
109,192,124819,5,0,0:0:0:0:
475,192,124819,1,0,0:0:0:0:
182,192,124819,128,0,125004:0:0:0:0:
329,192,124819,1,0,0:0:0:0:
475,192,124912,128,0,125004:0:0:0:0:
329,192,124912,128,0,125004:0:0:0:0:
109,192,125004,128,0,125189:0:0:0:0:
256,192,125004,128,0,125189:0:0:0:0:
402,192,125004,128,0,125097:0:0:0:0:
475,192,125097,128,0,125375:0:0:0:0:
402,192,125189,1,0,0:0:0:0:
182,192,125189,1,0,0:0:0:0:
36,192,125189,1,0,0:0:0:0:
329,192,125189,128,0,125375:0:0:0:0:
36,192,125282,128,0,125375:0:0:0:0:
182,192,125282,128,0,125375:0:0:0:0:
109,192,125375,128,0,125745:0:0:0:0:
256,192,125375,128,0,125467:0:0:0:0:
402,192,125375,1,0,0:0:0:0:
329,192,125467,128,0,125560:0:0:0:0:
475,192,125467,128,0,125560:0:0:0:0:
402,192,125560,128,0,125652:0:0:0:0:
256,192,125560,1,0,0:0:0:0:
182,192,125560,128,0,125652:0:0:0:0:
36,192,125560,128,0,125652:0:0:0:0:
475,192,125652,128,0,125838:0:0:0:0:
329,192,125652,128,0,125838:0:0:0:0:
36,192,125745,128,0,125838:0:0:0:0:
182,192,125745,128,0,125838:0:0:0:0:
256,192,125838,128,0,125930:0:0:0:0:
36,192,125930,5,0,0:0:0:0:
402,192,125930,1,0,0:0:0:0:
329,192,125930,1,0,0:0:0:0:
475,192,125930,1,0,0:0:0:0:
109,192,125961,1,0,0:0:0:0:
182,192,125992,1,0,0:0:0:0:
256,192,126023,1,0,0:0:0:0:
329,192,126054,1,0,0:0:0:0:
402,192,126085,1,0,0:0:0:0:
475,192,126115,1,0,0:0:0:0:
402,192,126146,1,0,0:0:0:0:
329,192,126177,1,0,0:0:0:0:
256,192,126208,1,0,0:0:0:0:
182,192,126239,1,0,0:0:0:0:
109,192,126270,1,0,0:0:0:0:
36,192,126301,1,0,0:0:0:0:
475,192,126301,1,0,0:0:0:0:
402,192,126324,1,0,0:0:0:0:
182,192,126370,1,0,0:0:0:0:
256,192,126393,1,0,0:0:0:0:
329,192,126416,1,0,0:0:0:0:
109,192,126455,1,0,0:0:0:0:
182,192,126517,1,0,0:0:0:0:
402,192,126578,1,0,0:0:0:0:
475,192,126578,1,0,0:0:0:0:
36,192,126578,1,0,0:0:0:0:
109,192,126578,1,0,0:0:0:0:
256,192,126578,1,0,0:0:0:0:
329,192,126671,1,0,0:0:0:0:
182,192,126671,1,0,0:0:0:0:
329,192,126764,1,0,0:0:0:0:
402,192,126856,1,0,0:0:0:0:
475,192,126856,1,0,0:0:0:0:
256,192,126856,1,0,0:0:0:0:
109,192,126856,1,0,0:0:0:0:
36,192,126856,1,0,0:0:0:0:
182,192,126949,1,0,0:0:0:0:
256,192,127041,1,0,0:0:0:0:
36,192,127041,1,0,0:0:0:0:
329,192,127041,1,0,0:0:0:0:
402,192,127072,1,0,0:0:0:0:
475,192,127103,1,0,0:0:0:0:
182,192,127103,1,0,0:0:0:0:
329,192,127165,1,0,0:0:0:0:
109,192,127165,1,0,0:0:0:0:
402,192,127196,1,0,0:0:0:0:
475,192,127226,1,0,0:0:0:0:
182,192,127226,1,0,0:0:0:0:
329,192,127288,1,0,0:0:0:0:
109,192,127288,1,0,0:0:0:0:
402,192,127319,1,0,0:0:0:0:
475,192,127350,1,0,0:0:0:0:
182,192,127350,1,0,0:0:0:0:
36,192,127412,1,0,0:0:0:0:
256,192,127412,1,0,0:0:0:0:
109,192,127412,1,0,0:0:0:0:
329,192,127412,1,0,0:0:0:0:
109,192,127597,1,0,0:0:0:0:
182,192,127597,1,0,0:0:0:0:
475,192,127689,1,0,0:0:0:0:
36,192,127689,1,0,0:0:0:0:
256,192,127689,1,0,0:0:0:0:
329,192,127689,1,0,0:0:0:0:
402,192,127689,1,0,0:0:0:0:
109,192,127782,1,0,0:0:0:0:
182,192,127782,1,0,0:0:0:0:
475,192,127875,1,0,0:0:0:0:
402,192,127898,1,0,0:0:0:0:
329,192,127921,1,0,0:0:0:0:
36,192,127967,1,0,0:0:0:0:
109,192,127967,1,0,0:0:0:0:
182,192,127967,1,0,0:0:0:0:
256,192,127967,1,0,0:0:0:0:
256,192,128060,1,0,0:0:0:0:
36,192,128152,1,0,0:0:0:0:
109,192,128168,1,0,0:0:0:0:
182,192,128183,1,0,0:0:0:0:
475,192,128214,1,0,0:0:0:0:
402,192,128230,1,0,0:0:0:0:
329,192,128245,1,0,0:0:0:0:
36,192,128276,1,0,0:0:0:0:
109,192,128291,1,0,0:0:0:0:
182,192,128307,1,0,0:0:0:0:
256,192,128338,1,0,0:0:0:0:
329,192,128338,1,0,0:0:0:0:
402,192,128338,1,0,0:0:0:0:
475,192,128338,1,0,0:0:0:0:
475,192,128523,1,0,0:0:0:0:
256,192,128523,1,0,0:0:0:0:
182,192,128523,1,0,0:0:0:0:
109,192,128546,1,0,0:0:0:0:
36,192,128569,1,0,0:0:0:0:
402,192,128615,1,0,0:0:0:0:
329,192,128639,1,0,0:0:0:0:
256,192,128662,1,0,0:0:0:0:
182,192,128685,1,0,0:0:0:0:
109,192,128708,1,0,0:0:0:0:
475,192,128731,1,0,0:0:0:0:
402,192,128754,1,0,0:0:0:0:
329,192,128777,1,0,0:0:0:0:
36,192,128801,1,0,0:0:0:0:
109,192,128824,1,0,0:0:0:0:
182,192,128847,1,0,0:0:0:0:
256,192,128893,1,0,0:0:0:0:
329,192,128893,1,0,0:0:0:0:
402,192,128893,1,0,0:0:0:0:
475,192,128893,1,0,0:0:0:0:
109,192,128986,1,0,0:0:0:0:
36,192,129009,1,0,0:0:0:0:
182,192,129055,1,0,0:0:0:0:
256,192,129078,1,0,0:0:0:0:
329,192,129101,1,0,0:0:0:0:
475,192,129171,1,0,0:0:0:0:
402,192,129194,1,0,0:0:0:0:
36,192,129264,1,0,0:0:0:0:
109,192,129264,1,0,0:0:0:0:
256,192,129264,1,0,0:0:0:0:
329,192,129264,1,0,0:0:0:0:
182,192,129356,1,0,0:0:0:0:
402,192,129356,1,0,0:0:0:0:
182,192,129449,1,0,0:0:0:0:
329,192,129449,1,0,0:0:0:0:
36,192,129541,1,0,0:0:0:0:
109,192,129541,1,0,0:0:0:0:
256,192,129541,1,0,0:0:0:0:
402,192,129541,1,0,0:0:0:0:
475,192,129541,1,0,0:0:0:0:
329,192,129634,1,0,0:0:0:0:
182,192,129634,1,0,0:0:0:0:
329,192,129726,1,0,0:0:0:0:
109,192,129726,1,0,0:0:0:0:
36,192,129819,1,0,0:0:0:0:
182,192,129819,1,0,0:0:0:0:
256,192,129819,1,0,0:0:0:0:
402,192,129819,1,0,0:0:0:0:
475,192,129819,1,0,0:0:0:0:
329,192,129912,1,0,0:0:0:0:
256,192,130004,1,0,0:0:0:0:
402,192,130004,1,0,0:0:0:0:
109,192,130004,1,0,0:0:0:0:
36,192,130004,1,0,0:0:0:0:
109,192,130097,1,0,0:0:0:0:
182,192,130097,1,0,0:0:0:0:
329,192,130097,1,0,0:0:0:0:
402,192,130097,1,0,0:0:0:0:
475,192,130097,1,0,0:0:0:0:
256,192,130189,1,0,0:0:0:0:
182,192,130213,1,0,0:0:0:0:
402,192,130236,1,0,0:0:0:0:
109,192,130259,1,0,0:0:0:0:
329,192,130282,1,0,0:0:0:0:
256,192,130305,1,0,0:0:0:0:
36,192,130375,1,0,0:0:0:0:
109,192,130375,1,0,0:0:0:0:
402,192,130375,1,0,0:0:0:0:
475,192,130375,1,0,0:0:0:0:
182,192,130375,1,0,0:0:0:0:
36,192,130467,1,0,0:0:0:0:
109,192,130467,1,0,0:0:0:0:
402,192,130467,1,0,0:0:0:0:
475,192,130467,1,0,0:0:0:0:
329,192,130467,1,0,0:0:0:0:
182,192,130652,1,0,0:0:0:0:
36,192,130652,1,0,0:0:0:0:
329,192,130652,1,0,0:0:0:0:
402,192,130652,1,0,0:0:0:0:
475,192,130652,1,0,0:0:0:0:
256,192,130745,1,0,0:0:0:0:
402,192,130745,1,0,0:0:0:0:
475,192,130745,1,0,0:0:0:0:
109,192,130745,1,0,0:0:0:0:
182,192,130838,1,0,0:0:0:0:
329,192,130838,1,0,0:0:0:0:
256,192,130930,1,0,0:0:0:0:
109,192,130930,1,0,0:0:0:0:
36,192,130930,1,0,0:0:0:0:
182,192,130930,1,0,0:0:0:0:
402,192,130992,1,0,0:0:0:0:
475,192,130992,1,0,0:0:0:0:
329,192,131054,1,0,0:0:0:0:
182,192,131054,1,0,0:0:0:0:
109,192,131115,1,0,0:0:0:0:
36,192,131115,1,0,0:0:0:0:
256,192,131115,1,0,0:0:0:0:
329,192,131146,1,0,0:0:0:0:
402,192,131177,1,0,0:0:0:0:
475,192,131208,1,0,0:0:0:0:
182,192,131301,1,0,0:0:0:0:
256,192,131301,1,0,0:0:0:0:
329,192,131301,1,0,0:0:0:0:
402,192,131301,1,0,0:0:0:0:
109,192,131301,1,0,0:0:0:0:
36,192,131393,1,0,0:0:0:0:
109,192,131424,1,0,0:0:0:0:
182,192,131455,1,0,0:0:0:0:
256,192,131486,1,0,0:0:0:0:
329,192,131486,1,0,0:0:0:0:
402,192,131486,1,0,0:0:0:0:
475,192,131486,1,0,0:0:0:0:
475,192,131578,1,0,0:0:0:0:
402,192,131609,1,0,0:0:0:0:
329,192,131640,1,0,0:0:0:0:
256,192,131671,1,0,0:0:0:0:
182,192,131702,1,0,0:0:0:0:
109,192,131733,1,0,0:0:0:0:
36,192,131764,1,0,0:0:0:0:
36,192,131856,1,0,0:0:0:0:
109,192,131856,1,0,0:0:0:0:
182,192,131856,1,0,0:0:0:0:
329,192,131856,1,0,0:0:0:0:
402,192,131856,1,0,0:0:0:0:
475,192,131856,1,0,0:0:0:0:
329,192,132226,1,0,0:0:0:0:
256,192,132226,1,0,0:0:0:0:
36,192,132226,1,0,0:0:0:0:
182,192,132226,1,0,0:0:0:0:
402,192,132257,1,0,0:0:0:0:
475,192,132288,1,0,0:0:0:0:
109,192,132319,1,0,0:0:0:0:
182,192,132350,1,0,0:0:0:0:
329,192,132381,1,0,0:0:0:0:
402,192,132412,1,0,0:0:0:0:
36,192,132504,1,0,0:0:0:0:
109,192,132504,1,0,0:0:0:0:
475,192,132504,1,0,0:0:0:0:
256,192,132504,1,0,0:0:0:0:
182,192,132504,1,0,0:0:0:0:
36,192,132597,1,0,0:0:0:0:
182,192,132689,1,0,0:0:0:0:
329,192,132689,1,0,0:0:0:0:
475,192,132689,1,0,0:0:0:0:
109,192,132782,1,0,0:0:0:0:
36,192,132782,1,0,0:0:0:0:
402,192,132782,1,0,0:0:0:0:
182,192,132782,1,0,0:0:0:0:
256,192,132782,1,0,0:0:0:0:
182,192,132967,1,0,0:0:0:0:
329,192,132967,1,0,0:0:0:0:
475,192,132967,1,0,0:0:0:0:
402,192,132967,1,0,0:0:0:0:
36,192,133091,1,0,0:0:0:0:
109,192,133091,1,0,0:0:0:0:
182,192,133152,1,0,0:0:0:0:
329,192,133152,1,0,0:0:0:0:
402,192,133183,1,0,0:0:0:0:
109,192,133214,1,0,0:0:0:0:
36,192,133214,1,0,0:0:0:0:
475,192,133214,1,0,0:0:0:0:
36,192,133338,1,0,0:0:0:0:
109,192,133338,1,0,0:0:0:0:
329,192,133338,1,0,0:0:0:0:
402,192,133338,1,0,0:0:0:0:
475,192,133338,1,0,0:0:0:0:
182,192,133399,1,0,0:0:0:0:
329,192,133461,1,0,0:0:0:0:
402,192,133523,1,0,0:0:0:0:
475,192,133523,1,0,0:0:0:0:
182,192,133523,1,0,0:0:0:0:
36,192,133615,1,0,0:0:0:0:
256,192,133615,1,0,0:0:0:0:
109,192,133615,1,0,0:0:0:0:
402,192,133615,1,0,0:0:0:0:
475,192,133615,1,0,0:0:0:0:
36,192,133708,1,0,0:0:0:0:
109,192,133708,1,0,0:0:0:0:
182,192,133708,1,0,0:0:0:0:
329,192,133708,1,0,0:0:0:0:
329,192,133801,1,0,0:0:0:0:
256,192,133893,1,0,0:0:0:0:
402,192,133893,1,0,0:0:0:0:
475,192,133893,1,0,0:0:0:0:
182,192,133893,1,0,0:0:0:0:
109,192,133893,1,0,0:0:0:0:
36,192,133955,1,0,0:0:0:0:
329,192,133986,1,0,0:0:0:0:
109,192,134017,1,0,0:0:0:0:
182,192,134078,1,0,0:0:0:0:
402,192,134078,1,0,0:0:0:0:
475,192,134078,1,0,0:0:0:0:
402,192,134202,1,0,0:0:0:0:
475,192,134202,1,0,0:0:0:0:
36,192,134264,1,0,0:0:0:0:
109,192,134264,1,0,0:0:0:0:
182,192,134264,1,0,0:0:0:0:
256,192,134264,1,0,0:0:0:0:
329,192,134264,1,0,0:0:0:0:
329,192,134449,1,0,0:0:0:0:
109,192,134449,1,0,0:0:0:0:
402,192,134472,1,0,0:0:0:0:
475,192,134495,1,0,0:0:0:0:
182,192,134541,1,0,0:0:0:0:
36,192,134541,1,0,0:0:0:0:
256,192,134564,1,0,0:0:0:0:
329,192,134588,1,0,0:0:0:0:
402,192,134611,1,0,0:0:0:0:
475,192,134634,1,0,0:0:0:0:
109,192,134680,1,0,0:0:0:0:
182,192,134726,1,0,0:0:0:0:
256,192,134773,1,0,0:0:0:0:
36,192,134819,1,0,0:0:0:0:
109,192,134819,1,0,0:0:0:0:
329,192,134819,1,0,0:0:0:0:
402,192,134881,1,0,0:0:0:0:
475,192,134881,1,0,0:0:0:0:
109,192,134943,1,0,0:0:0:0:
182,192,134943,1,0,0:0:0:0:
329,192,135004,1,0,0:0:0:0:
402,192,135004,1,0,0:0:0:0:
36,192,135066,1,0,0:0:0:0:
109,192,135066,1,0,0:0:0:0:
402,192,135128,1,0,0:0:0:0:
475,192,135128,1,0,0:0:0:0:
36,192,135189,1,0,0:0:0:0:
109,192,135189,1,0,0:0:0:0:
182,192,135189,1,0,0:0:0:0:
329,192,135189,1,0,0:0:0:0:
182,192,135313,1,0,0:0:0:0:
109,192,135313,1,0,0:0:0:0:
256,192,135344,1,0,0:0:0:0:
329,192,135375,1,0,0:0:0:0:
402,192,135375,1,0,0:0:0:0:
36,192,135467,1,0,0:0:0:0:
109,192,135467,1,0,0:0:0:0:
256,192,135467,1,0,0:0:0:0:
475,192,135467,1,0,0:0:0:0:
402,192,135467,1,0,0:0:0:0:
182,192,135560,1,0,0:0:0:0:
329,192,135560,1,0,0:0:0:0:
402,192,135652,1,0,0:0:0:0:
182,192,135652,1,0,0:0:0:0:
329,192,135745,1,0,0:0:0:0:
475,192,135745,1,0,0:0:0:0:
256,192,135745,1,0,0:0:0:0:
36,192,135745,1,0,0:0:0:0:
109,192,135745,1,0,0:0:0:0:
329,192,135838,1,0,0:0:0:0:
182,192,135838,1,0,0:0:0:0:
475,192,135930,1,0,0:0:0:0:
402,192,135930,1,0,0:0:0:0:
256,192,135930,1,0,0:0:0:0:
36,192,136023,1,0,0:0:0:0:
109,192,136023,1,0,0:0:0:0:
182,192,136023,1,0,0:0:0:0:
329,192,136023,1,0,0:0:0:0:
109,192,136115,1,0,0:0:0:0:
182,192,136115,1,0,0:0:0:0:
36,192,136115,1,0,0:0:0:0:
329,192,136115,1,0,0:0:0:0:
402,192,136177,1,0,0:0:0:0:
475,192,136177,1,0,0:0:0:0:
109,192,136239,1,0,0:0:0:0:
36,192,136239,1,0,0:0:0:0:
329,192,136301,1,0,0:0:0:0:
402,192,136301,1,0,0:0:0:0:
475,192,136301,1,0,0:0:0:0:
182,192,136301,1,0,0:0:0:0:
36,192,136393,1,0,0:0:0:0:
109,192,136416,1,0,0:0:0:0:
182,192,136439,1,0,0:0:0:0:
256,192,136463,1,0,0:0:0:0:
329,192,136486,1,0,0:0:0:0:
402,192,136509,1,0,0:0:0:0:
475,192,136532,1,0,0:0:0:0:
182,192,136578,1,0,0:0:0:0:
109,192,136578,1,0,0:0:0:0:
36,192,136578,1,0,0:0:0:0:
475,192,136671,1,0,0:0:0:0:
402,192,136671,1,0,0:0:0:0:
329,192,136671,1,0,0:0:0:0:
256,192,136671,1,0,0:0:0:0:
36,192,136740,1,0,0:0:0:0:
109,192,136764,1,0,0:0:0:0:
182,192,136787,1,0,0:0:0:0:
475,192,136856,1,0,0:0:0:0:
402,192,136856,1,0,0:0:0:0:
329,192,136856,1,0,0:0:0:0:
256,192,136856,1,0,0:0:0:0:
36,192,136949,1,0,0:0:0:0:
109,192,136949,1,0,0:0:0:0:
182,192,136949,1,0,0:0:0:0:
402,192,136949,1,0,0:0:0:0:
475,192,136949,1,0,0:0:0:0:
329,192,136949,1,0,0:0:0:0:
36,192,137041,1,0,0:0:0:0:
109,192,137041,1,0,0:0:0:0:
182,192,137041,1,0,0:0:0:0:
329,192,137041,1,0,0:0:0:0:
402,192,137041,1,0,0:0:0:0:
475,192,137041,1,0,0:0:0:0:
109,192,137412,1,0,0:0:0:0:
182,192,137412,1,0,0:0:0:0:
256,192,137412,1,0,0:0:0:0:
329,192,137412,1,0,0:0:0:0:
402,192,137412,1,0,0:0:0:0:
36,192,137412,1,0,0:0:0:0:
475,192,137412,1,0,0:0:0:0:
182,192,137597,1,0,0:0:0:0:
329,192,137597,1,0,0:0:0:0:
36,192,137782,1,0,0:0:0:0:
109,192,137782,1,0,0:0:0:0:
182,192,137782,1,0,0:0:0:0:
329,192,137782,1,0,0:0:0:0:
402,192,137782,1,0,0:0:0:0:
475,192,137782,1,0,0:0:0:0:
256,192,137782,1,0,0:0:0:0:
475,192,137875,1,0,0:0:0:0:
402,192,137906,1,0,0:0:0:0:
329,192,137936,1,0,0:0:0:0:
256,192,137967,1,0,0:0:0:0:
182,192,137998,1,0,0:0:0:0:
109,192,138029,1,0,0:0:0:0:
36,192,138060,1,0,0:0:0:0:
109,192,138152,1,0,0:0:0:0:
182,192,138152,1,0,0:0:0:0:
36,192,138152,1,0,0:0:0:0:
256,192,138152,1,0,0:0:0:0:
329,192,138152,1,0,0:0:0:0:
402,192,138152,1,0,0:0:0:0:
475,192,138152,1,0,0:0:0:0:
182,192,138338,1,0,0:0:0:0:
329,192,138338,1,0,0:0:0:0:
475,192,138338,1,0,0:0:0:0:
182,192,138430,1,0,0:0:0:0:
475,192,138430,1,0,0:0:0:0:
329,192,138430,1,0,0:0:0:0:
36,192,138523,1,0,0:0:0:0:
109,192,138523,1,0,0:0:0:0:
182,192,138523,1,0,0:0:0:0:
329,192,138523,1,0,0:0:0:0:
256,192,138523,1,0,0:0:0:0:
402,192,138523,1,0,0:0:0:0:
475,192,138523,1,0,0:0:0:0:
329,192,138685,1,0,0:0:0:0:
402,192,138708,1,0,0:0:0:0:
475,192,138731,1,0,0:0:0:0:
256,192,138754,1,0,0:0:0:0:
182,192,138777,1,0,0:0:0:0:
109,192,138801,1,0,0:0:0:0:
36,192,138824,1,0,0:0:0:0:
36,192,138893,1,0,0:0:0:0:
109,192,138893,1,0,0:0:0:0:
256,192,138893,1,0,0:0:0:0:
182,192,138893,1,0,0:0:0:0:
329,192,138893,1,0,0:0:0:0:
475,192,138893,1,0,0:0:0:0:
402,192,138893,1,0,0:0:0:0:
402,192,138986,1,0,0:0:0:0:
475,192,138986,1,0,0:0:0:0:
329,192,139009,1,0,0:0:0:0:
109,192,139078,1,0,0:0:0:0:
36,192,139078,1,0,0:0:0:0:
182,192,139101,1,0,0:0:0:0:
329,192,139171,1,0,0:0:0:0:
402,192,139171,1,0,0:0:0:0:
475,192,139194,1,0,0:0:0:0:
36,192,139264,1,0,0:0:0:0:
109,192,139264,1,0,0:0:0:0:
182,192,139264,1,0,0:0:0:0:
256,192,139264,1,0,0:0:0:0:
329,192,139264,1,0,0:0:0:0:
475,192,139264,1,0,0:0:0:0:
402,192,139264,1,0,0:0:0:0:
36,192,139402,1,0,0:0:0:0:
109,192,139426,1,0,0:0:0:0:
475,192,139449,1,0,0:0:0:0:
402,192,139472,1,0,0:0:0:0:
329,192,139495,1,0,0:0:0:0:
256,192,139518,1,0,0:0:0:0:
182,192,139541,1,0,0:0:0:0:
36,192,139634,1,0,0:0:0:0:
109,192,139634,1,0,0:0:0:0:
182,192,139634,1,0,0:0:0:0:
256,192,139634,1,0,0:0:0:0:
329,192,139634,1,0,0:0:0:0:
475,192,139634,1,0,0:0:0:0:
402,192,139634,1,0,0:0:0:0:
36,192,139819,1,0,0:0:0:0:
182,192,139819,1,0,0:0:0:0:
329,192,139819,1,0,0:0:0:0:
329,192,139912,1,0,0:0:0:0:
182,192,139912,1,0,0:0:0:0:
36,192,139912,1,0,0:0:0:0:
36,192,140004,1,0,0:0:0:0:
109,192,140004,1,0,0:0:0:0:
256,192,140004,1,0,0:0:0:0:
182,192,140004,1,0,0:0:0:0:
329,192,140004,1,0,0:0:0:0:
402,192,140004,1,0,0:0:0:0:
475,192,140004,1,0,0:0:0:0:
256,192,140189,1,0,0:0:0:0:
402,192,140189,1,0,0:0:0:0:
36,192,140251,1,0,0:0:0:0:
182,192,140251,1,0,0:0:0:0:
329,192,140313,1,0,0:0:0:0:
475,192,140313,1,0,0:0:0:0:
36,192,140375,1,0,0:0:0:0:
109,192,140375,1,0,0:0:0:0:
256,192,140375,1,0,0:0:0:0:
182,192,140375,1,0,0:0:0:0:
329,192,140375,1,0,0:0:0:0:
475,192,140375,1,0,0:0:0:0:
402,192,140375,1,0,0:0:0:0:
475,192,140560,1,0,0:0:0:0:
329,192,140560,1,0,0:0:0:0:
109,192,140560,1,0,0:0:0:0:
402,192,140583,1,0,0:0:0:0:
329,192,140652,1,0,0:0:0:0:
475,192,140652,1,0,0:0:0:0:
182,192,140652,1,0,0:0:0:0:
402,192,140676,1,0,0:0:0:0:
36,192,140745,1,0,0:0:0:0:
109,192,140745,1,0,0:0:0:0:
182,192,140745,1,0,0:0:0:0:
256,192,140745,1,0,0:0:0:0:
329,192,140745,1,0,0:0:0:0:
402,192,140745,1,0,0:0:0:0:
475,192,140745,1,0,0:0:0:0:
329,192,140930,1,0,0:0:0:0:
402,192,140930,1,0,0:0:0:0:
256,192,140953,1,0,0:0:0:0:
182,192,140976,1,0,0:0:0:0:
109,192,141000,1,0,0:0:0:0:
36,192,141023,1,0,0:0:0:0:
36,192,141115,1,0,0:0:0:0:
109,192,141115,1,0,0:0:0:0:
182,192,141115,1,0,0:0:0:0:
329,192,141115,1,0,0:0:0:0:
256,192,141115,1,0,0:0:0:0:
402,192,141115,1,0,0:0:0:0:
475,192,141115,1,0,0:0:0:0:
329,192,141177,1,0,0:0:0:0:
402,192,141177,1,0,0:0:0:0:
475,192,141177,1,0,0:0:0:0:
256,192,141239,1,0,0:0:0:0:
109,192,141301,1,0,0:0:0:0:
182,192,141301,1,0,0:0:0:0:
109,192,141393,1,0,0:0:0:0:
182,192,141393,1,0,0:0:0:0:
329,192,141393,1,0,0:0:0:0:
475,192,141393,1,0,0:0:0:0:
109,192,141486,1,0,0:0:0:0:
182,192,141486,1,0,0:0:0:0:
36,192,141486,1,0,0:0:0:0:
256,192,141486,1,0,0:0:0:0:
402,192,141486,1,0,0:0:0:0:
329,192,141486,1,0,0:0:0:0:
475,192,141486,1,0,0:0:0:0:
36,192,141671,1,0,0:0:0:0:
182,192,141671,1,0,0:0:0:0:
329,192,141694,1,0,0:0:0:0:
109,192,141694,1,0,0:0:0:0:
36,192,141764,1,0,0:0:0:0:
182,192,141764,1,0,0:0:0:0:
329,192,141787,1,0,0:0:0:0:
109,192,141787,1,0,0:0:0:0:
36,192,141856,1,0,0:0:0:0:
109,192,141856,1,0,0:0:0:0:
182,192,141856,1,0,0:0:0:0:
256,192,141856,1,0,0:0:0:0:
329,192,141856,1,0,0:0:0:0:
402,192,141856,1,0,0:0:0:0:
475,192,141856,1,0,0:0:0:0:
182,192,142041,1,0,0:0:0:0:
329,192,142041,1,0,0:0:0:0:
402,192,142041,1,0,0:0:0:0:
475,192,142041,1,0,0:0:0:0:
256,192,142041,1,0,0:0:0:0:
329,192,142134,1,0,0:0:0:0:
402,192,142134,1,0,0:0:0:0:
475,192,142134,1,0,0:0:0:0:
256,192,142134,1,0,0:0:0:0:
182,192,142134,1,0,0:0:0:0:
36,192,142226,1,0,0:0:0:0:
109,192,142226,1,0,0:0:0:0:
182,192,142226,1,0,0:0:0:0:
256,192,142226,1,0,0:0:0:0:
329,192,142226,1,0,0:0:0:0:
402,192,142226,1,0,0:0:0:0:
475,192,142226,1,0,0:0:0:0:
36,192,142319,1,0,0:0:0:0:
109,192,142319,1,0,0:0:0:0:
475,192,142412,1,0,0:0:0:0:
329,192,142412,1,0,0:0:0:0:
402,192,142412,1,0,0:0:0:0:
182,192,142412,1,0,0:0:0:0:
36,192,142504,1,0,0:0:0:0:
109,192,142504,1,0,0:0:0:0:
182,192,142504,1,0,0:0:0:0:
256,192,142504,1,0,0:0:0:0:
329,192,142504,1,0,0:0:0:0:
402,192,142504,1,0,0:0:0:0:
475,192,142504,1,0,0:0:0:0:
36,192,142597,1,0,0:0:0:0:
109,192,142597,1,0,0:0:0:0:
256,192,142597,1,0,0:0:0:0:
402,192,142689,1,0,0:0:0:0:
475,192,142689,1,0,0:0:0:0:
329,192,142689,1,0,0:0:0:0:
182,192,142689,1,0,0:0:0:0:
36,192,142782,1,0,0:0:0:0:
109,192,142782,1,0,0:0:0:0:
182,192,142782,1,0,0:0:0:0:
256,192,142782,1,0,0:0:0:0:
329,192,142782,1,0,0:0:0:0:
475,192,142782,1,0,0:0:0:0:
402,192,142782,1,0,0:0:0:0:
475,192,142875,1,0,0:0:0:0:
402,192,142875,1,0,0:0:0:0:
182,192,142967,1,0,0:0:0:0:
109,192,142967,1,0,0:0:0:0:
36,192,142967,1,0,0:0:0:0:
329,192,142967,1,0,0:0:0:0:
36,192,143060,1,0,0:0:0:0:
109,192,143060,1,0,0:0:0:0:
182,192,143060,1,0,0:0:0:0:
256,192,143060,1,0,0:0:0:0:
329,192,143060,1,0,0:0:0:0:
402,192,143060,1,0,0:0:0:0:
475,192,143060,1,0,0:0:0:0:
475,192,143152,1,0,0:0:0:0:
402,192,143152,1,0,0:0:0:0:
182,192,143245,1,0,0:0:0:0:
109,192,143245,1,0,0:0:0:0:
36,192,143245,1,0,0:0:0:0:
329,192,143245,1,0,0:0:0:0:
36,192,143338,1,0,0:0:0:0:
182,192,143338,1,0,0:0:0:0:
256,192,143338,1,0,0:0:0:0:
109,192,143338,1,0,0:0:0:0:
329,192,143338,1,0,0:0:0:0:
402,192,143338,1,0,0:0:0:0:
475,192,143338,1,0,0:0:0:0:
402,192,143430,1,0,0:0:0:0:
475,192,143430,1,0,0:0:0:0:
329,192,143523,1,0,0:0:0:0:
182,192,143523,1,0,0:0:0:0:
256,192,143523,1,0,0:0:0:0:
109,192,143615,1,0,0:0:0:0:
36,192,143615,1,0,0:0:0:0:
109,192,143708,1,0,0:0:0:0:
182,192,143708,1,0,0:0:0:0:
256,192,143708,1,0,0:0:0:0:
402,192,143708,1,0,0:0:0:0:
475,192,143708,1,0,0:0:0:0:
329,192,143708,1,0,0:0:0:0:
36,192,143708,128,0,144449:0:0:0:0:
182,192,143893,1,0,0:0:0:0:
475,192,143893,1,0,0:0:0:0:
402,192,143893,1,0,0:0:0:0:
329,192,143986,1,0,0:0:0:0:
109,192,143986,1,0,0:0:0:0:
182,192,144078,1,0,0:0:0:0:
256,192,144078,1,0,0:0:0:0:
475,192,144078,1,0,0:0:0:0:
402,192,144078,1,0,0:0:0:0:
329,192,144202,1,0,0:0:0:0:
182,192,144202,1,0,0:0:0:0:
402,192,144264,1,0,0:0:0:0:
475,192,144264,1,0,0:0:0:0:
109,192,144264,1,0,0:0:0:0:
329,192,144356,1,0,0:0:0:0:
182,192,144356,1,0,0:0:0:0:
182,192,144449,128,0,145189:0:0:0:0:
256,192,144449,1,0,0:0:0:0:
402,192,144449,1,0,0:0:0:0:
475,192,144449,1,0,0:0:0:0:
109,192,144449,1,0,0:0:0:0:
109,192,144634,1,0,0:0:0:0:
36,192,144634,1,0,0:0:0:0:
402,192,144726,1,0,0:0:0:0:
475,192,144726,1,0,0:0:0:0:
329,192,144726,1,0,0:0:0:0:
36,192,144819,1,0,0:0:0:0:
256,192,144819,1,0,0:0:0:0:
402,192,144819,1,0,0:0:0:0:
475,192,144819,1,0,0:0:0:0:
109,192,144912,1,0,0:0:0:0:
329,192,144912,1,0,0:0:0:0:
402,192,145004,1,0,0:0:0:0:
36,192,145004,1,0,0:0:0:0:
329,192,145097,1,0,0:0:0:0:
109,192,145097,1,0,0:0:0:0:
329,192,145189,128,0,145930:0:0:0:0:
36,192,145189,1,0,0:0:0:0:
256,192,145189,1,0,0:0:0:0:
402,192,145189,1,0,0:0:0:0:
475,192,145189,1,0,0:0:0:0:
182,192,145282,1,0,0:0:0:0:
36,192,145375,1,0,0:0:0:0:
109,192,145375,1,0,0:0:0:0:
256,192,145375,1,0,0:0:0:0:
182,192,145467,1,0,0:0:0:0:
256,192,145560,1,0,0:0:0:0:
475,192,145560,1,0,0:0:0:0:
36,192,145560,1,0,0:0:0:0:
109,192,145560,1,0,0:0:0:0:
402,192,145652,1,0,0:0:0:0:
182,192,145652,1,0,0:0:0:0:
36,192,145745,1,0,0:0:0:0:
109,192,145745,1,0,0:0:0:0:
475,192,145745,1,0,0:0:0:0:
109,192,145838,1,0,0:0:0:0:
36,192,145838,1,0,0:0:0:0:
402,192,145838,1,0,0:0:0:0:
475,192,145930,128,0,146671:0:0:0:0:
182,192,145930,1,0,0:0:0:0:
256,192,145930,1,0,0:0:0:0:
36,192,145930,1,0,0:0:0:0:
109,192,145930,1,0,0:0:0:0:
329,192,146023,1,0,0:0:0:0:
402,192,146115,1,0,0:0:0:0:
256,192,146115,1,0,0:0:0:0:
109,192,146208,1,0,0:0:0:0:
182,192,146208,1,0,0:0:0:0:
329,192,146208,1,0,0:0:0:0:
402,192,146301,1,0,0:0:0:0:
109,192,146301,1,0,0:0:0:0:
182,192,146301,1,0,0:0:0:0:
329,192,146301,1,0,0:0:0:0:
256,192,146393,1,0,0:0:0:0:
36,192,146486,1,0,0:0:0:0:
182,192,146486,1,0,0:0:0:0:
329,192,146486,1,0,0:0:0:0:
402,192,146486,1,0,0:0:0:0:
36,192,146578,1,0,0:0:0:0:
182,192,146578,1,0,0:0:0:0:
329,192,146578,1,0,0:0:0:0:
402,192,146578,1,0,0:0:0:0:
256,192,146671,128,0,147412:0:0:0:0:
36,192,146671,1,0,0:0:0:0:
182,192,146671,1,0,0:0:0:0:
329,192,146671,1,0,0:0:0:0:
402,192,146671,1,0,0:0:0:0:
109,192,146764,1,0,0:0:0:0:
182,192,146856,1,0,0:0:0:0:
329,192,146856,1,0,0:0:0:0:
402,192,146856,1,0,0:0:0:0:
475,192,146856,1,0,0:0:0:0:
36,192,146949,1,0,0:0:0:0:
109,192,147041,1,0,0:0:0:0:
182,192,147041,1,0,0:0:0:0:
329,192,147041,1,0,0:0:0:0:
402,192,147041,1,0,0:0:0:0:
475,192,147134,1,0,0:0:0:0:
36,192,147226,1,0,0:0:0:0:
109,192,147226,1,0,0:0:0:0:
182,192,147226,1,0,0:0:0:0:
329,192,147226,1,0,0:0:0:0:
402,192,147319,1,0,0:0:0:0:
475,192,147319,1,0,0:0:0:0:
329,192,147319,1,0,0:0:0:0:
36,192,147412,1,0,0:0:0:0:
109,192,147412,1,0,0:0:0:0:
182,192,147412,1,0,0:0:0:0:
329,192,147504,1,0,0:0:0:0:
256,192,147504,1,0,0:0:0:0:
182,192,147504,1,0,0:0:0:0:
329,192,147597,1,0,0:0:0:0:
475,192,147597,1,0,0:0:0:0:
402,192,147597,1,0,0:0:0:0:
36,192,147689,1,0,0:0:0:0:
109,192,147689,1,0,0:0:0:0:
182,192,147689,1,0,0:0:0:0:
329,192,147782,1,0,0:0:0:0:
402,192,147782,1,0,0:0:0:0:
475,192,147782,1,0,0:0:0:0:
329,192,147875,1,0,0:0:0:0:
256,192,147875,1,0,0:0:0:0:
182,192,147875,1,0,0:0:0:0:
36,192,147967,1,0,0:0:0:0:
109,192,147967,1,0,0:0:0:0:
182,192,147967,1,0,0:0:0:0:
402,192,148060,1,0,0:0:0:0:
329,192,148060,1,0,0:0:0:0:
475,192,148060,1,0,0:0:0:0:
256,192,148152,1,0,0:0:0:0:
36,192,148152,1,0,0:0:0:0:
109,192,148152,1,0,0:0:0:0:
182,192,148152,1,0,0:0:0:0:
329,192,148199,1,0,0:0:0:0:
256,192,148245,128,0,149171:0:0:0:0:
36,192,148338,1,0,0:0:0:0:
109,192,148338,1,0,0:0:0:0:
182,192,148338,1,0,0:0:0:0:
402,192,148523,5,0,0:0:0:0:
475,192,148523,1,0,0:0:0:0:
36,192,148523,1,0,0:0:0:0:
402,192,148646,1,0,0:0:0:0:
475,192,148646,1,0,0:0:0:0:
109,192,148646,1,0,0:0:0:0:
402,192,148770,1,0,0:0:0:0:
475,192,148770,1,0,0:0:0:0:
182,192,148770,1,0,0:0:0:0:
36,192,148893,1,0,0:0:0:0:
109,192,148893,1,0,0:0:0:0:
329,192,148893,1,0,0:0:0:0:
36,192,149017,1,0,0:0:0:0:
109,192,149017,1,0,0:0:0:0:
402,192,149017,1,0,0:0:0:0:
36,192,149140,1,0,0:0:0:0:
109,192,149140,1,0,0:0:0:0:
475,192,149140,1,0,0:0:0:0:
36,192,149264,1,0,0:0:0:0:
109,192,149264,1,0,0:0:0:0:
182,192,149264,1,0,0:0:0:0:
329,192,149264,1,0,0:0:0:0:
256,192,149264,1,0,0:0:0:0:
109,192,149387,1,0,0:0:0:0:
182,192,149387,1,0,0:0:0:0:
402,192,149387,1,0,0:0:0:0:
329,192,149387,1,0,0:0:0:0:
256,192,149387,1,0,0:0:0:0:
182,192,149510,1,0,0:0:0:0:
256,192,149510,1,0,0:0:0:0:
402,192,149510,1,0,0:0:0:0:
329,192,149510,1,0,0:0:0:0:
475,192,149510,1,0,0:0:0:0:
36,192,149634,128,0,149703:0:0:0:0:
182,192,149634,128,0,149703:0:0:0:0:
329,192,149634,128,0,149703:0:0:0:0:
475,192,149634,128,0,149703:0:0:0:0:
256,192,149634,128,0,149842:0:0:0:0:
36,192,149772,128,0,149842:0:0:0:0:
182,192,149772,128,0,149911:0:0:0:0:
329,192,149772,128,0,149911:0:0:0:0:
475,192,149772,128,0,149911:0:0:0:0:
36,192,149911,1,0,0:0:0:0:
402,192,149911,1,0,0:0:0:0:
256,192,149911,1,0,0:0:0:0:
109,192,149911,1,0,0:0:0:0:
182,192,149981,128,0,150120:0:0:0:0:
329,192,149981,128,0,150050:0:0:0:0:
475,192,149981,128,0,150050:0:0:0:0:
256,192,150050,128,0,150120:0:0:0:0:
36,192,150050,128,0,150120:0:0:0:0:
109,192,150050,1,0,0:0:0:0:
329,192,150120,128,0,150259:0:0:0:0:
402,192,150120,128,0,150189:0:0:0:0:
475,192,150120,128,0,150328:0:0:0:0:
256,192,150189,128,0,150328:0:0:0:0:
109,192,150189,128,0,150397:0:0:0:0:
36,192,150189,128,0,150259:0:0:0:0:
182,192,150189,1,0,0:0:0:0:
402,192,150259,1,0,0:0:0:0:
36,192,150328,128,0,150397:0:0:0:0:
182,192,150328,128,0,150397:0:0:0:0:
329,192,150328,1,0,0:0:0:0:
256,192,150397,128,0,150467:0:0:0:0:
402,192,150397,128,0,150467:0:0:0:0:
475,192,150397,128,0,150467:0:0:0:0:
329,192,150467,1,0,0:0:0:0:
182,192,150467,1,0,0:0:0:0:
36,192,150467,1,0,0:0:0:0:
109,192,150467,1,0,0:0:0:0:
256,192,150536,128,0,150814:0:0:0:0:
402,192,150536,128,0,150675:0:0:0:0:
475,192,150536,128,0,150675:0:0:0:0:
329,192,150606,128,0,150675:0:0:0:0:
109,192,150606,128,0,150745:0:0:0:0:
182,192,150606,1,0,0:0:0:0:
36,192,150675,1,0,0:0:0:0:
402,192,150745,128,0,150814:0:0:0:0:
475,192,150745,128,0,150814:0:0:0:0:
329,192,150745,128,0,150860:0:0:0:0:
182,192,150745,128,0,150860:0:0:0:0:
109,192,150814,1,0,0:0:0:0:
402,192,150884,128,0,150976:0:0:0:0:
256,192,150884,128,0,150976:0:0:0:0:
475,192,150884,1,0,0:0:0:0:
182,192,150930,128,0,151022:0:0:0:0:
329,192,150930,1,0,0:0:0:0:
109,192,150976,128,0,151092:0:0:0:0:
36,192,150976,128,0,151231:0:0:0:0:
475,192,151022,128,0,151092:0:0:0:0:
402,192,151022,128,0,151231:0:0:0:0:
329,192,151022,128,0,151092:0:0:0:0:
256,192,151022,128,0,151161:0:0:0:0:
182,192,151092,1,0,0:0:0:0:
109,192,151161,128,0,151370:0:0:0:0:
329,192,151161,128,0,151370:0:0:0:0:
475,192,151161,128,0,151231:0:0:0:0:
256,192,151231,1,0,0:0:0:0:
182,192,151300,128,0,151439:0:0:0:0:
36,192,151300,128,0,151509:0:0:0:0:
402,192,151300,128,0,151370:0:0:0:0:
475,192,151300,128,0,151509:0:0:0:0:
256,192,151370,1,0,0:0:0:0:
329,192,151439,128,0,151509:0:0:0:0:
402,192,151439,128,0,151647:0:0:0:0:
109,192,151439,128,0,151647:0:0:0:0:
182,192,151509,1,0,0:0:0:0:
475,192,151578,128,0,151647:0:0:0:0:
329,192,151578,128,0,151717:0:0:0:0:
36,192,151578,128,0,151786:0:0:0:0:
256,192,151578,128,0,151786:0:0:0:0:
182,192,151647,1,0,0:0:0:0:
109,192,151717,128,0,151786:0:0:0:0:
402,192,151717,128,0,151786:0:0:0:0:
475,192,151717,128,0,151786:0:0:0:0:
475,192,151856,128,0,151925:0:0:0:0:
402,192,151856,128,0,151925:0:0:0:0:
109,192,151856,128,0,151925:0:0:0:0:
36,192,151856,128,0,151925:0:0:0:0:
256,192,151856,128,0,152064:0:0:0:0:
475,192,151995,128,0,152064:0:0:0:0:
402,192,151995,128,0,152134:0:0:0:0:
109,192,151995,128,0,152134:0:0:0:0:
36,192,151995,128,0,152134:0:0:0:0:
329,192,152134,128,0,152203:0:0:0:0:
475,192,152134,128,0,152203:0:0:0:0:
182,192,152134,1,0,0:0:0:0:
256,192,152134,1,0,0:0:0:0:
402,192,152203,128,0,152272:0:0:0:0:
109,192,152203,128,0,152272:0:0:0:0:
36,192,152203,128,0,152272:0:0:0:0:
182,192,152272,128,0,152342:0:0:0:0:
475,192,152272,128,0,152342:0:0:0:0:
329,192,152272,1,0,0:0:0:0:
256,192,152342,128,0,152481:0:0:0:0:
109,192,152342,128,0,152411:0:0:0:0:
402,192,152342,128,0,152481:0:0:0:0:
36,192,152411,128,0,152550:0:0:0:0:
182,192,152411,128,0,152620:0:0:0:0:
329,192,152411,128,0,152550:0:0:0:0:
475,192,152411,1,0,0:0:0:0:
109,192,152481,1,0,0:0:0:0:
475,192,152550,128,0,152620:0:0:0:0:
256,192,152550,128,0,152620:0:0:0:0:
402,192,152550,1,0,0:0:0:0:
329,192,152620,128,0,152689:0:0:0:0:
109,192,152620,128,0,152689:0:0:0:0:
36,192,152620,128,0,152689:0:0:0:0:
256,192,152689,1,0,0:0:0:0:
182,192,152689,1,0,0:0:0:0:
475,192,152689,1,0,0:0:0:0:
402,192,152689,1,0,0:0:0:0:
329,192,152759,128,0,153036:0:0:0:0:
109,192,152759,128,0,152897:0:0:0:0:
36,192,152759,128,0,152897:0:0:0:0:
182,192,152828,128,0,152897:0:0:0:0:
256,192,152828,128,0,152897:0:0:0:0:
402,192,152828,128,0,152967:0:0:0:0:
475,192,152897,1,0,0:0:0:0:
109,192,152967,128,0,153036:0:0:0:0:
36,192,152967,128,0,153036:0:0:0:0:
182,192,152967,128,0,153083:0:0:0:0:
256,192,152967,128,0,153106:0:0:0:0:
475,192,153036,1,0,0:0:0:0:
109,192,153106,128,0,153198:0:0:0:0:
402,192,153106,128,0,153198:0:0:0:0:
36,192,153106,1,0,0:0:0:0:
329,192,153152,128,0,153245:0:0:0:0:
182,192,153152,1,0,0:0:0:0:
256,192,153198,128,0,153384:0:0:0:0:
475,192,153198,128,0,153453:0:0:0:0:
36,192,153245,128,0,153314:0:0:0:0:
109,192,153245,128,0,153453:0:0:0:0:
182,192,153245,128,0,153314:0:0:0:0:
402,192,153245,128,0,153314:0:0:0:0:
329,192,153314,1,0,0:0:0:0:
402,192,153384,128,0,153661:0:0:0:0:
182,192,153384,128,0,153592:0:0:0:0:
36,192,153384,128,0,153453:0:0:0:0:
256,192,153453,1,0,0:0:0:0:
329,192,153522,128,0,153731:0:0:0:0:
475,192,153522,128,0,153661:0:0:0:0:
109,192,153522,128,0,153592:0:0:0:0:
36,192,153522,128,0,153592:0:0:0:0:
256,192,153592,1,0,0:0:0:0:
182,192,153661,128,0,153731:0:0:0:0:
109,192,153661,128,0,153731:0:0:0:0:
36,192,153661,128,0,153731:0:0:0:0:
256,192,153731,128,0,153800:0:0:0:0:
402,192,153731,128,0,153800:0:0:0:0:
475,192,153731,128,0,153870:0:0:0:0:
329,192,153800,1,0,0:0:0:0:
182,192,153800,1,0,0:0:0:0:
109,192,153800,1,0,0:0:0:0:
36,192,153800,1,0,0:0:0:0:
256,192,153870,128,0,154009:0:0:0:0:
402,192,153870,128,0,153939:0:0:0:0:
182,192,153939,1,0,0:0:0:0:
36,192,153939,1,0,0:0:0:0:
329,192,153939,128,0,154009:0:0:0:0:
475,192,153939,128,0,154009:0:0:0:0:
402,192,154009,1,0,0:0:0:0:
109,192,154009,1,0,0:0:0:0:
329,192,154078,128,0,154147:0:0:0:0:
475,192,154078,128,0,154147:0:0:0:0:
182,192,154078,128,0,154147:0:0:0:0:
36,192,154078,128,0,154147:0:0:0:0:
256,192,154078,128,0,154286:0:0:0:0:
475,192,154217,128,0,154286:0:0:0:0:
329,192,154217,128,0,154356:0:0:0:0:
182,192,154217,128,0,154356:0:0:0:0:
36,192,154217,128,0,154356:0:0:0:0:
256,192,154356,1,0,0:0:0:0:
109,192,154356,1,0,0:0:0:0:
402,192,154356,1,0,0:0:0:0:
475,192,154356,1,0,0:0:0:0:
329,192,154425,128,0,154564:0:0:0:0:
182,192,154425,128,0,154495:0:0:0:0:
36,192,154425,128,0,154495:0:0:0:0:
256,192,154495,128,0,154564:0:0:0:0:
402,192,154495,128,0,154564:0:0:0:0:
475,192,154495,1,0,0:0:0:0:
182,192,154564,128,0,154703:0:0:0:0:
109,192,154564,128,0,154634:0:0:0:0:
36,192,154564,128,0,154772:0:0:0:0:
256,192,154634,128,0,154772:0:0:0:0:
402,192,154634,128,0,154842:0:0:0:0:
475,192,154634,128,0,154703:0:0:0:0:
329,192,154634,1,0,0:0:0:0:
109,192,154703,1,0,0:0:0:0:
329,192,154772,128,0,154842:0:0:0:0:
182,192,154772,128,0,154842:0:0:0:0:
475,192,154772,1,0,0:0:0:0:
256,192,154842,128,0,154911:0:0:0:0:
109,192,154842,128,0,154911:0:0:0:0:
36,192,154842,128,0,154911:0:0:0:0:
182,192,154911,1,0,0:0:0:0:
329,192,154911,1,0,0:0:0:0:
475,192,154911,1,0,0:0:0:0:
402,192,154911,1,0,0:0:0:0:
256,192,154981,128,0,155259:0:0:0:0:
109,192,154981,128,0,155120:0:0:0:0:
36,192,154981,128,0,155120:0:0:0:0:
182,192,155050,128,0,155120:0:0:0:0:
329,192,155050,128,0,155120:0:0:0:0:
402,192,155050,128,0,155189:0:0:0:0:
475,192,155120,1,0,0:0:0:0:
36,192,155189,128,0,155259:0:0:0:0:
182,192,155189,128,0,155305:0:0:0:0:
329,192,155189,128,0,155305:0:0:0:0:
109,192,155189,1,0,0:0:0:0:
402,192,155259,1,0,0:0:0:0:
36,192,155328,128,0,155421:0:0:0:0:
256,192,155328,128,0,155421:0:0:0:0:
109,192,155328,1,0,0:0:0:0:
329,192,155374,128,0,155467:0:0:0:0:
182,192,155374,1,0,0:0:0:0:
402,192,155421,128,0,155536:0:0:0:0:
475,192,155421,128,0,155675:0:0:0:0:
36,192,155467,128,0,155536:0:0:0:0:
109,192,155467,128,0,155675:0:0:0:0:
182,192,155467,128,0,155536:0:0:0:0:
256,192,155467,128,0,155606:0:0:0:0:
329,192,155536,1,0,0:0:0:0:
402,192,155606,128,0,155814:0:0:0:0:
182,192,155606,128,0,155814:0:0:0:0:
36,192,155606,128,0,155675:0:0:0:0:
256,192,155675,1,0,0:0:0:0:
329,192,155745,128,0,155884:0:0:0:0:
475,192,155745,128,0,155953:0:0:0:0:
109,192,155745,128,0,155814:0:0:0:0:
36,192,155745,128,0,155953:0:0:0:0:
256,192,155814,1,0,0:0:0:0:
182,192,155884,128,0,155953:0:0:0:0:
109,192,155884,128,0,156092:0:0:0:0:
402,192,155884,128,0,156092:0:0:0:0:
329,192,155953,1,0,0:0:0:0:
36,192,156022,128,0,156092:0:0:0:0:
182,192,156022,128,0,156161:0:0:0:0:
475,192,156022,128,0,156161:0:0:0:0:
256,192,156022,128,0,156231:0:0:0:0:
329,192,156092,1,0,0:0:0:0:
402,192,156161,1,0,0:0:0:0:
109,192,156161,1,0,0:0:0:0:
36,192,156161,1,0,0:0:0:0:
475,192,156231,1,0,0:0:0:0:
182,192,156300,128,0,156370:0:0:0:0:
109,192,156300,128,0,156370:0:0:0:0:
402,192,156300,128,0,156370:0:0:0:0:
329,192,156300,128,0,156370:0:0:0:0:
256,192,156300,128,0,156578:0:0:0:0:
182,192,156439,128,0,156509:0:0:0:0:
109,192,156439,128,0,156578:0:0:0:0:
402,192,156439,128,0,156578:0:0:0:0:
329,192,156439,128,0,156509:0:0:0:0:
36,192,156578,128,0,156647:0:0:0:0:
182,192,156578,128,0,156647:0:0:0:0:
475,192,156578,128,0,156717:0:0:0:0:
329,192,156578,1,0,0:0:0:0:
109,192,156647,128,0,156717:0:0:0:0:
402,192,156647,128,0,156717:0:0:0:0:
256,192,156647,128,0,156786:0:0:0:0:
329,192,156717,128,0,156786:0:0:0:0:
36,192,156717,128,0,156786:0:0:0:0:
182,192,156717,1,0,0:0:0:0:
475,192,156786,128,0,156925:0:0:0:0:
402,192,156786,128,0,156856:0:0:0:0:
109,192,156786,128,0,156925:0:0:0:0:
256,192,156856,128,0,156995:0:0:0:0:
329,192,156856,128,0,157064:0:0:0:0:
182,192,156856,128,0,156995:0:0:0:0:
36,192,156856,1,0,0:0:0:0:
402,192,156925,1,0,0:0:0:0:
36,192,156995,128,0,157064:0:0:0:0:
475,192,156995,128,0,157064:0:0:0:0:
109,192,156995,1,0,0:0:0:0:
182,192,157064,128,0,157134:0:0:0:0:
402,192,157064,128,0,157134:0:0:0:0:
256,192,157064,128,0,157134:0:0:0:0:
475,192,157134,1,0,0:0:0:0:
329,192,157134,1,0,0:0:0:0:
36,192,157134,1,0,0:0:0:0:
109,192,157134,1,0,0:0:0:0:
256,192,157203,128,0,157272:0:0:0:0:
402,192,157203,128,0,157342:0:0:0:0:
329,192,157272,128,0,157342:0:0:0:0:
475,192,157272,128,0,157342:0:0:0:0:
182,192,157272,128,0,157342:0:0:0:0:
36,192,157272,128,0,157342:0:0:0:0:
256,192,157342,1,0,0:0:0:0:
109,192,157342,1,0,0:0:0:0:
36,192,157411,128,0,157897:0:0:0:0:
475,192,157411,128,0,157759:0:0:0:0:
182,192,157411,128,0,157550:0:0:0:0:
329,192,157411,128,0,157550:0:0:0:0:
402,192,157411,128,0,157620:0:0:0:0:
109,192,157550,128,0,157897:0:0:0:0:
256,192,157550,128,0,157620:0:0:0:0:
329,192,157620,128,0,157759:0:0:0:0:
182,192,157620,128,0,157897:0:0:0:0:
402,192,157689,128,0,157759:0:0:0:0:
256,192,157689,128,0,157897:0:0:0:0:
475,192,157828,1,0,0:0:0:0:
402,192,157828,1,0,0:0:0:0:
329,192,157828,1,0,0:0:0:0:
329,192,157897,1,0,0:0:0:0:
475,192,157897,1,0,0:0:0:0:
402,192,157897,1,0,0:0:0:0:
182,192,157967,128,0,158106:0:0:0:0:
109,192,157967,128,0,158106:0:0:0:0:
36,192,157967,128,0,158106:0:0:0:0:
256,192,157967,1,0,0:0:0:0:
329,192,158106,128,0,158175:0:0:0:0:
402,192,158106,128,0,158175:0:0:0:0:
256,192,158175,128,0,158314:0:0:0:0:
182,192,158175,128,0,158314:0:0:0:0:
109,192,158175,128,0,158314:0:0:0:0:
36,192,158175,128,0,158314:0:0:0:0:
402,192,158245,1,0,0:0:0:0:
329,192,158245,1,0,0:0:0:0:
475,192,158314,128,0,158453:0:0:0:0:
329,192,158384,128,0,158453:0:0:0:0:
256,192,158384,128,0,158453:0:0:0:0:
182,192,158384,128,0,158453:0:0:0:0:
109,192,158384,128,0,158453:0:0:0:0:
36,192,158384,128,0,158453:0:0:0:0:
109,192,158522,128,0,158627:0:0:0:0:
182,192,158522,128,0,158592:0:0:0:0:
36,192,158522,128,0,158661:0:0:0:0:
475,192,158522,128,0,159009:0:0:0:0:
256,192,158557,128,0,158731:0:0:0:0:
402,192,158557,128,0,158800:0:0:0:0:
329,192,158592,128,0,158765:0:0:0:0:
182,192,158661,128,0,158904:0:0:0:0:
109,192,158696,128,0,158870:0:0:0:0:
36,192,158731,128,0,158835:0:0:0:0:
256,192,158800,128,0,158939:0:0:0:0:
329,192,158835,128,0,159078:0:0:0:0:
402,192,158870,128,0,159043:0:0:0:0:
109,192,158939,128,0,159043:0:0:0:0:
182,192,158974,128,0,159078:0:0:0:0:
256,192,159009,128,0,159113:0:0:0:0:
36,192,159078,128,0,159263:0:0:0:0:
475,192,159078,128,0,159263:0:0:0:0:
109,192,159124,128,0,159217:0:0:0:0:
402,192,159124,128,0,159217:0:0:0:0:
329,192,159171,1,0,0:0:0:0:
182,192,159171,1,0,0:0:0:0:
256,192,159217,128,0,159356:0:0:0:0:
329,192,159263,128,0,159402:0:0:0:0:
182,192,159263,128,0,159402:0:0:0:0:
402,192,159309,128,0,159448:0:0:0:0:
109,192,159309,128,0,159448:0:0:0:0:
475,192,159356,128,0,159541:0:0:0:0:
36,192,159356,128,0,159495:0:0:0:0:
256,192,159402,128,0,159495:0:0:0:0:
329,192,159448,128,0,159634:0:0:0:0:
402,192,159495,128,0,159587:0:0:0:0:
109,192,159495,128,0,159680:0:0:0:0:
182,192,159541,128,0,159772:0:0:0:0:
256,192,159587,128,0,159680:0:0:0:0:
475,192,159634,128,0,159819:0:0:0:0:
36,192,159634,1,0,0:0:0:0:
402,192,159680,128,0,159772:0:0:0:0:
329,192,159726,1,0,0:0:0:0:
109,192,159772,1,0,0:0:0:0:
256,192,159772,128,0,160050:0:0:0:0:
36,192,159772,128,0,159946:0:0:0:0:
329,192,159807,128,0,160015:0:0:0:0:
182,192,159842,128,0,160015:0:0:0:0:
402,192,159842,128,0,159981:0:0:0:0:
475,192,159877,128,0,159946:0:0:0:0:
109,192,159911,128,0,159981:0:0:0:0:
109,192,160050,1,0,0:0:0:0:
36,192,160050,1,0,0:0:0:0:
402,192,160050,1,0,0:0:0:0:
475,192,160050,1,0,0:0:0:0:
182,192,160120,1,0,0:0:0:0:
329,192,160120,1,0,0:0:0:0:
36,192,160189,128,0,160397:0:0:0:0:
109,192,160189,128,0,160259:0:0:0:0:
475,192,160189,128,0,160397:0:0:0:0:
402,192,160189,128,0,160259:0:0:0:0:
256,192,160189,128,0,160328:0:0:0:0:
329,192,160224,128,0,160293:0:0:0:0:
182,192,160259,128,0,160363:0:0:0:0:
109,192,160328,128,0,160432:0:0:0:0:
402,192,160328,128,0,160432:0:0:0:0:
329,192,160363,128,0,160467:0:0:0:0:
256,192,160397,128,0,160502:0:0:0:0:
36,192,160467,128,0,160606:0:0:0:0:
475,192,160467,128,0,160606:0:0:0:0:
109,192,160502,128,0,160571:0:0:0:0:
402,192,160502,128,0,160571:0:0:0:0:
182,192,160536,128,0,160606:0:0:0:0:
329,192,160536,128,0,160606:0:0:0:0:
256,192,160606,128,0,160675:0:0:0:0:
402,192,160640,128,0,160779:0:0:0:0:
109,192,160640,128,0,160745:0:0:0:0:
36,192,160675,128,0,160814:0:0:0:0:
475,192,160675,128,0,160884:0:0:0:0:
329,192,160745,128,0,160884:0:0:0:0:
182,192,160745,128,0,160814:0:0:0:0:
256,192,160814,128,0,160918:0:0:0:0:
109,192,160814,128,0,160884:0:0:0:0:
182,192,160884,128,0,160953:0:0:0:0:
36,192,160884,128,0,161022:0:0:0:0:
402,192,160884,128,0,160953:0:0:0:0:
109,192,160953,128,0,160988:0:0:0:0:
475,192,160953,128,0,161161:0:0:0:0:
329,192,160953,128,0,161022:0:0:0:0:
182,192,161022,128,0,161127:0:0:0:0:
402,192,161022,128,0,161127:0:0:0:0:
109,192,161057,128,0,161092:0:0:0:0:
36,192,161092,128,0,161404:0:0:0:0:
256,192,161092,128,0,161161:0:0:0:0:
109,192,161161,128,0,161370:0:0:0:0:
329,192,161161,128,0,161265:0:0:0:0:
182,192,161196,128,0,161335:0:0:0:0:
402,192,161196,128,0,161231:0:0:0:0:
256,192,161231,128,0,161300:0:0:0:0:
475,192,161231,128,0,161439:0:0:0:0:
402,192,161300,128,0,161404:0:0:0:0:
329,192,161335,128,0,161370:0:0:0:0:
256,192,161370,1,0,0:0:0:0:
182,192,161404,1,0,0:0:0:0:
109,192,161439,1,0,0:0:0:0:
329,192,161439,1,0,0:0:0:0:
36,192,161474,1,0,0:0:0:0:
402,192,161474,1,0,0:0:0:0:
475,192,161509,128,0,161647:0:0:0:0:
182,192,161509,128,0,161543:0:0:0:0:
256,192,161509,128,0,161543:0:0:0:0:
36,192,161578,128,0,161647:0:0:0:0:
402,192,161578,128,0,161717:0:0:0:0:
109,192,161613,128,0,161647:0:0:0:0:
329,192,161613,128,0,161717:0:0:0:0:
256,192,161647,128,0,161856:0:0:0:0:
182,192,161647,128,0,161786:0:0:0:0:
109,192,161717,128,0,161786:0:0:0:0:
36,192,161717,128,0,161786:0:0:0:0:
475,192,161717,128,0,162064:0:0:0:0:
402,192,161786,128,0,162099:0:0:0:0:
329,192,161786,128,0,161856:0:0:0:0:
36,192,161856,128,0,161925:0:0:0:0:
109,192,161856,128,0,161925:0:0:0:0:
182,192,161856,128,0,161995:0:0:0:0:
256,192,161925,128,0,161995:0:0:0:0:
329,192,161925,128,0,162134:0:0:0:0:
36,192,161995,128,0,162064:0:0:0:0:
109,192,161995,128,0,162099:0:0:0:0:
182,192,162064,128,0,162134:0:0:0:0:
256,192,162064,128,0,162168:0:0:0:0:
475,192,162134,128,0,162307:0:0:0:0:
36,192,162134,128,0,162203:0:0:0:0:
402,192,162168,128,0,162272:0:0:0:0:
109,192,162168,128,0,162238:0:0:0:0:
329,192,162203,128,0,162238:0:0:0:0:
182,192,162203,128,0,162272:0:0:0:0:
36,192,162272,128,0,162342:0:0:0:0:
256,192,162272,128,0,162342:0:0:0:0:
109,192,162307,128,0,162342:0:0:0:0:
329,192,162307,128,0,162411:0:0:0:0:
402,192,162342,128,0,162481:0:0:0:0:
182,192,162342,128,0,162411:0:0:0:0:
475,192,162411,128,0,162481:0:0:0:0:
36,192,162411,128,0,162550:0:0:0:0:
109,192,162411,128,0,162550:0:0:0:0:
256,192,162411,128,0,162481:0:0:0:0:
182,192,162481,1,0,0:0:0:0:
329,192,162481,1,0,0:0:0:0:
256,192,162550,128,0,162759:0:0:0:0:
402,192,162550,128,0,162620:0:0:0:0:
475,192,162550,128,0,162620:0:0:0:0:
109,192,162620,1,0,0:0:0:0:
36,192,162620,1,0,0:0:0:0:
475,192,162689,128,0,162759:0:0:0:0:
402,192,162689,128,0,162759:0:0:0:0:
329,192,162689,128,0,162759:0:0:0:0:
182,192,162689,128,0,162897:0:0:0:0:
256,192,162828,128,0,162897:0:0:0:0:
329,192,162828,128,0,162897:0:0:0:0:
402,192,162828,128,0,162897:0:0:0:0:
475,192,162828,128,0,162897:0:0:0:0:
109,192,162828,128,0,162897:0:0:0:0:
182,192,162967,128,0,163036:0:0:0:0:
329,192,162967,128,0,163036:0:0:0:0:
402,192,162967,128,0,163036:0:0:0:0:
475,192,162967,128,0,163036:0:0:0:0:
109,192,162967,128,0,163175:0:0:0:0:
36,192,162967,128,0,163175:0:0:0:0:
256,192,162967,128,0,163175:0:0:0:0:
402,192,163106,128,0,163175:0:0:0:0:
182,192,163106,128,0,163245:0:0:0:0:
329,192,163106,128,0,163245:0:0:0:0:
475,192,163106,128,0,163245:0:0:0:0:
109,192,163245,128,0,163314:0:0:0:0:
256,192,163245,128,0,163314:0:0:0:0:
402,192,163245,128,0,163384:0:0:0:0:
36,192,163245,1,0,0:0:0:0:
182,192,163314,128,0,163453:0:0:0:0:
329,192,163314,128,0,163384:0:0:0:0:
475,192,163314,128,0,163384:0:0:0:0:
256,192,163384,128,0,163453:0:0:0:0:
36,192,163384,128,0,163453:0:0:0:0:
109,192,163384,1,0,0:0:0:0:
329,192,163453,128,0,163522:0:0:0:0:
402,192,163453,128,0,163522:0:0:0:0:
475,192,163453,128,0,163522:0:0:0:0:
256,192,163522,128,0,163592:0:0:0:0:
109,192,163522,128,0,163592:0:0:0:0:
36,192,163522,128,0,163592:0:0:0:0:
182,192,163522,1,0,0:0:0:0:
475,192,163592,1,0,0:0:0:0:
36,192,163661,128,0,163731:0:0:0:0:
329,192,163661,128,0,163731:0:0:0:0:
182,192,163661,1,0,0:0:0:0:
402,192,163731,128,0,163939:0:0:0:0:
109,192,163731,128,0,163800:0:0:0:0:
256,192,163731,1,0,0:0:0:0:
36,192,163800,128,0,163939:0:0:0:0:
182,192,163800,128,0,163870:0:0:0:0:
475,192,163800,128,0,163870:0:0:0:0:
329,192,163800,1,0,0:0:0:0:
256,192,163870,128,0,163939:0:0:0:0:
109,192,163870,128,0,164078:0:0:0:0:
329,192,163939,128,0,164009:0:0:0:0:
475,192,163939,128,0,164009:0:0:0:0:
182,192,163939,128,0,164217:0:0:0:0:
36,192,164009,1,0,0:0:0:0:
329,192,164078,128,0,164147:0:0:0:0:
256,192,164078,128,0,164217:0:0:0:0:
475,192,164078,1,0,0:0:0:0:
402,192,164078,128,0,164147:0:0:0:0:
109,192,164147,1,0,0:0:0:0:
475,192,164217,128,0,164309:0:0:0:0:
329,192,164217,128,0,164309:0:0:0:0:
402,192,164217,1,0,0:0:0:0:
182,192,164263,128,0,164425:0:0:0:0:
256,192,164263,1,0,0:0:0:0:
109,192,164309,128,0,164564:0:0:0:0:
36,192,164309,1,0,0:0:0:0:
402,192,164356,128,0,164564:0:0:0:0:
475,192,164356,128,0,164981:0:0:0:0:
329,192,164356,128,0,164425:0:0:0:0:
256,192,164356,128,0,164425:0:0:0:0:
36,192,164425,1,0,0:0:0:0:
256,192,164495,128,0,164564:0:0:0:0:
182,192,164495,128,0,164564:0:0:0:0:
329,192,164495,128,0,164703:0:0:0:0:
36,192,164564,1,0,0:0:0:0:
256,192,164634,128,0,164703:0:0:0:0:
109,192,164634,128,0,164772:0:0:0:0:
402,192,164634,128,0,164842:0:0:0:0:
182,192,164634,1,0,0:0:0:0:
36,192,164703,1,0,0:0:0:0:
182,192,164772,128,0,164911:0:0:0:0:
329,192,164772,128,0,164842:0:0:0:0:
256,192,164772,1,0,0:0:0:0:
109,192,164842,1,0,0:0:0:0:
402,192,164911,128,0,164981:0:0:0:0:
36,192,164911,128,0,165120:0:0:0:0:
256,192,164911,128,0,165120:0:0:0:0:
329,192,164911,1,0,0:0:0:0:
182,192,164981,1,0,0:0:0:0:
329,192,165050,128,0,165120:0:0:0:0:
475,192,165050,128,0,165120:0:0:0:0:
402,192,165050,1,0,0:0:0:0:
182,192,165120,1,0,0:0:0:0:
475,192,165189,128,0,165259:0:0:0:0:
402,192,165189,128,0,165259:0:0:0:0:
109,192,165189,128,0,165259:0:0:0:0:
36,192,165189,128,0,165259:0:0:0:0:
256,192,165189,128,0,165397:0:0:0:0:
475,192,165328,128,0,165397:0:0:0:0:
402,192,165328,128,0,165467:0:0:0:0:
109,192,165328,128,0,165467:0:0:0:0:
36,192,165328,128,0,165467:0:0:0:0:
182,192,165467,128,0,165536:0:0:0:0:
256,192,165467,128,0,165606:0:0:0:0:
475,192,165467,128,0,165536:0:0:0:0:
329,192,165467,1,0,0:0:0:0:
402,192,165536,128,0,165606:0:0:0:0:
109,192,165536,128,0,165606:0:0:0:0:
36,192,165536,128,0,165606:0:0:0:0:
329,192,165606,128,0,165675:0:0:0:0:
475,192,165606,128,0,165675:0:0:0:0:
182,192,165606,1,0,0:0:0:0:
256,192,165675,128,0,165814:0:0:0:0:
109,192,165675,128,0,165745:0:0:0:0:
402,192,165675,128,0,165814:0:0:0:0:
36,192,165745,128,0,165884:0:0:0:0:
182,192,165745,128,0,165884:0:0:0:0:
329,192,165745,128,0,165953:0:0:0:0:
475,192,165745,1,0,0:0:0:0:
109,192,165814,1,0,0:0:0:0:
475,192,165884,128,0,165953:0:0:0:0:
402,192,165884,128,0,165953:0:0:0:0:
256,192,165884,1,0,0:0:0:0:
109,192,165953,128,0,166022:0:0:0:0:
182,192,165953,128,0,166161:0:0:0:0:
36,192,165953,128,0,166022:0:0:0:0:
256,192,166022,128,0,166092:0:0:0:0:
329,192,166022,128,0,166092:0:0:0:0:
402,192,166022,128,0,166092:0:0:0:0:
475,192,166022,128,0,166161:0:0:0:0:
109,192,166092,1,0,0:0:0:0:
36,192,166092,1,0,0:0:0:0:
329,192,166161,128,0,166231:0:0:0:0:
402,192,166161,128,0,166370:0:0:0:0:
256,192,166161,1,0,0:0:0:0:
475,192,166231,1,0,0:0:0:0:
329,192,166300,128,0,166439:0:0:0:0:
256,192,166300,128,0,166439:0:0:0:0:
182,192,166300,128,0,166439:0:0:0:0:
109,192,166300,128,0,166439:0:0:0:0:
36,192,166300,128,0,166439:0:0:0:0:
402,192,166439,128,0,166509:0:0:0:0:
475,192,166439,128,0,166509:0:0:0:0:
329,192,166509,128,0,166578:0:0:0:0:
256,192,166509,128,0,166647:0:0:0:0:
182,192,166509,128,0,166647:0:0:0:0:
109,192,166509,128,0,166647:0:0:0:0:
36,192,166509,128,0,166647:0:0:0:0:
329,192,166647,128,0,166717:0:0:0:0:
402,192,166647,128,0,166717:0:0:0:0:
256,192,166717,128,0,166786:0:0:0:0:
182,192,166717,128,0,166856:0:0:0:0:
109,192,166717,128,0,166856:0:0:0:0:
36,192,166717,128,0,166856:0:0:0:0:
475,192,166717,128,0,166856:0:0:0:0:
256,192,166856,128,0,166925:0:0:0:0:
329,192,166856,128,0,166925:0:0:0:0:
402,192,166925,128,0,167064:0:0:0:0:
109,192,166925,128,0,167064:0:0:0:0:
36,192,166925,128,0,167064:0:0:0:0:
182,192,166925,128,0,166995:0:0:0:0:
475,192,166925,128,0,167064:0:0:0:0:
256,192,167064,128,0,167134:0:0:0:0:
182,192,167064,128,0,167134:0:0:0:0:
36,192,167134,128,0,167203:0:0:0:0:
109,192,167134,128,0,167272:0:0:0:0:
402,192,167134,128,0,167272:0:0:0:0:
329,192,167134,128,0,167203:0:0:0:0:
475,192,167134,128,0,167203:0:0:0:0:
36,192,167272,128,0,167411:0:0:0:0:
182,192,167272,128,0,167411:0:0:0:0:
256,192,167272,128,0,167342:0:0:0:0:
329,192,167272,128,0,167411:0:0:0:0:
475,192,167272,128,0,167411:0:0:0:0:
256,192,167411,128,0,168279:0:0:0:0:
402,192,167411,128,0,168349:0:0:0:0:
109,192,167411,128,0,168210:0:0:0:0:
36,192,168245,128,0,168314:0:0:0:0:
109,192,168279,128,0,168349:0:0:0:0:
182,192,168314,128,0,168384:0:0:0:0:
256,192,168349,128,0,168418:0:0:0:0:
475,192,168384,128,0,168453:0:0:0:0:
402,192,168418,128,0,168488:0:0:0:0:
329,192,168453,128,0,168522:0:0:0:0:
256,192,168488,128,0,168522:0:0:0:0:
182,192,168522,1,0,0:0:0:0:
36,192,168522,1,0,0:0:0:0:
256,192,168592,1,0,0:0:0:0:
475,192,168661,1,0,0:0:0:0:
109,192,168661,1,0,0:0:0:0:
402,192,168696,1,0,0:0:0:0:
329,192,168731,1,0,0:0:0:0:
256,192,168765,1,0,0:0:0:0:
182,192,168800,1,0,0:0:0:0:
36,192,168800,1,0,0:0:0:0:
402,192,168870,1,0,0:0:0:0:
182,192,168939,1,0,0:0:0:0:
36,192,168939,1,0,0:0:0:0:
182,192,169009,1,0,0:0:0:0:
36,192,169009,1,0,0:0:0:0:
329,192,169078,128,0,169147:0:0:0:0:
402,192,169078,128,0,169495:0:0:0:0:
475,192,169078,128,0,169286:0:0:0:0:
329,192,169217,128,0,169529:0:0:0:0:
256,192,169217,128,0,169564:0:0:0:0:
182,192,169217,128,0,169286:0:0:0:0:
475,192,169356,128,0,169460:0:0:0:0:
182,192,169356,128,0,169529:0:0:0:0:
109,192,169356,128,0,169495:0:0:0:0:
36,192,169356,128,0,169460:0:0:0:0:
36,192,169616,5,0,0:0:0:0:
256,192,169634,1,0,0:0:0:0:
329,192,169634,1,0,0:0:0:0:
402,192,169634,1,0,0:0:0:0:
475,192,169634,1,0,0:0:0:0:
109,192,169634,1,0,0:0:0:0:
182,192,169651,1,0,0:0:0:0:
256,192,169772,1,0,0:0:0:0:
256,192,169911,1,0,0:0:0:0:
329,192,169911,1,0,0:0:0:0:
402,192,169911,1,0,0:0:0:0:
475,192,169911,1,0,0:0:0:0:
475,192,170050,1,0,0:0:0:0:
402,192,170189,1,0,0:0:0:0:
256,192,170189,1,0,0:0:0:0:
329,192,170189,1,0,0:0:0:0:
475,192,170189,1,0,0:0:0:0:
329,192,170328,1,0,0:0:0:0:
329,192,170467,1,0,0:0:0:0:
475,192,170467,1,0,0:0:0:0:
402,192,170467,1,0,0:0:0:0:
256,192,170467,1,0,0:0:0:0:
402,192,170606,1,0,0:0:0:0:
402,192,170745,1,0,0:0:0:0:
256,192,170745,1,0,0:0:0:0:
329,192,170745,1,0,0:0:0:0:
475,192,170745,1,0,0:0:0:0:
256,192,170884,1,0,0:0:0:0:
329,192,171022,1,0,0:0:0:0:
475,192,171022,1,0,0:0:0:0:
402,192,171022,1,0,0:0:0:0:
256,192,171022,1,0,0:0:0:0:
475,192,171161,1,0,0:0:0:0:
402,192,171300,1,0,0:0:0:0:
256,192,171300,1,0,0:0:0:0:
329,192,171300,1,0,0:0:0:0:
475,192,171300,1,0,0:0:0:0:
329,192,171439,1,0,0:0:0:0:
329,192,171578,1,0,0:0:0:0:
475,192,171578,1,0,0:0:0:0:
402,192,171578,1,0,0:0:0:0:
256,192,171578,1,0,0:0:0:0:
402,192,171717,1,0,0:0:0:0:
329,192,171717,1,0,0:0:0:0:
109,192,171717,1,0,0:0:0:0:
182,192,171717,1,0,0:0:0:0:
109,192,171856,1,0,0:0:0:0:
256,192,171856,1,0,0:0:0:0:
182,192,171856,1,0,0:0:0:0:
36,192,171856,1,0,0:0:0:0:
36,192,171995,1,0,0:0:0:0:
182,192,172134,1,0,0:0:0:0:
36,192,172134,1,0,0:0:0:0:
109,192,172134,1,0,0:0:0:0:
256,192,172134,1,0,0:0:0:0:
256,192,172272,1,0,0:0:0:0:
109,192,172411,1,0,0:0:0:0:
256,192,172411,1,0,0:0:0:0:
182,192,172411,1,0,0:0:0:0:
36,192,172411,1,0,0:0:0:0:
109,192,172550,1,0,0:0:0:0:
182,192,172689,1,0,0:0:0:0:
36,192,172689,1,0,0:0:0:0:
109,192,172689,1,0,0:0:0:0:
256,192,172689,1,0,0:0:0:0:
256,192,172828,1,0,0:0:0:0:
402,192,172828,1,0,0:0:0:0:
475,192,172828,1,0,0:0:0:0:
329,192,172828,1,0,0:0:0:0:
109,192,172967,1,0,0:0:0:0:
256,192,172967,1,0,0:0:0:0:
182,192,172967,1,0,0:0:0:0:
36,192,172967,1,0,0:0:0:0:
402,192,172967,1,0,0:0:0:0:
109,192,173175,1,0,0:0:0:0:
182,192,173175,1,0,0:0:0:0:
256,192,173175,1,0,0:0:0:0:
329,192,173175,1,0,0:0:0:0:
475,192,173175,1,0,0:0:0:0:
182,192,173384,1,0,0:0:0:0:
256,192,173384,1,0,0:0:0:0:
329,192,173384,1,0,0:0:0:0:
475,192,173384,1,0,0:0:0:0:
36,192,173384,1,0,0:0:0:0:
109,192,173522,1,0,0:0:0:0:
182,192,173557,1,0,0:0:0:0:
256,192,173592,1,0,0:0:0:0:
329,192,173661,1,0,0:0:0:0:
475,192,173661,1,0,0:0:0:0:
402,192,173679,1,0,0:0:0:0:
109,192,173731,1,0,0:0:0:0:
36,192,173748,1,0,0:0:0:0:
182,192,173748,1,0,0:0:0:0:
475,192,173800,1,0,0:0:0:0:
256,192,173800,1,0,0:0:0:0:
402,192,173818,1,0,0:0:0:0:
329,192,173835,1,0,0:0:0:0:
256,192,173939,1,0,0:0:0:0:
109,192,174078,128,0,174286:0:0:0:0:
256,192,174078,128,0,174286:0:0:0:0:
402,192,174078,128,0,174286:0:0:0:0:
36,192,174078,128,0,174147:0:0:0:0:
475,192,174078,128,0,174147:0:0:0:0:
182,192,174078,128,0,174147:0:0:0:0:
329,192,174078,128,0,174147:0:0:0:0:
36,192,174217,128,0,174425:0:0:0:0:
475,192,174217,128,0,174425:0:0:0:0:
182,192,174217,128,0,174286:0:0:0:0:
329,192,174217,128,0,174286:0:0:0:0:
109,192,174356,128,0,174425:0:0:0:0:
256,192,174356,128,0,174425:0:0:0:0:
402,192,174356,128,0,174425:0:0:0:0:
329,192,174356,128,0,174564:0:0:0:0:
182,192,174356,128,0,174564:0:0:0:0:
109,192,174495,128,0,174564:0:0:0:0:
36,192,174495,128,0,174564:0:0:0:0:
402,192,174495,128,0,174564:0:0:0:0:
475,192,174495,128,0,174564:0:0:0:0:
256,192,174495,128,0,174703:0:0:0:0:
182,192,174634,128,0,174703:0:0:0:0:
109,192,174634,128,0,174703:0:0:0:0:
329,192,174634,128,0,174703:0:0:0:0:
402,192,174634,128,0,174703:0:0:0:0:
475,192,174634,128,0,174842:0:0:0:0:
36,192,174634,128,0,174842:0:0:0:0:
109,192,174772,128,0,174842:0:0:0:0:
182,192,174772,128,0,174842:0:0:0:0:
256,192,174772,128,0,174842:0:0:0:0:
329,192,174772,128,0,174842:0:0:0:0:
402,192,174772,128,0,174842:0:0:0:0:
256,192,174911,1,0,0:0:0:0:
182,192,174929,1,0,0:0:0:0:
329,192,174929,1,0,0:0:0:0:
109,192,175050,1,0,0:0:0:0:
402,192,175050,1,0,0:0:0:0:
329,192,175068,1,0,0:0:0:0:
182,192,175068,1,0,0:0:0:0:
402,192,175189,128,0,175397:0:0:0:0:
256,192,175189,128,0,175397:0:0:0:0:
109,192,175189,128,0,175397:0:0:0:0:
475,192,175189,128,0,175259:0:0:0:0:
36,192,175189,128,0,175259:0:0:0:0:
329,192,175189,128,0,175259:0:0:0:0:
182,192,175189,128,0,175259:0:0:0:0:
475,192,175328,128,0,175536:0:0:0:0:
36,192,175328,128,0,175536:0:0:0:0:
329,192,175328,128,0,175397:0:0:0:0:
182,192,175328,128,0,175397:0:0:0:0:
402,192,175467,128,0,175536:0:0:0:0:
256,192,175467,128,0,175536:0:0:0:0:
109,192,175467,128,0,175536:0:0:0:0:
182,192,175467,128,0,175606:0:0:0:0:
329,192,175467,128,0,175606:0:0:0:0:
402,192,175606,128,0,175675:0:0:0:0:
475,192,175606,128,0,175675:0:0:0:0:
109,192,175606,128,0,175675:0:0:0:0:
36,192,175606,128,0,175675:0:0:0:0:
256,192,175606,128,0,175814:0:0:0:0:
182,192,175675,128,0,175745:0:0:0:0:
329,192,175675,128,0,175745:0:0:0:0:
402,192,175745,128,0,175814:0:0:0:0:
109,192,175745,128,0,175814:0:0:0:0:
36,192,175745,128,0,175953:0:0:0:0:
475,192,175745,128,0,175953:0:0:0:0:
402,192,175884,128,0,175953:0:0:0:0:
329,192,175884,128,0,175953:0:0:0:0:
256,192,175884,128,0,175953:0:0:0:0:
182,192,175884,128,0,175953:0:0:0:0:
109,192,175884,128,0,175953:0:0:0:0:
182,192,176022,1,0,0:0:0:0:
329,192,176022,1,0,0:0:0:0:
402,192,176040,1,0,0:0:0:0:
109,192,176040,1,0,0:0:0:0:
329,192,176161,1,0,0:0:0:0:
182,192,176161,1,0,0:0:0:0:
256,192,176179,1,0,0:0:0:0:
182,192,176300,1,0,0:0:0:0:
109,192,176300,1,0,0:0:0:0:
36,192,176300,1,0,0:0:0:0:
256,192,176300,1,0,0:0:0:0:
329,192,176300,1,0,0:0:0:0:
475,192,176370,1,0,0:0:0:0:
109,192,176439,1,0,0:0:0:0:
182,192,176439,1,0,0:0:0:0:
256,192,176439,1,0,0:0:0:0:
329,192,176439,1,0,0:0:0:0:
402,192,176439,1,0,0:0:0:0:
36,192,176509,1,0,0:0:0:0:
182,192,176578,1,0,0:0:0:0:
256,192,176578,1,0,0:0:0:0:
329,192,176578,1,0,0:0:0:0:
402,192,176578,1,0,0:0:0:0:
475,192,176578,1,0,0:0:0:0:
109,192,176647,1,0,0:0:0:0:
256,192,176717,1,0,0:0:0:0:
329,192,176717,1,0,0:0:0:0:
402,192,176717,1,0,0:0:0:0:
475,192,176717,1,0,0:0:0:0:
182,192,176786,1,0,0:0:0:0:
109,192,176786,1,0,0:0:0:0:
36,192,176786,1,0,0:0:0:0:
256,192,176856,1,0,0:0:0:0:
329,192,176873,1,0,0:0:0:0:
402,192,176890,1,0,0:0:0:0:
475,192,176908,1,0,0:0:0:0:
36,192,176925,1,0,0:0:0:0:
109,192,176943,1,0,0:0:0:0:
182,192,176960,1,0,0:0:0:0:
256,192,176977,1,0,0:0:0:0:
329,192,176995,1,0,0:0:0:0:
402,192,176995,1,0,0:0:0:0:
475,192,176995,1,0,0:0:0:0:
182,192,177064,1,0,0:0:0:0:
109,192,177064,1,0,0:0:0:0:
36,192,177064,1,0,0:0:0:0:
329,192,177134,1,0,0:0:0:0:
256,192,177134,1,0,0:0:0:0:
402,192,177134,1,0,0:0:0:0:
475,192,177134,1,0,0:0:0:0:
182,192,177203,1,0,0:0:0:0:
109,192,177272,1,0,0:0:0:0:
36,192,177272,1,0,0:0:0:0:
402,192,177272,1,0,0:0:0:0:
475,192,177272,1,0,0:0:0:0:
256,192,177272,1,0,0:0:0:0:
329,192,177342,1,0,0:0:0:0:
256,192,177411,1,0,0:0:0:0:
36,192,177411,1,0,0:0:0:0:
475,192,177411,1,0,0:0:0:0:
109,192,177533,1,0,0:0:0:0:
182,192,177533,1,0,0:0:0:0:
256,192,177550,1,0,0:0:0:0:
329,192,177550,1,0,0:0:0:0:
256,192,177689,1,0,0:0:0:0:
182,192,177689,1,0,0:0:0:0:
329,192,177706,1,0,0:0:0:0:
402,192,177706,1,0,0:0:0:0:
256,192,177897,1,0,0:0:0:0:
182,192,177967,1,0,0:0:0:0:
329,192,177967,1,0,0:0:0:0:
109,192,178036,1,0,0:0:0:0:
402,192,178036,1,0,0:0:0:0:
256,192,178106,1,0,0:0:0:0:
36,192,178106,1,0,0:0:0:0:
475,192,178106,1,0,0:0:0:0:
402,192,178123,1,0,0:0:0:0:
109,192,178123,1,0,0:0:0:0:
329,192,178140,1,0,0:0:0:0:
182,192,178140,1,0,0:0:0:0:
182,192,178245,1,0,0:0:0:0:
329,192,178245,1,0,0:0:0:0:
475,192,178245,1,0,0:0:0:0:
36,192,178245,1,0,0:0:0:0:
109,192,178245,1,0,0:0:0:0:
402,192,178245,1,0,0:0:0:0:
256,192,178522,128,0,178713:0:0:0:0:
182,192,178522,128,0,178627:0:0:0:0:
109,192,178522,128,0,178609:0:0:0:0:
36,192,178522,128,0,178592:0:0:0:0:
329,192,178522,128,0,178574:0:0:0:0:
402,192,178522,128,0,178592:0:0:0:0:
475,192,178522,128,0,178609:0:0:0:0:
329,192,178661,128,0,178731:0:0:0:0:
36,192,178661,128,0,178713:0:0:0:0:
402,192,178679,128,0,178748:0:0:0:0:
109,192,178679,128,0,178731:0:0:0:0:
475,192,178696,128,0,178835:0:0:0:0:
182,192,178696,128,0,178835:0:0:0:0:
109,192,178800,128,0,178852:0:0:0:0:
402,192,178800,128,0,178852:0:0:0:0:
256,192,178800,128,0,178870:0:0:0:0:
329,192,178818,128,0,178974:0:0:0:0:
36,192,178818,128,0,178991:0:0:0:0:
256,192,178939,128,0,179130:0:0:0:0:
402,192,178939,128,0,178991:0:0:0:0:
475,192,178939,128,0,179009:0:0:0:0:
182,192,178939,128,0,179026:0:0:0:0:
109,192,178939,128,0,179009:0:0:0:0:
36,192,179078,128,0,179130:0:0:0:0:
329,192,179078,128,0,179147:0:0:0:0:
402,192,179095,128,0,179165:0:0:0:0:
109,192,179095,128,0,179147:0:0:0:0:
475,192,179113,128,0,179634:0:0:0:0:
182,192,179113,128,0,179252:0:0:0:0:
109,192,179217,128,0,179269:0:0:0:0:
402,192,179217,128,0,179425:0:0:0:0:
256,192,179217,128,0,179286:0:0:0:0:
36,192,179234,128,0,179390:0:0:0:0:
329,192,179234,128,0,179390:0:0:0:0:
109,192,179356,128,0,179495:0:0:0:0:
182,192,179379,128,0,179471:0:0:0:0:
256,192,179402,128,0,179448:0:0:0:0:
402,192,179471,128,0,179610:0:0:0:0:
329,192,179495,128,0,179587:0:0:0:0:
256,192,179518,128,0,179564:0:0:0:0:
329,192,179634,128,0,179772:0:0:0:0:
256,192,179634,128,0,179703:0:0:0:0:
182,192,179634,128,0,179703:0:0:0:0:
109,192,179634,128,0,179703:0:0:0:0:
36,192,179634,128,0,179703:0:0:0:0:
402,192,179703,128,0,179772:0:0:0:0:
475,192,179703,128,0,179772:0:0:0:0:
256,192,179772,128,0,179859:0:0:0:0:
182,192,179772,128,0,179877:0:0:0:0:
109,192,179772,128,0,179894:0:0:0:0:
36,192,179772,128,0,179911:0:0:0:0:
329,192,179842,128,0,179929:0:0:0:0:
402,192,179842,128,0,179911:0:0:0:0:
475,192,179842,128,0,179894:0:0:0:0:
256,192,179911,1,0,0:0:0:0:
182,192,179929,1,0,0:0:0:0:
109,192,179946,1,0,0:0:0:0:
36,192,179963,1,0,0:0:0:0:
329,192,180050,1,0,0:0:0:0:
402,192,180050,1,0,0:0:0:0:
256,192,180050,128,0,180120:0:0:0:0:
475,192,180050,128,0,180120:0:0:0:0:
109,192,180154,1,0,0:0:0:0:
182,192,180172,1,0,0:0:0:0:
256,192,180189,1,0,0:0:0:0:
329,192,180206,1,0,0:0:0:0:
402,192,180224,1,0,0:0:0:0:
256,192,180276,1,0,0:0:0:0:
182,192,180293,1,0,0:0:0:0:
109,192,180311,1,0,0:0:0:0:
329,192,180328,1,0,0:0:0:0:
475,192,180328,1,0,0:0:0:0:
36,192,180328,1,0,0:0:0:0:
256,192,180467,128,0,180606:0:0:0:0:
182,192,180606,1,0,0:0:0:0:
109,192,180606,1,0,0:0:0:0:
36,192,180606,1,0,0:0:0:0:
329,192,180606,1,0,0:0:0:0:
402,192,180606,1,0,0:0:0:0:
475,192,180606,1,0,0:0:0:0:
256,192,180745,128,0,180936:0:0:0:0:
329,192,180745,128,0,180849:0:0:0:0:
402,192,180745,128,0,180831:0:0:0:0:
475,192,180745,128,0,180814:0:0:0:0:
182,192,180745,128,0,180797:0:0:0:0:
109,192,180745,128,0,180814:0:0:0:0:
36,192,180745,128,0,180831:0:0:0:0:
182,192,180884,128,0,180953:0:0:0:0:
475,192,180884,128,0,180936:0:0:0:0:
109,192,180901,128,0,180970:0:0:0:0:
402,192,180901,128,0,180953:0:0:0:0:
36,192,180918,128,0,181057:0:0:0:0:
329,192,180918,128,0,181057:0:0:0:0:
402,192,181022,128,0,181074:0:0:0:0:
109,192,181022,128,0,181074:0:0:0:0:
256,192,181022,128,0,181092:0:0:0:0:
182,192,181040,128,0,181196:0:0:0:0:
475,192,181040,128,0,181213:0:0:0:0:
256,192,181161,128,0,181352:0:0:0:0:
109,192,181161,128,0,181213:0:0:0:0:
36,192,181161,128,0,181231:0:0:0:0:
329,192,181161,128,0,181248:0:0:0:0:
402,192,181161,128,0,181231:0:0:0:0:
475,192,181300,128,0,181352:0:0:0:0:
182,192,181300,128,0,181370:0:0:0:0:
109,192,181318,128,0,181387:0:0:0:0:
402,192,181318,128,0,181370:0:0:0:0:
36,192,181335,128,0,181474:0:0:0:0:
329,192,181335,128,0,181474:0:0:0:0:
402,192,181439,128,0,181491:0:0:0:0:
109,192,181439,128,0,181491:0:0:0:0:
256,192,181439,128,0,181509:0:0:0:0:
475,192,181456,128,0,181752:0:0:0:0:
182,192,181456,128,0,181613:0:0:0:0:
109,192,181578,128,0,181630:0:0:0:0:
402,192,181578,128,0,181630:0:0:0:0:
256,192,181578,128,0,181630:0:0:0:0:
36,192,181595,128,0,181752:0:0:0:0:
329,192,181595,128,0,181752:0:0:0:0:
109,192,181717,128,0,181752:0:0:0:0:
256,192,181717,128,0,181752:0:0:0:0:
402,192,181717,128,0,181752:0:0:0:0:
329,192,181786,128,0,181821:0:0:0:0:
182,192,181786,128,0,181821:0:0:0:0:
36,192,181786,128,0,181821:0:0:0:0:
256,192,181856,1,0,0:0:0:0:
475,192,181856,1,0,0:0:0:0:
402,192,181856,1,0,0:0:0:0:
109,192,181856,1,0,0:0:0:0:
329,192,181995,1,0,0:0:0:0:
475,192,181995,1,0,0:0:0:0:
256,192,182064,1,0,0:0:0:0:
109,192,182064,1,0,0:0:0:0:
36,192,182064,1,0,0:0:0:0:
402,192,182064,1,0,0:0:0:0:
182,192,182203,1,0,0:0:0:0:
36,192,182203,1,0,0:0:0:0:
475,192,182272,1,0,0:0:0:0:
402,192,182272,1,0,0:0:0:0:
256,192,182272,1,0,0:0:0:0:
109,192,182272,1,0,0:0:0:0:
182,192,182411,128,0,182689:0:0:0:0:
109,192,182429,128,0,182689:0:0:0:0:
36,192,182446,128,0,182689:0:0:0:0:
402,192,182689,1,0,0:0:0:0:
475,192,182689,1,0,0:0:0:0:
329,192,182689,1,0,0:0:0:0:
256,192,182735,1,0,0:0:0:0:
182,192,182735,1,0,0:0:0:0:
109,192,182782,1,0,0:0:0:0:
36,192,182782,1,0,0:0:0:0:
256,192,182828,1,0,0:0:0:0:
329,192,182828,1,0,0:0:0:0:
402,192,182828,1,0,0:0:0:0:
475,192,182828,1,0,0:0:0:0:
182,192,182897,1,0,0:0:0:0:
109,192,182897,1,0,0:0:0:0:
36,192,182897,1,0,0:0:0:0:
402,192,182967,128,0,183036:0:0:0:0:
329,192,182967,128,0,183054:0:0:0:0:
256,192,182967,128,0,183071:0:0:0:0:
475,192,182967,128,0,183019:0:0:0:0:
402,192,183106,128,0,183158:0:0:0:0:
182,192,183106,128,0,183210:0:0:0:0:
256,192,183106,128,0,183193:0:0:0:0:
329,192,183106,128,0,183175:0:0:0:0:
182,192,183245,128,0,183331:0:0:0:0:
256,192,183245,128,0,183314:0:0:0:0:
329,192,183245,128,0,183297:0:0:0:0:
109,192,183245,128,0,183349:0:0:0:0:
475,192,183245,1,0,0:0:0:0:
36,192,183245,1,0,0:0:0:0:
402,192,183245,1,0,0:0:0:0:
109,192,183384,128,0,183453:0:0:0:0:
182,192,183384,128,0,183470:0:0:0:0:
256,192,183384,128,0,183488:0:0:0:0:
36,192,183384,128,0,183436:0:0:0:0:
402,192,183384,1,0,0:0:0:0:
182,192,183522,128,0,183592:0:0:0:0:
109,192,183522,128,0,183574:0:0:0:0:
329,192,183522,128,0,183627:0:0:0:0:
256,192,183522,128,0,183609:0:0:0:0:
475,192,183522,1,0,0:0:0:0:
256,192,183661,128,0,183731:0:0:0:0:
36,192,183661,1,0,0:0:0:0:
329,192,183661,128,0,183748:0:0:0:0:
402,192,183661,128,0,183765:0:0:0:0:
109,192,183661,1,0,0:0:0:0:
182,192,183661,128,0,183713:0:0:0:0:
475,192,183661,1,0,0:0:0:0:
36,192,183800,1,0,0:0:0:0:
109,192,183818,1,0,0:0:0:0:
182,192,183835,1,0,0:0:0:0:
475,192,183870,1,0,0:0:0:0:
402,192,183887,1,0,0:0:0:0:
329,192,183904,1,0,0:0:0:0:
182,192,183939,1,0,0:0:0:0:
109,192,183956,1,0,0:0:0:0:
36,192,183974,1,0,0:0:0:0:
329,192,184009,1,0,0:0:0:0:
402,192,184026,1,0,0:0:0:0:
475,192,184043,1,0,0:0:0:0:
182,192,184078,1,0,0:0:0:0:
36,192,184078,1,0,0:0:0:0:
109,192,184078,1,0,0:0:0:0:
329,192,184113,1,0,0:0:0:0:
256,192,184147,1,0,0:0:0:0:
182,192,184182,1,0,0:0:0:0:
475,192,184217,1,0,0:0:0:0:
36,192,184217,1,0,0:0:0:0:
329,192,184217,1,0,0:0:0:0:
109,192,184286,1,0,0:0:0:0:
256,192,184286,1,0,0:0:0:0:
402,192,184286,1,0,0:0:0:0:
182,192,184356,1,0,0:0:0:0:
329,192,184356,1,0,0:0:0:0:
475,192,184356,1,0,0:0:0:0:
36,192,184356,1,0,0:0:0:0:
256,192,184495,1,0,0:0:0:0:
109,192,184495,1,0,0:0:0:0:
36,192,184495,1,0,0:0:0:0:
402,192,184495,1,0,0:0:0:0:
475,192,184495,1,0,0:0:0:0:
329,192,184564,1,0,0:0:0:0:
182,192,184564,1,0,0:0:0:0:
256,192,184634,1,0,0:0:0:0:
109,192,184634,1,0,0:0:0:0:
402,192,184634,1,0,0:0:0:0:
475,192,184726,1,0,0:0:0:0:
36,192,184726,1,0,0:0:0:0:
402,192,184726,1,0,0:0:0:0:
109,192,184726,1,0,0:0:0:0:
182,192,184819,1,0,0:0:0:0:
256,192,184819,1,0,0:0:0:0:
329,192,184819,1,0,0:0:0:0:
109,192,184911,1,0,0:0:0:0:
36,192,184911,1,0,0:0:0:0:
402,192,184911,1,0,0:0:0:0:
475,192,184911,1,0,0:0:0:0:
182,192,184929,1,0,0:0:0:0:
329,192,184929,1,0,0:0:0:0:
256,192,184946,1,0,0:0:0:0:
329,192,185050,1,0,0:0:0:0:
182,192,185050,1,0,0:0:0:0:
256,192,185073,1,0,0:0:0:0:
475,192,185120,1,0,0:0:0:0:
36,192,185120,1,0,0:0:0:0:
109,192,185120,1,0,0:0:0:0:
402,192,185120,1,0,0:0:0:0:
329,192,185189,1,0,0:0:0:0:
256,192,185212,1,0,0:0:0:0:
109,192,185235,1,0,0:0:0:0:
182,192,185241,1,0,0:0:0:0:
36,192,185259,1,0,0:0:0:0:
182,192,185328,1,0,0:0:0:0:
256,192,185345,1,0,0:0:0:0:
402,192,185351,1,0,0:0:0:0:
329,192,185363,1,0,0:0:0:0:
475,192,185374,1,0,0:0:0:0:
329,192,185467,1,0,0:0:0:0:
256,192,185467,1,0,0:0:0:0:
182,192,185467,1,0,0:0:0:0:
109,192,185467,1,0,0:0:0:0:
36,192,185467,1,0,0:0:0:0:
182,192,185606,1,0,0:0:0:0:
256,192,185629,1,0,0:0:0:0:
329,192,185652,1,0,0:0:0:0:
402,192,185658,1,0,0:0:0:0:
475,192,185675,1,0,0:0:0:0:
182,192,185745,1,0,0:0:0:0:
109,192,185762,1,0,0:0:0:0:
36,192,185779,1,0,0:0:0:0:
329,192,185814,1,0,0:0:0:0:
402,192,185831,1,0,0:0:0:0:
475,192,185849,1,0,0:0:0:0:
109,192,185884,1,0,0:0:0:0:
36,192,185884,1,0,0:0:0:0:
182,192,185884,1,0,0:0:0:0:
256,192,185884,1,0,0:0:0:0:
109,192,186022,1,0,0:0:0:0:
36,192,186022,1,0,0:0:0:0:
182,192,186022,1,0,0:0:0:0:
256,192,186022,1,0,0:0:0:0:
329,192,186022,1,0,0:0:0:0:
402,192,186022,1,0,0:0:0:0:
475,192,186022,1,0,0:0:0:0:
182,192,186161,1,0,0:0:0:0:
109,192,186161,1,0,0:0:0:0:
36,192,186161,1,0,0:0:0:0:
256,192,186184,1,0,0:0:0:0:
329,192,186208,1,0,0:0:0:0:
402,192,186213,1,0,0:0:0:0:
475,192,186231,1,0,0:0:0:0:
329,192,186300,1,0,0:0:0:0:
402,192,186300,1,0,0:0:0:0:
475,192,186300,1,0,0:0:0:0:
256,192,186323,1,0,0:0:0:0:
182,192,186346,1,0,0:0:0:0:
109,192,186352,1,0,0:0:0:0:
36,192,186370,1,0,0:0:0:0:
475,192,186404,1,0,0:0:0:0:
402,192,186422,1,0,0:0:0:0:
329,192,186439,1,0,0:0:0:0:
256,192,186456,1,0,0:0:0:0:
182,192,186509,1,0,0:0:0:0:
36,192,186509,1,0,0:0:0:0:
109,192,186509,1,0,0:0:0:0:
256,192,186532,1,0,0:0:0:0:
329,192,186555,1,0,0:0:0:0:
402,192,186561,1,0,0:0:0:0:
475,192,186578,1,0,0:0:0:0:
36,192,186613,1,0,0:0:0:0:
109,192,186630,1,0,0:0:0:0:
182,192,186647,1,0,0:0:0:0:
256,192,186665,1,0,0:0:0:0:
402,192,186717,1,0,0:0:0:0:
475,192,186717,1,0,0:0:0:0:
329,192,186717,1,0,0:0:0:0:
256,192,186740,1,0,0:0:0:0:
182,192,186763,1,0,0:0:0:0:
109,192,186769,1,0,0:0:0:0:
36,192,186786,1,0,0:0:0:0:
182,192,186856,1,0,0:0:0:0:
329,192,186856,1,0,0:0:0:0:
402,192,186925,1,0,0:0:0:0:
256,192,186925,1,0,0:0:0:0:
109,192,186925,1,0,0:0:0:0:
36,192,186995,1,0,0:0:0:0:
329,192,186995,1,0,0:0:0:0:
182,192,186995,1,0,0:0:0:0:
475,192,186995,1,0,0:0:0:0:
329,192,187134,1,0,0:0:0:0:
402,192,187134,1,0,0:0:0:0:
475,192,187134,1,0,0:0:0:0:
109,192,187134,1,0,0:0:0:0:
36,192,187134,1,0,0:0:0:0:
182,192,187180,1,0,0:0:0:0:
329,192,187226,1,0,0:0:0:0:
182,192,187272,1,0,0:0:0:0:
329,192,187319,1,0,0:0:0:0:
182,192,187365,1,0,0:0:0:0:
329,192,187411,1,0,0:0:0:0:
402,192,187411,1,0,0:0:0:0:
475,192,187411,1,0,0:0:0:0:
36,192,187411,1,0,0:0:0:0:
109,192,187446,1,0,0:0:0:0:
182,192,187481,1,0,0:0:0:0:
256,192,187515,1,0,0:0:0:0:
402,192,187550,1,0,0:0:0:0:
329,192,187585,1,0,0:0:0:0:
256,192,187620,1,0,0:0:0:0:
36,192,187689,1,0,0:0:0:0:
402,192,187689,1,0,0:0:0:0:
475,192,187689,1,0,0:0:0:0:
109,192,187712,1,0,0:0:0:0:
182,192,187735,1,0,0:0:0:0:
256,192,187759,1,0,0:0:0:0:
329,192,187782,1,0,0:0:0:0:
402,192,187805,1,0,0:0:0:0:
109,192,187828,1,0,0:0:0:0:
182,192,187851,1,0,0:0:0:0:
256,192,187874,1,0,0:0:0:0:
36,192,187897,1,0,0:0:0:0:
402,192,187897,1,0,0:0:0:0:
475,192,187897,1,0,0:0:0:0:
182,192,187967,1,0,0:0:0:0:
256,192,187984,1,0,0:0:0:0:
329,192,188002,1,0,0:0:0:0:
402,192,188019,1,0,0:0:0:0:
475,192,188036,1,0,0:0:0:0:
182,192,188106,1,0,0:0:0:0:
109,192,188123,1,0,0:0:0:0:
36,192,188140,1,0,0:0:0:0:
329,192,188175,1,0,0:0:0:0:
402,192,188193,1,0,0:0:0:0:
475,192,188210,1,0,0:0:0:0:
182,192,188245,1,0,0:0:0:0:
36,192,188245,1,0,0:0:0:0:
109,192,188245,1,0,0:0:0:0:
402,192,188279,1,0,0:0:0:0:
329,192,188297,1,0,0:0:0:0:
256,192,188314,1,0,0:0:0:0:
182,192,188331,1,0,0:0:0:0:
109,192,188349,1,0,0:0:0:0:
475,192,188384,1,0,0:0:0:0:
36,192,188384,1,0,0:0:0:0:
36,192,188522,1,0,0:0:0:0:
475,192,188522,1,0,0:0:0:0:
402,192,188522,1,0,0:0:0:0:
109,192,188540,1,0,0:0:0:0:
182,192,188557,1,0,0:0:0:0:
256,192,188574,1,0,0:0:0:0:
329,192,188592,1,0,0:0:0:0:
475,192,188731,1,0,0:0:0:0:
402,192,188748,1,0,0:0:0:0:
329,192,188765,1,0,0:0:0:0:
256,192,188783,1,0,0:0:0:0:
182,192,188800,1,0,0:0:0:0:
36,192,188800,1,0,0:0:0:0:
329,192,188870,1,0,0:0:0:0:
256,192,188893,1,0,0:0:0:0:
182,192,188916,1,0,0:0:0:0:
109,192,188939,1,0,0:0:0:0:
402,192,188939,1,0,0:0:0:0:
36,192,189009,1,0,0:0:0:0:
475,192,189009,1,0,0:0:0:0:
256,192,189009,1,0,0:0:0:0:
402,192,189078,1,0,0:0:0:0:
109,192,189078,1,0,0:0:0:0:
182,192,189101,1,0,0:0:0:0:
256,192,189124,1,0,0:0:0:0:
329,192,189147,1,0,0:0:0:0:
475,192,189147,1,0,0:0:0:0:
182,192,189217,1,0,0:0:0:0:
36,192,189217,1,0,0:0:0:0:
109,192,189217,1,0,0:0:0:0:
256,192,189286,1,0,0:0:0:0:
402,192,189286,1,0,0:0:0:0:
182,192,189356,1,0,0:0:0:0:
109,192,189356,1,0,0:0:0:0:
36,192,189356,1,0,0:0:0:0:
329,192,189373,1,0,0:0:0:0:
402,192,189390,1,0,0:0:0:0:
475,192,189408,1,0,0:0:0:0:
182,192,189443,1,0,0:0:0:0:
109,192,189460,1,0,0:0:0:0:
36,192,189477,1,0,0:0:0:0:
329,192,189495,1,0,0:0:0:0:
402,192,189512,1,0,0:0:0:0:
475,192,189529,1,0,0:0:0:0:
182,192,189547,1,0,0:0:0:0:
109,192,189564,1,0,0:0:0:0:
36,192,189581,1,0,0:0:0:0:
256,192,189634,1,0,0:0:0:0:
475,192,189634,1,0,0:0:0:0:
329,192,189651,1,0,0:0:0:0:
182,192,189651,1,0,0:0:0:0:
402,192,189657,1,0,0:0:0:0:
109,192,189668,1,0,0:0:0:0:
36,192,189686,1,0,0:0:0:0:
402,192,189772,1,0,0:0:0:0:
109,192,189772,1,0,0:0:0:0:
329,192,189796,1,0,0:0:0:0:
182,192,189796,1,0,0:0:0:0:
256,192,189819,1,0,0:0:0:0:
329,192,189911,1,0,0:0:0:0:
182,192,189911,1,0,0:0:0:0:
402,192,189929,1,0,0:0:0:0:
109,192,189929,1,0,0:0:0:0:
475,192,189946,1,0,0:0:0:0:
36,192,189946,1,0,0:0:0:0:
256,192,190050,1,0,0:0:0:0:
36,192,190050,1,0,0:0:0:0:
329,192,190068,1,0,0:0:0:0:
182,192,190068,1,0,0:0:0:0:
109,192,190073,1,0,0:0:0:0:
402,192,190085,1,0,0:0:0:0:
475,192,190102,1,0,0:0:0:0:
109,192,190189,1,0,0:0:0:0:
402,192,190189,1,0,0:0:0:0:
329,192,190212,1,0,0:0:0:0:
182,192,190212,1,0,0:0:0:0:
256,192,190235,1,0,0:0:0:0:
329,192,190328,1,0,0:0:0:0:
182,192,190328,1,0,0:0:0:0:
402,192,190345,1,0,0:0:0:0:
109,192,190345,1,0,0:0:0:0:
36,192,190363,1,0,0:0:0:0:
475,192,190363,1,0,0:0:0:0:
36,192,190467,1,0,0:0:0:0:
475,192,190467,1,0,0:0:0:0:
109,192,190484,1,0,0:0:0:0:
402,192,190484,1,0,0:0:0:0:
182,192,190502,1,0,0:0:0:0:
329,192,190502,1,0,0:0:0:0:
109,192,190606,1,0,0:0:0:0:
36,192,190606,1,0,0:0:0:0:
402,192,190606,1,0,0:0:0:0:
475,192,190606,1,0,0:0:0:0:
329,192,190675,1,0,0:0:0:0:
256,192,190675,1,0,0:0:0:0:
182,192,190675,1,0,0:0:0:0:
109,192,190745,1,0,0:0:0:0:
36,192,190745,1,0,0:0:0:0:
402,192,190745,1,0,0:0:0:0:
475,192,190745,1,0,0:0:0:0:
256,192,190814,1,0,0:0:0:0:
329,192,190831,1,0,0:0:0:0:
182,192,190831,1,0,0:0:0:0:
475,192,190884,1,0,0:0:0:0:
36,192,190884,1,0,0:0:0:0:
109,192,190901,1,0,0:0:0:0:
402,192,190901,1,0,0:0:0:0:
256,192,190953,1,0,0:0:0:0:
109,192,191022,1,0,0:0:0:0:
402,192,191040,1,0,0:0:0:0:
182,192,191092,1,0,0:0:0:0:
329,192,191092,1,0,0:0:0:0:
256,192,191109,1,0,0:0:0:0:
109,192,191161,1,0,0:0:0:0:
36,192,191161,1,0,0:0:0:0:
402,192,191161,1,0,0:0:0:0:
475,192,191161,1,0,0:0:0:0:
182,192,191231,1,0,0:0:0:0:
329,192,191231,1,0,0:0:0:0:
109,192,191300,1,0,0:0:0:0:
402,192,191300,1,0,0:0:0:0:
36,192,191318,1,0,0:0:0:0:
475,192,191318,1,0,0:0:0:0:
256,192,191335,1,0,0:0:0:0:
182,192,191352,1,0,0:0:0:0:
329,192,191352,1,0,0:0:0:0:
182,192,191509,1,0,0:0:0:0:
36,192,191509,1,0,0:0:0:0:
329,192,191509,1,0,0:0:0:0:
475,192,191509,1,0,0:0:0:0:
402,192,191526,1,0,0:0:0:0:
109,192,191526,1,0,0:0:0:0:
256,192,191543,1,0,0:0:0:0:
36,192,191717,1,0,0:0:0:0:
475,192,191717,1,0,0:0:0:0:
109,192,191734,1,0,0:0:0:0:
402,192,191734,1,0,0:0:0:0:
329,192,191786,1,0,0:0:0:0:
182,192,191786,1,0,0:0:0:0:
256,192,191804,1,0,0:0:0:0:
36,192,191856,1,0,0:0:0:0:
402,192,191856,1,0,0:0:0:0:
475,192,191856,1,0,0:0:0:0:
109,192,191890,1,0,0:0:0:0:
182,192,191925,1,0,0:0:0:0:
256,192,191960,1,0,0:0:0:0:
329,192,191995,1,0,0:0:0:0:
182,192,192029,1,0,0:0:0:0:
402,192,192029,1,0,0:0:0:0:
109,192,192064,1,0,0:0:0:0:
36,192,192099,1,0,0:0:0:0:
402,192,192134,1,0,0:0:0:0:
329,192,192134,1,0,0:0:0:0:
475,192,192134,1,0,0:0:0:0:
109,192,192168,1,0,0:0:0:0:
182,192,192203,1,0,0:0:0:0:
256,192,192238,1,0,0:0:0:0:
329,192,192272,1,0,0:0:0:0:
402,192,192272,1,0,0:0:0:0:
256,192,192342,1,0,0:0:0:0:
182,192,192342,1,0,0:0:0:0:
109,192,192342,1,0,0:0:0:0:
36,192,192411,1,0,0:0:0:0:
402,192,192411,1,0,0:0:0:0:
475,192,192411,1,0,0:0:0:0:
329,192,192429,1,0,0:0:0:0:
256,192,192446,1,0,0:0:0:0:
329,192,192550,1,0,0:0:0:0:
36,192,192550,1,0,0:0:0:0:
402,192,192568,1,0,0:0:0:0:
109,192,192585,1,0,0:0:0:0:
475,192,192585,1,0,0:0:0:0:
182,192,192620,1,0,0:0:0:0:
256,192,192654,1,0,0:0:0:0:
329,192,192689,1,0,0:0:0:0:
402,192,192689,1,0,0:0:0:0:
475,192,192689,1,0,0:0:0:0:
182,192,192724,1,0,0:0:0:0:
109,192,192759,1,0,0:0:0:0:
256,192,192793,1,0,0:0:0:0:
182,192,192828,1,0,0:0:0:0:
36,192,192828,1,0,0:0:0:0:
329,192,192863,1,0,0:0:0:0:
402,192,192897,1,0,0:0:0:0:
256,192,192897,1,0,0:0:0:0:
475,192,192932,1,0,0:0:0:0:
182,192,192967,1,0,0:0:0:0:
109,192,192967,1,0,0:0:0:0:
36,192,192967,1,0,0:0:0:0:
182,192,193106,1,0,0:0:0:0:
36,192,193106,1,0,0:0:0:0:
475,192,193106,1,0,0:0:0:0:
109,192,193175,1,0,0:0:0:0:
256,192,193175,1,0,0:0:0:0:
402,192,193245,1,0,0:0:0:0:
329,192,193245,1,0,0:0:0:0:
475,192,193245,1,0,0:0:0:0:
182,192,193279,1,0,0:0:0:0:
256,192,193314,1,0,0:0:0:0:
329,192,193349,1,0,0:0:0:0:
402,192,193384,1,0,0:0:0:0:
475,192,193401,1,0,0:0:0:0:
109,192,193453,1,0,0:0:0:0:
36,192,193453,1,0,0:0:0:0:
182,192,193453,1,0,0:0:0:0:
402,192,193522,1,0,0:0:0:0:
329,192,193540,1,0,0:0:0:0:
256,192,193557,1,0,0:0:0:0:
182,192,193574,1,0,0:0:0:0:
109,192,193592,1,0,0:0:0:0:
36,192,193609,1,0,0:0:0:0:
475,192,193615,1,0,0:0:0:0:
182,192,193661,1,0,0:0:0:0:
256,192,193679,1,0,0:0:0:0:
329,192,193696,1,0,0:0:0:0:
402,192,193713,1,0,0:0:0:0:
475,192,193731,1,0,0:0:0:0:
36,192,193738,1,0,0:0:0:0:
109,192,193800,1,0,0:0:0:0:
182,192,193800,1,0,0:0:0:0:
329,192,193800,1,0,0:0:0:0:
402,192,193800,1,0,0:0:0:0:
256,192,193818,1,0,0:0:0:0:
256,192,193922,1,0,0:0:0:0:
109,192,193939,1,0,0:0:0:0:
182,192,193939,1,0,0:0:0:0:
329,192,193939,1,0,0:0:0:0:
402,192,193939,1,0,0:0:0:0:
182,192,194078,1,0,0:0:0:0:
109,192,194078,1,0,0:0:0:0:
36,192,194078,1,0,0:0:0:0:
256,192,194078,1,0,0:0:0:0:
475,192,194078,1,0,0:0:0:0:
329,192,194147,1,0,0:0:0:0:
402,192,194147,1,0,0:0:0:0:
36,192,194217,1,0,0:0:0:0:
182,192,194217,1,0,0:0:0:0:
475,192,194217,1,0,0:0:0:0:
109,192,194286,1,0,0:0:0:0:
256,192,194286,1,0,0:0:0:0:
182,192,194356,1,0,0:0:0:0:
329,192,194356,1,0,0:0:0:0:
402,192,194356,1,0,0:0:0:0:
475,192,194356,1,0,0:0:0:0:
36,192,194356,1,0,0:0:0:0:
182,192,194495,1,0,0:0:0:0:
256,192,194495,1,0,0:0:0:0:
329,192,194495,1,0,0:0:0:0:
109,192,194564,1,0,0:0:0:0:
36,192,194564,1,0,0:0:0:0:
402,192,194564,1,0,0:0:0:0:
475,192,194564,1,0,0:0:0:0:
256,192,194634,1,0,0:0:0:0:
182,192,194703,1,0,0:0:0:0:
329,192,194703,1,0,0:0:0:0:
109,192,194772,1,0,0:0:0:0:
36,192,194772,1,0,0:0:0:0:
256,192,194772,1,0,0:0:0:0:
402,192,194772,1,0,0:0:0:0:
475,192,194772,1,0,0:0:0:0:
256,192,194911,1,0,0:0:0:0:
182,192,194911,1,0,0:0:0:0:
329,192,194911,1,0,0:0:0:0:
36,192,194911,1,0,0:0:0:0:
475,192,194911,1,0,0:0:0:0:
109,192,194981,1,0,0:0:0:0:
402,192,194981,1,0,0:0:0:0:
475,192,195050,1,0,0:0:0:0:
36,192,195050,1,0,0:0:0:0:
256,192,195050,1,0,0:0:0:0:
36,192,195189,5,0,0:0:0:0:
475,192,195189,1,0,0:0:0:0:
256,192,195189,1,0,0:0:0:0:
109,192,195189,1,0,0:0:0:0:
402,192,195189,1,0,0:0:0:0:
329,192,195259,1,0,0:0:0:0:
182,192,195259,1,0,0:0:0:0:
36,192,195328,1,0,0:0:0:0:
256,192,195328,1,0,0:0:0:0:
475,192,195328,1,0,0:0:0:0:
109,192,195345,1,0,0:0:0:0:
329,192,195345,1,0,0:0:0:0:
182,192,195363,1,0,0:0:0:0:
402,192,195363,1,0,0:0:0:0:
256,192,195467,1,0,0:0:0:0:
36,192,195536,1,0,0:0:0:0:
475,192,195536,1,0,0:0:0:0:
402,192,195554,1,0,0:0:0:0:
182,192,195554,1,0,0:0:0:0:
329,192,195571,1,0,0:0:0:0:
109,192,195571,1,0,0:0:0:0:
256,192,195675,1,0,0:0:0:0:
36,192,195745,1,0,0:0:0:0:
475,192,195745,1,0,0:0:0:0:
329,192,195762,1,0,0:0:0:0:
109,192,195762,1,0,0:0:0:0:
402,192,195779,1,0,0:0:0:0:
182,192,195779,1,0,0:0:0:0:
182,192,195884,1,0,0:0:0:0:
329,192,195884,1,0,0:0:0:0:
329,192,195953,1,0,0:0:0:0:
182,192,195953,1,0,0:0:0:0:
256,192,196022,1,0,0:0:0:0:
475,192,196022,1,0,0:0:0:0:
36,192,196022,1,0,0:0:0:0:
402,192,196092,1,0,0:0:0:0:
329,192,196109,1,0,0:0:0:0:
109,192,196161,1,0,0:0:0:0:
182,192,196179,1,0,0:0:0:0:
402,192,196231,1,0,0:0:0:0:
329,192,196248,1,0,0:0:0:0:
109,192,196300,5,0,0:0:0:0:
182,192,196300,128,0,196439:0:0:0:0:
36,192,196300,128,0,196439:0:0:0:0:
402,192,196335,128,0,196439:0:0:0:0:
256,192,196370,128,0,196509:0:0:0:0:
475,192,196404,128,0,196509:0:0:0:0:
109,192,196439,128,0,196578:0:0:0:0:
329,192,196439,128,0,196578:0:0:0:0:
182,192,196509,128,0,196647:0:0:0:0:
36,192,196578,128,0,196821:0:0:0:0:
475,192,196578,128,0,196647:0:0:0:0:
256,192,196578,128,0,196752:0:0:0:0:
402,192,196578,128,0,196821:0:0:0:0:
475,192,196717,128,0,196821:0:0:0:0:
109,192,196717,128,0,196752:0:0:0:0:
182,192,196717,128,0,196890:0:0:0:0:
329,192,196786,128,0,196960:0:0:0:0:
256,192,196786,128,0,196821:0:0:0:0:
109,192,196856,128,0,197238:0:0:0:0:
475,192,196856,128,0,196960:0:0:0:0:
402,192,196856,128,0,196890:0:0:0:0:
36,192,196856,128,0,196960:0:0:0:0:
182,192,196925,128,0,197029:0:0:0:0:
256,192,196925,128,0,197168:0:0:0:0:
36,192,196995,128,0,197029:0:0:0:0:
329,192,196995,128,0,197029:0:0:0:0:
475,192,196995,128,0,197238:0:0:0:0:
402,192,196995,128,0,197029:0:0:0:0:
402,192,197134,128,0,197168:0:0:0:0:
329,192,197134,128,0,197307:0:0:0:0:
36,192,197134,128,0,197238:0:0:0:0:
256,192,197203,128,0,197238:0:0:0:0:
182,192,197203,128,0,197377:0:0:0:0:
36,192,197272,128,0,197377:0:0:0:0:
402,192,197272,128,0,197446:0:0:0:0:
475,192,197272,128,0,197377:0:0:0:0:
109,192,197272,128,0,197307:0:0:0:0:
329,192,197342,128,0,197446:0:0:0:0:
256,192,197342,128,0,197515:0:0:0:0:
36,192,197411,128,0,197446:0:0:0:0:
182,192,197411,128,0,197446:0:0:0:0:
475,192,197411,128,0,197585:0:0:0:0:
109,192,197411,128,0,197654:0:0:0:0:
182,192,197550,128,0,197654:0:0:0:0:
329,192,197550,128,0,197724:0:0:0:0:
256,192,197550,128,0,197585:0:0:0:0:
402,192,197620,128,0,197654:0:0:0:0:
475,192,197620,128,0,197793:0:0:0:0:
256,192,197689,128,0,197932:0:0:0:0:
109,192,197689,128,0,197793:0:0:0:0:
36,192,197689,128,0,197793:0:0:0:0:
182,192,197689,128,0,197724:0:0:0:0:
402,192,197759,128,0,198071:0:0:0:0:
329,192,197759,128,0,197863:0:0:0:0:
182,192,197828,128,0,197863:0:0:0:0:
475,192,197828,128,0,197863:0:0:0:0:
109,192,197828,128,0,197863:0:0:0:0:
36,192,197828,128,0,198002:0:0:0:0:
182,192,197967,128,0,198140:0:0:0:0:
256,192,197967,128,0,198002:0:0:0:0:
329,192,197967,128,0,198071:0:0:0:0:
36,192,198036,128,0,198210:0:0:0:0:
109,192,198036,128,0,198071:0:0:0:0:
329,192,198106,128,0,198140:0:0:0:0:
475,192,198106,128,0,198210:0:0:0:0:
402,192,198106,128,0,198210:0:0:0:0:
256,192,198106,128,0,198418:0:0:0:0:
109,192,198175,128,0,198210:0:0:0:0:
182,192,198175,128,0,198210:0:0:0:0:
329,192,198245,128,0,198279:0:0:0:0:
402,192,198245,128,0,198279:0:0:0:0:
36,192,198245,128,0,198314:0:0:0:0:
475,192,198245,128,0,198384:0:0:0:0:
109,192,198279,128,0,198349:0:0:0:0:
182,192,198314,128,0,198384:0:0:0:0:
36,192,198384,1,0,0:0:0:0:
329,192,198384,128,0,198453:0:0:0:0:
109,192,198418,1,0,0:0:0:0:
402,192,198418,128,0,198488:0:0:0:0:
182,192,198453,1,0,0:0:0:0:
475,192,198453,128,0,198522:0:0:0:0:
182,192,198522,128,0,198708:0:0:0:0:
109,192,198522,128,0,198569:0:0:0:0:
36,192,198522,128,0,198569:0:0:0:0:
256,192,198522,128,0,198846:0:0:0:0:
109,192,198661,128,0,198708:0:0:0:0:
36,192,198661,128,0,199124:0:0:0:0:
329,192,198661,128,0,198708:0:0:0:0:
475,192,198661,128,0,198708:0:0:0:0:
402,192,198684,128,0,198731:0:0:0:0:
182,192,198800,128,0,198846:0:0:0:0:
109,192,198800,128,0,199124:0:0:0:0:
329,192,198800,128,0,198846:0:0:0:0:
475,192,198800,128,0,198846:0:0:0:0:
402,192,198823,128,0,198870:0:0:0:0:
475,192,198939,1,0,0:0:0:0:
329,192,198939,1,0,0:0:0:0:
256,192,198939,128,0,198985:0:0:0:0:
182,192,198939,128,0,199124:0:0:0:0:
256,192,199078,128,0,199402:0:0:0:0:
475,192,199078,128,0,199124:0:0:0:0:
329,192,199078,128,0,199263:0:0:0:0:
402,192,199078,128,0,199124:0:0:0:0:
402,192,199217,128,0,199263:0:0:0:0:
475,192,199217,128,0,199634:0:0:0:0:
182,192,199217,128,0,199263:0:0:0:0:
36,192,199217,128,0,199263:0:0:0:0:
109,192,199240,128,0,199286:0:0:0:0:
329,192,199356,128,0,199402:0:0:0:0:
402,192,199356,128,0,199634:0:0:0:0:
182,192,199356,128,0,199402:0:0:0:0:
36,192,199356,128,0,199402:0:0:0:0:
109,192,199379,128,0,199425:0:0:0:0:
36,192,199495,1,0,0:0:0:0:
182,192,199495,1,0,0:0:0:0:
329,192,199495,128,0,199634:0:0:0:0:
256,192,199495,128,0,199541:0:0:0:0:
109,192,199634,1,0,0:0:0:0:
36,192,199634,128,0,199842:0:0:0:0:
256,192,199634,1,0,0:0:0:0:
182,192,199634,128,0,199842:0:0:0:0:
475,192,199772,128,0,199842:0:0:0:0:
402,192,199772,1,0,0:0:0:0:
256,192,199772,1,0,0:0:0:0:
329,192,199772,128,0,199842:0:0:0:0:
329,192,199911,1,0,0:0:0:0:
182,192,199911,1,0,0:0:0:0:
475,192,199911,1,0,0:0:0:0:
36,192,199911,1,0,0:0:0:0:
256,192,199981,1,0,0:0:0:0:
402,192,200050,1,0,0:0:0:0:
109,192,200050,1,0,0:0:0:0:
36,192,200050,1,0,0:0:0:0:
475,192,200050,1,0,0:0:0:0:
182,192,200120,1,0,0:0:0:0:
329,192,200120,1,0,0:0:0:0:
256,192,200120,1,0,0:0:0:0:
36,192,200189,1,0,0:0:0:0:
475,192,200189,1,0,0:0:0:0:
402,192,200189,1,0,0:0:0:0:
109,192,200189,1,0,0:0:0:0:
109,192,200328,1,0,0:0:0:0:
402,192,200328,1,0,0:0:0:0:
329,192,200397,1,0,0:0:0:0:
182,192,200397,1,0,0:0:0:0:
475,192,200397,1,0,0:0:0:0:
36,192,200397,1,0,0:0:0:0:
256,192,200397,1,0,0:0:0:0:
475,192,200536,1,0,0:0:0:0:
36,192,200536,1,0,0:0:0:0:
329,192,200606,1,0,0:0:0:0:
402,192,200606,1,0,0:0:0:0:
256,192,200606,1,0,0:0:0:0:
109,192,200606,1,0,0:0:0:0:
182,192,200606,1,0,0:0:0:0:
402,192,200745,5,0,0:0:0:0:
475,192,200745,128,0,200884:0:0:0:0:
329,192,200745,128,0,200884:0:0:0:0:
182,192,200745,1,0,0:0:0:0:
109,192,200779,128,0,200884:0:0:0:0:
256,192,200814,128,0,200953:0:0:0:0:
36,192,200849,128,0,200953:0:0:0:0:
402,192,200884,128,0,201022:0:0:0:0:
182,192,200884,128,0,201022:0:0:0:0:
329,192,200953,128,0,201092:0:0:0:0:
256,192,201022,128,0,201161:0:0:0:0:
475,192,201022,128,0,201161:0:0:0:0:
36,192,201022,1,0,0:0:0:0:
109,192,201022,128,0,201161:0:0:0:0:
402,192,201161,128,0,201231:0:0:0:0:
182,192,201161,1,0,0:0:0:0:
36,192,201161,1,0,0:0:0:0:
36,192,201231,128,0,201300:0:0:0:0:
182,192,201231,128,0,201300:0:0:0:0:
329,192,201231,128,0,201300:0:0:0:0:
402,192,201300,1,0,0:0:0:0:
475,192,201300,128,0,201439:0:0:0:0:
256,192,201300,128,0,201439:0:0:0:0:
109,192,201300,128,0,201439:0:0:0:0:
36,192,201439,128,0,201578:0:0:0:0:
402,192,201439,128,0,201578:0:0:0:0:
329,192,201439,1,0,0:0:0:0:
182,192,201439,128,0,201578:0:0:0:0:
109,192,201578,128,0,201647:0:0:0:0:
475,192,201578,1,0,0:0:0:0:
329,192,201578,1,0,0:0:0:0:
475,192,201647,128,0,201717:0:0:0:0:
329,192,201647,128,0,201717:0:0:0:0:
182,192,201647,128,0,201717:0:0:0:0:
109,192,201717,1,0,0:0:0:0:
36,192,201717,128,0,202087:0:0:0:0:
256,192,201717,128,0,201856:0:0:0:0:
402,192,201717,128,0,201856:0:0:0:0:
329,192,201856,1,0,0:0:0:0:
475,192,201856,128,0,202087:0:0:0:0:
182,192,201856,1,0,0:0:0:0:
109,192,201856,1,0,0:0:0:0:
182,192,201995,128,0,202041:0:0:0:0:
109,192,201995,128,0,202041:0:0:0:0:
329,192,202041,128,0,202087:0:0:0:0:
402,192,202041,128,0,202087:0:0:0:0:
182,192,202087,128,0,202134:0:0:0:0:
109,192,202087,128,0,202134:0:0:0:0:
475,192,202134,128,0,202203:0:0:0:0:
36,192,202134,128,0,202203:0:0:0:0:
402,192,202134,128,0,202203:0:0:0:0:
256,192,202134,128,0,202203:0:0:0:0:
182,192,202203,128,0,202272:0:0:0:0:
329,192,202203,128,0,202272:0:0:0:0:
36,192,202272,128,0,202411:0:0:0:0:
475,192,202272,128,0,202411:0:0:0:0:
109,192,202272,1,0,0:0:0:0:
256,192,202272,128,0,202411:0:0:0:0:
402,192,202411,128,0,202481:0:0:0:0:
109,192,202411,1,0,0:0:0:0:
182,192,202411,1,0,0:0:0:0:
109,192,202481,128,0,202550:0:0:0:0:
182,192,202481,128,0,202550:0:0:0:0:
329,192,202481,128,0,202550:0:0:0:0:
36,192,202550,128,0,202620:0:0:0:0:
402,192,202550,1,0,0:0:0:0:
256,192,202550,128,0,202620:0:0:0:0:
475,192,202550,128,0,202620:0:0:0:0:
109,192,202689,128,0,202759:0:0:0:0:
256,192,202689,128,0,202759:0:0:0:0:
402,192,202689,128,0,202759:0:0:0:0:
182,192,202724,128,0,202793:0:0:0:0:
329,192,202724,128,0,202793:0:0:0:0:
109,192,202828,128,0,202897:0:0:0:0:
256,192,202828,128,0,202897:0:0:0:0:
402,192,202828,128,0,202897:0:0:0:0:
36,192,202863,128,0,202932:0:0:0:0:
475,192,202863,128,0,202932:0:0:0:0:
256,192,202967,128,0,203071:0:0:0:0:
475,192,202967,128,0,203036:0:0:0:0:
182,192,202967,1,0,0:0:0:0:
36,192,202967,128,0,203106:0:0:0:0:
402,192,203002,128,0,203106:0:0:0:0:
109,192,203036,128,0,203175:0:0:0:0:
329,192,203071,128,0,203175:0:0:0:0:
182,192,203106,128,0,203245:0:0:0:0:
256,192,203175,128,0,203245:0:0:0:0:
475,192,203245,128,0,203384:0:0:0:0:
329,192,203245,128,0,203314:0:0:0:0:
36,192,203245,1,0,0:0:0:0:
109,192,203245,1,0,0:0:0:0:
256,192,203314,128,0,203522:0:0:0:0:
402,192,203314,128,0,203384:0:0:0:0:
36,192,203384,128,0,203592:0:0:0:0:
109,192,203384,128,0,203418:0:0:0:0:
182,192,203384,1,0,0:0:0:0:
329,192,203384,128,0,203522:0:0:0:0:
475,192,203453,128,0,203627:0:0:0:0:
402,192,203453,128,0,203627:0:0:0:0:
182,192,203522,128,0,203557:0:0:0:0:
109,192,203522,128,0,203592:0:0:0:0:
329,192,203592,128,0,203731:0:0:0:0:
256,192,203592,1,0,0:0:0:0:
36,192,203661,128,0,203800:0:0:0:0:
402,192,203661,128,0,203731:0:0:0:0:
475,192,203661,1,0,0:0:0:0:
182,192,203661,128,0,203731:0:0:0:0:
109,192,203731,128,0,203800:0:0:0:0:
256,192,203731,128,0,203939:0:0:0:0:
475,192,203800,128,0,204009:0:0:0:0:
402,192,203800,128,0,203835:0:0:0:0:
329,192,203800,1,0,0:0:0:0:
182,192,203800,128,0,203939:0:0:0:0:
36,192,203870,128,0,204043:0:0:0:0:
109,192,203870,128,0,204043:0:0:0:0:
402,192,203939,128,0,204009:0:0:0:0:
329,192,203939,128,0,203974:0:0:0:0:
475,192,204078,1,0,0:0:0:0:
36,192,204078,128,0,204147:0:0:0:0:
182,192,204078,1,0,0:0:0:0:
402,192,204078,128,0,204263:0:0:0:0:
256,192,204078,128,0,204263:0:0:0:0:
109,192,204147,128,0,204263:0:0:0:0:
182,192,204217,128,0,204402:0:0:0:0:
329,192,204217,128,0,204402:0:0:0:0:
402,192,204356,128,0,204402:0:0:0:0:
475,192,204356,128,0,204402:0:0:0:0:
109,192,204356,128,0,204541:0:0:0:0:
36,192,204356,1,0,0:0:0:0:
256,192,204356,128,0,204541:0:0:0:0:
475,192,204495,128,0,204634:0:0:0:0:
402,192,204495,128,0,204634:0:0:0:0:
329,192,204495,128,0,204634:0:0:0:0:
182,192,204495,128,0,204819:0:0:0:0:
36,192,204495,128,0,204819:0:0:0:0:
109,192,204634,128,0,204703:0:0:0:0:
256,192,204634,128,0,204703:0:0:0:0:
475,192,204703,128,0,204772:0:0:0:0:
402,192,204703,128,0,204772:0:0:0:0:
329,192,204703,128,0,204772:0:0:0:0:
109,192,204772,128,0,204958:0:0:0:0:
256,192,204772,128,0,204958:0:0:0:0:
475,192,204842,128,0,204958:0:0:0:0:
402,192,204842,128,0,204958:0:0:0:0:
36,192,204911,128,0,204958:0:0:0:0:
329,192,204911,128,0,205096:0:0:0:0:
182,192,204911,128,0,205096:0:0:0:0:
36,192,205050,128,0,205096:0:0:0:0:
475,192,205050,128,0,205096:0:0:0:0:
109,192,205050,128,0,205096:0:0:0:0:
256,192,205050,128,0,205259:0:0:0:0:
402,192,205050,128,0,205259:0:0:0:0:
475,192,205189,128,0,205397:0:0:0:0:
109,192,205189,128,0,205259:0:0:0:0:
329,192,205189,128,0,205259:0:0:0:0:
182,192,205189,128,0,205259:0:0:0:0:
36,192,205189,128,0,205397:0:0:0:0:
256,192,205328,1,0,0:0:0:0:
329,192,205363,1,0,0:0:0:0:
182,192,205363,1,0,0:0:0:0:
402,192,205397,1,0,0:0:0:0:
109,192,205397,1,0,0:0:0:0:
475,192,205467,1,0,0:0:0:0:
36,192,205467,1,0,0:0:0:0:
109,192,205502,1,0,0:0:0:0:
402,192,205502,1,0,0:0:0:0:
182,192,205536,1,0,0:0:0:0:
329,192,205536,1,0,0:0:0:0:
256,192,205606,1,0,0:0:0:0:
402,192,205640,1,0,0:0:0:0:
109,192,205640,1,0,0:0:0:0:
256,192,205745,1,0,0:0:0:0:
329,192,205745,1,0,0:0:0:0:
182,192,205745,1,0,0:0:0:0:
475,192,205745,1,0,0:0:0:0:
36,192,205745,1,0,0:0:0:0:
475,192,205884,1,0,0:0:0:0:
36,192,205884,1,0,0:0:0:0:
256,192,205884,1,0,0:0:0:0:
402,192,205953,1,0,0:0:0:0:
182,192,205953,1,0,0:0:0:0:
329,192,205953,1,0,0:0:0:0:
109,192,205953,1,0,0:0:0:0:
256,192,206022,1,0,0:0:0:0:
182,192,206092,1,0,0:0:0:0:
329,192,206092,1,0,0:0:0:0:
109,192,206161,1,0,0:0:0:0:
402,192,206161,1,0,0:0:0:0:
475,192,206161,1,0,0:0:0:0:
36,192,206161,1,0,0:0:0:0:
256,192,206161,1,0,0:0:0:0:
182,192,206300,1,0,0:0:0:0:
36,192,206300,1,0,0:0:0:0:
329,192,206300,1,0,0:0:0:0:
475,192,206300,1,0,0:0:0:0:
182,192,206370,1,0,0:0:0:0:
329,192,206370,1,0,0:0:0:0:
36,192,206370,1,0,0:0:0:0:
475,192,206370,1,0,0:0:0:0:
256,192,206439,1,0,0:0:0:0:
182,192,206509,1,0,0:0:0:0:
329,192,206509,1,0,0:0:0:0:
109,192,206509,1,0,0:0:0:0:
402,192,206509,1,0,0:0:0:0:
256,192,206578,1,0,0:0:0:0:
36,192,206647,1,0,0:0:0:0:
182,192,206647,1,0,0:0:0:0:
329,192,206647,1,0,0:0:0:0:
475,192,206647,1,0,0:0:0:0:
182,192,206717,1,0,0:0:0:0:
329,192,206717,1,0,0:0:0:0:
475,192,206717,1,0,0:0:0:0:
36,192,206717,1,0,0:0:0:0:
475,192,206856,128,0,206925:0:0:0:0:
36,192,206856,128,0,206925:0:0:0:0:
329,192,206856,1,0,0:0:0:0:
182,192,206856,1,0,0:0:0:0:
256,192,206856,1,0,0:0:0:0:
109,192,206925,128,0,206995:0:0:0:0:
402,192,206925,128,0,206995:0:0:0:0:
182,192,206995,128,0,207064:0:0:0:0:
329,192,206995,128,0,207064:0:0:0:0:
475,192,207064,128,0,207134:0:0:0:0:
36,192,207064,128,0,207134:0:0:0:0:
109,192,207134,1,0,0:0:0:0:
329,192,207134,1,0,0:0:0:0:
182,192,207168,1,0,0:0:0:0:
256,192,207203,1,0,0:0:0:0:
402,192,207238,1,0,0:0:0:0:
475,192,207272,1,0,0:0:0:0:
329,192,207307,1,0,0:0:0:0:
256,192,207342,1,0,0:0:0:0:
182,192,207377,1,0,0:0:0:0:
36,192,207411,1,0,0:0:0:0:
402,192,207411,128,0,207504:0:0:0:0:
109,192,207411,128,0,207550:0:0:0:0:
329,192,207458,128,0,207550:0:0:0:0:
475,192,207481,128,0,207550:0:0:0:0:
256,192,207504,128,0,207596:0:0:0:0:
182,192,207550,128,0,207643:0:0:0:0:
36,192,207550,128,0,207689:0:0:0:0:
402,192,207550,128,0,207620:0:0:0:0:
329,192,207620,128,0,207689:0:0:0:0:
475,192,207689,1,0,0:0:0:0:
109,192,207689,128,0,207782:0:0:0:0:
402,192,207689,128,0,207828:0:0:0:0:
182,192,207735,128,0,207828:0:0:0:0:
36,192,207759,128,0,207828:0:0:0:0:
256,192,207782,128,0,207874:0:0:0:0:
329,192,207828,128,0,207921:0:0:0:0:
109,192,207828,128,0,207897:0:0:0:0:
475,192,207828,128,0,208106:0:0:0:0:
182,192,207897,128,0,207967:0:0:0:0:
402,192,207967,1,0,0:0:0:0:
256,192,207967,128,0,208059:0:0:0:0:
36,192,207967,1,0,0:0:0:0:
182,192,208013,128,0,208106:0:0:0:0:
329,192,208036,128,0,208106:0:0:0:0:
109,192,208059,128,0,208152:0:0:0:0:
36,192,208106,128,0,208198:0:0:0:0:
402,192,208106,128,0,208245:0:0:0:0:
256,192,208106,128,0,208175:0:0:0:0:
182,192,208175,128,0,208245:0:0:0:0:
256,192,208245,128,0,208337:0:0:0:0:
475,192,208245,1,0,0:0:0:0:
109,192,208245,128,0,208314:0:0:0:0:
329,192,208291,128,0,208384:0:0:0:0:
182,192,208314,128,0,208384:0:0:0:0:
402,192,208337,128,0,208430:0:0:0:0:
475,192,208384,128,0,208476:0:0:0:0:
109,192,208384,128,0,208522:0:0:0:0:
256,192,208384,128,0,208453:0:0:0:0:
329,192,208453,128,0,208522:0:0:0:0:
36,192,208522,128,0,208661:0:0:0:0:
475,192,208522,128,0,208592:0:0:0:0:
256,192,208522,128,0,208592:0:0:0:0:
402,192,208522,128,0,208661:0:0:0:0:
182,192,208592,128,0,208661:0:0:0:0:
329,192,208592,128,0,208731:0:0:0:0:
109,192,208661,128,0,208731:0:0:0:0:
256,192,208661,128,0,208731:0:0:0:0:
475,192,208731,1,0,0:0:0:0:
36,192,208731,1,0,0:0:0:0:
402,192,208731,128,0,208870:0:0:0:0:
109,192,208800,128,0,208870:0:0:0:0:
182,192,208800,128,0,208939:0:0:0:0:
329,192,208800,128,0,208939:0:0:0:0:
256,192,208870,128,0,209009:0:0:0:0:
36,192,208939,128,0,209009:0:0:0:0:
475,192,208939,128,0,209009:0:0:0:0:
109,192,208939,128,0,209009:0:0:0:0:
402,192,208939,128,0,209009:0:0:0:0:
475,192,209078,1,0,0:0:0:0:
402,192,209078,1,0,0:0:0:0:
36,192,209078,128,0,209130:0:0:0:0:
256,192,209078,128,0,209182:0:0:0:0:
109,192,209095,128,0,209147:0:0:0:0:
182,192,209113,128,0,209165:0:0:0:0:
36,192,209217,1,0,0:0:0:0:
109,192,209217,1,0,0:0:0:0:
475,192,209217,128,0,209269:0:0:0:0:
256,192,209217,128,0,209321:0:0:0:0:
402,192,209234,128,0,209286:0:0:0:0:
329,192,209252,128,0,209304:0:0:0:0:
109,192,209356,1,0,0:0:0:0:
182,192,209390,1,0,0:0:0:0:
402,192,209425,1,0,0:0:0:0:
329,192,209460,1,0,0:0:0:0:
182,192,209495,1,0,0:0:0:0:
329,192,209564,1,0,0:0:0:0:
475,192,209634,128,0,209668:0:0:0:0:
36,192,209634,128,0,209668:0:0:0:0:
256,192,209634,128,0,209703:0:0:0:0:
402,192,209634,128,0,209807:0:0:0:0:
109,192,209634,128,0,209807:0:0:0:0:
36,192,209772,128,0,209807:0:0:0:0:
256,192,209772,128,0,209842:0:0:0:0:
182,192,209772,128,0,209946:0:0:0:0:
475,192,209772,128,0,209807:0:0:0:0:
329,192,209772,128,0,209946:0:0:0:0:
475,192,209911,128,0,209946:0:0:0:0:
36,192,209911,128,0,209946:0:0:0:0:
402,192,209911,128,0,209946:0:0:0:0:
109,192,209911,128,0,209946:0:0:0:0:
329,192,209981,1,0,0:0:0:0:
256,192,209981,1,0,0:0:0:0:
182,192,209981,1,0,0:0:0:0:
109,192,210050,1,0,0:0:0:0:
36,192,210050,1,0,0:0:0:0:
402,192,210050,1,0,0:0:0:0:
475,192,210050,1,0,0:0:0:0:
182,192,210120,1,0,0:0:0:0:
256,192,210120,1,0,0:0:0:0:
329,192,210120,1,0,0:0:0:0:
329,192,210189,128,0,210328:0:0:0:0:
109,192,210189,128,0,210259:0:0:0:0:
256,192,210189,128,0,210259:0:0:0:0:
36,192,210189,128,0,210328:0:0:0:0:
182,192,210224,128,0,210259:0:0:0:0:
475,192,210224,128,0,210293:0:0:0:0:
402,192,210224,128,0,210293:0:0:0:0:
109,192,210328,128,0,210363:0:0:0:0:
256,192,210328,128,0,210397:0:0:0:0:
402,192,210397,128,0,210467:0:0:0:0:
182,192,210397,128,0,210536:0:0:0:0:
475,192,210397,128,0,210536:0:0:0:0:
329,192,210432,128,0,210467:0:0:0:0:
109,192,210432,128,0,210502:0:0:0:0:
36,192,210432,128,0,210502:0:0:0:0:
402,192,210536,128,0,210571:0:0:0:0:
256,192,210536,128,0,210606:0:0:0:0:
109,192,210606,128,0,210675:0:0:0:0:
36,192,210606,128,0,210745:0:0:0:0:
329,192,210606,128,0,210745:0:0:0:0:
402,192,210640,128,0,210710:0:0:0:0:
182,192,210640,128,0,210675:0:0:0:0:
475,192,210640,128,0,210710:0:0:0:0:
256,192,210745,128,0,210779:0:0:0:0:
109,192,210745,128,0,210779:0:0:0:0:
182,192,210745,128,0,210779:0:0:0:0:
329,192,210814,1,0,0:0:0:0:
475,192,210814,128,0,210953:0:0:0:0:
402,192,210814,128,0,210953:0:0:0:0:
36,192,210884,128,0,211092:0:0:0:0:
256,192,210884,128,0,211022:0:0:0:0:
182,192,210884,1,0,0:0:0:0:
109,192,210884,128,0,211092:0:0:0:0:
402,192,211022,128,0,211092:0:0:0:0:
182,192,211022,128,0,211161:0:0:0:0:
329,192,211022,128,0,211092:0:0:0:0:
475,192,211022,128,0,211092:0:0:0:0:
402,192,211161,128,0,211196:0:0:0:0:
256,192,211161,128,0,211196:0:0:0:0:
329,192,211161,128,0,211196:0:0:0:0:
36,192,211231,128,0,211370:0:0:0:0:
109,192,211231,128,0,211370:0:0:0:0:
182,192,211231,1,0,0:0:0:0:
475,192,211300,128,0,211509:0:0:0:0:
256,192,211300,128,0,211439:0:0:0:0:
329,192,211300,1,0,0:0:0:0:
402,192,211300,128,0,211509:0:0:0:0:
36,192,211439,128,0,211509:0:0:0:0:
329,192,211439,128,0,211578:0:0:0:0:
182,192,211439,128,0,211509:0:0:0:0:
109,192,211439,128,0,211509:0:0:0:0:
402,192,211578,1,0,0:0:0:0:
475,192,211578,1,0,0:0:0:0:
36,192,211578,128,0,211613:0:0:0:0:
109,192,211595,128,0,211647:0:0:0:0:
182,192,211613,128,0,211682:0:0:0:0:
256,192,211630,128,0,211717:0:0:0:0:
109,192,211717,1,0,0:0:0:0:
36,192,211717,1,0,0:0:0:0:
475,192,211717,128,0,211752:0:0:0:0:
402,192,211734,128,0,211786:0:0:0:0:
329,192,211752,128,0,211821:0:0:0:0:
256,192,211769,128,0,211856:0:0:0:0:
109,192,211856,128,0,211960:0:0:0:0:
36,192,211856,128,0,212099:0:0:0:0:
182,192,211856,128,0,211960:0:0:0:0:
402,192,211856,128,0,211960:0:0:0:0:
475,192,211856,128,0,211960:0:0:0:0:
475,192,211995,128,0,212099:0:0:0:0:
402,192,211995,128,0,212099:0:0:0:0:
182,192,211995,128,0,212099:0:0:0:0:
109,192,211995,128,0,212099:0:0:0:0:
109,192,212134,128,0,212238:0:0:0:0:
36,192,212134,128,0,212238:0:0:0:0:
182,192,212134,128,0,212377:0:0:0:0:
475,192,212134,128,0,212238:0:0:0:0:
329,192,212134,128,0,212238:0:0:0:0:
109,192,212272,128,0,212377:0:0:0:0:
36,192,212272,128,0,212377:0:0:0:0:
475,192,212272,128,0,212377:0:0:0:0:
329,192,212272,128,0,212377:0:0:0:0:
109,192,212411,128,0,212515:0:0:0:0:
36,192,212411,128,0,212515:0:0:0:0:
402,192,212411,128,0,212515:0:0:0:0:
475,192,212411,128,0,212654:0:0:0:0:
329,192,212446,1,0,0:0:0:0:
256,192,212481,1,0,0:0:0:0:
182,192,212515,1,0,0:0:0:0:
109,192,212550,128,0,212654:0:0:0:0:
36,192,212550,128,0,212654:0:0:0:0:
329,192,212550,128,0,212654:0:0:0:0:
402,192,212550,128,0,212654:0:0:0:0:
36,192,212689,128,0,212793:0:0:0:0:
402,192,212689,128,0,212793:0:0:0:0:
182,192,212689,128,0,212793:0:0:0:0:
329,192,212689,128,0,212932:0:0:0:0:
475,192,212689,128,0,212793:0:0:0:0:
475,192,212828,128,0,212932:0:0:0:0:
36,192,212828,128,0,212932:0:0:0:0:
402,192,212828,128,0,212932:0:0:0:0:
182,192,212828,128,0,212932:0:0:0:0:
475,192,212967,5,0,0:0:0:0:
402,192,212967,128,0,213522:0:0:0:0:
109,192,212967,1,0,0:0:0:0:
36,192,212967,1,0,0:0:0:0:
329,192,212967,1,0,0:0:0:0:
256,192,212967,1,0,0:0:0:0:
329,192,213522,128,0,214078:0:0:0:0:
36,192,213800,1,0,0:0:0:0:
109,192,213800,1,0,0:0:0:0:
182,192,213800,1,0,0:0:0:0:
36,192,214078,5,0,0:0:0:0:
182,192,214078,1,0,0:0:0:0:
402,192,214078,1,0,0:0:0:0:
256,192,214078,128,0,220745:0:0:0:0:
109,192,214078,1,0,0:0:0:0:
475,192,214078,1,0,0:0:0:0:
36,192,216022,128,0,217134:0:0:0:0:
109,192,216161,128,0,216300:0:0:0:0:
182,192,216300,128,0,217967:0:0:0:0:
475,192,216300,1,0,0:0:0:0:
329,192,217134,128,0,217967:0:0:0:0:
475,192,217967,128,0,218384:0:0:0:0:
402,192,218245,128,0,218453:0:0:0:0:
329,192,218384,128,0,218522:0:0:0:0:
182,192,218453,128,0,218592:0:0:0:0:
109,192,218522,128,0,220652:0:0:0:0:
36,192,218522,1,0,0:0:0:0:
402,192,219356,128,0,220837:0:0:0:0:
36,192,220467,128,0,220606:0:0:0:0:
182,192,220559,128,0,220698:0:0:0:0:
329,192,220652,128,0,220791:0:0:0:0:
36,192,220745,128,0,222272:0:0:0:0:
475,192,220745,128,0,221717:0:0:0:0:
109,192,220745,1,0,0:0:0:0:
182,192,220884,1,0,0:0:0:0:
256,192,221022,1,0,0:0:0:0:
402,192,221161,1,0,0:0:0:0:
109,192,221300,1,0,0:0:0:0:
182,192,221439,1,0,0:0:0:0:
329,192,221578,128,0,222967:0:0:0:0:
256,192,221578,1,0,0:0:0:0:
402,192,221717,1,0,0:0:0:0:
475,192,221856,128,0,222967:0:0:0:0:
109,192,221856,1,0,0:0:0:0:
182,192,221995,1,0,0:0:0:0:
256,192,222134,1,0,0:0:0:0:
109,192,222226,1,0,0:0:0:0:
182,192,222272,128,0,222550:0:0:0:0:
402,192,222272,1,0,0:0:0:0:
36,192,222411,1,0,0:0:0:0:
256,192,222550,128,0,222689:0:0:0:0:
402,192,222550,1,0,0:0:0:0:
109,192,222689,128,0,222828:0:0:0:0:
36,192,222689,1,0,0:0:0:0:
182,192,222828,128,0,222967:0:0:0:0:
402,192,222828,1,0,0:0:0:0:
402,192,222967,128,0,223522:0:0:0:0:
256,192,222967,128,0,231856:0:0:0:0:
36,192,222967,128,0,223522:0:0:0:0:
109,192,222967,1,0,0:0:0:0:
109,192,223106,1,0,0:0:0:0:
109,192,223245,1,0,0:0:0:0:
109,192,223384,1,0,0:0:0:0:
329,192,223522,1,0,0:0:0:0:
182,192,223522,128,0,224078:0:0:0:0:
475,192,223522,128,0,224078:0:0:0:0:
329,192,223661,1,0,0:0:0:0:
329,192,223800,1,0,0:0:0:0:
329,192,223939,1,0,0:0:0:0:
36,192,224078,1,0,0:0:0:0:
109,192,224078,128,0,224911:0:0:0:0:
402,192,224078,128,0,224911:0:0:0:0:
36,192,224217,1,0,0:0:0:0:
36,192,224356,1,0,0:0:0:0:
36,192,224495,1,0,0:0:0:0:
36,192,224634,1,0,0:0:0:0:
36,192,224772,1,0,0:0:0:0:
475,192,224911,1,0,0:0:0:0:
36,192,224911,128,0,225050:0:0:0:0:
329,192,224911,128,0,225050:0:0:0:0:
182,192,224911,1,0,0:0:0:0:
109,192,225050,1,0,0:0:0:0:
475,192,225050,128,0,225189:0:0:0:0:
182,192,225050,128,0,225189:0:0:0:0:
402,192,225050,1,0,0:0:0:0:
329,192,225189,1,0,0:0:0:0:
402,192,225189,128,0,226022:0:0:0:0:
109,192,225189,128,0,226022:0:0:0:0:
36,192,225189,1,0,0:0:0:0:
329,192,225328,1,0,0:0:0:0:
329,192,225467,1,0,0:0:0:0:
329,192,225606,1,0,0:0:0:0:
329,192,225745,1,0,0:0:0:0:
329,192,225884,1,0,0:0:0:0:
36,192,226022,1,0,0:0:0:0:
182,192,226022,128,0,226161:0:0:0:0:
329,192,226022,128,0,226161:0:0:0:0:
475,192,226022,1,0,0:0:0:0:
402,192,226161,1,0,0:0:0:0:
475,192,226161,128,0,226995:0:0:0:0:
36,192,226161,128,0,226995:0:0:0:0:
109,192,226161,1,0,0:0:0:0:
182,192,226300,1,0,0:0:0:0:
182,192,226439,1,0,0:0:0:0:
182,192,226578,1,0,0:0:0:0:
182,192,226717,1,0,0:0:0:0:
182,192,226856,1,0,0:0:0:0:
182,192,226995,1,0,0:0:0:0:
109,192,226995,128,0,227134:0:0:0:0:
329,192,226995,128,0,227134:0:0:0:0:
402,192,226995,1,0,0:0:0:0:
475,192,227134,1,0,0:0:0:0:
402,192,227134,128,0,227272:0:0:0:0:
182,192,227134,128,0,227272:0:0:0:0:
36,192,227134,1,0,0:0:0:0:
329,192,227272,128,0,227411:0:0:0:0:
475,192,227272,128,0,227411:0:0:0:0:
109,192,227272,1,0,0:0:0:0:
402,192,227411,1,0,0:0:0:0:
36,192,227411,128,0,228522:0:0:0:0:
182,192,227411,128,0,228453:0:0:0:0:
109,192,227411,1,0,0:0:0:0:
402,192,227550,1,0,0:0:0:0:
402,192,227689,1,0,0:0:0:0:
402,192,227828,1,0,0:0:0:0:
402,192,227967,1,0,0:0:0:0:
402,192,228106,1,0,0:0:0:0:
402,192,228245,1,0,0:0:0:0:
402,192,228384,1,0,0:0:0:0:
475,192,228522,1,0,0:0:0:0:
182,192,228522,128,0,229356:0:0:0:0:
36,192,228592,128,0,228939:0:0:0:0:
475,192,228661,1,0,0:0:0:0:
475,192,228800,1,0,0:0:0:0:
109,192,228939,1,0,0:0:0:0:
329,192,228939,128,0,229252:0:0:0:0:
109,192,229078,1,0,0:0:0:0:
109,192,229217,1,0,0:0:0:0:
329,192,229321,128,0,229634:0:0:0:0:
36,192,229356,1,0,0:0:0:0:
475,192,229356,128,0,230467:0:0:0:0:
36,192,229495,1,0,0:0:0:0:
402,192,229634,1,0,0:0:0:0:
36,192,229634,128,0,230467:0:0:0:0:
402,192,229772,1,0,0:0:0:0:
402,192,229911,1,0,0:0:0:0:
402,192,230050,1,0,0:0:0:0:
402,192,230189,1,0,0:0:0:0:
402,192,230328,1,0,0:0:0:0:
182,192,230467,128,0,230606:0:0:0:0:
329,192,230467,128,0,230606:0:0:0:0:
36,192,230606,128,0,231439:0:0:0:0:
109,192,230606,1,0,0:0:0:0:
475,192,230606,128,0,231439:0:0:0:0:
402,192,230710,1,0,0:0:0:0:
109,192,230745,1,0,0:0:0:0:
329,192,230745,1,0,0:0:0:0:
109,192,230884,1,0,0:0:0:0:
402,192,230884,1,0,0:0:0:0:
109,192,231022,1,0,0:0:0:0:
109,192,231161,1,0,0:0:0:0:
109,192,231300,1,0,0:0:0:0:
329,192,231439,128,0,231578:0:0:0:0:
402,192,231439,1,0,0:0:0:0:
182,192,231439,1,0,0:0:0:0:
475,192,231578,1,0,0:0:0:0:
182,192,231578,128,0,231717:0:0:0:0:
109,192,231578,1,0,0:0:0:0:
329,192,231717,1,0,0:0:0:0:
109,192,231717,128,0,231856:0:0:0:0:
402,192,231717,128,0,231856:0:0:0:0:
36,192,231717,1,0,0:0:0:0:
182,192,231856,1,0,0:0:0:0:
329,192,231856,1,0,0:0:0:0:
36,192,231856,128,0,232342:0:0:0:0:
475,192,231856,1,0,0:0:0:0:
182,192,231995,1,0,0:0:0:0:
402,192,231995,1,0,0:0:0:0:
182,192,232134,1,0,0:0:0:0:
329,192,232134,1,0,0:0:0:0:
109,192,232134,1,0,0:0:0:0:
475,192,232134,1,0,0:0:0:0:
182,192,232272,1,0,0:0:0:0:
256,192,232272,1,0,0:0:0:0:
329,192,232411,1,0,0:0:0:0:
36,192,232411,1,0,0:0:0:0:
475,192,232411,128,0,232897:0:0:0:0:
329,192,232550,1,0,0:0:0:0:
109,192,232550,1,0,0:0:0:0:
256,192,232550,1,0,0:0:0:0:
182,192,232689,1,0,0:0:0:0:
329,192,232689,1,0,0:0:0:0:
329,192,232828,1,0,0:0:0:0:
256,192,232828,1,0,0:0:0:0:
475,192,232967,1,0,0:0:0:0:
36,192,232967,1,0,0:0:0:0:
256,192,232967,128,0,233522:0:0:0:0:
182,192,232967,1,0,0:0:0:0:
402,192,232967,1,0,0:0:0:0:
402,192,233106,1,0,0:0:0:0:
36,192,233106,1,0,0:0:0:0:
329,192,233245,1,0,0:0:0:0:
36,192,233245,1,0,0:0:0:0:
182,192,233384,1,0,0:0:0:0:
36,192,233384,1,0,0:0:0:0:
109,192,233522,1,0,0:0:0:0:
402,192,233522,1,0,0:0:0:0:
36,192,233522,128,0,233731:0:0:0:0:
182,192,233661,1,0,0:0:0:0:
402,192,233661,1,0,0:0:0:0:
475,192,233731,128,0,233939:0:0:0:0:
329,192,233800,1,0,0:0:0:0:
109,192,233800,1,0,0:0:0:0:
402,192,233939,1,0,0:0:0:0:
109,192,233939,1,0,0:0:0:0:
256,192,233939,128,0,234078:0:0:0:0:
475,192,234078,1,0,0:0:0:0:
36,192,234078,1,0,0:0:0:0:
402,192,234078,128,0,234911:0:0:0:0:
182,192,234078,1,0,0:0:0:0:
329,192,234078,1,0,0:0:0:0:
475,192,234217,1,0,0:0:0:0:
109,192,234217,1,0,0:0:0:0:
475,192,234356,1,0,0:0:0:0:
182,192,234356,1,0,0:0:0:0:
329,192,234356,1,0,0:0:0:0:
36,192,234356,1,0,0:0:0:0:
475,192,234495,1,0,0:0:0:0:
256,192,234495,1,0,0:0:0:0:
475,192,234634,1,0,0:0:0:0:
329,192,234634,1,0,0:0:0:0:
36,192,234772,1,0,0:0:0:0:
475,192,234772,1,0,0:0:0:0:
182,192,234911,1,0,0:0:0:0:
329,192,234911,1,0,0:0:0:0:
256,192,234911,128,0,235050:0:0:0:0:
36,192,235050,1,0,0:0:0:0:
475,192,235050,1,0,0:0:0:0:
109,192,235050,128,0,235884:0:0:0:0:
329,192,235096,1,0,0:0:0:0:
475,192,235143,1,0,0:0:0:0:
36,192,235189,1,0,0:0:0:0:
402,192,235189,1,0,0:0:0:0:
256,192,235189,1,0,0:0:0:0:
182,192,235189,1,0,0:0:0:0:
36,192,235328,1,0,0:0:0:0:
329,192,235328,1,0,0:0:0:0:
36,192,235467,1,0,0:0:0:0:
256,192,235467,1,0,0:0:0:0:
36,192,235606,1,0,0:0:0:0:
182,192,235606,1,0,0:0:0:0:
329,192,235745,1,0,0:0:0:0:
36,192,235745,1,0,0:0:0:0:
402,192,235884,1,0,0:0:0:0:
256,192,235884,1,0,0:0:0:0:
182,192,235884,128,0,236022:0:0:0:0:
475,192,236022,1,0,0:0:0:0:
329,192,236022,1,0,0:0:0:0:
256,192,236022,128,0,236161:0:0:0:0:
36,192,236022,1,0,0:0:0:0:
109,192,236161,1,0,0:0:0:0:
402,192,236161,1,0,0:0:0:0:
329,192,236161,128,0,236300:0:0:0:0:
182,192,236300,1,0,0:0:0:0:
36,192,236300,1,0,0:0:0:0:
402,192,236300,128,0,236995:0:0:0:0:
475,192,236300,1,0,0:0:0:0:
256,192,236300,1,0,0:0:0:0:
109,192,236439,1,0,0:0:0:0:
182,192,236439,1,0,0:0:0:0:
256,192,236578,1,0,0:0:0:0:
182,192,236578,1,0,0:0:0:0:
36,192,236578,1,0,0:0:0:0:
329,192,236717,1,0,0:0:0:0:
182,192,236717,1,0,0:0:0:0:
475,192,236856,1,0,0:0:0:0:
182,192,236856,1,0,0:0:0:0:
109,192,236995,1,0,0:0:0:0:
256,192,236995,1,0,0:0:0:0:
329,192,236995,128,0,237134:0:0:0:0:
36,192,237134,1,0,0:0:0:0:
182,192,237134,1,0,0:0:0:0:
256,192,237134,128,0,237272:0:0:0:0:
475,192,237134,1,0,0:0:0:0:
402,192,237272,1,0,0:0:0:0:
109,192,237272,1,0,0:0:0:0:
182,192,237272,128,0,237411:0:0:0:0:
329,192,237411,1,0,0:0:0:0:
475,192,237411,1,0,0:0:0:0:
109,192,237411,128,0,238106:0:0:0:0:
36,192,237411,1,0,0:0:0:0:
256,192,237411,1,0,0:0:0:0:
402,192,237550,1,0,0:0:0:0:
329,192,237550,1,0,0:0:0:0:
256,192,237689,1,0,0:0:0:0:
329,192,237689,1,0,0:0:0:0:
475,192,237689,1,0,0:0:0:0:
182,192,237828,1,0,0:0:0:0:
329,192,237828,1,0,0:0:0:0:
36,192,237967,1,0,0:0:0:0:
329,192,237967,1,0,0:0:0:0:
475,192,237967,1,0,0:0:0:0:
182,192,238106,1,0,0:0:0:0:
36,192,238106,128,0,238245:0:0:0:0:
256,192,238106,1,0,0:0:0:0:
402,192,238106,1,0,0:0:0:0:
402,192,238245,1,0,0:0:0:0:
329,192,238245,1,0,0:0:0:0:
182,192,238245,128,0,238384:0:0:0:0:
475,192,238245,1,0,0:0:0:0:
109,192,238384,1,0,0:0:0:0:
475,192,238384,1,0,0:0:0:0:
329,192,238384,128,0,238522:0:0:0:0:
36,192,238384,1,0,0:0:0:0:
109,192,238522,1,0,0:0:0:0:
36,192,238522,128,0,240120:0:0:0:0:
256,192,238522,1,0,0:0:0:0:
402,192,238569,1,0,0:0:0:0:
256,192,238615,1,0,0:0:0:0:
475,192,238661,128,0,240120:0:0:0:0:
329,192,238661,1,0,0:0:0:0:
329,192,238800,1,0,0:0:0:0:
182,192,238800,1,0,0:0:0:0:
256,192,238939,1,0,0:0:0:0:
109,192,239078,1,0,0:0:0:0:
402,192,239078,1,0,0:0:0:0:
256,192,239147,1,0,0:0:0:0:
109,192,239217,1,0,0:0:0:0:
402,192,239217,1,0,0:0:0:0:
256,192,239356,1,0,0:0:0:0:
182,192,239356,1,0,0:0:0:0:
329,192,239356,1,0,0:0:0:0:
329,192,239495,1,0,0:0:0:0:
182,192,239495,1,0,0:0:0:0:
402,192,239564,5,0,0:0:0:0:
109,192,239634,1,0,0:0:0:0:
256,192,239634,1,0,0:0:0:0:
329,192,239634,1,0,0:0:0:0:
182,192,239772,1,0,0:0:0:0:
329,192,239772,1,0,0:0:0:0:
109,192,239842,1,0,0:0:0:0:
402,192,239911,1,0,0:0:0:0:
256,192,239911,1,0,0:0:0:0:
182,192,239911,1,0,0:0:0:0:
109,192,240050,1,0,0:0:0:0:
402,192,240050,1,0,0:0:0:0:
329,192,240050,1,0,0:0:0:0:
182,192,240050,1,0,0:0:0:0:
256,192,240120,1,0,0:0:0:0:
329,192,240189,1,0,0:0:0:0:
475,192,240189,1,0,0:0:0:0:
182,192,240189,1,0,0:0:0:0:
36,192,240189,1,0,0:0:0:0:
109,192,240189,1,0,0:0:0:0:
402,192,240189,1,0,0:0:0:0:
109,192,240328,1,0,0:0:0:0:
182,192,240328,1,0,0:0:0:0:
329,192,240328,1,0,0:0:0:0:
402,192,240328,1,0,0:0:0:0:
256,192,240328,1,0,0:0:0:0:
475,192,240467,1,0,0:0:0:0:
36,192,240467,1,0,0:0:0:0:
329,192,240467,1,0,0:0:0:0:
182,192,240467,1,0,0:0:0:0:
402,192,240606,1,0,0:0:0:0:
475,192,240606,1,0,0:0:0:0:
109,192,240606,1,0,0:0:0:0:
36,192,240606,1,0,0:0:0:0:
36,192,240745,5,0,0:0:0:0:
402,192,240745,1,0,0:0:0:0:
109,192,240745,1,0,0:0:0:0:
256,192,240745,1,0,0:0:0:0:
475,192,240745,1,0,0:0:0:0:
329,192,240745,1,0,0:0:0:0:
182,192,240745,1,0,0:0:0:0:
36,192,240884,1,0,0:0:0:0:
402,192,240884,1,0,0:0:0:0:
256,192,240884,1,0,0:0:0:0:
109,192,240884,1,0,0:0:0:0:
182,192,240884,1,0,0:0:0:0:
329,192,240884,1,0,0:0:0:0:
475,192,240884,1,0,0:0:0:0:
256,192,241022,128,0,241161:0:0:0:0:
36,192,241022,128,0,241231:0:0:0:0:
329,192,241092,128,0,241231:0:0:0:0:
109,192,241092,128,0,241370:0:0:0:0:
402,192,241161,128,0,241370:0:0:0:0:
182,192,241161,128,0,241231:0:0:0:0:
475,192,241231,128,0,241509:0:0:0:0:
256,192,241231,128,0,241370:0:0:0:0:
36,192,241300,128,0,242203:0:0:0:0:
329,192,241300,128,0,241509:0:0:0:0:
182,192,241300,128,0,241509:0:0:0:0:
402,192,241439,128,0,241647:0:0:0:0:
109,192,241439,128,0,241647:0:0:0:0:
256,192,241439,128,0,241647:0:0:0:0:
475,192,241578,128,0,241925:0:0:0:0:
182,192,241578,128,0,242064:0:0:0:0:
329,192,241578,128,0,242064:0:0:0:0:
402,192,241717,128,0,241925:0:0:0:0:
256,192,241717,128,0,241925:0:0:0:0:
109,192,241717,128,0,242203:0:0:0:0:
402,192,241995,128,0,242411:0:0:0:0:
256,192,241995,128,0,242064:0:0:0:0:
475,192,241995,128,0,242481:0:0:0:0:
329,192,242134,128,0,242342:0:0:0:0:
256,192,242134,128,0,242203:0:0:0:0:
182,192,242134,128,0,242342:0:0:0:0:
109,192,242272,128,0,242411:0:0:0:0:
36,192,242272,128,0,242481:0:0:0:0:
256,192,242272,128,0,242689:0:0:0:0:
182,192,242411,128,0,242550:0:0:0:0:
329,192,242411,128,0,242550:0:0:0:0:
402,192,242481,128,0,242689:0:0:0:0:
109,192,242481,128,0,242689:0:0:0:0:
36,192,242550,128,0,242828:0:0:0:0:
475,192,242550,128,0,242828:0:0:0:0:
329,192,242689,128,0,242828:0:0:0:0:
182,192,242689,128,0,242828:0:0:0:0:
402,192,242828,128,0,242897:0:0:0:0:
109,192,242828,128,0,242897:0:0:0:0:
329,192,242967,1,0,0:0:0:0:
109,192,242967,1,0,0:0:0:0:
402,192,242967,1,0,0:0:0:0:
182,192,242967,1,0,0:0:0:0:
256,192,242967,1,0,0:0:0:0:
475,192,242967,1,0,0:0:0:0:
36,192,242967,1,0,0:0:0:0:
109,192,243106,1,0,0:0:0:0:
329,192,243106,1,0,0:0:0:0:
402,192,243106,1,0,0:0:0:0:
182,192,243106,1,0,0:0:0:0:
256,192,243106,1,0,0:0:0:0:
475,192,243106,1,0,0:0:0:0:
36,192,243106,1,0,0:0:0:0:
329,192,243245,128,0,243384:0:0:0:0:
109,192,243245,128,0,243384:0:0:0:0:
402,192,243314,128,0,243453:0:0:0:0:
182,192,243314,128,0,243453:0:0:0:0:
36,192,243384,128,0,243870:0:0:0:0:
475,192,243384,128,0,243453:0:0:0:0:
256,192,243384,128,0,243731:0:0:0:0:
329,192,243453,128,0,243592:0:0:0:0:
109,192,243453,128,0,243592:0:0:0:0:
475,192,243522,128,0,243731:0:0:0:0:
402,192,243522,128,0,243592:0:0:0:0:
182,192,243522,128,0,243731:0:0:0:0:
109,192,243661,128,0,244147:0:0:0:0:
402,192,243661,128,0,244147:0:0:0:0:
329,192,243661,128,0,243870:0:0:0:0:
475,192,243800,128,0,244610:0:0:0:0:
182,192,243800,128,0,244147:0:0:0:0:
256,192,243800,128,0,243870:0:0:0:0:
256,192,243939,128,0,244425:0:0:0:0:
36,192,243939,128,0,244286:0:0:0:0:
329,192,243939,128,0,244286:0:0:0:0:
402,192,244217,128,0,244703:0:0:0:0:
182,192,244217,128,0,244425:0:0:0:0:
109,192,244217,128,0,244286:0:0:0:0:
329,192,244356,128,0,244425:0:0:0:0:
36,192,244356,128,0,244564:0:0:0:0:
109,192,244356,128,0,244703:0:0:0:0:
329,192,244495,128,0,244610:0:0:0:0:
256,192,244495,128,0,244657:0:0:0:0:
182,192,244495,128,0,244564:0:0:0:0:
182,192,244634,128,0,244772:0:0:0:0:
36,192,244634,128,0,244842:0:0:0:0:
475,192,244680,128,0,244842:0:0:0:0:
329,192,244680,128,0,244772:0:0:0:0:
256,192,244726,128,0,244842:0:0:0:0:
109,192,244772,128,0,244842:0:0:0:0:
402,192,244772,128,0,244842:0:0:0:0:
329,192,244842,128,0,244911:0:0:0:0:
182,192,244842,128,0,244911:0:0:0:0:
475,192,244911,128,0,245050:0:0:0:0:
36,192,244911,128,0,245050:0:0:0:0:
256,192,244911,128,0,244981:0:0:0:0:
109,192,244911,1,0,0:0:0:0:
402,192,244911,1,0,0:0:0:0:
329,192,244981,128,0,245050:0:0:0:0:
182,192,244981,128,0,245050:0:0:0:0:
402,192,245050,128,0,245120:0:0:0:0:
109,192,245050,128,0,245120:0:0:0:0:
475,192,245120,128,0,245189:0:0:0:0:
36,192,245120,128,0,245189:0:0:0:0:
182,192,245189,1,0,0:0:0:0:
329,192,245189,1,0,0:0:0:0:
109,192,245189,1,0,0:0:0:0:
402,192,245189,1,0,0:0:0:0:
256,192,245189,1,0,0:0:0:0:
329,192,245328,1,0,0:0:0:0:
36,192,245328,1,0,0:0:0:0:
475,192,245328,1,0,0:0:0:0:
182,192,245328,1,0,0:0:0:0:
256,192,245328,1,0,0:0:0:0:
402,192,245328,1,0,0:0:0:0:
109,192,245328,1,0,0:0:0:0:
329,192,245467,128,0,245606:0:0:0:0:
182,192,245467,128,0,245606:0:0:0:0:
402,192,245536,128,0,245675:0:0:0:0:
109,192,245536,128,0,245675:0:0:0:0:
475,192,245606,128,0,245953:0:0:0:0:
256,192,245606,128,0,245675:0:0:0:0:
36,192,245606,128,0,245814:0:0:0:0:
329,192,245675,128,0,245814:0:0:0:0:
182,192,245675,128,0,245953:0:0:0:0:
402,192,245745,128,0,245953:0:0:0:0:
256,192,245745,128,0,246092:0:0:0:0:
109,192,245745,128,0,245814:0:0:0:0:
329,192,245884,128,0,246231:0:0:0:0:
109,192,245884,128,0,246092:0:0:0:0:
36,192,245884,128,0,246231:0:0:0:0:
475,192,246022,128,0,246231:0:0:0:0:
402,192,246022,128,0,246092:0:0:0:0:
182,192,246022,128,0,246231:0:0:0:0:
109,192,246161,128,0,246509:0:0:0:0:
256,192,246161,128,0,246370:0:0:0:0:
402,192,246161,128,0,246509:0:0:0:0:
329,192,246300,1,0,0:0:0:0:
475,192,246300,1,0,0:0:0:0:
36,192,246300,1,0,0:0:0:0:
182,192,246300,1,0,0:0:0:0:
182,192,246439,128,0,246509:0:0:0:0:
329,192,246439,128,0,246647:0:0:0:0:
475,192,246439,128,0,246647:0:0:0:0:
256,192,246439,128,0,246647:0:0:0:0:
36,192,246439,128,0,246786:0:0:0:0:
402,192,246578,128,0,246995:0:0:0:0:
109,192,246578,128,0,246856:0:0:0:0:
182,192,246578,128,0,246786:0:0:0:0:
329,192,246717,128,0,246925:0:0:0:0:
475,192,246717,128,0,247134:0:0:0:0:
256,192,246717,128,0,246856:0:0:0:0:
182,192,246856,128,0,246925:0:0:0:0:
36,192,246856,128,0,247064:0:0:0:0:
256,192,246925,128,0,246995:0:0:0:0:
109,192,246925,128,0,247064:0:0:0:0:
329,192,246995,128,0,247134:0:0:0:0:
182,192,246995,128,0,247342:0:0:0:0:
36,192,247134,128,0,247342:0:0:0:0:
109,192,247134,128,0,247272:0:0:0:0:
256,192,247134,128,0,247272:0:0:0:0:
402,192,247134,128,0,247272:0:0:0:0:
475,192,247272,128,0,247342:0:0:0:0:
329,192,247272,128,0,247342:0:0:0:0:
182,192,247411,1,0,0:0:0:0:
36,192,247411,1,0,0:0:0:0:
329,192,247411,1,0,0:0:0:0:
475,192,247411,1,0,0:0:0:0:
256,192,247411,1,0,0:0:0:0:
402,192,247411,1,0,0:0:0:0:
109,192,247411,1,0,0:0:0:0:
109,192,247550,128,0,247689:0:0:0:0:
329,192,247550,1,0,0:0:0:0:
36,192,247550,1,0,0:0:0:0:
402,192,247550,128,0,247759:0:0:0:0:
475,192,247550,1,0,0:0:0:0:
256,192,247550,1,0,0:0:0:0:
182,192,247550,1,0,0:0:0:0:
256,192,247689,128,0,247828:0:0:0:0:
36,192,247689,128,0,247897:0:0:0:0:
329,192,247759,128,0,247897:0:0:0:0:
109,192,247759,128,0,247897:0:0:0:0:
402,192,247828,128,0,247897:0:0:0:0:
182,192,247828,128,0,247897:0:0:0:0:
475,192,247897,128,0,248036:0:0:0:0:
256,192,247897,128,0,248175:0:0:0:0:
109,192,247967,1,0,0:0:0:0:
402,192,247967,1,0,0:0:0:0:
36,192,247967,1,0,0:0:0:0:
182,192,247967,1,0,0:0:0:0:
329,192,247967,1,0,0:0:0:0:
182,192,248106,128,0,248245:0:0:0:0:
329,192,248106,128,0,248245:0:0:0:0:
475,192,248106,1,0,0:0:0:0:
402,192,248106,1,0,0:0:0:0:
109,192,248106,1,0,0:0:0:0:
36,192,248106,128,0,248453:0:0:0:0:
256,192,248245,128,0,248314:0:0:0:0:
109,192,248245,128,0,248453:0:0:0:0:
329,192,248314,128,0,248384:0:0:0:0:
182,192,248314,128,0,248453:0:0:0:0:
402,192,248384,128,0,248453:0:0:0:0:
256,192,248384,128,0,248453:0:0:0:0:
475,192,248453,128,0,248522:0:0:0:0:
329,192,248453,128,0,248522:0:0:0:0:
402,192,248522,128,0,248939:0:0:0:0:
36,192,248522,128,0,248800:0:0:0:0:
256,192,248522,128,0,248731:0:0:0:0:
109,192,248522,1,0,0:0:0:0:
182,192,248522,1,0,0:0:0:0:
475,192,248661,128,0,248870:0:0:0:0:
182,192,248661,1,0,0:0:0:0:
109,192,248661,1,0,0:0:0:0:
329,192,248661,128,0,248939:0:0:0:0:
109,192,248800,128,0,248870:0:0:0:0:
256,192,248800,128,0,248870:0:0:0:0:
36,192,248870,128,0,249009:0:0:0:0:
182,192,248870,128,0,248939:0:0:0:0:
256,192,248939,128,0,249009:0:0:0:0:
109,192,248939,128,0,249009:0:0:0:0:
475,192,248939,1,0,0:0:0:0:
182,192,249009,128,0,249147:0:0:0:0:
402,192,249009,1,0,0:0:0:0:
329,192,249009,1,0,0:0:0:0:
256,192,249078,128,0,249147:0:0:0:0:
475,192,249078,1,0,0:0:0:0:
36,192,249078,1,0,0:0:0:0:
109,192,249078,1,0,0:0:0:0:
329,192,249147,128,0,249425:0:0:0:0:
475,192,249217,1,0,0:0:0:0:
402,192,249217,128,0,249356:0:0:0:0:
36,192,249217,1,0,0:0:0:0:
109,192,249217,128,0,249356:0:0:0:0:
182,192,249217,128,0,249425:0:0:0:0:
256,192,249217,1,0,0:0:0:0:
256,192,249356,128,0,249495:0:0:0:0:
475,192,249356,128,0,249495:0:0:0:0:
36,192,249356,128,0,249495:0:0:0:0:
402,192,249495,128,0,249564:0:0:0:0:
109,192,249495,128,0,249564:0:0:0:0:
329,192,249564,128,0,249634:0:0:0:0:
182,192,249564,128,0,249634:0:0:0:0:
402,192,249634,1,0,0:0:0:0:
475,192,249634,1,0,0:0:0:0:
256,192,249634,1,0,0:0:0:0:
109,192,249634,1,0,0:0:0:0:
36,192,249634,1,0,0:0:0:0:
475,192,249772,128,0,249911:0:0:0:0:
109,192,249772,1,0,0:0:0:0:
256,192,249911,1,0,0:0:0:0:
36,192,249911,1,0,0:0:0:0:
329,192,249981,1,0,0:0:0:0:
402,192,250050,1,0,0:0:0:0:
109,192,250050,1,0,0:0:0:0:
475,192,250120,1,0,0:0:0:0:
256,192,250189,1,0,0:0:0:0:
402,192,250189,128,0,250328:0:0:0:0:
36,192,250189,1,0,0:0:0:0:
329,192,250328,128,0,250467:0:0:0:0:
109,192,250328,1,0,0:0:0:0:
475,192,250467,128,0,250606:0:0:0:0:
256,192,250467,1,0,0:0:0:0:
36,192,250467,1,0,0:0:0:0:
402,192,250606,128,0,250884:0:0:0:0:
182,192,250606,1,0,0:0:0:0:
109,192,250745,1,0,0:0:0:0:
36,192,250745,1,0,0:0:0:0:
329,192,250884,128,0,251022:0:0:0:0:
182,192,250884,1,0,0:0:0:0:
402,192,251022,128,0,251161:0:0:0:0:
109,192,251022,1,0,0:0:0:0:
36,192,251022,1,0,0:0:0:0:
475,192,251161,128,0,251300:0:0:0:0:
256,192,251161,1,0,0:0:0:0:
329,192,251300,1,0,0:0:0:0:
36,192,251300,1,0,0:0:0:0:
109,192,251300,1,0,0:0:0:0:
402,192,251370,1,0,0:0:0:0:
475,192,251439,128,0,251578:0:0:0:0:
256,192,251439,1,0,0:0:0:0:
36,192,251578,1,0,0:0:0:0:
329,192,251578,128,0,251717:0:0:0:0:
182,192,251578,1,0,0:0:0:0:
109,192,251578,1,0,0:0:0:0:
36,192,251717,1,0,0:0:0:0:
402,192,251717,128,0,251856:0:0:0:0:
182,192,251717,1,0,0:0:0:0:
109,192,251717,1,0,0:0:0:0:
475,192,251856,1,0,0:0:0:0:
329,192,251856,1,0,0:0:0:0:
36,192,251856,1,0,0:0:0:0:
182,192,251856,1,0,0:0:0:0:
109,192,251856,1,0,0:0:0:0:
256,192,251995,1,0,0:0:0:0:
475,192,251995,128,0,252134:0:0:0:0:
329,192,252134,1,0,0:0:0:0:
36,192,252134,1,0,0:0:0:0:
256,192,252134,1,0,0:0:0:0:
109,192,252134,1,0,0:0:0:0:
182,192,252134,1,0,0:0:0:0:
402,192,252203,1,0,0:0:0:0:
475,192,252272,1,0,0:0:0:0:
36,192,252272,1,0,0:0:0:0:
109,192,252342,1,0,0:0:0:0:
182,192,252411,128,0,252550:0:0:0:0:
402,192,252411,1,0,0:0:0:0:
256,192,252411,1,0,0:0:0:0:
329,192,252411,1,0,0:0:0:0:
475,192,252411,1,0,0:0:0:0:
256,192,252550,1,0,0:0:0:0:
109,192,252550,128,0,252689:0:0:0:0:
256,192,252689,128,0,252828:0:0:0:0:
182,192,252689,1,0,0:0:0:0:
36,192,252689,1,0,0:0:0:0:
329,192,252689,1,0,0:0:0:0:
402,192,252689,1,0,0:0:0:0:
475,192,252689,1,0,0:0:0:0:
182,192,252828,1,0,0:0:0:0:
36,192,252828,1,0,0:0:0:0:
329,192,252828,128,0,253106:0:0:0:0:
475,192,252828,1,0,0:0:0:0:
402,192,252828,1,0,0:0:0:0:
36,192,252967,1,0,0:0:0:0:
182,192,252967,1,0,0:0:0:0:
109,192,252967,1,0,0:0:0:0:
475,192,252967,1,0,0:0:0:0:
402,192,252967,1,0,0:0:0:0:
475,192,253106,128,0,253245:0:0:0:0:
36,192,253175,1,0,0:0:0:0:
402,192,253175,1,0,0:0:0:0:
109,192,253175,1,0,0:0:0:0:
329,192,253175,1,0,0:0:0:0:
256,192,253175,1,0,0:0:0:0:
182,192,253245,128,0,253384:0:0:0:0:
256,192,253384,128,0,253522:0:0:0:0:
475,192,253384,1,0,0:0:0:0:
329,192,253384,1,0,0:0:0:0:
36,192,253384,1,0,0:0:0:0:
109,192,253384,1,0,0:0:0:0:
402,192,253384,1,0,0:0:0:0:
475,192,253522,1,0,0:0:0:0:
36,192,253522,1,0,0:0:0:0:
402,192,253569,1,0,0:0:0:0:
109,192,253569,1,0,0:0:0:0:
329,192,253615,1,0,0:0:0:0:
182,192,253615,1,0,0:0:0:0:
475,192,253661,1,0,0:0:0:0:
36,192,253661,1,0,0:0:0:0:
256,192,253731,1,0,0:0:0:0:
109,192,253800,1,0,0:0:0:0:
329,192,253800,1,0,0:0:0:0:
475,192,253800,1,0,0:0:0:0:
402,192,253800,1,0,0:0:0:0:
36,192,253800,1,0,0:0:0:0:
182,192,253800,1,0,0:0:0:0:
256,192,253870,1,0,0:0:0:0:
329,192,253939,1,0,0:0:0:0:
182,192,253939,1,0,0:0:0:0:
402,192,254009,1,0,0:0:0:0:
109,192,254009,1,0,0:0:0:0:
475,192,254078,1,0,0:0:0:0:
36,192,254078,1,0,0:0:0:0:
329,192,254078,1,0,0:0:0:0:
182,192,254078,128,0,254217:0:0:0:0:
256,192,254078,1,0,0:0:0:0:
256,192,254217,1,0,0:0:0:0:
36,192,254217,128,0,254356:0:0:0:0:
109,192,254217,1,0,0:0:0:0:
329,192,254217,128,0,254356:0:0:0:0:
402,192,254217,1,0,0:0:0:0:
475,192,254217,1,0,0:0:0:0:
475,192,254356,1,0,0:0:0:0:
109,192,254356,128,0,254425:0:0:0:0:
402,192,254356,1,0,0:0:0:0:
256,192,254356,128,0,254495:0:0:0:0:
182,192,254356,1,0,0:0:0:0:
36,192,254425,128,0,254495:0:0:0:0:
182,192,254495,128,0,254564:0:0:0:0:
109,192,254495,1,0,0:0:0:0:
329,192,254495,1,0,0:0:0:0:
402,192,254495,128,0,254634:0:0:0:0:
475,192,254495,1,0,0:0:0:0:
36,192,254564,128,0,254634:0:0:0:0:
475,192,254634,1,0,0:0:0:0:
109,192,254634,128,0,254772:0:0:0:0:
256,192,254634,1,0,0:0:0:0:
329,192,254634,128,0,254772:0:0:0:0:
182,192,254634,1,0,0:0:0:0:
36,192,254772,1,0,0:0:0:0:
256,192,254772,1,0,0:0:0:0:
182,192,254772,128,0,254911:0:0:0:0:
475,192,254772,128,0,254911:0:0:0:0:
402,192,254772,1,0,0:0:0:0:
402,192,254911,1,0,0:0:0:0:
329,192,254934,1,0,0:0:0:0:
256,192,254958,1,0,0:0:0:0:
182,192,254981,1,0,0:0:0:0:
109,192,255004,1,0,0:0:0:0:
36,192,255027,1,0,0:0:0:0:
475,192,255050,128,0,255328:0:0:0:0:
329,192,255050,1,0,0:0:0:0:
256,192,255120,1,0,0:0:0:0:
182,192,255189,1,0,0:0:0:0:
36,192,255189,1,0,0:0:0:0:
402,192,255189,128,0,255328:0:0:0:0:
329,192,255189,1,0,0:0:0:0:
109,192,255189,1,0,0:0:0:0:
256,192,255328,1,0,0:0:0:0:
329,192,255328,128,0,255467:0:0:0:0:
36,192,255328,1,0,0:0:0:0:
182,192,255328,128,0,255467:0:0:0:0:
109,192,255328,1,0,0:0:0:0:
36,192,255467,1,0,0:0:0:0:
402,192,255467,128,0,255606:0:0:0:0:
109,192,255467,1,0,0:0:0:0:
256,192,255467,128,0,255606:0:0:0:0:
475,192,255467,1,0,0:0:0:0:
475,192,255606,128,0,255745:0:0:0:0:
329,192,255606,1,0,0:0:0:0:
182,192,255606,1,0,0:0:0:0:
109,192,255606,128,0,255745:0:0:0:0:
36,192,255606,1,0,0:0:0:0:
256,192,255675,1,0,0:0:0:0:
329,192,255745,1,0,0:0:0:0:
402,192,255745,128,0,255814:0:0:0:0:
36,192,255745,1,0,0:0:0:0:
182,192,255745,128,0,255884:0:0:0:0:
475,192,255814,128,0,255884:0:0:0:0:
256,192,255884,1,0,0:0:0:0:
329,192,255884,128,0,255953:0:0:0:0:
402,192,255884,1,0,0:0:0:0:
36,192,255884,128,0,256022:0:0:0:0:
109,192,255884,1,0,0:0:0:0:
475,192,255953,128,0,256022:0:0:0:0:
109,192,256022,1,0,0:0:0:0:
256,192,256022,1,0,0:0:0:0:
402,192,256022,1,0,0:0:0:0:
182,192,256092,1,0,0:0:0:0:
329,192,256092,1,0,0:0:0:0:
475,192,256161,1,0,0:0:0:0:
36,192,256161,1,0,0:0:0:0:
256,192,256161,1,0,0:0:0:0:
329,192,256231,1,0,0:0:0:0:
109,192,256231,1,0,0:0:0:0:
402,192,256300,1,0,0:0:0:0:
475,192,256300,1,0,0:0:0:0:
36,192,256300,1,0,0:0:0:0:
182,192,256300,1,0,0:0:0:0:
256,192,256300,1,0,0:0:0:0:
329,192,256370,1,0,0:0:0:0:
475,192,256439,1,0,0:0:0:0:
402,192,256439,1,0,0:0:0:0:
182,192,256439,1,0,0:0:0:0:
36,192,256439,1,0,0:0:0:0:
256,192,256509,1,0,0:0:0:0:
109,192,256509,1,0,0:0:0:0:
36,192,256578,1,0,0:0:0:0:
475,192,256578,1,0,0:0:0:0:
329,192,256578,1,0,0:0:0:0:
182,192,256578,1,0,0:0:0:0:
402,192,256647,1,0,0:0:0:0:
256,192,256647,1,0,0:0:0:0:
36,192,256717,1,0,0:0:0:0:
329,192,256717,1,0,0:0:0:0:
475,192,256717,1,0,0:0:0:0:
109,192,256717,1,0,0:0:0:0:
402,192,256786,1,0,0:0:0:0:
182,192,256786,1,0,0:0:0:0:
256,192,256856,1,0,0:0:0:0:
475,192,256856,1,0,0:0:0:0:
36,192,256873,1,0,0:0:0:0:
109,192,256890,1,0,0:0:0:0:
182,192,256908,1,0,0:0:0:0:
329,192,256925,1,0,0:0:0:0:
402,192,256943,1,0,0:0:0:0:
475,192,256960,1,0,0:0:0:0:
256,192,256977,1,0,0:0:0:0:
109,192,256995,1,0,0:0:0:0:
36,192,256995,1,0,0:0:0:0:
329,192,257064,1,0,0:0:0:0:
182,192,257064,1,0,0:0:0:0:
402,192,257064,1,0,0:0:0:0:
475,192,257134,1,0,0:0:0:0:
36,192,257134,1,0,0:0:0:0:
109,192,257134,1,0,0:0:0:0:
256,192,257134,1,0,0:0:0:0:
182,192,257203,1,0,0:0:0:0:
402,192,257203,1,0,0:0:0:0:
475,192,257272,1,0,0:0:0:0:
329,192,257272,1,0,0:0:0:0:
36,192,257272,1,0,0:0:0:0:
256,192,257272,1,0,0:0:0:0:
402,192,257342,1,0,0:0:0:0:
109,192,257342,1,0,0:0:0:0:
36,192,257411,128,0,257481:0:0:0:0:
475,192,257411,128,0,257481:0:0:0:0:
182,192,257411,1,0,0:0:0:0:
329,192,257411,1,0,0:0:0:0:
256,192,257411,1,0,0:0:0:0:
475,192,257550,128,0,257759:0:0:0:0:
402,192,257550,128,0,257620:0:0:0:0:
36,192,257550,128,0,257759:0:0:0:0:
109,192,257550,128,0,257620:0:0:0:0:
329,192,257689,128,0,257759:0:0:0:0:
402,192,257689,128,0,257897:0:0:0:0:
109,192,257689,128,0,257897:0:0:0:0:
182,192,257689,128,0,257759:0:0:0:0:
475,192,257828,128,0,257897:0:0:0:0:
256,192,257828,128,0,258036:0:0:0:0:
36,192,257828,128,0,257897:0:0:0:0:
402,192,257967,128,0,258036:0:0:0:0:
36,192,257967,1,0,0:0:0:0:
475,192,257967,1,0,0:0:0:0:
182,192,257967,128,0,258175:0:0:0:0:
329,192,257967,128,0,258175:0:0:0:0:
109,192,257967,128,0,258036:0:0:0:0:
256,192,258106,128,0,258314:0:0:0:0:
475,192,258106,128,0,258175:0:0:0:0:
36,192,258106,128,0,258175:0:0:0:0:
36,192,258245,128,0,258453:0:0:0:0:
109,192,258245,1,0,0:0:0:0:
402,192,258245,1,0,0:0:0:0:
182,192,258245,128,0,258314:0:0:0:0:
329,192,258245,128,0,258314:0:0:0:0:
475,192,258245,128,0,258453:0:0:0:0:
329,192,258384,128,0,258453:0:0:0:0:
402,192,258384,128,0,258453:0:0:0:0:
109,192,258384,128,0,258453:0:0:0:0:
182,192,258384,128,0,258453:0:0:0:0:
475,192,258522,5,0,0:0:0:0:
256,192,258522,1,0,0:0:0:0:
109,192,258522,128,0,258870:0:0:0:0:
402,192,258522,128,0,258592:0:0:0:0:
36,192,258557,128,0,258731:0:0:0:0:
182,192,258592,128,0,258731:0:0:0:0:
329,192,258592,128,0,258661:0:0:0:0:
402,192,258661,128,0,258731:0:0:0:0:
256,192,258661,1,0,0:0:0:0:
475,192,258731,1,0,0:0:0:0:
329,192,258731,128,0,258800:0:0:0:0:
256,192,258800,128,0,258939:0:0:0:0:
402,192,258800,128,0,258870:0:0:0:0:
36,192,258800,128,0,259009:0:0:0:0:
182,192,258835,128,0,258939:0:0:0:0:
475,192,258870,128,0,258939:0:0:0:0:
329,192,258870,1,0,0:0:0:0:
402,192,258939,128,0,259182:0:0:0:0:
109,192,258939,128,0,259043:0:0:0:0:
329,192,258974,128,0,259147:0:0:0:0:
256,192,259009,128,0,259113:0:0:0:0:
182,192,259043,128,0,259078:0:0:0:0:
36,192,259078,1,0,0:0:0:0:
475,192,259078,128,0,259425:0:0:0:0:
109,192,259113,128,0,259286:0:0:0:0:
182,192,259147,128,0,259286:0:0:0:0:
256,192,259182,1,0,0:0:0:0:
36,192,259217,128,0,259564:0:0:0:0:
329,192,259217,128,0,259390:0:0:0:0:
256,192,259286,128,0,259356:0:0:0:0:
402,192,259286,128,0,259460:0:0:0:0:
109,192,259356,1,0,0:0:0:0:
182,192,259390,128,0,259564:0:0:0:0:
256,192,259425,128,0,259564:0:0:0:0:
329,192,259460,1,0,0:0:0:0:
109,192,259495,128,0,259703:0:0:0:0:
475,192,259495,128,0,259634:0:0:0:0:
402,192,259529,128,0,259634:0:0:0:0:
329,192,259564,1,0,0:0:0:0:
256,192,259634,128,0,259894:0:0:0:0:
182,192,259634,128,0,259686:0:0:0:0:
36,192,259634,128,0,259720:0:0:0:0:
402,192,259703,128,0,259824:0:0:0:0:
475,192,259703,128,0,259790:0:0:0:0:
182,192,259772,128,0,259859:0:0:0:0:
329,192,259772,128,0,259842:0:0:0:0:
109,192,259790,128,0,259877:0:0:0:0:
36,192,259807,128,0,260189:0:0:0:0:
475,192,259842,128,0,260015:0:0:0:0:
402,192,259877,128,0,259998:0:0:0:0:
329,192,259911,128,0,259981:0:0:0:0:
182,192,259911,128,0,259981:0:0:0:0:
109,192,259946,128,0,260085:0:0:0:0:
256,192,259981,128,0,260120:0:0:0:0:
329,192,260050,128,0,260137:0:0:0:0:
182,192,260050,128,0,260102:0:0:0:0:
402,192,260068,128,0,260154:0:0:0:0:
475,192,260085,128,0,260397:0:0:0:0:
109,192,260154,128,0,260206:0:0:0:0:
182,192,260172,128,0,260328:0:0:0:0:
256,192,260189,128,0,260293:0:0:0:0:
329,192,260206,128,0,260259:0:0:0:0:
402,192,260224,128,0,260397:0:0:0:0:
109,192,260259,128,0,260363:0:0:0:0:
36,192,260259,128,0,260397:0:0:0:0:
329,192,260328,128,0,260536:0:0:0:0:
256,192,260363,128,0,260536:0:0:0:0:
182,192,260397,128,0,260536:0:0:0:0:
109,192,260467,128,0,260536:0:0:0:0:
402,192,260467,128,0,260536:0:0:0:0:
36,192,260467,128,0,260536:0:0:0:0:
475,192,260467,128,0,260536:0:0:0:0:
256,192,260606,128,0,260675:0:0:0:0:
182,192,260606,128,0,260675:0:0:0:0:
329,192,260606,128,0,260675:0:0:0:0:
36,192,260606,128,0,260675:0:0:0:0:
475,192,260606,128,0,260675:0:0:0:0:
182,192,260745,128,0,260814:0:0:0:0:
475,192,260745,128,0,260779:0:0:0:0:
329,192,260745,128,0,260814:0:0:0:0:
109,192,260762,128,0,260849:0:0:0:0:
36,192,260779,128,0,260884:0:0:0:0:
256,192,260814,128,0,260884:0:0:0:0:
402,192,260814,128,0,260849:0:0:0:0:
182,192,260884,128,0,260953:0:0:0:0:
475,192,260884,128,0,260953:0:0:0:0:
329,192,260884,128,0,260918:0:0:0:0:
109,192,260953,128,0,261092:0:0:0:0:
402,192,260953,128,0,261022:0:0:0:0:
256,192,260953,128,0,260988:0:0:0:0:
36,192,261022,128,0,261092:0:0:0:0:
329,192,261022,128,0,261161:0:0:0:0:
182,192,261022,128,0,261057:0:0:0:0:
475,192,261092,128,0,261161:0:0:0:0:
402,192,261092,128,0,261161:0:0:0:0:
256,192,261092,128,0,261265:0:0:0:0:
182,192,261161,128,0,261265:0:0:0:0:
109,192,261196,128,0,261265:0:0:0:0:
329,192,261231,128,0,261265:0:0:0:0:
36,192,261300,1,0,0:0:0:0:
256,192,261300,128,0,261509:0:0:0:0:
109,192,261300,128,0,261509:0:0:0:0:
402,192,261300,1,0,0:0:0:0:
475,192,261300,1,0,0:0:0:0:
182,192,261335,128,0,261509:0:0:0:0:
329,192,261370,128,0,261509:0:0:0:0:
402,192,261439,128,0,261509:0:0:0:0:
475,192,261439,128,0,261804:0:0:0:0:
36,192,261439,128,0,261804:0:0:0:0:
182,192,261578,128,0,261647:0:0:0:0:
329,192,261578,128,0,261647:0:0:0:0:
256,192,261578,128,0,261665:0:0:0:0:
109,192,261595,128,0,261752:0:0:0:0:
402,192,261595,128,0,261752:0:0:0:0:
182,192,261717,128,0,261769:0:0:0:0:
329,192,261717,128,0,261769:0:0:0:0:
256,192,261734,128,0,261804:0:0:0:0:
329,192,261856,1,0,0:0:0:0:
182,192,261856,1,0,0:0:0:0:
109,192,261873,1,0,0:0:0:0:
402,192,261873,128,0,262099:0:0:0:0:
36,192,261890,128,0,262116:0:0:0:0:
475,192,261890,128,0,262116:0:0:0:0:
256,192,261995,128,0,262064:0:0:0:0:
109,192,261995,128,0,262099:0:0:0:0:
182,192,262064,128,0,262134:0:0:0:0:
329,192,262064,128,0,262134:0:0:0:0:
256,192,262134,1,0,0:0:0:0:
109,192,262151,128,0,262377:0:0:0:0:
402,192,262151,1,0,0:0:0:0:
475,192,262168,128,0,262394:0:0:0:0:
36,192,262168,128,0,262394:0:0:0:0:
402,192,262272,128,0,262377:0:0:0:0:
256,192,262272,128,0,262342:0:0:0:0:
329,192,262342,128,0,262411:0:0:0:0:
182,192,262342,128,0,262411:0:0:0:0:
256,192,262411,1,0,0:0:0:0:
109,192,262429,1,0,0:0:0:0:
402,192,262429,128,0,262620:0:0:0:0:
475,192,262446,128,0,262620:0:0:0:0:
36,192,262446,128,0,262620:0:0:0:0:
256,192,262550,128,0,262620:0:0:0:0:
109,192,262550,128,0,262620:0:0:0:0:
329,192,262620,128,0,262689:0:0:0:0:
182,192,262620,128,0,262689:0:0:0:0:
256,192,262689,1,0,0:0:0:0:
36,192,262689,128,0,262897:0:0:0:0:
109,192,262689,128,0,262897:0:0:0:0:
402,192,262689,128,0,262897:0:0:0:0:
475,192,262689,128,0,262897:0:0:0:0:
182,192,262828,128,0,262897:0:0:0:0:
256,192,262828,128,0,262897:0:0:0:0:
329,192,262828,128,0,262897:0:0:0:0:
36,192,262967,1,0,0:0:0:0:
109,192,262967,1,0,0:0:0:0:
475,192,262967,128,0,263054:0:0:0:0:
182,192,262967,128,0,263158:0:0:0:0:
256,192,262967,128,0,263123:0:0:0:0:
402,192,262984,128,0,263245:0:0:0:0:
329,192,263002,128,0,263071:0:0:0:0:
109,192,263106,128,0,263175:0:0:0:0:
36,192,263106,128,0,263175:0:0:0:0:
329,192,263175,128,0,263262:0:0:0:0:
475,192,263175,128,0,263227:0:0:0:0:
256,192,263193,128,0,263470:0:0:0:0:
182,192,263210,128,0,263297:0:0:0:0:
109,192,263245,128,0,263314:0:0:0:0:
36,192,263245,128,0,263331:0:0:0:0:
475,192,263314,128,0,263384:0:0:0:0:
402,192,263314,128,0,263384:0:0:0:0:
329,192,263384,128,0,263592:0:0:0:0:
182,192,263384,128,0,263453:0:0:0:0:
109,192,263401,128,0,263731:0:0:0:0:
36,192,263418,128,0,263522:0:0:0:0:
475,192,263453,128,0,263522:0:0:0:0:
402,192,263453,128,0,263522:0:0:0:0:
182,192,263522,128,0,263731:0:0:0:0:
256,192,263522,128,0,263592:0:0:0:0:
475,192,263592,1,0,0:0:0:0:
402,192,263592,128,0,263661:0:0:0:0:
36,192,263661,128,0,264009:0:0:0:0:
256,192,263661,1,0,0:0:0:0:
329,192,263661,128,0,263731:0:0:0:0:
402,192,263731,1,0,0:0:0:0:
475,192,263731,128,0,263870:0:0:0:0:
109,192,263800,1,0,0:0:0:0:
182,192,263800,128,0,264009:0:0:0:0:
256,192,263800,1,0,0:0:0:0:
329,192,263800,128,0,263870:0:0:0:0:
402,192,263870,128,0,263939:0:0:0:0:
256,192,263939,1,0,0:0:0:0:
109,192,263939,128,0,264009:0:0:0:0:
329,192,263939,128,0,264009:0:0:0:0:
475,192,263939,128,0,264009:0:0:0:0:
182,192,264078,128,0,264147:0:0:0:0:
402,192,264078,1,0,0:0:0:0:
475,192,264078,1,0,0:0:0:0:
36,192,264078,1,0,0:0:0:0:
109,192,264078,128,0,264217:0:0:0:0:
256,192,264113,128,0,264182:0:0:0:0:
329,192,264147,128,0,264286:0:0:0:0:
402,192,264182,128,0,264286:0:0:0:0:
475,192,264217,128,0,264286:0:0:0:0:
36,192,264217,128,0,264286:0:0:0:0:
182,192,264217,128,0,264286:0:0:0:0:
109,192,264286,128,0,264356:0:0:0:0:
256,192,264286,128,0,264356:0:0:0:0:
182,192,264356,128,0,264425:0:0:0:0:
329,192,264356,128,0,264634:0:0:0:0:
475,192,264356,1,0,0:0:0:0:
402,192,264356,128,0,264425:0:0:0:0:
109,192,264425,1,0,0:0:0:0:
36,192,264425,128,0,264495:0:0:0:0:
256,192,264495,128,0,264668:0:0:0:0:
402,192,264495,128,0,264599:0:0:0:0:
475,192,264495,128,0,264564:0:0:0:0:
182,192,264564,128,0,264703:0:0:0:0:
109,192,264564,128,0,264703:0:0:0:0:
36,192,264634,128,0,264703:0:0:0:0:
475,192,264634,128,0,264772:0:0:0:0:
402,192,264668,128,0,264772:0:0:0:0:
329,192,264703,128,0,264772:0:0:0:0:
256,192,264738,128,0,264842:0:0:0:0:
182,192,264772,1,0,0:0:0:0:
36,192,264772,1,0,0:0:0:0:
109,192,264772,128,0,264842:0:0:0:0:
329,192,264842,1,0,0:0:0:0:
475,192,264842,1,0,0:0:0:0:
402,192,264842,128,0,264981:0:0:0:0:
109,192,264911,128,0,264981:0:0:0:0:
182,192,264911,128,0,264981:0:0:0:0:
36,192,264911,128,0,264981:0:0:0:0:
256,192,264911,128,0,265120:0:0:0:0:
475,192,264981,1,0,0:0:0:0:
329,192,264981,128,0,265050:0:0:0:0:
182,192,265050,1,0,0:0:0:0:
36,192,265050,1,0,0:0:0:0:
109,192,265050,128,0,265120:0:0:0:0:
329,192,265120,1,0,0:0:0:0:
475,192,265120,1,0,0:0:0:0:
402,192,265120,128,0,265189:0:0:0:0:
36,192,265189,128,0,265328:0:0:0:0:
256,192,265189,1,0,0:0:0:0:
329,192,265206,1,0,0:0:0:0:
109,192,265224,128,0,265328:0:0:0:0:
402,192,265224,1,0,0:0:0:0:
182,192,265259,128,0,265328:0:0:0:0:
256,192,265293,128,0,265397:0:0:0:0:
475,192,265328,1,0,0:0:0:0:
329,192,265328,1,0,0:0:0:0:
402,192,265328,128,0,265397:0:0:0:0:
36,192,265397,1,0,0:0:0:0:
182,192,265397,1,0,0:0:0:0:
109,192,265397,128,0,265536:0:0:0:0:
475,192,265467,1,0,0:0:0:0:
256,192,265467,128,0,265536:0:0:0:0:
402,192,265467,128,0,265536:0:0:0:0:
182,192,265536,128,0,265675:0:0:0:0:
329,192,265536,128,0,265606:0:0:0:0:
109,192,265606,1,0,0:0:0:0:
256,192,265606,1,0,0:0:0:0:
36,192,265606,128,0,265675:0:0:0:0:
475,192,265606,128,0,265814:0:0:0:0:
402,192,265640,128,0,265814:0:0:0:0:
329,192,265675,128,0,265814:0:0:0:0:
256,192,265745,128,0,266005:0:0:0:0:
36,192,265745,128,0,265884:0:0:0:0:
109,192,265779,128,0,265884:0:0:0:0:
182,192,265814,128,0,265884:0:0:0:0:
329,192,265884,128,0,265988:0:0:0:0:
402,192,265884,128,0,265970:0:0:0:0:
475,192,265884,128,0,265953:0:0:0:0:
109,192,265953,128,0,266074:0:0:0:0:
182,192,265953,128,0,266057:0:0:0:0:
36,192,265953,128,0,266092:0:0:0:0:
475,192,266022,128,0,266161:0:0:0:0:
402,192,266040,128,0,266161:0:0:0:0:
329,192,266057,128,0,266161:0:0:0:0:
256,192,266074,128,0,266231:0:0:0:0:
182,192,266161,1,0,0:0:0:0:
36,192,266161,1,0,0:0:0:0:
109,192,266161,128,0,266231:0:0:0:0:
329,192,266231,1,0,0:0:0:0:
475,192,266231,1,0,0:0:0:0:
402,192,266231,128,0,266300:0:0:0:0:
256,192,266300,1,0,0:0:0:0:
36,192,266300,1,0,0:0:0:0:
329,192,266318,1,0,0:0:0:0:
109,192,266318,1,0,0:0:0:0:
182,192,266323,1,0,0:0:0:0:
475,192,266323,1,0,0:0:0:0:
402,192,266346,1,0,0:0:0:0:
109,192,266422,1,0,0:0:0:0:
36,192,266439,1,0,0:0:0:0:
329,192,266439,1,0,0:0:0:0:
402,192,266456,1,0,0:0:0:0:
182,192,266456,1,0,0:0:0:0:
475,192,266474,1,0,0:0:0:0:
256,192,266474,1,0,0:0:0:0:
182,192,266717,1,0,0:0:0:0:
329,192,266717,1,0,0:0:0:0:
109,192,266734,1,0,0:0:0:0:
402,192,266734,1,0,0:0:0:0:
256,192,266740,1,0,0:0:0:0:
36,192,266752,1,0,0:0:0:0:
475,192,266752,1,0,0:0:0:0:
182,192,266995,1,0,0:0:0:0:
329,192,266995,1,0,0:0:0:0:
329,192,267064,1,0,0:0:0:0:
182,192,267064,1,0,0:0:0:0:
256,192,267134,1,0,0:0:0:0:
36,192,267134,1,0,0:0:0:0:
475,192,267134,1,0,0:0:0:0:
402,192,267157,1,0,0:0:0:0:
109,192,267157,1,0,0:0:0:0:
182,192,267180,1,0,0:0:0:0:
329,192,267180,1,0,0:0:0:0:
256,192,267272,1,0,0:0:0:0:
109,192,267272,1,0,0:0:0:0:
36,192,267272,1,0,0:0:0:0:
402,192,267272,1,0,0:0:0:0:
475,192,267272,1,0,0:0:0:0:
182,192,267411,128,0,267498:0:0:0:0:
256,192,267411,128,0,267481:0:0:0:0:
109,192,267411,128,0,267515:0:0:0:0:
36,192,267411,128,0,267533:0:0:0:0:
329,192,267411,1,0,0:0:0:0:
402,192,267411,1,0,0:0:0:0:
475,192,267411,1,0,0:0:0:0:
329,192,267504,1,0,0:0:0:0:
256,192,267527,1,0,0:0:0:0:
475,192,267550,1,0,0:0:0:0:
182,192,267550,1,0,0:0:0:0:
402,192,267550,128,0,267689:0:0:0:0:
109,192,267573,1,0,0:0:0:0:
36,192,267596,1,0,0:0:0:0:
256,192,267620,1,0,0:0:0:0:
329,192,267620,128,0,267828:0:0:0:0:
182,192,267689,128,0,267759:0:0:0:0:
36,192,267689,128,0,267759:0:0:0:0:
475,192,267689,128,0,267759:0:0:0:0:
402,192,267759,1,0,0:0:0:0:
256,192,267759,128,0,267897:0:0:0:0:
109,192,267759,128,0,267897:0:0:0:0:
475,192,267828,128,0,268175:0:0:0:0:
36,192,267828,128,0,267897:0:0:0:0:
182,192,267828,128,0,267897:0:0:0:0:
402,192,267863,1,0,0:0:0:0:
329,192,267897,128,0,267984:0:0:0:0:
36,192,267967,128,0,268036:0:0:0:0:
256,192,267967,1,0,0:0:0:0:
109,192,268002,128,0,268071:0:0:0:0:
402,192,268002,128,0,268175:0:0:0:0:
182,192,268036,128,0,268245:0:0:0:0:
329,192,268106,128,0,268175:0:0:0:0:
256,192,268106,128,0,268175:0:0:0:0:
109,192,268175,128,0,268245:0:0:0:0:
36,192,268175,128,0,268245:0:0:0:0:
329,192,268245,1,0,0:0:0:0:
475,192,268245,128,0,268418:0:0:0:0:
256,192,268262,128,0,268314:0:0:0:0:
182,192,268279,1,0,0:0:0:0:
402,192,268279,128,0,268436:0:0:0:0:
109,192,268297,128,0,268453:0:0:0:0:
36,192,268314,128,0,268453:0:0:0:0:
329,192,268331,128,0,268522:0:0:0:0:
182,192,268384,128,0,268522:0:0:0:0:
256,192,268418,128,0,268522:0:0:0:0:
36,192,268522,1,0,0:0:0:0:
475,192,268522,1,0,0:0:0:0:
109,192,268522,128,0,268592:0:0:0:0:
402,192,268522,128,0,268627:0:0:0:0:
182,192,268574,128,0,268661:0:0:0:0:
256,192,268592,128,0,268800:0:0:0:0:
329,192,268609,128,0,268661:0:0:0:0:
109,192,268661,1,0,0:0:0:0:
402,192,268661,1,0,0:0:0:0:
36,192,268661,128,0,268800:0:0:0:0:
475,192,268661,128,0,268800:0:0:0:0:
329,192,268800,1,0,0:0:0:0:
182,192,268800,1,0,0:0:0:0:
109,192,268818,128,0,269009:0:0:0:0:
402,192,268818,128,0,269009:0:0:0:0:
36,192,268835,1,0,0:0:0:0:
475,192,268835,1,0,0:0:0:0:
256,192,268939,128,0,269009:0:0:0:0:
36,192,268939,128,0,269009:0:0:0:0:
475,192,268939,128,0,269009:0:0:0:0:
256,192,269078,1,0,0:0:0:0:
475,192,269078,1,0,0:0:0:0:
36,192,269078,1,0,0:0:0:0:
182,192,269124,1,0,0:0:0:0:
329,192,269124,1,0,0:0:0:0:
109,192,269171,1,0,0:0:0:0:
402,192,269171,1,0,0:0:0:0:
36,192,269217,1,0,0:0:0:0:
256,192,269217,1,0,0:0:0:0:
475,192,269217,1,0,0:0:0:0:
109,192,269286,1,0,0:0:0:0:
182,192,269286,1,0,0:0:0:0:
329,192,269286,1,0,0:0:0:0:
402,192,269286,1,0,0:0:0:0:
256,192,269356,1,0,0:0:0:0:
36,192,269356,1,0,0:0:0:0:
475,192,269356,1,0,0:0:0:0:
109,192,269390,1,0,0:0:0:0:
182,192,269425,1,0,0:0:0:0:
256,192,269460,1,0,0:0:0:0:
109,192,269495,1,0,0:0:0:0:
36,192,269495,1,0,0:0:0:0:
475,192,269495,1,0,0:0:0:0:
402,192,269529,1,0,0:0:0:0:
329,192,269564,1,0,0:0:0:0:
256,192,269599,1,0,0:0:0:0:
36,192,269634,1,0,0:0:0:0:
402,192,269634,1,0,0:0:0:0:
475,192,269634,1,0,0:0:0:0:
182,192,269634,128,0,270120:0:0:0:0:
36,192,269772,128,0,270120:0:0:0:0:
402,192,269772,1,0,0:0:0:0:
329,192,269842,1,0,0:0:0:0:
109,192,269911,128,0,270120:0:0:0:0:
256,192,269911,1,0,0:0:0:0:
329,192,270050,1,0,0:0:0:0:
256,192,270050,1,0,0:0:0:0:
402,192,270050,1,0,0:0:0:0:
475,192,270050,128,0,270259:0:0:0:0:
36,192,270189,128,0,270224:0:0:0:0:
256,192,270189,1,0,0:0:0:0:
109,192,270259,128,0,270293:0:0:0:0:
329,192,270259,1,0,0:0:0:0:
182,192,270328,128,0,270363:0:0:0:0:
402,192,270328,1,0,0:0:0:0:
109,192,270397,128,0,270432:0:0:0:0:
329,192,270397,1,0,0:0:0:0:
36,192,270467,128,0,270502:0:0:0:0:
256,192,270467,1,0,0:0:0:0:
475,192,270467,1,0,0:0:0:0:
402,192,270502,1,0,0:0:0:0:
329,192,270536,128,0,270571:0:0:0:0:
182,192,270536,1,0,0:0:0:0:
36,192,270606,1,0,0:0:0:0:
475,192,270606,128,0,270640:0:0:0:0:
256,192,270606,1,0,0:0:0:0:
109,192,270640,1,0,0:0:0:0:
182,192,270675,1,0,0:0:0:0:
329,192,270675,1,0,0:0:0:0:
256,192,270745,1,0,0:0:0:0:
402,192,270745,1,0,0:0:0:0:
475,192,270745,1,0,0:0:0:0:
109,192,270745,1,0,0:0:0:0:
36,192,270745,1,0,0:0:0:0:
329,192,270814,1,0,0:0:0:0:
182,192,270814,1,0,0:0:0:0:
256,192,270884,1,0,0:0:0:0:
109,192,270953,1,0,0:0:0:0:
182,192,270953,1,0,0:0:0:0:
329,192,270953,1,0,0:0:0:0:
402,192,270953,1,0,0:0:0:0:
36,192,271022,1,0,0:0:0:0:
475,192,271022,1,0,0:0:0:0:
329,192,271092,1,0,0:0:0:0:
182,192,271092,1,0,0:0:0:0:
36,192,271161,1,0,0:0:0:0:
109,192,271161,1,0,0:0:0:0:
402,192,271161,1,0,0:0:0:0:
475,192,271161,1,0,0:0:0:0:
256,192,271161,1,0,0:0:0:0:
256,192,271231,1,0,0:0:0:0:
182,192,271300,1,0,0:0:0:0:
109,192,271300,1,0,0:0:0:0:
36,192,271300,1,0,0:0:0:0:
329,192,271300,1,0,0:0:0:0:
402,192,271300,1,0,0:0:0:0:
475,192,271300,1,0,0:0:0:0:
182,192,271439,1,0,0:0:0:0:
109,192,271456,1,0,0:0:0:0:
329,192,271509,1,0,0:0:0:0:
402,192,271526,1,0,0:0:0:0:
36,192,271578,1,0,0:0:0:0:
109,192,271578,1,0,0:0:0:0:
182,192,271578,1,0,0:0:0:0:
256,192,271578,1,0,0:0:0:0:
329,192,271647,1,0,0:0:0:0:
402,192,271647,1,0,0:0:0:0:
475,192,271647,1,0,0:0:0:0:
109,192,271717,1,0,0:0:0:0:
36,192,271717,1,0,0:0:0:0:
256,192,271717,1,0,0:0:0:0:
182,192,271786,1,0,0:0:0:0:
329,192,271786,1,0,0:0:0:0:
475,192,271786,1,0,0:0:0:0:
109,192,271856,1,0,0:0:0:0:
36,192,271856,128,0,272064:0:0:0:0:
256,192,271856,128,0,271995:0:0:0:0:
402,192,271856,128,0,271995:0:0:0:0:
475,192,271995,1,0,0:0:0:0:
182,192,271995,128,0,272064:0:0:0:0:
329,192,271995,128,0,272064:0:0:0:0:
109,192,272064,128,0,272272:0:0:0:0:
256,192,272064,128,0,272272:0:0:0:0:
182,192,272134,1,0,0:0:0:0:
402,192,272134,1,0,0:0:0:0:
36,192,272134,1,0,0:0:0:0:
475,192,272134,128,0,272620:0:0:0:0:
329,192,272203,1,0,0:0:0:0:
182,192,272272,128,0,272342:0:0:0:0:
36,192,272272,128,0,272342:0:0:0:0:
402,192,272272,128,0,272342:0:0:0:0:
109,192,272342,128,0,272411:0:0:0:0:
256,192,272342,128,0,272411:0:0:0:0:
329,192,272411,128,0,272620:0:0:0:0:
182,192,272411,128,0,272620:0:0:0:0:
36,192,272411,1,0,0:0:0:0:
402,192,272411,1,0,0:0:0:0:
256,192,272481,1,0,0:0:0:0:
109,192,272550,128,0,272620:0:0:0:0:
36,192,272550,128,0,272620:0:0:0:0:
256,192,272620,128,0,272689:0:0:0:0:
402,192,272620,128,0,272689:0:0:0:0:
36,192,272689,128,0,272759:0:0:0:0:
182,192,272689,128,0,272759:0:0:0:0:
329,192,272689,128,0,272759:0:0:0:0:
475,192,272689,1,0,0:0:0:0:
109,192,272759,128,0,272828:0:0:0:0:
256,192,272759,128,0,272828:0:0:0:0:
402,192,272759,128,0,272828:0:0:0:0:
182,192,272828,128,0,272897:0:0:0:0:
329,192,272828,128,0,272897:0:0:0:0:
475,192,272828,128,0,273175:0:0:0:0:
109,192,272897,1,0,0:0:0:0:
36,192,272967,1,0,0:0:0:0:
256,192,272967,128,0,273106:0:0:0:0:
329,192,272967,128,0,273054:0:0:0:0:
402,192,272967,128,0,273036:0:0:0:0:
182,192,273002,128,0,273106:0:0:0:0:
109,192,273036,128,0,273175:0:0:0:0:
36,192,273071,128,0,273175:0:0:0:0:
329,192,273106,1,0,0:0:0:0:
402,192,273106,128,0,273175:0:0:0:0:
182,192,273175,1,0,0:0:0:0:
256,192,273175,128,0,273245:0:0:0:0:
402,192,273245,1,0,0:0:0:0:
109,192,273245,1,0,0:0:0:0:
36,192,273245,128,0,273401:0:0:0:0:
475,192,273245,128,0,273401:0:0:0:0:
329,192,273314,1,0,0:0:0:0:
256,192,273331,128,0,273453:0:0:0:0:
182,192,273349,1,0,0:0:0:0:
402,192,273384,1,0,0:0:0:0:
109,192,273384,1,0,0:0:0:0:
109,192,273453,128,0,273522:0:0:0:0:
402,192,273453,128,0,273522:0:0:0:0:
182,192,273522,1,0,0:0:0:0:
36,192,273522,128,0,273696:0:0:0:0:
475,192,273522,128,0,273765:0:0:0:0:
256,192,273540,128,0,273731:0:0:0:0:
329,192,273557,1,0,0:0:0:0:
182,192,273661,128,0,273731:0:0:0:0:
109,192,273661,128,0,274009:0:0:0:0:
329,192,273731,128,0,273800:0:0:0:0:
402,192,273731,128,0,273939:0:0:0:0:
182,192,273800,1,0,0:0:0:0:
256,192,273800,1,0,0:0:0:0:
36,192,273800,1,0,0:0:0:0:
475,192,273800,1,0,0:0:0:0:
329,192,273939,128,0,274009:0:0:0:0:
475,192,273939,128,0,274009:0:0:0:0:
256,192,273939,128,0,274009:0:0:0:0:
182,192,274009,128,0,274078:0:0:0:0:
36,192,274009,128,0,274078:0:0:0:0:
475,192,274078,128,0,274425:0:0:0:0:
329,192,274078,128,0,274286:0:0:0:0:
256,192,274078,128,0,274217:0:0:0:0:
109,192,274078,128,0,274217:0:0:0:0:
402,192,274078,128,0,274147:0:0:0:0:
182,192,274217,128,0,274304:0:0:0:0:
36,192,274217,128,0,274304:0:0:0:0:
402,192,274217,128,0,274356:0:0:0:0:
256,192,274286,128,0,274373:0:0:0:0:
109,192,274286,128,0,274616:0:0:0:0:
329,192,274356,128,0,274443:0:0:0:0:
182,192,274356,128,0,274599:0:0:0:0:
36,192,274356,128,0,274634:0:0:0:0:
402,192,274425,128,0,274634:0:0:0:0:
256,192,274425,128,0,274564:0:0:0:0:
475,192,274495,128,0,274911:0:0:0:0:
329,192,274495,128,0,274634:0:0:0:0:
256,192,274634,128,0,274859:0:0:0:0:
182,192,274651,128,0,274720:0:0:0:0:
109,192,274668,128,0,274720:0:0:0:0:
36,192,274686,128,0,275120:0:0:0:0:
329,192,274703,128,0,274772:0:0:0:0:
402,192,274703,128,0,274772:0:0:0:0:
109,192,274772,128,0,274911:0:0:0:0:
182,192,274772,128,0,274911:0:0:0:0:
329,192,274842,128,0,274877:0:0:0:0:
402,192,274842,128,0,274894:0:0:0:0:
256,192,274911,128,0,275120:0:0:0:0:
329,192,274929,128,0,274998:0:0:0:0:
402,192,274946,128,0,274998:0:0:0:0:
475,192,274963,128,0,275120:0:0:0:0:
182,192,274981,128,0,275050:0:0:0:0:
109,192,274981,128,0,275050:0:0:0:0:
402,192,275050,1,0,0:0:0:0:
329,192,275050,128,0,275120:0:0:0:0:
109,192,275120,1,0,0:0:0:0:
182,192,275120,128,0,275189:0:0:0:0:
402,192,275189,128,0,275536:0:0:0:0:
36,192,275189,1,0,0:0:0:0:
256,192,275189,1,0,0:0:0:0:
329,192,275189,1,0,0:0:0:0:
475,192,275189,128,0,275559:0:0:0:0:
329,192,275328,128,0,275513:0:0:0:0:
256,192,275328,128,0,275490:0:0:0:0:
109,192,275328,128,0,275444:0:0:0:0:
36,192,275328,128,0,275421:0:0:0:0:
182,192,275328,128,0,275467:0:0:0:0:
36,192,275467,1,0,0:0:0:0:
109,192,275490,1,0,0:0:0:0:
182,192,275513,1,0,0:0:0:0:
256,192,275536,1,0,0:0:0:0:
329,192,275559,1,0,0:0:0:0:
402,192,275583,1,0,0:0:0:0:
475,192,275606,1,0,0:0:0:0:
182,192,275606,128,0,275814:0:0:0:0:
109,192,275606,128,0,275675:0:0:0:0:
256,192,275675,128,0,275814:0:0:0:0:
36,192,275745,128,0,276022:0:0:0:0:
329,192,275745,128,0,275814:0:0:0:0:
475,192,275745,128,0,275814:0:0:0:0:
402,192,275745,128,0,275814:0:0:0:0:
109,192,275745,128,0,276022:0:0:0:0:
475,192,275884,1,0,0:0:0:0:
329,192,275884,1,0,0:0:0:0:
256,192,275953,128,0,276092:0:0:0:0:
402,192,275953,128,0,276092:0:0:0:0:
475,192,276022,128,0,276092:0:0:0:0:
329,192,276022,128,0,276231:0:0:0:0:
182,192,276022,128,0,276231:0:0:0:0:
109,192,276092,128,0,276161:0:0:0:0:
36,192,276092,128,0,276161:0:0:0:0:
256,192,276161,128,0,276231:0:0:0:0:
402,192,276161,128,0,276231:0:0:0:0:
475,192,276161,128,0,276231:0:0:0:0:
109,192,276231,1,0,0:0:0:0:
36,192,276231,1,0,0:0:0:0:
36,192,276300,5,0,0:0:0:0:
109,192,276300,128,0,276370:0:0:0:0:
256,192,276300,128,0,276474:0:0:0:0:
182,192,276300,128,0,276422:0:0:0:0:
475,192,276300,128,0,276786:0:0:0:0:
329,192,276300,128,0,276526:0:0:0:0:
402,192,276300,128,0,276647:0:0:0:0:
36,192,276439,1,0,0:0:0:0:
109,192,276485,1,0,0:0:0:0:
182,192,276532,1,0,0:0:0:0:
109,192,276578,1,0,0:0:0:0:
36,192,276578,1,0,0:0:0:0:
256,192,276578,1,0,0:0:0:0:
329,192,276647,1,0,0:0:0:0:
182,192,276717,1,0,0:0:0:0:
36,192,276717,1,0,0:0:0:0:
256,192,276763,1,0,0:0:0:0:
329,192,276809,1,0,0:0:0:0:
475,192,276856,1,0,0:0:0:0:
402,192,276856,1,0,0:0:0:0:
182,192,276856,1,0,0:0:0:0:
36,192,276856,128,0,276948:0:0:0:0:
109,192,276856,1,0,0:0:0:0:
182,192,276948,128,0,277041:0:0:0:0:
329,192,276948,1,0,0:0:0:0:
256,192,276948,1,0,0:0:0:0:
329,192,277041,128,0,277134:0:0:0:0:
475,192,277041,1,0,0:0:0:0:
402,192,277041,1,0,0:0:0:0:
256,192,277134,1,0,0:0:0:0:
182,192,277134,1,0,0:0:0:0:
475,192,277134,128,0,277203:0:0:0:0:
36,192,277134,1,0,0:0:0:0:
109,192,277134,1,0,0:0:0:0:
402,192,277203,128,0,277272:0:0:0:0:
36,192,277272,1,0,0:0:0:0:
329,192,277272,128,0,277342:0:0:0:0:
182,192,277272,1,0,0:0:0:0:
475,192,277319,1,0,0:0:0:0:
256,192,277342,128,0,277411:0:0:0:0:
109,192,277342,128,0,277550:0:0:0:0:
36,192,277365,128,0,277620:0:0:0:0:
402,192,277365,1,0,0:0:0:0:
182,192,277411,1,0,0:0:0:0:
329,192,277411,1,0,0:0:0:0:
256,192,277481,1,0,0:0:0:0:
475,192,277481,128,0,277550:0:0:0:0:
329,192,277550,1,0,0:0:0:0:
402,192,277550,128,0,277620:0:0:0:0:
182,192,277596,1,0,0:0:0:0:
256,192,277620,128,0,277689:0:0:0:0:
109,192,277643,1,0,0:0:0:0:
402,192,277689,128,0,277897:0:0:0:0:
475,192,277689,128,0,277759:0:0:0:0:
36,192,277689,1,0,0:0:0:0:
329,192,277689,128,0,277759:0:0:0:0:
182,192,277759,1,0,0:0:0:0:
36,192,277828,1,0,0:0:0:0:
475,192,277828,128,0,278036:0:0:0:0:
329,192,277828,128,0,277897:0:0:0:0:
109,192,277874,1,0,0:0:0:0:
256,192,277921,1,0,0:0:0:0:
109,192,277967,128,0,278175:0:0:0:0:
402,192,277967,128,0,278036:0:0:0:0:
36,192,277967,128,0,278036:0:0:0:0:
182,192,277967,128,0,278036:0:0:0:0:
329,192,278036,1,0,0:0:0:0:
475,192,278106,1,0,0:0:0:0:
36,192,278106,128,0,278314:0:0:0:0:
182,192,278106,128,0,278175:0:0:0:0:
402,192,278152,1,0,0:0:0:0:
256,192,278198,1,0,0:0:0:0:
402,192,278245,1,0,0:0:0:0:
182,192,278245,1,0,0:0:0:0:
329,192,278245,128,0,278384:0:0:0:0:
109,192,278245,128,0,278314:0:0:0:0:
475,192,278245,1,0,0:0:0:0:
109,192,278384,1,0,0:0:0:0:
475,192,278384,1,0,0:0:0:0:
36,192,278384,1,0,0:0:0:0:
256,192,278384,128,0,278522:0:0:0:0:
182,192,278384,1,0,0:0:0:0:
402,192,278384,1,0,0:0:0:0:
109,192,278522,1,0,0:0:0:0:
402,192,278522,1,0,0:0:0:0:
182,192,278522,1,0,0:0:0:0:
329,192,278522,128,0,278661:0:0:0:0:
36,192,278522,1,0,0:0:0:0:
475,192,278522,1,0,0:0:0:0:
256,192,278592,1,0,0:0:0:0:
475,192,278661,1,0,0:0:0:0:
182,192,278661,128,0,278731:0:0:0:0:
36,192,278661,1,0,0:0:0:0:
402,192,278708,1,0,0:0:0:0:
256,192,278731,128,0,278870:0:0:0:0:
329,192,278754,1,0,0:0:0:0:
182,192,278800,1,0,0:0:0:0:
36,192,278800,1,0,0:0:0:0:
109,192,278800,128,0,278939:0:0:0:0:
475,192,278800,1,0,0:0:0:0:
402,192,278870,1,0,0:0:0:0:
329,192,278870,128,0,279009:0:0:0:0:
256,192,278939,1,0,0:0:0:0:
182,192,278939,128,0,279009:0:0:0:0:
36,192,278985,1,0,0:0:0:0:
402,192,279009,128,0,279147:0:0:0:0:
109,192,279032,1,0,0:0:0:0:
475,192,279078,1,0,0:0:0:0:
182,192,279078,1,0,0:0:0:0:
256,192,279078,128,0,279217:0:0:0:0:
329,192,279078,1,0,0:0:0:0:
36,192,279147,1,0,0:0:0:0:
109,192,279147,128,0,279356:0:0:0:0:
182,192,279217,1,0,0:0:0:0:
475,192,279217,1,0,0:0:0:0:
329,192,279217,128,0,279356:0:0:0:0:
402,192,279263,1,0,0:0:0:0:
256,192,279309,1,0,0:0:0:0:
475,192,279356,128,0,279495:0:0:0:0:
36,192,279356,128,0,279495:0:0:0:0:
182,192,279356,128,0,279495:0:0:0:0:
402,192,279356,1,0,0:0:0:0:
329,192,279495,128,0,279634:0:0:0:0:
109,192,279495,128,0,279634:0:0:0:0:
402,192,279495,1,0,0:0:0:0:
256,192,279495,1,0,0:0:0:0:
256,192,279634,128,0,279772:0:0:0:0:
36,192,279634,128,0,279772:0:0:0:0:
402,192,279634,128,0,279772:0:0:0:0:
182,192,279634,1,0,0:0:0:0:
475,192,279634,1,0,0:0:0:0:
329,192,279772,128,0,279911:0:0:0:0:
475,192,279772,128,0,280050:0:0:0:0:
182,192,279772,128,0,279911:0:0:0:0:
109,192,279772,1,0,0:0:0:0:
402,192,279911,128,0,280050:0:0:0:0:
109,192,279911,1,0,0:0:0:0:
36,192,279911,128,0,280096:0:0:0:0:
256,192,279911,1,0,0:0:0:0:
256,192,280050,1,0,0:0:0:0:
109,192,280050,128,0,280143:0:0:0:0:
329,192,280096,1,0,0:0:0:0:
182,192,280096,128,0,280189:0:0:0:0:
402,192,280143,1,0,0:0:0:0:
256,192,280143,128,0,280235:0:0:0:0:
109,192,280189,1,0,0:0:0:0:
36,192,280189,1,0,0:0:0:0:
475,192,280189,128,0,280328:0:0:0:0:
329,192,280189,1,0,0:0:0:0:
182,192,280259,1,0,0:0:0:0:
329,192,280328,1,0,0:0:0:0:
256,192,280328,128,0,280397:0:0:0:0:
36,192,280328,1,0,0:0:0:0:
109,192,280374,1,0,0:0:0:0:
182,192,280397,128,0,280467:0:0:0:0:
402,192,280421,1,0,0:0:0:0:
109,192,280467,1,0,0:0:0:0:
36,192,280467,1,0,0:0:0:0:
329,192,280467,128,0,280606:0:0:0:0:
475,192,280467,1,0,0:0:0:0:
256,192,280606,1,0,0:0:0:0:
402,192,280606,1,0,0:0:0:0:
475,192,280606,1,0,0:0:0:0:
182,192,280606,128,0,280745:0:0:0:0:
109,192,280606,1,0,0:0:0:0:
36,192,280606,1,0,0:0:0:0:
402,192,280745,1,0,0:0:0:0:
475,192,280745,1,0,0:0:0:0:
256,192,280745,128,0,281161:0:0:0:0:
109,192,280745,1,0,0:0:0:0:
36,192,280745,1,0,0:0:0:0:
329,192,280745,1,0,0:0:0:0:
182,192,280814,1,0,0:0:0:0:
402,192,280884,1,0,0:0:0:0:
475,192,280884,1,0,0:0:0:0:
36,192,280884,1,0,0:0:0:0:
329,192,280930,1,0,0:0:0:0:
182,192,280976,1,0,0:0:0:0:
36,192,281022,1,0,0:0:0:0:
475,192,281022,1,0,0:0:0:0:
329,192,281022,128,0,281439:0:0:0:0:
109,192,281022,1,0,0:0:0:0:
182,192,281092,1,0,0:0:0:0:
475,192,281161,1,0,0:0:0:0:
36,192,281161,1,0,0:0:0:0:
402,192,281161,128,0,281300:0:0:0:0:
109,192,281208,1,0,0:0:0:0:
256,192,281254,1,0,0:0:0:0:
36,192,281300,1,0,0:0:0:0:
475,192,281300,1,0,0:0:0:0:
182,192,281300,128,0,281717:0:0:0:0:
109,192,281300,1,0,0:0:0:0:
256,192,281370,1,0,0:0:0:0:
36,192,281439,1,0,0:0:0:0:
475,192,281439,1,0,0:0:0:0:
109,192,281439,128,0,281578:0:0:0:0:
402,192,281485,1,0,0:0:0:0:
329,192,281532,1,0,0:0:0:0:
256,192,281578,1,0,0:0:0:0:
36,192,281578,1,0,0:0:0:0:
475,192,281578,1,0,0:0:0:0:
402,192,281578,128,0,281717:0:0:0:0:
329,192,281647,1,0,0:0:0:0:
36,192,281717,1,0,0:0:0:0:
475,192,281717,128,0,281856:0:0:0:0:
256,192,281717,128,0,281856:0:0:0:0:
109,192,281763,1,0,0:0:0:0:
182,192,281809,1,0,0:0:0:0:
36,192,281856,128,0,282064:0:0:0:0:
402,192,281856,1,0,0:0:0:0:
329,192,281856,1,0,0:0:0:0:
109,192,281856,1,0,0:0:0:0:
256,192,281925,1,0,0:0:0:0:
475,192,281995,1,0,0:0:0:0:
402,192,281995,1,0,0:0:0:0:
182,192,281995,128,0,282134:0:0:0:0:
329,192,281995,128,0,282134:0:0:0:0:
109,192,282064,1,0,0:0:0:0:
475,192,282134,128,0,282272:0:0:0:0:
36,192,282134,1,0,0:0:0:0:
256,192,282134,1,0,0:0:0:0:
402,192,282203,128,0,282411:0:0:0:0:
109,192,282203,1,0,0:0:0:0:
36,192,282272,1,0,0:0:0:0:
256,192,282272,1,0,0:0:0:0:
329,192,282272,128,0,282550:0:0:0:0:
182,192,282272,128,0,282550:0:0:0:0:
475,192,282342,1,0,0:0:0:0:
109,192,282411,1,0,0:0:0:0:
36,192,282411,1,0,0:0:0:0:
256,192,282481,1,0,0:0:0:0:
109,192,282550,1,0,0:0:0:0:
402,192,282550,1,0,0:0:0:0:
36,192,282550,1,0,0:0:0:0:
475,192,282550,1,0,0:0:0:0:
256,192,282596,1,0,0:0:0:0:
182,192,282643,1,0,0:0:0:0:
329,192,282643,1,0,0:0:0:0:
109,192,282689,128,0,283036:0:0:0:0:
402,192,282689,128,0,283036:0:0:0:0:
36,192,282689,1,0,0:0:0:0:
475,192,282689,1,0,0:0:0:0:
182,192,282828,1,0,0:0:0:0:
329,192,282828,1,0,0:0:0:0:
36,192,282828,1,0,0:0:0:0:
475,192,282828,1,0,0:0:0:0:
475,192,282967,128,0,283106:0:0:0:0:
36,192,282967,128,0,283106:0:0:0:0:
256,192,282967,1,0,0:0:0:0:
182,192,282967,1,0,0:0:0:0:
329,192,282967,1,0,0:0:0:0:
402,192,283106,128,0,283175:0:0:0:0:
109,192,283106,128,0,283175:0:0:0:0:
329,192,283175,128,0,283245:0:0:0:0:
182,192,283175,128,0,283245:0:0:0:0:
475,192,283245,1,0,0:0:0:0:
256,192,283245,1,0,0:0:0:0:
36,192,283245,1,0,0:0:0:0:
402,192,283245,128,0,283592:0:0:0:0:
109,192,283245,128,0,283592:0:0:0:0:
329,192,283291,1,0,0:0:0:0:
182,192,283337,1,0,0:0:0:0:
256,192,283384,1,0,0:0:0:0:
329,192,283430,1,0,0:0:0:0:
182,192,283476,1,0,0:0:0:0:
256,192,283522,128,0,283661:0:0:0:0:
475,192,283522,128,0,283731:0:0:0:0:
36,192,283522,128,0,283731:0:0:0:0:
109,192,283661,1,0,0:0:0:0:
402,192,283661,1,0,0:0:0:0:
182,192,283661,128,0,283870:0:0:0:0:
329,192,283661,128,0,283870:0:0:0:0:
36,192,283800,1,0,0:0:0:0:
475,192,283800,1,0,0:0:0:0:
256,192,283800,128,0,283939:0:0:0:0:
109,192,283800,128,0,284009:0:0:0:0:
402,192,283800,128,0,284009:0:0:0:0:
475,192,283939,1,0,0:0:0:0:
36,192,283939,1,0,0:0:0:0:
182,192,283939,128,0,284078:0:0:0:0:
329,192,283939,128,0,284078:0:0:0:0:
36,192,284078,128,0,284147:0:0:0:0:
402,192,284078,1,0,0:0:0:0:
256,192,284078,128,0,284564:0:0:0:0:
475,192,284078,1,0,0:0:0:0:
109,192,284078,1,0,0:0:0:0:
329,192,284124,1,0,0:0:0:0:
182,192,284171,1,0,0:0:0:0:
475,192,284217,128,0,284286:0:0:0:0:
109,192,284217,1,0,0:0:0:0:
402,192,284217,1,0,0:0:0:0:
182,192,284263,1,0,0:0:0:0:
329,192,284309,1,0,0:0:0:0:
36,192,284356,1,0,0:0:0:0:
109,192,284356,1,0,0:0:0:0:
402,192,284356,1,0,0:0:0:0:
329,192,284402,1,0,0:0:0:0:
182,192,284448,1,0,0:0:0:0:
475,192,284495,1,0,0:0:0:0:
109,192,284495,128,0,284564:0:0:0:0:
36,192,284495,1,0,0:0:0:0:
402,192,284541,1,0,0:0:0:0:
329,192,284587,1,0,0:0:0:0:
402,192,284634,128,0,284703:0:0:0:0:
36,192,284634,1,0,0:0:0:0:
256,192,284634,1,0,0:0:0:0:
475,192,284634,1,0,0:0:0:0:
109,192,284680,1,0,0:0:0:0:
182,192,284726,1,0,0:0:0:0:
36,192,284772,1,0,0:0:0:0:
475,192,284772,1,0,0:0:0:0:
109,192,284772,128,0,284842:0:0:0:0:
329,192,284772,1,0,0:0:0:0:
256,192,284819,1,0,0:0:0:0:
182,192,284865,1,0,0:0:0:0:
402,192,284911,1,0,0:0:0:0:
475,192,284911,1,0,0:0:0:0:
109,192,284911,1,0,0:0:0:0:
36,192,284911,1,0,0:0:0:0:
329,192,284981,1,0,0:0:0:0:
36,192,284981,1,0,0:0:0:0:
109,192,284981,1,0,0:0:0:0:
475,192,285050,1,0,0:0:0:0:
402,192,285050,1,0,0:0:0:0:
182,192,285050,1,0,0:0:0:0:
402,192,285120,1,0,0:0:0:0:
475,192,285120,1,0,0:0:0:0:
36,192,285189,128,0,285652:0:0:0:0:
256,192,285189,128,0,285259:0:0:0:0:
109,192,285189,128,0,285351:0:0:0:0:
182,192,285189,128,0,285305:0:0:0:0:
329,192,285189,1,0,0:0:0:0:
402,192,285282,1,0,0:0:0:0:
256,192,285328,1,0,0:0:0:0:
182,192,285374,1,0,0:0:0:0:
109,192,285421,1,0,0:0:0:0:
182,192,285467,128,0,285629:0:0:0:0:
475,192,285467,1,0,0:0:0:0:
256,192,285467,128,0,285583:0:0:0:0:
329,192,285467,128,0,285536:0:0:0:0:
402,192,285467,1,0,0:0:0:0:
475,192,285559,1,0,0:0:0:0:
329,192,285606,1,0,0:0:0:0:
256,192,285652,1,0,0:0:0:0:
182,192,285698,1,0,0:0:0:0:
109,192,285745,1,0,0:0:0:0:
36,192,285745,1,0,0:0:0:0:
329,192,285745,1,0,0:0:0:0:
475,192,285745,128,0,285837:0:0:0:0:
402,192,285745,1,0,0:0:0:0:
329,192,285837,128,0,285930:0:0:0:0:
182,192,285837,1,0,0:0:0:0:
256,192,285837,1,0,0:0:0:0:
182,192,285930,128,0,286022:0:0:0:0:
36,192,285930,1,0,0:0:0:0:
109,192,285930,1,0,0:0:0:0:
475,192,286022,1,0,0:0:0:0:
402,192,286022,128,0,286115:0:0:0:0:
36,192,286022,128,0,286092:0:0:0:0:
256,192,286022,1,0,0:0:0:0:
329,192,286022,1,0,0:0:0:0:
109,192,286092,128,0,286161:0:0:0:0:
475,192,286161,1,0,0:0:0:0:
182,192,286161,128,0,286231:0:0:0:0:
329,192,286161,1,0,0:0:0:0:
36,192,286208,1,0,0:0:0:0:
256,192,286231,128,0,286300:0:0:0:0:
402,192,286231,128,0,286462:0:0:0:0:
475,192,286254,128,0,286509:0:0:0:0:
109,192,286254,1,0,0:0:0:0:
329,192,286300,128,0,286416:0:0:0:0:
182,192,286300,1,0,0:0:0:0:
36,192,286370,128,0,286509:0:0:0:0:
182,192,286439,1,0,0:0:0:0:
109,192,286439,128,0,286509:0:0:0:0:
329,192,286485,1,0,0:0:0:0:
256,192,286509,128,0,286647:0:0:0:0:
402,192,286532,1,0,0:0:0:0:
109,192,286578,128,0,286786:0:0:0:0:
475,192,286578,1,0,0:0:0:0:
182,192,286578,128,0,286647:0:0:0:0:
329,192,286578,1,0,0:0:0:0:
36,192,286578,1,0,0:0:0:0:
475,192,286671,1,0,0:0:0:0:
402,192,286717,1,0,0:0:0:0:
36,192,286717,128,0,286925:0:0:0:0:
182,192,286717,128,0,286786:0:0:0:0:
329,192,286763,1,0,0:0:0:0:
256,192,286809,1,0,0:0:0:0:
109,192,286856,128,0,286925:0:0:0:0:
402,192,286856,128,0,287064:0:0:0:0:
329,192,286856,128,0,286925:0:0:0:0:
182,192,286856,1,0,0:0:0:0:
475,192,286856,1,0,0:0:0:0:
256,192,286948,1,0,0:0:0:0:
36,192,286995,1,0,0:0:0:0:
475,192,286995,128,0,287203:0:0:0:0:
329,192,286995,128,0,287064:0:0:0:0:
109,192,287041,1,0,0:0:0:0:
256,192,287087,1,0,0:0:0:0:
109,192,287134,1,0,0:0:0:0:
182,192,287134,128,0,287272:0:0:0:0:
36,192,287134,128,0,287203:0:0:0:0:
402,192,287134,128,0,287203:0:0:0:0:
329,192,287134,1,0,0:0:0:0:
36,192,287272,1,0,0:0:0:0:
475,192,287272,1,0,0:0:0:0:
109,192,287272,128,0,287342:0:0:0:0:
256,192,287272,128,0,287411:0:0:0:0:
329,192,287272,1,0,0:0:0:0:
402,192,287272,1,0,0:0:0:0:
402,192,287411,128,0,287550:0:0:0:0:
109,192,287411,128,0,287504:0:0:0:0:
36,192,287411,128,0,287481:0:0:0:0:
182,192,287411,128,0,287527:0:0:0:0:
475,192,287411,1,0,0:0:0:0:
329,192,287411,128,0,287481:0:0:0:0:
256,192,287504,1,0,0:0:0:0:
36,192,287550,1,0,0:0:0:0:
475,192,287550,128,0,287620:0:0:0:0:
329,192,287550,1,0,0:0:0:0:
109,192,287596,1,0,0:0:0:0:
256,192,287620,128,0,287759:0:0:0:0:
182,192,287643,1,0,0:0:0:0:
475,192,287689,128,0,287805:0:0:0:0:
402,192,287689,128,0,287782:0:0:0:0:
36,192,287689,1,0,0:0:0:0:
329,192,287689,128,0,287759:0:0:0:0:
182,192,287759,128,0,287897:0:0:0:0:
109,192,287782,1,0,0:0:0:0:
256,192,287828,1,0,0:0:0:0:
329,192,287828,128,0,287897:0:0:0:0:
475,192,287874,1,0,0:0:0:0:
109,192,287897,128,0,288059:0:0:0:0:
402,192,287921,1,0,0:0:0:0:
36,192,287967,128,0,288083:0:0:0:0:
182,192,287967,128,0,288036:0:0:0:0:
256,192,287967,128,0,288106:0:0:0:0:
329,192,287967,1,0,0:0:0:0:
475,192,288036,128,0,288106:0:0:0:0:
402,192,288106,128,0,288245:0:0:0:0:
329,192,288106,1,0,0:0:0:0:
182,192,288106,128,0,288245:0:0:0:0:
36,192,288152,1,0,0:0:0:0:
256,192,288198,1,0,0:0:0:0:
109,192,288245,128,0,288337:0:0:0:0:
36,192,288245,128,0,288314:0:0:0:0:
475,192,288245,128,0,288384:0:0:0:0:
329,192,288245,128,0,288360:0:0:0:0:
182,192,288337,1,0,0:0:0:0:
36,192,288384,1,0,0:0:0:0:
256,192,288384,128,0,288522:0:0:0:0:
402,192,288384,1,0,0:0:0:0:
109,192,288430,1,0,0:0:0:0:
475,192,288476,1,0,0:0:0:0:
182,192,288522,1,0,0:0:0:0:
402,192,288522,128,0,288615:0:0:0:0:
329,192,288522,128,0,288638:0:0:0:0:
109,192,288522,128,0,288661:0:0:0:0:
36,192,288522,1,0,0:0:0:0:
256,192,288615,1,0,0:0:0:0:
36,192,288661,128,0,288731:0:0:0:0:
475,192,288661,1,0,0:0:0:0:
182,192,288661,1,0,0:0:0:0:
402,192,288708,1,0,0:0:0:0:
109,192,288731,128,0,288800:0:0:0:0:
329,192,288754,1,0,0:0:0:0:
182,192,288800,128,0,288870:0:0:0:0:
256,192,288800,128,0,288939:0:0:0:0:
36,192,288800,128,0,288870:0:0:0:0:
475,192,288800,128,0,288939:0:0:0:0:
329,192,288870,128,0,289009:0:0:0:0:
109,192,288870,128,0,288939:0:0:0:0:
402,192,288939,128,0,289009:0:0:0:0:
182,192,288939,128,0,289009:0:0:0:0:
475,192,289009,128,0,289078:0:0:0:0:
256,192,289009,128,0,289078:0:0:0:0:
109,192,289078,1,0,0:0:0:0:
36,192,289078,1,0,0:0:0:0:
182,192,289078,1,0,0:0:0:0:
402,192,289078,1,0,0:0:0:0:
329,192,289078,1,0,0:0:0:0:
36,192,289217,1,0,0:0:0:0:
256,192,289217,1,0,0:0:0:0:
109,192,289217,1,0,0:0:0:0:
475,192,289217,1,0,0:0:0:0:
329,192,289217,1,0,0:0:0:0:
36,192,289356,1,0,0:0:0:0:
109,192,289356,1,0,0:0:0:0:
182,192,289356,1,0,0:0:0:0:
402,192,289425,1,0,0:0:0:0:
329,192,289425,1,0,0:0:0:0:
256,192,289425,1,0,0:0:0:0:
256,192,289495,1,0,0:0:0:0:
109,192,289495,1,0,0:0:0:0:
182,192,289495,1,0,0:0:0:0:
475,192,289564,1,0,0:0:0:0:
329,192,289564,1,0,0:0:0:0:
402,192,289564,1,0,0:0:0:0:
109,192,289634,128,0,289911:0:0:0:0:
36,192,289634,128,0,290050:0:0:0:0:
182,192,289634,128,0,289772:0:0:0:0:
256,192,289634,1,0,0:0:0:0:
329,192,289703,1,0,0:0:0:0:
402,192,289772,1,0,0:0:0:0:
475,192,289772,1,0,0:0:0:0:
256,192,289819,1,0,0:0:0:0:
329,192,289865,1,0,0:0:0:0:
182,192,289911,1,0,0:0:0:0:
475,192,289911,128,0,290120:0:0:0:0:
402,192,289911,1,0,0:0:0:0:
256,192,289981,1,0,0:0:0:0:
402,192,290050,128,0,290189:0:0:0:0:
109,192,290050,1,0,0:0:0:0:
329,192,290050,1,0,0:0:0:0:
182,192,290096,1,0,0:0:0:0:
256,192,290143,1,0,0:0:0:0:
36,192,290189,1,0,0:0:0:0:
329,192,290189,128,0,290259:0:0:0:0:
182,192,290189,1,0,0:0:0:0:
109,192,290189,1,0,0:0:0:0:
475,192,290259,1,0,0:0:0:0:
256,192,290259,128,0,290328:0:0:0:0:
402,192,290328,1,0,0:0:0:0:
109,192,290328,128,0,290397:0:0:0:0:
36,192,290328,1,0,0:0:0:0:
329,192,290397,128,0,290536:0:0:0:0:
256,192,290397,1,0,0:0:0:0:
36,192,290467,1,0,0:0:0:0:
182,192,290467,128,0,290536:0:0:0:0:
402,192,290467,1,0,0:0:0:0:
475,192,290467,1,0,0:0:0:0:
109,192,290536,1,0,0:0:0:0:
256,192,290536,128,0,290606:0:0:0:0:
182,192,290606,1,0,0:0:0:0:
329,192,290606,1,0,0:0:0:0:
402,192,290606,128,0,290745:0:0:0:0:
475,192,290606,1,0,0:0:0:0:
109,192,290675,1,0,0:0:0:0:
182,192,290745,1,0,0:0:0:0:
36,192,290745,128,0,290837:0:0:0:0:
256,192,290745,1,0,0:0:0:0:
475,192,290745,1,0,0:0:0:0:
109,192,290791,128,0,290884:0:0:0:0:
329,192,290791,1,0,0:0:0:0:
182,192,290837,128,0,290930:0:0:0:0:
402,192,290837,1,0,0:0:0:0:
475,192,290884,128,0,291022:0:0:0:0:
329,192,290884,128,0,291022:0:0:0:0:
256,192,290884,1,0,0:0:0:0:
109,192,290953,1,0,0:0:0:0:
402,192,291022,128,0,291161:0:0:0:0:
256,192,291022,1,0,0:0:0:0:
36,192,291022,1,0,0:0:0:0:
182,192,291022,1,0,0:0:0:0:
329,192,291092,128,0,291231:0:0:0:0:
109,192,291092,1,0,0:0:0:0:
475,192,291161,1,0,0:0:0:0:
256,192,291161,128,0,291300:0:0:0:0:
36,192,291161,1,0,0:0:0:0:
109,192,291300,1,0,0:0:0:0:
402,192,291300,1,0,0:0:0:0:
36,192,291300,128,0,291439:0:0:0:0:
475,192,291300,128,0,291439:0:0:0:0:
256,192,291370,1,0,0:0:0:0:
329,192,291439,1,0,0:0:0:0:
182,192,291439,1,0,0:0:0:0:
402,192,291509,128,0,291647:0:0:0:0:
109,192,291509,128,0,291647:0:0:0:0:
475,192,291578,1,0,0:0:0:0:
36,192,291578,1,0,0:0:0:0:
182,192,291578,1,0,0:0:0:0:
329,192,291578,1,0,0:0:0:0:
256,192,291647,1,0,0:0:0:0:
402,192,291717,1,0,0:0:0:0:
36,192,291717,1,0,0:0:0:0:
475,192,291717,1,0,0:0:0:0:
182,192,291717,128,0,291856:0:0:0:0:
329,192,291717,128,0,291856:0:0:0:0:
109,192,291717,1,0,0:0:0:0:
36,192,291856,1,0,0:0:0:0:
475,192,291856,1,0,0:0:0:0:
256,192,291856,128,0,292064:0:0:0:0:
109,192,291856,1,0,0:0:0:0:
402,192,291856,1,0,0:0:0:0:
402,192,291995,1,0,0:0:0:0:
36,192,291995,128,0,292342:0:0:0:0:
475,192,291995,1,0,0:0:0:0:
182,192,291995,1,0,0:0:0:0:
329,192,291995,1,0,0:0:0:0:
109,192,292134,1,0,0:0:0:0:
475,192,292134,128,0,292342:0:0:0:0:
329,192,292134,1,0,0:0:0:0:
182,192,292134,1,0,0:0:0:0:
256,192,292134,1,0,0:0:0:0:
402,192,292134,1,0,0:0:0:0:
109,192,292272,1,0,0:0:0:0:
402,192,292272,1,0,0:0:0:0:
182,192,292272,1,0,0:0:0:0:
329,192,292272,1,0,0:0:0:0:
109,192,292411,1,0,0:0:0:0:
402,192,292411,1,0,0:0:0:0:
329,192,292411,1,0,0:0:0:0:
182,192,292411,1,0,0:0:0:0:
475,192,292411,1,0,0:0:0:0:
36,192,292411,1,0,0:0:0:0:
256,192,292411,128,0,292550:0:0:0:0:
36,192,292550,1,0,0:0:0:0:
475,192,292550,1,0,0:0:0:0:
109,192,292550,1,0,0:0:0:0:
329,192,292550,128,0,292620:0:0:0:0:
182,192,292620,1,0,0:0:0:0:
402,192,292620,128,0,292689:0:0:0:0:
36,192,292689,1,0,0:0:0:0:
256,192,292689,1,0,0:0:0:0:
109,192,292689,1,0,0:0:0:0:
475,192,292689,1,0,0:0:0:0:
329,192,292759,1,0,0:0:0:0:
182,192,292759,128,0,292828:0:0:0:0:
402,192,292828,1,0,0:0:0:0:
109,192,292828,128,0,292897:0:0:0:0:
256,192,292828,1,0,0:0:0:0:
475,192,292828,1,0,0:0:0:0:
36,192,292897,1,0,0:0:0:0:
329,192,292897,1,0,0:0:0:0:
475,192,292967,5,0,0:0:0:0:
256,192,292967,1,0,0:0:0:0:
402,192,293002,1,0,0:0:0:0:
182,192,293002,1,0,0:0:0:0:
109,192,293036,1,0,0:0:0:0:
329,192,293036,1,0,0:0:0:0:
36,192,293071,1,0,0:0:0:0:
475,192,293106,1,0,0:0:0:0:
402,192,293106,1,0,0:0:0:0:
109,192,293175,1,0,0:0:0:0:
182,192,293175,1,0,0:0:0:0:
256,192,293175,1,0,0:0:0:0:
36,192,293245,1,0,0:0:0:0:
329,192,293245,1,0,0:0:0:0:
402,192,293245,1,0,0:0:0:0:
475,192,293245,1,0,0:0:0:0:
256,192,293314,1,0,0:0:0:0:
109,192,293384,1,0,0:0:0:0:
475,192,293384,1,0,0:0:0:0:
36,192,293384,1,0,0:0:0:0:
182,192,293384,1,0,0:0:0:0:
329,192,293453,1,0,0:0:0:0:
256,192,293453,1,0,0:0:0:0:
402,192,293522,1,0,0:0:0:0:
475,192,293522,1,0,0:0:0:0:
109,192,293522,1,0,0:0:0:0:
36,192,293522,1,0,0:0:0:0:
182,192,293592,1,0,0:0:0:0:
256,192,293592,1,0,0:0:0:0:
475,192,293661,1,0,0:0:0:0:
402,192,293661,1,0,0:0:0:0:
329,192,293661,1,0,0:0:0:0:
36,192,293661,1,0,0:0:0:0:
182,192,293731,1,0,0:0:0:0:
402,192,293800,1,0,0:0:0:0:
329,192,293800,1,0,0:0:0:0:
109,192,293800,1,0,0:0:0:0:
36,192,293800,1,0,0:0:0:0:
475,192,293800,1,0,0:0:0:0:
256,192,293870,1,0,0:0:0:0:
36,192,293939,1,0,0:0:0:0:
475,192,293939,1,0,0:0:0:0:
402,192,293939,1,0,0:0:0:0:
182,192,293939,1,0,0:0:0:0:
329,192,293939,1,0,0:0:0:0:
109,192,293939,1,0,0:0:0:0:
329,192,294009,1,0,0:0:0:0:
182,192,294009,1,0,0:0:0:0:
256,192,294078,5,0,0:0:0:0:
109,192,294078,1,0,0:0:0:0:
402,192,294078,1,0,0:0:0:0:
475,192,294078,1,0,0:0:0:0:
36,192,294078,1,0,0:0:0:0:
182,192,294356,1,0,0:0:0:0:
256,192,294356,1,0,0:0:0:0:
109,192,294356,1,0,0:0:0:0:
329,192,294356,1,0,0:0:0:0:
402,192,294356,1,0,0:0:0:0:
182,192,294634,1,0,0:0:0:0:
329,192,294634,1,0,0:0:0:0:
256,192,294634,1,0,0:0:0:0:
475,192,294634,1,0,0:0:0:0:
402,192,294634,1,0,0:0:0:0:
182,192,294911,1,0,0:0:0:0:
109,192,294911,1,0,0:0:0:0:
256,192,294911,1,0,0:0:0:0:
402,192,294911,1,0,0:0:0:0:
329,192,294911,1,0,0:0:0:0:
329,192,295189,1,0,0:0:0:0:
256,192,295189,1,0,0:0:0:0:
36,192,295189,1,0,0:0:0:0:
182,192,295189,1,0,0:0:0:0:
109,192,295189,1,0,0:0:0:0:
329,192,295467,1,0,0:0:0:0:
475,192,295467,1,0,0:0:0:0:
182,192,295467,1,0,0:0:0:0:
36,192,295467,1,0,0:0:0:0:
109,192,295467,1,0,0:0:0:0:
256,192,295745,1,0,0:0:0:0:
109,192,295745,1,0,0:0:0:0:
329,192,295745,1,0,0:0:0:0:
402,192,295745,1,0,0:0:0:0:
182,192,295745,1,0,0:0:0:0:
475,192,296022,1,0,0:0:0:0:
402,192,296022,1,0,0:0:0:0:
36,192,296022,1,0,0:0:0:0:
329,192,296022,1,0,0:0:0:0:
182,192,296022,1,0,0:0:0:0:
402,192,296300,1,0,0:0:0:0:
475,192,296300,1,0,0:0:0:0:
256,192,296300,1,0,0:0:0:0:
109,192,296300,1,0,0:0:0:0:
329,192,296300,1,0,0:0:0:0:
329,192,296578,1,0,0:0:0:0:
256,192,296578,1,0,0:0:0:0:
109,192,296578,1,0,0:0:0:0:
36,192,296578,1,0,0:0:0:0:
182,192,296578,1,0,0:0:0:0:
36,192,296717,1,0,0:0:0:0:
182,192,296717,1,0,0:0:0:0:
329,192,296717,1,0,0:0:0:0:
182,192,296856,1,0,0:0:0:0:
109,192,296856,1,0,0:0:0:0:
475,192,296856,1,0,0:0:0:0:
329,192,296856,1,0,0:0:0:0:
402,192,296856,1,0,0:0:0:0:
256,192,296856,1,0,0:0:0:0:
182,192,297134,1,0,0:0:0:0:
109,192,297134,1,0,0:0:0:0:
329,192,297134,1,0,0:0:0:0:
475,192,297134,1,0,0:0:0:0:
402,192,297134,1,0,0:0:0:0:
36,192,297134,1,0,0:0:0:0:
402,192,297272,1,0,0:0:0:0:
475,192,297272,1,0,0:0:0:0:
256,192,297272,1,0,0:0:0:0:
109,192,297272,1,0,0:0:0:0:
36,192,297272,1,0,0:0:0:0:
109,192,297411,1,0,0:0:0:0:
36,192,297411,1,0,0:0:0:0:
182,192,297411,1,0,0:0:0:0:
256,192,297411,1,0,0:0:0:0:
402,192,297411,1,0,0:0:0:0:
329,192,297411,1,0,0:0:0:0:
256,192,297620,1,0,0:0:0:0:
109,192,297620,1,0,0:0:0:0:
36,192,297620,1,0,0:0:0:0:
182,192,297620,1,0,0:0:0:0:
329,192,297620,1,0,0:0:0:0:
475,192,297620,1,0,0:0:0:0:
475,192,297828,1,0,0:0:0:0:
256,192,297828,1,0,0:0:0:0:
182,192,297828,1,0,0:0:0:0:
36,192,297828,1,0,0:0:0:0:
402,192,297828,1,0,0:0:0:0:
109,192,297828,1,0,0:0:0:0:
36,192,297967,1,0,0:0:0:0:
109,192,297967,1,0,0:0:0:0:
475,192,297967,1,0,0:0:0:0:
329,192,297967,1,0,0:0:0:0:
182,192,297990,1,0,0:0:0:0:
256,192,298013,1,0,0:0:0:0:
402,192,298036,1,0,0:0:0:0:
329,192,298106,1,0,0:0:0:0:
182,192,298106,1,0,0:0:0:0:
36,192,298106,1,0,0:0:0:0:
109,192,298106,1,0,0:0:0:0:
256,192,298175,1,0,0:0:0:0:
402,192,298175,1,0,0:0:0:0:
36,192,298245,1,0,0:0:0:0:
475,192,298245,1,0,0:0:0:0:
182,192,298245,1,0,0:0:0:0:
329,192,298245,1,0,0:0:0:0:
109,192,298245,1,0,0:0:0:0:
109,192,298384,1,0,0:0:0:0:
402,192,298384,1,0,0:0:0:0:
256,192,298453,1,0,0:0:0:0:
182,192,298522,1,0,0:0:0:0:
109,192,298522,1,0,0:0:0:0:
36,192,298522,1,0,0:0:0:0:
475,192,298522,1,0,0:0:0:0:
402,192,298522,1,0,0:0:0:0:
329,192,298522,1,0,0:0:0:0:
329,192,298661,1,0,0:0:0:0:
402,192,298661,1,0,0:0:0:0:
475,192,298661,1,0,0:0:0:0:
109,192,298661,1,0,0:0:0:0:
182,192,298661,1,0,0:0:0:0:
256,192,298661,1,0,0:0:0:0:
329,192,298800,1,0,0:0:0:0:
402,192,298800,1,0,0:0:0:0:
475,192,298800,1,0,0:0:0:0:
182,192,298800,1,0,0:0:0:0:
36,192,298800,1,0,0:0:0:0:
256,192,298800,1,0,0:0:0:0:
475,192,298939,1,0,0:0:0:0:
256,192,298939,1,0,0:0:0:0:
329,192,298939,1,0,0:0:0:0:
402,192,298939,1,0,0:0:0:0:
109,192,298939,1,0,0:0:0:0:
36,192,298939,1,0,0:0:0:0:
36,192,299078,1,0,0:0:0:0:
109,192,299078,1,0,0:0:0:0:
182,192,299078,1,0,0:0:0:0:
329,192,299078,1,0,0:0:0:0:
475,192,299078,1,0,0:0:0:0:
402,192,299078,1,0,0:0:0:0:
256,192,299217,1,0,0:0:0:0:
402,192,299217,1,0,0:0:0:0:
475,192,299217,1,0,0:0:0:0:
36,192,299217,1,0,0:0:0:0:
109,192,299217,1,0,0:0:0:0:
182,192,299217,1,0,0:0:0:0:
329,192,299356,1,0,0:0:0:0:
256,192,299495,1,0,0:0:0:0:
182,192,299541,1,0,0:0:0:0:
329,192,299587,1,0,0:0:0:0:
36,192,299634,1,0,0:0:0:0:
256,192,299634,1,0,0:0:0:0:
109,192,299634,1,0,0:0:0:0:
402,192,299634,1,0,0:0:0:0:
475,192,299634,1,0,0:0:0:0:
182,192,299772,1,0,0:0:0:0:
109,192,299772,1,0,0:0:0:0:
36,192,299772,1,0,0:0:0:0:
475,192,299772,1,0,0:0:0:0:
402,192,299772,1,0,0:0:0:0:
329,192,299772,1,0,0:0:0:0:
329,192,299911,1,0,0:0:0:0:
402,192,299911,1,0,0:0:0:0:
475,192,299911,1,0,0:0:0:0:
256,192,299911,1,0,0:0:0:0:
109,192,299911,1,0,0:0:0:0:
36,192,299911,1,0,0:0:0:0:
475,192,300050,1,0,0:0:0:0:
182,192,300050,1,0,0:0:0:0:
402,192,300050,1,0,0:0:0:0:
36,192,300050,1,0,0:0:0:0:
329,192,300050,1,0,0:0:0:0:
109,192,300120,1,0,0:0:0:0:
256,192,300120,1,0,0:0:0:0:
402,192,300189,1,0,0:0:0:0:
475,192,300189,1,0,0:0:0:0:
329,192,300189,1,0,0:0:0:0:
182,192,300189,1,0,0:0:0:0:
36,192,300189,1,0,0:0:0:0:
36,192,300328,1,0,0:0:0:0:
402,192,300328,1,0,0:0:0:0:
475,192,300328,1,0,0:0:0:0:
109,192,300328,1,0,0:0:0:0:
182,192,300328,1,0,0:0:0:0:
256,192,300328,1,0,0:0:0:0:
36,192,300467,1,0,0:0:0:0:
329,192,300467,128,0,300675:0:0:0:0:
475,192,300467,128,0,300675:0:0:0:0:
182,192,300467,1,0,0:0:0:0:
256,192,300467,1,0,0:0:0:0:
109,192,300467,1,0,0:0:0:0:
402,192,300536,1,0,0:0:0:0:
36,192,300606,128,0,300675:0:0:0:0:
109,192,300606,128,0,300675:0:0:0:0:
182,192,300675,1,0,0:0:0:0:
36,192,300745,1,0,0:0:0:0:
475,192,300745,1,0,0:0:0:0:
329,192,300745,1,0,0:0:0:0:
109,192,300745,1,0,0:0:0:0:
402,192,300814,1,0,0:0:0:0:
256,192,300814,1,0,0:0:0:0:
475,192,300884,1,0,0:0:0:0:
36,192,300884,1,0,0:0:0:0:
329,192,300884,1,0,0:0:0:0:
182,192,300884,1,0,0:0:0:0:
256,192,300953,1,0,0:0:0:0:
109,192,300953,1,0,0:0:0:0:
36,192,301022,1,0,0:0:0:0:
475,192,301022,1,0,0:0:0:0:
402,192,301022,1,0,0:0:0:0:
182,192,301022,1,0,0:0:0:0:
256,192,301092,1,0,0:0:0:0:
109,192,301092,1,0,0:0:0:0:
36,192,301161,1,0,0:0:0:0:
475,192,301161,1,0,0:0:0:0:
182,192,301161,1,0,0:0:0:0:
329,192,301161,1,0,0:0:0:0:
256,192,301231,1,0,0:0:0:0:
402,192,301231,1,0,0:0:0:0:
109,192,301300,1,0,0:0:0:0:
182,192,301318,1,0,0:0:0:0:
256,192,301335,1,0,0:0:0:0:
329,192,301352,1,0,0:0:0:0:
402,192,301370,1,0,0:0:0:0:
475,192,301387,1,0,0:0:0:0:
36,192,301404,1,0,0:0:0:0:
109,192,301422,1,0,0:0:0:0:
182,192,301439,1,0,0:0:0:0:
256,192,301439,1,0,0:0:0:0:
475,192,301509,1,0,0:0:0:0:
402,192,301509,1,0,0:0:0:0:
329,192,301509,1,0,0:0:0:0:
109,192,301578,1,0,0:0:0:0:
36,192,301578,1,0,0:0:0:0:
256,192,301578,1,0,0:0:0:0:
182,192,301578,1,0,0:0:0:0:
402,192,301647,1,0,0:0:0:0:
475,192,301647,1,0,0:0:0:0:
109,192,301717,1,0,0:0:0:0:
36,192,301717,1,0,0:0:0:0:
182,192,301717,1,0,0:0:0:0:
329,192,301717,1,0,0:0:0:0:
256,192,301717,1,0,0:0:0:0:
475,192,301786,1,0,0:0:0:0:
109,192,301856,1,0,0:0:0:0:
36,192,301856,1,0,0:0:0:0:
256,192,301856,1,0,0:0:0:0:
402,192,301856,1,0,0:0:0:0:
329,192,301856,1,0,0:0:0:0:
182,192,301856,1,0,0:0:0:0:
256,192,301995,1,0,0:0:0:0:
182,192,302134,1,0,0:0:0:0:
329,192,302134,1,0,0:0:0:0:
402,192,302272,1,0,0:0:0:0:
109,192,302272,1,0,0:0:0:0:
182,192,302342,1,0,0:0:0:0:
329,192,302342,1,0,0:0:0:0:
475,192,302411,1,0,0:0:0:0:
36,192,302411,1,0,0:0:0:0:
256,192,302411,1,0,0:0:0:0:
329,192,302481,1,0,0:0:0:0:
182,192,302481,1,0,0:0:0:0:
109,192,302550,1,0,0:0:0:0:
402,192,302550,1,0,0:0:0:0:
329,192,302689,128,0,302897:0:0:0:0:
475,192,302689,128,0,302897:0:0:0:0:
256,192,302689,128,0,302897:0:0:0:0:
36,192,302689,128,0,302897:0:0:0:0:
182,192,302689,128,0,302897:0:0:0:0:
36,192,302967,1,0,0:0:0:0:
109,192,302967,1,0,0:0:0:0:
256,192,302967,1,0,0:0:0:0:
402,192,302967,1,0,0:0:0:0:
475,192,302967,1,0,0:0:0:0:
329,192,303106,1,0,0:0:0:0:
475,192,303106,1,0,0:0:0:0:
182,192,303106,1,0,0:0:0:0:
109,192,303140,1,0,0:0:0:0:
36,192,303175,1,0,0:0:0:0:
256,192,303210,1,0,0:0:0:0:
182,192,303245,1,0,0:0:0:0:
475,192,303245,1,0,0:0:0:0:
402,192,303245,1,0,0:0:0:0:
109,192,303279,1,0,0:0:0:0:
329,192,303314,1,0,0:0:0:0:
256,192,303349,1,0,0:0:0:0:
182,192,303384,1,0,0:0:0:0:
109,192,303384,1,0,0:0:0:0:
36,192,303384,1,0,0:0:0:0:
182,192,303453,1,0,0:0:0:0:
109,192,303453,1,0,0:0:0:0:
36,192,303453,1,0,0:0:0:0:
256,192,303522,1,0,0:0:0:0:
329,192,303522,1,0,0:0:0:0:
402,192,303522,1,0,0:0:0:0:
475,192,303522,1,0,0:0:0:0:
329,192,303615,1,0,0:0:0:0:
182,192,303615,1,0,0:0:0:0:
475,192,303615,1,0,0:0:0:0:
475,192,303708,1,0,0:0:0:0:
329,192,303708,1,0,0:0:0:0:
109,192,303708,1,0,0:0:0:0:
402,192,303800,1,0,0:0:0:0:
182,192,303800,1,0,0:0:0:0:
36,192,303800,1,0,0:0:0:0:
475,192,303800,1,0,0:0:0:0:
256,192,303846,1,0,0:0:0:0:
329,192,303893,1,0,0:0:0:0:
402,192,303939,1,0,0:0:0:0:
36,192,303939,1,0,0:0:0:0:
109,192,303962,1,0,0:0:0:0:
182,192,303985,1,0,0:0:0:0:
256,192,304009,1,0,0:0:0:0:
329,192,304032,1,0,0:0:0:0:
402,192,304055,1,0,0:0:0:0:
475,192,304078,1,0,0:0:0:0:
109,192,304078,1,0,0:0:0:0:
36,192,304078,1,0,0:0:0:0:
256,192,304147,1,0,0:0:0:0:
329,192,304147,1,0,0:0:0:0:
182,192,304217,1,0,0:0:0:0:
109,192,304217,1,0,0:0:0:0:
36,192,304217,1,0,0:0:0:0:
475,192,304356,1,0,0:0:0:0:
256,192,304356,1,0,0:0:0:0:
402,192,304356,1,0,0:0:0:0:
329,192,304356,1,0,0:0:0:0:
182,192,304379,1,0,0:0:0:0:
109,192,304402,1,0,0:0:0:0:
36,192,304425,1,0,0:0:0:0:
475,192,304495,1,0,0:0:0:0:
402,192,304495,1,0,0:0:0:0:
109,192,304529,1,0,0:0:0:0:
182,192,304564,1,0,0:0:0:0:
256,192,304599,1,0,0:0:0:0:
329,192,304634,1,0,0:0:0:0:
475,192,304634,1,0,0:0:0:0:
402,192,304634,1,0,0:0:0:0:
329,192,304703,1,0,0:0:0:0:
475,192,304703,1,0,0:0:0:0:
36,192,304772,1,0,0:0:0:0:
182,192,304772,1,0,0:0:0:0:
109,192,304772,1,0,0:0:0:0:
182,192,304842,1,0,0:0:0:0:
36,192,304842,1,0,0:0:0:0:
475,192,304911,1,0,0:0:0:0:
402,192,304911,1,0,0:0:0:0:
36,192,304946,1,0,0:0:0:0:
329,192,304946,1,0,0:0:0:0:
109,192,304981,1,0,0:0:0:0:
256,192,304981,1,0,0:0:0:0:
182,192,305015,1,0,0:0:0:0:
402,192,305050,1,0,0:0:0:0:
475,192,305050,1,0,0:0:0:0:
329,192,305085,1,0,0:0:0:0:
256,192,305120,1,0,0:0:0:0:
475,192,305189,1,0,0:0:0:0:
402,192,305189,1,0,0:0:0:0:
182,192,305189,1,0,0:0:0:0:
109,192,305189,1,0,0:0:0:0:
36,192,305189,1,0,0:0:0:0:
329,192,305189,1,0,0:0:0:0:
475,192,305282,1,0,0:0:0:0:
402,192,305282,1,0,0:0:0:0:
329,192,305282,1,0,0:0:0:0:
256,192,305282,1,0,0:0:0:0:
182,192,305282,1,0,0:0:0:0:
109,192,305282,1,0,0:0:0:0:
36,192,305282,1,0,0:0:0:0:
36,192,305374,1,0,0:0:0:0:
109,192,305374,1,0,0:0:0:0:
182,192,305374,1,0,0:0:0:0:
256,192,305374,1,0,0:0:0:0:
329,192,305374,1,0,0:0:0:0:
402,192,305374,1,0,0:0:0:0:
475,192,305374,1,0,0:0:0:0:
475,192,305467,1,0,0:0:0:0:
402,192,305467,1,0,0:0:0:0:
329,192,305467,1,0,0:0:0:0:
256,192,305467,1,0,0:0:0:0:
182,192,305467,1,0,0:0:0:0:
109,192,305467,1,0,0:0:0:0:
36,192,305467,1,0,0:0:0:0:
36,192,305559,1,0,0:0:0:0:
109,192,305559,1,0,0:0:0:0:
182,192,305559,1,0,0:0:0:0:
256,192,305559,1,0,0:0:0:0:
329,192,305559,1,0,0:0:0:0:
402,192,305559,1,0,0:0:0:0:
475,192,305559,1,0,0:0:0:0:
475,192,305652,1,0,0:0:0:0:
402,192,305652,1,0,0:0:0:0:
329,192,305652,1,0,0:0:0:0:
256,192,305652,1,0,0:0:0:0:
182,192,305652,1,0,0:0:0:0:
109,192,305652,1,0,0:0:0:0:
36,192,305652,1,0,0:0:0:0:
36,192,305745,1,0,0:0:0:0:
109,192,305745,1,0,0:0:0:0:
182,192,305745,1,0,0:0:0:0:
256,192,305779,1,0,0:0:0:0:
329,192,305814,1,0,0:0:0:0:
402,192,305849,1,0,0:0:0:0:
109,192,305884,1,0,0:0:0:0:
475,192,305884,1,0,0:0:0:0:
36,192,305953,1,0,0:0:0:0:
182,192,305953,1,0,0:0:0:0:
329,192,305953,1,0,0:0:0:0:
402,192,306022,1,0,0:0:0:0:
256,192,306022,1,0,0:0:0:0:
182,192,306057,1,0,0:0:0:0:
109,192,306092,1,0,0:0:0:0:
36,192,306127,1,0,0:0:0:0:
475,192,306161,1,0,0:0:0:0:
402,192,306161,1,0,0:0:0:0:
182,192,306231,1,0,0:0:0:0:
329,192,306231,1,0,0:0:0:0:
36,192,306300,1,0,0:0:0:0:
109,192,306300,1,0,0:0:0:0:
256,192,306300,1,0,0:0:0:0:
329,192,306370,1,0,0:0:0:0:
475,192,306370,1,0,0:0:0:0:
475,192,306439,1,0,0:0:0:0:
329,192,306439,1,0,0:0:0:0:
109,192,306439,1,0,0:0:0:0:
475,192,306509,1,0,0:0:0:0:
329,192,306509,1,0,0:0:0:0:
36,192,306578,1,0,0:0:0:0:
109,192,306578,1,0,0:0:0:0:
182,192,306578,1,0,0:0:0:0:
329,192,306647,1,0,0:0:0:0:
475,192,306647,1,0,0:0:0:0:
256,192,306717,1,0,0:0:0:0:
182,192,306734,1,0,0:0:0:0:
109,192,306752,1,0,0:0:0:0:
36,192,306769,1,0,0:0:0:0:
475,192,306786,1,0,0:0:0:0:
402,192,306804,1,0,0:0:0:0:
329,192,306821,1,0,0:0:0:0:
256,192,306838,1,0,0:0:0:0:
182,192,306856,1,0,0:0:0:0:
109,192,306856,1,0,0:0:0:0:
402,192,306925,1,0,0:0:0:0:
475,192,306925,1,0,0:0:0:0:
36,192,306995,1,0,0:0:0:0:
256,192,306995,1,0,0:0:0:0:
109,192,307029,1,0,0:0:0:0:
329,192,307029,1,0,0:0:0:0:
182,192,307064,1,0,0:0:0:0:
402,192,307064,1,0,0:0:0:0:
256,192,307099,1,0,0:0:0:0:
475,192,307099,1,0,0:0:0:0:
36,192,307134,1,0,0:0:0:0:
329,192,307134,1,0,0:0:0:0:
109,192,307134,1,0,0:0:0:0:
182,192,307203,1,0,0:0:0:0:
256,192,307272,1,0,0:0:0:0:
329,192,307342,1,0,0:0:0:0:
256,192,307411,1,0,0:0:0:0:
402,192,307411,1,0,0:0:0:0:
475,192,307411,1,0,0:0:0:0:
109,192,307411,1,0,0:0:0:0:
36,192,307411,1,0,0:0:0:0:
329,192,307481,1,0,0:0:0:0:
182,192,307481,1,0,0:0:0:0:
36,192,307550,1,0,0:0:0:0:
109,192,307550,1,0,0:0:0:0:
402,192,307550,1,0,0:0:0:0:
256,192,307596,1,0,0:0:0:0:
182,192,307643,1,0,0:0:0:0:
109,192,307689,1,0,0:0:0:0:
329,192,307689,1,0,0:0:0:0:
402,192,307689,1,0,0:0:0:0:
475,192,307689,1,0,0:0:0:0:
36,192,307759,1,0,0:0:0:0:
256,192,307759,1,0,0:0:0:0:
329,192,307828,1,0,0:0:0:0:
182,192,307828,1,0,0:0:0:0:
182,192,307897,1,0,0:0:0:0:
36,192,307897,1,0,0:0:0:0:
256,192,307967,1,0,0:0:0:0:
402,192,307967,1,0,0:0:0:0:
329,192,307967,1,0,0:0:0:0:
475,192,307967,1,0,0:0:0:0:
329,192,308036,1,0,0:0:0:0:
475,192,308036,1,0,0:0:0:0:
109,192,308036,1,0,0:0:0:0:
182,192,308083,1,0,0:0:0:0:
256,192,308129,1,0,0:0:0:0:
475,192,308175,1,0,0:0:0:0:
329,192,308175,1,0,0:0:0:0:
109,192,308175,1,0,0:0:0:0:
182,192,308245,1,0,0:0:0:0:
36,192,308245,1,0,0:0:0:0:
402,192,308337,1,0,0:0:0:0:
475,192,308337,1,0,0:0:0:0:
329,192,308360,1,0,0:0:0:0:
256,192,308384,1,0,0:0:0:0:
182,192,308407,1,0,0:0:0:0:
109,192,308430,1,0,0:0:0:0:
475,192,308453,1,0,0:0:0:0:
402,192,308453,1,0,0:0:0:0:
182,192,308522,1,0,0:0:0:0:
329,192,308522,1,0,0:0:0:0:
36,192,308522,1,0,0:0:0:0:
475,192,308592,1,0,0:0:0:0:
256,192,308592,1,0,0:0:0:0:
182,192,308627,1,0,0:0:0:0:
402,192,308627,1,0,0:0:0:0:
109,192,308661,1,0,0:0:0:0:
36,192,308661,1,0,0:0:0:0:
329,192,308661,1,0,0:0:0:0:
256,192,308731,1,0,0:0:0:0:
402,192,308731,1,0,0:0:0:0:
182,192,308800,1,0,0:0:0:0:
329,192,308800,1,0,0:0:0:0:
36,192,308800,1,0,0:0:0:0:
182,192,308870,1,0,0:0:0:0:
36,192,308870,1,0,0:0:0:0:
475,192,308939,1,0,0:0:0:0:
329,192,308939,1,0,0:0:0:0:
329,192,309009,1,0,0:0:0:0:
475,192,309009,1,0,0:0:0:0:
182,192,309009,1,0,0:0:0:0:
256,192,309078,1,0,0:0:0:0:
109,192,309078,1,0,0:0:0:0:
36,192,309078,1,0,0:0:0:0:
402,192,309113,1,0,0:0:0:0:
182,192,309147,1,0,0:0:0:0:
329,192,309182,1,0,0:0:0:0:
475,192,309217,1,0,0:0:0:0:
109,192,309217,1,0,0:0:0:0:
256,192,309252,1,0,0:0:0:0:
329,192,309286,1,0,0:0:0:0:
402,192,309321,1,0,0:0:0:0:
182,192,309356,1,0,0:0:0:0:
475,192,309356,1,0,0:0:0:0:
36,192,309356,1,0,0:0:0:0:
256,192,309402,1,0,0:0:0:0:
329,192,309448,1,0,0:0:0:0:
182,192,309460,1,0,0:0:0:0:
109,192,309477,1,0,0:0:0:0:
402,192,309495,1,0,0:0:0:0:
36,192,309495,1,0,0:0:0:0:
329,192,309541,1,0,0:0:0:0:
36,192,309564,1,0,0:0:0:0:
109,192,309581,1,0,0:0:0:0:
182,192,309599,1,0,0:0:0:0:
402,192,309634,1,0,0:0:0:0:
475,192,309634,1,0,0:0:0:0:
256,192,309634,1,0,0:0:0:0:
475,192,309703,1,0,0:0:0:0:
329,192,309703,1,0,0:0:0:0:
109,192,309772,1,0,0:0:0:0:
182,192,309790,1,0,0:0:0:0:
256,192,309807,1,0,0:0:0:0:
329,192,309824,1,0,0:0:0:0:
402,192,309842,1,0,0:0:0:0:
109,192,309911,1,0,0:0:0:0:
36,192,309911,1,0,0:0:0:0:
182,192,309981,1,0,0:0:0:0:
329,192,309981,1,0,0:0:0:0:
402,192,310050,1,0,0:0:0:0:
475,192,310050,1,0,0:0:0:0:
256,192,310050,1,0,0:0:0:0:
182,192,310120,1,0,0:0:0:0:
329,192,310120,1,0,0:0:0:0:
109,192,310189,1,0,0:0:0:0:
36,192,310189,1,0,0:0:0:0:
475,192,310206,1,0,0:0:0:0:
402,192,310224,1,0,0:0:0:0:
329,192,310241,1,0,0:0:0:0:
182,192,310259,1,0,0:0:0:0:
109,192,310276,1,0,0:0:0:0:
36,192,310293,1,0,0:0:0:0:
256,192,310328,1,0,0:0:0:0:
475,192,310328,1,0,0:0:0:0:
402,192,310328,1,0,0:0:0:0:
182,192,310374,1,0,0:0:0:0:
329,192,310374,1,0,0:0:0:0:
109,192,310421,1,0,0:0:0:0:
256,192,310421,1,0,0:0:0:0:
36,192,310467,1,0,0:0:0:0:
182,192,310467,1,0,0:0:0:0:
329,192,310536,1,0,0:0:0:0:
475,192,310536,1,0,0:0:0:0:
402,192,310536,1,0,0:0:0:0:
256,192,310583,1,0,0:0:0:0:
36,192,310583,1,0,0:0:0:0:
109,192,310629,1,0,0:0:0:0:
329,192,310629,1,0,0:0:0:0:
182,192,310675,1,0,0:0:0:0:
402,192,310675,1,0,0:0:0:0:
475,192,310745,1,0,0:0:0:0:
36,192,310745,1,0,0:0:0:0:
329,192,310745,1,0,0:0:0:0:
402,192,310791,1,0,0:0:0:0:
256,192,310791,1,0,0:0:0:0:
329,192,310837,1,0,0:0:0:0:
182,192,310837,1,0,0:0:0:0:
256,192,310884,1,0,0:0:0:0:
109,192,310884,1,0,0:0:0:0:
475,192,310918,1,0,0:0:0:0:
402,192,310953,1,0,0:0:0:0:
36,192,310953,1,0,0:0:0:0:
329,192,310988,1,0,0:0:0:0:
109,192,311022,1,0,0:0:0:0:
256,192,311022,1,0,0:0:0:0:
182,192,311092,1,0,0:0:0:0:
256,192,311115,1,0,0:0:0:0:
329,192,311138,1,0,0:0:0:0:
402,192,311161,1,0,0:0:0:0:
109,192,311208,1,0,0:0:0:0:
475,192,311208,1,0,0:0:0:0:
36,192,311208,1,0,0:0:0:0:
182,192,311208,1,0,0:0:0:0:
256,192,311300,5,0,0:0:0:0:
329,192,311300,1,0,0:0:0:0:
402,192,311300,1,0,0:0:0:0:
182,192,311335,1,0,0:0:0:0:
109,192,311370,1,0,0:0:0:0:
36,192,311404,1,0,0:0:0:0:
475,192,311439,1,0,0:0:0:0:
329,192,311439,1,0,0:0:0:0:
182,192,311474,1,0,0:0:0:0:
256,192,311509,1,0,0:0:0:0:
329,192,311543,1,0,0:0:0:0:
402,192,311578,1,0,0:0:0:0:
36,192,311578,1,0,0:0:0:0:
109,192,311578,1,0,0:0:0:0:
109,192,311647,1,0,0:0:0:0:
36,192,311647,1,0,0:0:0:0:
402,192,311717,1,0,0:0:0:0:
475,192,311717,1,0,0:0:0:0:
402,192,311786,1,0,0:0:0:0:
475,192,311786,1,0,0:0:0:0:
182,192,311856,1,0,0:0:0:0:
109,192,311856,1,0,0:0:0:0:
36,192,311856,1,0,0:0:0:0:
329,192,311856,1,0,0:0:0:0:
256,192,311856,1,0,0:0:0:0:
109,192,311995,1,0,0:0:0:0:
256,192,311995,1,0,0:0:0:0:
329,192,312064,1,0,0:0:0:0:
182,192,312064,1,0,0:0:0:0:
256,192,312134,1,0,0:0:0:0:
475,192,312134,1,0,0:0:0:0:
402,192,312157,1,0,0:0:0:0:
329,192,312180,1,0,0:0:0:0:
182,192,312203,1,0,0:0:0:0:
109,192,312226,1,0,0:0:0:0:
36,192,312249,1,0,0:0:0:0:
329,192,312272,1,0,0:0:0:0:
402,192,312296,1,0,0:0:0:0:
475,192,312319,1,0,0:0:0:0:
182,192,312342,1,0,0:0:0:0:
256,192,312365,1,0,0:0:0:0:
329,192,312388,1,0,0:0:0:0:
475,192,312411,5,0,0:0:0:0:
402,192,312411,1,0,0:0:0:0:
109,192,312411,1,0,0:0:0:0:
36,192,312411,1,0,0:0:0:0:
475,192,312550,1,0,0:0:0:0:
402,192,312550,1,0,0:0:0:0:
329,192,312550,1,0,0:0:0:0:
256,192,312550,1,0,0:0:0:0:
182,192,312550,1,0,0:0:0:0:
109,192,312550,1,0,0:0:0:0:
36,192,312550,1,0,0:0:0:0:
36,192,312689,1,0,0:0:0:0:
109,192,312689,1,0,0:0:0:0:
182,192,312689,1,0,0:0:0:0:
256,192,312689,1,0,0:0:0:0:
329,192,312689,1,0,0:0:0:0:
402,192,312689,1,0,0:0:0:0:
475,192,312689,1,0,0:0:0:0:
36,192,312828,1,0,0:0:0:0:
109,192,312828,1,0,0:0:0:0:
402,192,312828,1,0,0:0:0:0:
475,192,312828,1,0,0:0:0:0:
182,192,312828,1,0,0:0:0:0:
256,192,312828,1,0,0:0:0:0:
329,192,312828,1,0,0:0:0:0:
329,192,312897,1,0,0:0:0:0:
402,192,312897,1,0,0:0:0:0:
475,192,312897,1,0,0:0:0:0:
256,192,312967,1,0,0:0:0:0:
109,192,312967,1,0,0:0:0:0:
36,192,312967,1,0,0:0:0:0:
402,192,312967,1,0,0:0:0:0:
475,192,312967,1,0,0:0:0:0:
329,192,312967,1,0,0:0:0:0:
182,192,312967,1,0,0:0:0:0:
182,192,313036,1,0,0:0:0:0:
109,192,313036,1,0,0:0:0:0:
36,192,313036,1,0,0:0:0:0:
256,192,313106,1,0,0:0:0:0:
109,192,313106,1,0,0:0:0:0:
36,192,313106,1,0,0:0:0:0:
402,192,313106,1,0,0:0:0:0:
475,192,313106,1,0,0:0:0:0:
329,192,313106,1,0,0:0:0:0:
182,192,313106,1,0,0:0:0:0:
329,192,313245,1,0,0:0:0:0:
402,192,313245,1,0,0:0:0:0:
475,192,313245,1,0,0:0:0:0:
256,192,313245,1,0,0:0:0:0:
182,192,313245,1,0,0:0:0:0:
109,192,313245,1,0,0:0:0:0:
36,192,313245,1,0,0:0:0:0:
36,192,313384,1,0,0:0:0:0:
109,192,313384,1,0,0:0:0:0:
256,192,313384,1,0,0:0:0:0:
402,192,313384,1,0,0:0:0:0:
475,192,313384,1,0,0:0:0:0:
182,192,313453,1,0,0:0:0:0:
402,192,313522,1,0,0:0:0:0:
475,192,313522,1,0,0:0:0:0:
329,192,313540,1,0,0:0:0:0:
256,192,313557,1,0,0:0:0:0:
182,192,313574,1,0,0:0:0:0:
36,192,313592,1,0,0:0:0:0:
109,192,313592,1,0,0:0:0:0:
329,192,313661,1,0,0:0:0:0:
402,192,313679,1,0,0:0:0:0:
109,192,313731,1,0,0:0:0:0:
182,192,313748,1,0,0:0:0:0:
329,192,313800,1,0,0:0:0:0:
475,192,313800,1,0,0:0:0:0:
182,192,313870,1,0,0:0:0:0:
36,192,313870,1,0,0:0:0:0:
402,192,313939,1,0,0:0:0:0:
329,192,313962,1,0,0:0:0:0:
256,192,313985,1,0,0:0:0:0:
182,192,314009,1,0,0:0:0:0:
36,192,314078,1,0,0:0:0:0:
329,192,314078,1,0,0:0:0:0:
402,192,314101,1,0,0:0:0:0:
109,192,314113,1,0,0:0:0:0:
475,192,314124,1,0,0:0:0:0:
182,192,314147,1,0,0:0:0:0:
109,192,314182,1,0,0:0:0:0:
475,192,314217,1,0,0:0:0:0:
36,192,314217,1,0,0:0:0:0:
402,192,314217,1,0,0:0:0:0:
329,192,314252,1,0,0:0:0:0:
256,192,314286,1,0,0:0:0:0:
182,192,314321,1,0,0:0:0:0:
109,192,314356,1,0,0:0:0:0:
402,192,314356,1,0,0:0:0:0:
256,192,314448,1,0,0:0:0:0:
329,192,314448,1,0,0:0:0:0:
475,192,314448,1,0,0:0:0:0:
36,192,314448,1,0,0:0:0:0:
256,192,314541,1,0,0:0:0:0:
182,192,314541,1,0,0:0:0:0:
402,192,314541,1,0,0:0:0:0:
109,192,314634,1,0,0:0:0:0:
182,192,314634,1,0,0:0:0:0:
329,192,314634,1,0,0:0:0:0:
109,192,314726,1,0,0:0:0:0:
36,192,314726,1,0,0:0:0:0:
256,192,314726,1,0,0:0:0:0:
182,192,314819,1,0,0:0:0:0:
329,192,314819,1,0,0:0:0:0:
402,192,314819,1,0,0:0:0:0:
36,192,314819,1,0,0:0:0:0:
36,192,314911,1,0,0:0:0:0:
256,192,314911,1,0,0:0:0:0:
402,192,314911,1,0,0:0:0:0:
475,192,314911,1,0,0:0:0:0:
109,192,314911,1,0,0:0:0:0:
182,192,315004,1,0,0:0:0:0:
109,192,315004,1,0,0:0:0:0:
329,192,315004,1,0,0:0:0:0:
402,192,315004,1,0,0:0:0:0:
36,192,315004,1,0,0:0:0:0:
475,192,315004,1,0,0:0:0:0:
36,192,315096,1,0,0:0:0:0:
109,192,315096,1,0,0:0:0:0:
402,192,315096,1,0,0:0:0:0:
475,192,315096,1,0,0:0:0:0:
182,192,315096,1,0,0:0:0:0:
256,192,315096,1,0,0:0:0:0:
329,192,315096,1,0,0:0:0:0:
402,192,315189,1,0,0:0:0:0:
329,192,315189,1,0,0:0:0:0:
475,192,315189,1,0,0:0:0:0:
109,192,315235,1,0,0:0:0:0:
36,192,315235,1,0,0:0:0:0:
475,192,315282,1,0,0:0:0:0:
256,192,315282,1,0,0:0:0:0:
402,192,315282,1,0,0:0:0:0:
329,192,315374,1,0,0:0:0:0:
182,192,315374,1,0,0:0:0:0:
109,192,315374,1,0,0:0:0:0:
256,192,315467,1,0,0:0:0:0:
475,192,315467,1,0,0:0:0:0:
109,192,315467,1,0,0:0:0:0:
36,192,315467,1,0,0:0:0:0:
402,192,315467,1,0,0:0:0:0:
475,192,315559,1,0,0:0:0:0:
256,192,315559,1,0,0:0:0:0:
36,192,315559,1,0,0:0:0:0:
402,192,315559,1,0,0:0:0:0:
109,192,315559,1,0,0:0:0:0:
256,192,315652,1,0,0:0:0:0:
475,192,315652,1,0,0:0:0:0:
36,192,315652,1,0,0:0:0:0:
109,192,315652,1,0,0:0:0:0:
402,192,315652,1,0,0:0:0:0:
36,192,315745,1,0,0:0:0:0:
182,192,315745,1,0,0:0:0:0:
329,192,315745,1,0,0:0:0:0:
475,192,315745,1,0,0:0:0:0:
109,192,315814,1,0,0:0:0:0:
256,192,315814,1,0,0:0:0:0:
182,192,315884,1,0,0:0:0:0:
329,192,315884,1,0,0:0:0:0:
402,192,315918,1,0,0:0:0:0:
475,192,315953,1,0,0:0:0:0:
36,192,315953,1,0,0:0:0:0:
109,192,315988,1,0,0:0:0:0:
182,192,316022,1,0,0:0:0:0:
402,192,316022,1,0,0:0:0:0:
256,192,316057,1,0,0:0:0:0:
329,192,316092,1,0,0:0:0:0:
36,192,316127,1,0,0:0:0:0:
402,192,316161,1,0,0:0:0:0:
256,192,316161,1,0,0:0:0:0:
109,192,316196,1,0,0:0:0:0:
475,192,316231,1,0,0:0:0:0:
329,192,316231,1,0,0:0:0:0:
182,192,316265,1,0,0:0:0:0:
256,192,316300,1,0,0:0:0:0:
109,192,316300,1,0,0:0:0:0:
36,192,316300,1,0,0:0:0:0:
402,192,316300,1,0,0:0:0:0:
109,192,316370,1,0,0:0:0:0:
36,192,316370,1,0,0:0:0:0:
402,192,316439,1,0,0:0:0:0:
475,192,316439,1,0,0:0:0:0:
182,192,316439,1,0,0:0:0:0:
256,192,316474,1,0,0:0:0:0:
329,192,316509,1,0,0:0:0:0:
402,192,316543,1,0,0:0:0:0:
36,192,316578,1,0,0:0:0:0:
475,192,316578,1,0,0:0:0:0:
109,192,316578,1,0,0:0:0:0:
329,192,316613,1,0,0:0:0:0:
256,192,316647,1,0,0:0:0:0:
182,192,316682,1,0,0:0:0:0:
475,192,316717,1,0,0:0:0:0:
402,192,316717,1,0,0:0:0:0:
109,192,316717,1,0,0:0:0:0:
256,192,316786,1,0,0:0:0:0:
36,192,316786,1,0,0:0:0:0:
402,192,316856,1,0,0:0:0:0:
475,192,316856,1,0,0:0:0:0:
329,192,316856,1,0,0:0:0:0:
182,192,316856,1,0,0:0:0:0:
109,192,316890,1,0,0:0:0:0:
256,192,316925,1,0,0:0:0:0:
329,192,316960,1,0,0:0:0:0:
182,192,316995,1,0,0:0:0:0:
109,192,316995,1,0,0:0:0:0:
36,192,316995,1,0,0:0:0:0:
402,192,316995,1,0,0:0:0:0:
182,192,317064,1,0,0:0:0:0:
109,192,317064,1,0,0:0:0:0:
36,192,317064,1,0,0:0:0:0:
256,192,317134,1,0,0:0:0:0:
329,192,317134,1,0,0:0:0:0:
402,192,317134,1,0,0:0:0:0:
475,192,317134,1,0,0:0:0:0:
36,192,317203,1,0,0:0:0:0:
182,192,317203,1,0,0:0:0:0:
475,192,317272,1,0,0:0:0:0:
402,192,317290,1,0,0:0:0:0:
329,192,317307,1,0,0:0:0:0:
36,192,317324,1,0,0:0:0:0:
109,192,317342,1,0,0:0:0:0:
182,192,317359,1,0,0:0:0:0:
256,192,317377,1,0,0:0:0:0:
329,192,317394,1,0,0:0:0:0:
402,192,317411,1,0,0:0:0:0:
475,192,317411,1,0,0:0:0:0:
109,192,317411,1,0,0:0:0:0:
36,192,317411,1,0,0:0:0:0:
256,192,317550,1,0,0:0:0:0:
109,192,317550,1,0,0:0:0:0:
402,192,317550,1,0,0:0:0:0:
36,192,317550,1,0,0:0:0:0:
475,192,317550,1,0,0:0:0:0:
182,192,317596,1,0,0:0:0:0:
329,192,317596,1,0,0:0:0:0:
256,192,317643,1,0,0:0:0:0:
109,192,317689,1,0,0:0:0:0:
36,192,317689,1,0,0:0:0:0:
402,192,317689,1,0,0:0:0:0:
475,192,317689,1,0,0:0:0:0:
182,192,317828,1,0,0:0:0:0:
475,192,317828,1,0,0:0:0:0:
329,192,317828,1,0,0:0:0:0:
182,192,317897,1,0,0:0:0:0:
475,192,317897,1,0,0:0:0:0:
329,192,317897,1,0,0:0:0:0:
256,192,317967,1,0,0:0:0:0:
402,192,317967,1,0,0:0:0:0:
109,192,317967,1,0,0:0:0:0:
36,192,317967,1,0,0:0:0:0:
182,192,318106,1,0,0:0:0:0:
36,192,318106,1,0,0:0:0:0:
109,192,318106,1,0,0:0:0:0:
402,192,318152,1,0,0:0:0:0:
329,192,318152,1,0,0:0:0:0:
475,192,318152,1,0,0:0:0:0:
182,192,318198,1,0,0:0:0:0:
36,192,318198,1,0,0:0:0:0:
109,192,318198,1,0,0:0:0:0:
402,192,318245,1,0,0:0:0:0:
256,192,318245,1,0,0:0:0:0:
329,192,318245,1,0,0:0:0:0:
475,192,318245,1,0,0:0:0:0:
109,192,318384,1,0,0:0:0:0:
182,192,318384,1,0,0:0:0:0:
36,192,318384,1,0,0:0:0:0:
329,192,318418,1,0,0:0:0:0:
402,192,318418,1,0,0:0:0:0:
475,192,318418,1,0,0:0:0:0:
182,192,318453,1,0,0:0:0:0:
109,192,318453,1,0,0:0:0:0:
36,192,318453,1,0,0:0:0:0:
329,192,318488,1,0,0:0:0:0:
402,192,318488,1,0,0:0:0:0:
475,192,318488,1,0,0:0:0:0:
256,192,318522,1,0,0:0:0:0:
182,192,318522,1,0,0:0:0:0:
109,192,318522,1,0,0:0:0:0:
36,192,318522,1,0,0:0:0:0:
329,192,318592,1,0,0:0:0:0:
402,192,318592,1,0,0:0:0:0:
475,192,318592,1,0,0:0:0:0:
256,192,318661,1,0,0:0:0:0:
36,192,318661,1,0,0:0:0:0:
109,192,318661,1,0,0:0:0:0:
329,192,318731,1,0,0:0:0:0:
182,192,318731,1,0,0:0:0:0:
475,192,318731,1,0,0:0:0:0:
256,192,318800,1,0,0:0:0:0:
109,192,318800,1,0,0:0:0:0:
36,192,318800,1,0,0:0:0:0:
329,192,318835,1,0,0:0:0:0:
402,192,318835,1,0,0:0:0:0:
475,192,318835,1,0,0:0:0:0:
182,192,318870,1,0,0:0:0:0:
109,192,318870,1,0,0:0:0:0:
36,192,318870,1,0,0:0:0:0:
256,192,318939,1,0,0:0:0:0:
329,192,318939,1,0,0:0:0:0:
402,192,318939,1,0,0:0:0:0:
475,192,318939,1,0,0:0:0:0:
182,192,319009,1,0,0:0:0:0:
109,192,319009,1,0,0:0:0:0:
36,192,319009,1,0,0:0:0:0:
475,192,319078,1,0,0:0:0:0:
402,192,319101,1,0,0:0:0:0:
329,192,319124,1,0,0:0:0:0:
36,192,319124,1,0,0:0:0:0:
109,192,319147,1,0,0:0:0:0:
182,192,319171,1,0,0:0:0:0:
475,192,319171,1,0,0:0:0:0:
402,192,319194,1,0,0:0:0:0:
329,192,319217,1,0,0:0:0:0:
36,192,319217,1,0,0:0:0:0:
109,192,319240,1,0,0:0:0:0:
182,192,319263,1,0,0:0:0:0:
475,192,319263,1,0,0:0:0:0:
402,192,319286,1,0,0:0:0:0:
329,192,319309,1,0,0:0:0:0:
36,192,319309,1,0,0:0:0:0:
109,192,319333,1,0,0:0:0:0:
475,192,319356,1,0,0:0:0:0:
402,192,319356,1,0,0:0:0:0:
256,192,319356,1,0,0:0:0:0:
36,192,319425,1,0,0:0:0:0:
182,192,319425,1,0,0:0:0:0:
109,192,319425,1,0,0:0:0:0:
256,192,319495,1,0,0:0:0:0:
329,192,319512,1,0,0:0:0:0:
402,192,319529,1,0,0:0:0:0:
36,192,319547,1,0,0:0:0:0:
109,192,319564,1,0,0:0:0:0:
182,192,319581,1,0,0:0:0:0:
256,192,319599,1,0,0:0:0:0:
329,192,319616,1,0,0:0:0:0:
402,192,319634,1,0,0:0:0:0:
475,192,319634,1,0,0:0:0:0:
36,192,319634,1,0,0:0:0:0:
109,192,319634,1,0,0:0:0:0:
182,192,319772,1,0,0:0:0:0:
329,192,319772,1,0,0:0:0:0:
36,192,319911,1,0,0:0:0:0:
402,192,319911,1,0,0:0:0:0:
475,192,319911,1,0,0:0:0:0:
109,192,319911,1,0,0:0:0:0:
329,192,319981,1,0,0:0:0:0:
182,192,319981,1,0,0:0:0:0:
475,192,320050,1,0,0:0:0:0:
402,192,320050,1,0,0:0:0:0:
36,192,320050,1,0,0:0:0:0:
109,192,320050,1,0,0:0:0:0:
329,192,320120,1,0,0:0:0:0:
182,192,320120,1,0,0:0:0:0:
402,192,320189,1,0,0:0:0:0:
36,192,320189,1,0,0:0:0:0:
475,192,320189,1,0,0:0:0:0:
256,192,320189,1,0,0:0:0:0:
329,192,320235,1,0,0:0:0:0:
109,192,320235,1,0,0:0:0:0:
182,192,320282,1,0,0:0:0:0:
402,192,320282,1,0,0:0:0:0:
256,192,320328,1,0,0:0:0:0:
475,192,320328,1,0,0:0:0:0:
329,192,320374,1,0,0:0:0:0:
109,192,320374,1,0,0:0:0:0:
36,192,320421,1,0,0:0:0:0:
475,192,320467,1,0,0:0:0:0:
256,192,320467,1,0,0:0:0:0:
182,192,320502,1,0,0:0:0:0:
109,192,320536,1,0,0:0:0:0:
329,192,320536,1,0,0:0:0:0:
256,192,320571,1,0,0:0:0:0:
182,192,320606,1,0,0:0:0:0:
402,192,320606,1,0,0:0:0:0:
329,192,320640,1,0,0:0:0:0:
256,192,320675,1,0,0:0:0:0:
475,192,320675,1,0,0:0:0:0:
402,192,320710,1,0,0:0:0:0:
329,192,320745,1,0,0:0:0:0:
182,192,320745,1,0,0:0:0:0:
36,192,320745,128,0,322967:0:0:0:0:
109,192,320745,128,0,322967:0:0:0:0:
256,192,320884,1,0,0:0:0:0:
329,192,321022,1,0,0:0:0:0:
402,192,321161,1,0,0:0:0:0:
256,192,321300,1,0,0:0:0:0:
182,192,321439,1,0,0:0:0:0:
402,192,321439,1,0,0:0:0:0:
329,192,321578,1,0,0:0:0:0:
475,192,321578,1,0,0:0:0:0:
256,192,321717,1,0,0:0:0:0:
182,192,321717,1,0,0:0:0:0:
402,192,321856,1,0,0:0:0:0:
475,192,321856,1,0,0:0:0:0:
329,192,321995,1,0,0:0:0:0:
475,192,322134,1,0,0:0:0:0:
329,192,322272,1,0,0:0:0:0:
402,192,322411,1,0,0:0:0:0:
182,192,322411,1,0,0:0:0:0:
256,192,322550,1,0,0:0:0:0:
329,192,322689,1,0,0:0:0:0:
475,192,322689,1,0,0:0:0:0:
256,192,322828,1,0,0:0:0:0:
475,192,322967,128,0,325189:0:0:0:0:
402,192,322967,128,0,325189:0:0:0:0:
182,192,322967,1,0,0:0:0:0:
109,192,323106,1,0,0:0:0:0:
36,192,323245,1,0,0:0:0:0:
109,192,323384,1,0,0:0:0:0:
182,192,323522,1,0,0:0:0:0:
256,192,323661,1,0,0:0:0:0:
329,192,323800,1,0,0:0:0:0:
109,192,323800,1,0,0:0:0:0:
256,192,323939,1,0,0:0:0:0:
36,192,323939,1,0,0:0:0:0:
182,192,324078,1,0,0:0:0:0:
329,192,324217,1,0,0:0:0:0:
109,192,324356,1,0,0:0:0:0:
256,192,324495,1,0,0:0:0:0:
36,192,324634,1,0,0:0:0:0:
182,192,324772,1,0,0:0:0:0:
329,192,324911,1,0,0:0:0:0:
182,192,325050,1,0,0:0:0:0:
256,192,325189,128,0,327411:0:0:0:0:
36,192,325189,1,0,0:0:0:0:
109,192,325328,1,0,0:0:0:0:
182,192,325467,1,0,0:0:0:0:
109,192,325606,1,0,0:0:0:0:
36,192,325745,1,0,0:0:0:0:
182,192,325884,1,0,0:0:0:0:
475,192,325884,1,0,0:0:0:0:
109,192,326022,1,0,0:0:0:0:
402,192,326022,1,0,0:0:0:0:
36,192,326161,1,0,0:0:0:0:
329,192,326161,1,0,0:0:0:0:
182,192,326300,1,0,0:0:0:0:
475,192,326300,1,0,0:0:0:0:
329,192,326439,1,0,0:0:0:0:
109,192,326578,1,0,0:0:0:0:
402,192,326717,1,0,0:0:0:0:
182,192,326856,1,0,0:0:0:0:
36,192,326856,1,0,0:0:0:0:
402,192,326995,1,0,0:0:0:0:
329,192,327064,1,0,0:0:0:0:
182,192,327064,1,0,0:0:0:0:
109,192,327134,1,0,0:0:0:0:
329,192,327272,1,0,0:0:0:0:
475,192,327272,1,0,0:0:0:0:
182,192,327342,1,0,0:0:0:0:
109,192,327411,1,0,0:0:0:0:
475,192,327411,128,0,328522:0:0:0:0:
36,192,327411,128,0,328522:0:0:0:0:
182,192,327550,1,0,0:0:0:0:
329,192,327689,1,0,0:0:0:0:
402,192,327828,1,0,0:0:0:0:
182,192,327967,1,0,0:0:0:0:
109,192,328106,1,0,0:0:0:0:
402,192,328245,1,0,0:0:0:0:
182,192,328245,1,0,0:0:0:0:
329,192,328384,1,0,0:0:0:0:
109,192,328384,1,0,0:0:0:0:
256,192,328522,128,0,329634:0:0:0:0:
182,192,328522,1,0,0:0:0:0:
329,192,328661,1,0,0:0:0:0:
109,192,328800,1,0,0:0:0:0:
402,192,328939,1,0,0:0:0:0:
182,192,329078,1,0,0:0:0:0:
329,192,329217,1,0,0:0:0:0:
109,192,329356,1,0,0:0:0:0:
402,192,329495,1,0,0:0:0:0:
109,192,329634,128,0,335189:0:0:0:0:
36,192,329634,128,0,335189:0:0:0:0:
182,192,329772,128,0,335189:0:0:0:0:
329,192,329911,128,0,335189:0:0:0:0:
402,192,330050,128,0,335189:0:0:0:0:
