osu file format v14

[General]
AudioFilename: audio.mp3
AudioLeadIn: 0
PreviewTime: 148646
Countdown: 0
SampleSet: Normal
StackLeniency: 0.7
Mode: 3
LetterboxInBreaks: 0
SpecialStyle: 0
WidescreenStoryboard: 0

[Editor]
Bookmarks: 3894,40005,55005,74450,93338,100005,124449,137782,148152,169634,178522,196300,214078,240745,257411,276300,294078,320745
DistanceSpacing: 1
BeatDivisor: 4
GridSize: 32
TimelineZoom: 2.599999

[Metadata]
Title:Kyuukou
TitleUnicode:九皋
Artist:katagiri
ArtistUnicode:かたぎり
Creator:ERA Leon
Version:Equilibrium
Source:osu!mania 7K World Cup 2023
Tags:grand finals tiebreaker gftb osu! original breakcore arcade bass hardcore oriental instrumental electronic mwc7k featured artist fa hybrid technical ln long notes North American Mania Tournament NAMT2023 GBC 2023 Spring
BeatmapID:4067485
BeatmapSetID:1962531

[Difficulty]
HPDrainRate:8.5
CircleSize:4
OverallDifficulty:7.5
ApproachRate:5
SliderMultiplier:1.4
SliderTickRate:1

[Events]
//Background and Video events
0,0,"kyuukou.jpg",0,0
//Break Periods
//Storyboard Layer 0 (Background)
//Storyboard Layer 1 (Fail)
//Storyboard Layer 2 (Pass)
//Storyboard Layer 3 (Foreground)
//Storyboard Layer 4 (Overlay)
//Storyboard Sound Samples

[TimingPoints]
4450,277.777777777778,4,1,1,60,1,0
4450,-100,4,1,1,30,0,0
28894,-100,4,1,1,60,0,0
40005,-100,4,1,1,60,0,1
55005,-100,4,1,1,60,0,0
100005,370.37037037037,4,1,1,60,1,0
100005,-75.187969924812,4,1,1,60,0,0
102227,370.37037037037,4,1,1,60,1,0
102227,-75.187969924812,4,1,1,60,0,0
149634,277.777777777778,4,1,1,60,1,0
149634,-100,4,1,1,60,0,1
158522,-100,4,1,1,60,0,0
162967,-100,4,1,1,60,0,1
167411,-100,4,1,1,60,0,0
214078,-100,4,1,1,30,0,0
238522,-100,4,1,1,60,0,0
258522,-100,4,1,1,60,0,1
266300,-100,4,1,1,60,0,0
267411,-100,4,1,1,60,0,1
294078,-100,4,1,1,60,0,0
320745,-100,4,1,1,30,0,0

[HitObjects]
64,192,4450,5,0,0:0:0:0:
448,192,4450,128,0,6672:0:0:0:0:
192,192,4588,1,0,0:0:0:0:
320,192,4588,1,0,0:0:0:0:
64,192,4727,1,0,0:0:0:0:
320,192,4866,1,0,0:0:0:0:
64,192,5005,1,0,0:0:0:0:
192,192,5005,1,0,0:0:0:0:
320,192,5144,1,0,0:0:0:0:
192,192,5144,1,0,0:0:0:0:
64,192,5283,1,0,0:0:0:0:
320,192,5422,1,0,0:0:0:0:
64,192,5561,1,0,0:0:0:0:
192,192,5561,1,0,0:0:0:0:
64,192,5700,1,0,0:0:0:0:
320,192,5700,1,0,0:0:0:0:
192,192,5838,1,0,0:0:0:0:
320,192,5977,1,0,0:0:0:0:
64,192,6047,1,0,0:0:0:0:
192,192,6116,1,0,0:0:0:0:
320,192,6116,1,0,0:0:0:0:
192,192,6255,1,0,0:0:0:0:
64,192,6394,1,0,0:0:0:0:
320,192,6394,1,0,0:0:0:0:
192,192,6533,1,0,0:0:0:0:
320,192,6672,1,0,0:0:0:0:
64,192,6672,128,0,8894:0:0:0:0:
192,192,6811,1,0,0:0:0:0:
448,192,6811,1,0,0:0:0:0:
320,192,6950,1,0,0:0:0:0:
192,192,7088,1,0,0:0:0:0:
192,192,7227,1,0,0:0:0:0:
320,192,7227,1,0,0:0:0:0:
448,192,7366,1,0,0:0:0:0:
192,192,7505,1,0,0:0:0:0:
320,192,7644,1,0,0:0:0:0:
448,192,7783,1,0,0:0:0:0:
192,192,7783,1,0,0:0:0:0:
320,192,7922,1,0,0:0:0:0:
320,192,8061,1,0,0:0:0:0:
192,192,8200,1,0,0:0:0:0:
192,192,8338,1,0,0:0:0:0:
448,192,8338,1,0,0:0:0:0:
320,192,8477,1,0,0:0:0:0:
192,192,8524,1,0,0:0:0:0:
448,192,8616,1,0,0:0:0:0:
192,192,8709,1,0,0:0:0:0:
320,192,8755,1,0,0:0:0:0:
448,192,8894,1,0,0:0:0:0:
320,192,8894,128,0,10005:0:0:0:0:
192,192,9033,1,0,0:0:0:0:
64,192,9033,1,0,0:0:0:0:
448,192,9172,1,0,0:0:0:0:
64,192,9311,1,0,0:0:0:0:
192,192,9450,1,0,0:0:0:0:
448,192,9450,1,0,0:0:0:0:
64,192,9588,1,0,0:0:0:0:
448,192,9588,1,0,0:0:0:0:
192,192,9727,1,0,0:0:0:0:
448,192,9866,1,0,0:0:0:0:
192,192,10005,1,0,0:0:0:0:
64,192,10005,128,0,11116:0:0:0:0:
192,192,10144,1,0,0:0:0:0:
448,192,10283,1,0,0:0:0:0:
192,192,10422,1,0,0:0:0:0:
320,192,10491,1,0,0:0:0:0:
448,192,10561,1,0,0:0:0:0:
192,192,10561,1,0,0:0:0:0:
448,192,10700,1,0,0:0:0:0:
320,192,10838,1,0,0:0:0:0:
192,192,10838,1,0,0:0:0:0:
192,192,10977,1,0,0:0:0:0:
320,192,11116,1,0,0:0:0:0:
448,192,11116,128,0,12227:0:0:0:0:
320,192,11255,1,0,0:0:0:0:
64,192,11255,1,0,0:0:0:0:
192,192,11394,1,0,0:0:0:0:
64,192,11533,1,0,0:0:0:0:
320,192,11672,1,0,0:0:0:0:
192,192,11672,1,0,0:0:0:0:
192,192,11811,1,0,0:0:0:0:
320,192,11950,1,0,0:0:0:0:
64,192,11950,1,0,0:0:0:0:
64,192,12088,1,0,0:0:0:0:
192,192,12227,1,0,0:0:0:0:
320,192,12227,128,0,13061:0:0:0:0:
448,192,12366,1,0,0:0:0:0:
448,192,12505,1,0,0:0:0:0:
64,192,12505,1,0,0:0:0:0:
192,192,12644,1,0,0:0:0:0:
448,192,12783,1,0,0:0:0:0:
64,192,12783,1,0,0:0:0:0:
64,192,12922,1,0,0:0:0:0:
192,192,12991,1,0,0:0:0:0:
64,192,13061,128,0,13200:0:0:0:0:
448,192,13061,1,0,0:0:0:0:
192,192,13130,1,0,0:0:0:0:
320,192,13200,128,0,13338:0:0:0:0:
448,192,13200,1,0,0:0:0:0:
64,192,13338,1,0,0:0:0:0:
448,192,13338,128,0,13894:0:0:0:0:
192,192,13477,1,0,0:0:0:0:
320,192,13616,1,0,0:0:0:0:
192,192,13755,1,0,0:0:0:0:
320,192,13894,128,0,14866:0:0:0:0:
64,192,13894,1,0,0:0:0:0:
192,192,14033,1,0,0:0:0:0:
448,192,14172,1,0,0:0:0:0:
64,192,14311,1,0,0:0:0:0:
448,192,14450,1,0,0:0:0:0:
64,192,14588,1,0,0:0:0:0:
192,192,14727,1,0,0:0:0:0:
64,192,14866,128,0,15005:0:0:0:0:
448,192,14866,1,0,0:0:0:0:
192,192,14936,128,0,15075:0:0:0:0:
448,192,15005,128,0,15075:0:0:0:0:
320,192,15005,128,0,15213:0:0:0:0:
192,192,15144,128,0,15352:0:0:0:0:
448,192,15283,128,0,15491:0:0:0:0:
64,192,15283,128,0,15352:0:0:0:0:
320,192,15422,128,0,15561:0:0:0:0:
192,192,15561,128,0,16116:0:0:0:0:
64,192,15561,1,0,0:0:0:0:
320,192,15700,1,0,0:0:0:0:
448,192,15838,1,0,0:0:0:0:
64,192,15977,1,0,0:0:0:0:
448,192,16116,1,0,0:0:0:0:
320,192,16116,128,0,17783:0:0:0:0:
192,192,16255,1,0,0:0:0:0:
64,192,16394,1,0,0:0:0:0:
448,192,16533,1,0,0:0:0:0:
192,192,16672,128,0,16741:0:0:0:0:
64,192,16811,128,0,16880:0:0:0:0:
448,192,16950,128,0,17019:0:0:0:0:
64,192,17088,128,0,17158:0:0:0:0:
192,192,17227,128,0,17297:0:0:0:0:
448,192,17366,128,0,17436:0:0:0:0:
192,192,17505,128,0,17575:0:0:0:0:
192,192,17644,128,0,17713:0:0:0:0:
64,192,17783,128,0,18338:0:0:0:0:
448,192,17783,1,0,0:0:0:0:
320,192,17922,1,0,0:0:0:0:
448,192,18061,1,0,0:0:0:0:
192,192,18200,1,0,0:0:0:0:
192,192,18338,128,0,19311:0:0:0:0:
320,192,18338,1,0,0:0:0:0:
64,192,18477,1,0,0:0:0:0:
448,192,18616,1,0,0:0:0:0:
64,192,18755,1,0,0:0:0:0:
320,192,18894,1,0,0:0:0:0:
448,192,19033,1,0,0:0:0:0:
320,192,19172,1,0,0:0:0:0:
448,192,19311,128,0,19450:0:0:0:0:
64,192,19311,1,0,0:0:0:0:
320,192,19380,128,0,19519:0:0:0:0:
192,192,19450,128,0,19658:0:0:0:0:
64,192,19450,128,0,19519:0:0:0:0:
448,192,19588,128,0,19797:0:0:0:0:
64,192,19727,128,0,19936:0:0:0:0:
320,192,19727,128,0,19797:0:0:0:0:
192,192,19866,128,0,20005:0:0:0:0:
448,192,20005,128,0,20491:0:0:0:0:
320,192,20005,1,0,0:0:0:0:
192,192,20144,1,0,0:0:0:0:
320,192,20283,1,0,0:0:0:0:
320,192,20422,128,0,20630:0:0:0:0:
64,192,20422,1,0,0:0:0:0:
192,192,20561,128,0,21950:0:0:0:0:
448,192,20561,1,0,0:0:0:0:
64,192,20700,1,0,0:0:0:0:
448,192,20838,1,0,0:0:0:0:
64,192,20977,128,0,21047:0:0:0:0:
320,192,21047,128,0,21116:0:0:0:0:
448,192,21116,128,0,21186:0:0:0:0:
320,192,21255,128,0,21325:0:0:0:0:
64,192,21394,128,0,21463:0:0:0:0:
448,192,21533,128,0,21602:0:0:0:0:
320,192,21672,128,0,21741:0:0:0:0:
320,192,21811,128,0,21880:0:0:0:0:
448,192,21950,128,0,22088:0:0:0:0:
64,192,21950,128,0,22158:0:0:0:0:
192,192,22088,128,0,22297:0:0:0:0:
320,192,22227,128,0,22783:0:0:0:0:
448,192,22227,1,0,0:0:0:0:
64,192,22227,1,0,0:0:0:0:
192,192,22366,1,0,0:0:0:0:
448,192,22505,1,0,0:0:0:0:
64,192,22505,1,0,0:0:0:0:
192,192,22644,1,0,0:0:0:0:
64,192,22783,128,0,23755:0:0:0:0:
448,192,22783,1,0,0:0:0:0:
192,192,22922,1,0,0:0:0:0:
448,192,23061,1,0,0:0:0:0:
320,192,23200,1,0,0:0:0:0:
192,192,23338,1,0,0:0:0:0:
320,192,23338,1,0,0:0:0:0:
448,192,23477,1,0,0:0:0:0:
320,192,23616,1,0,0:0:0:0:
448,192,23755,128,0,23894:0:0:0:0:
192,192,23755,1,0,0:0:0:0:
320,192,23825,128,0,23963:0:0:0:0:
64,192,23894,128,0,23963:0:0:0:0:
192,192,23894,128,0,24102:0:0:0:0:
64,192,24033,128,0,24241:0:0:0:0:
320,192,24172,128,0,24241:0:0:0:0:
448,192,24172,128,0,24380:0:0:0:0:
64,192,24311,128,0,24450:0:0:0:0:
192,192,24450,128,0,24866:0:0:0:0:
320,192,24450,128,0,24658:0:0:0:0:
448,192,24450,1,0,0:0:0:0:
64,192,24588,1,0,0:0:0:0:
320,192,24727,1,0,0:0:0:0:
448,192,24727,1,0,0:0:0:0:
448,192,24866,128,0,25213:0:0:0:0:
64,192,24866,1,0,0:0:0:0:
192,192,25005,1,0,0:0:0:0:
64,192,25144,1,0,0:0:0:0:
192,192,25190,128,0,25329:0:0:0:0:
320,192,25237,128,0,25375:0:0:0:0:
64,192,25283,128,0,25561:0:0:0:0:
448,192,25283,1,0,0:0:0:0:
192,192,25422,128,0,25561:0:0:0:0:
320,192,25561,1,0,0:0:0:0:
448,192,25561,128,0,26394:0:0:0:0:
64,192,25700,1,0,0:0:0:0:
192,192,25838,1,0,0:0:0:0:
320,192,25838,1,0,0:0:0:0:
192,192,25977,1,0,0:0:0:0:
320,192,26116,1,0,0:0:0:0:
64,192,26116,1,0,0:0:0:0:
192,192,26255,1,0,0:0:0:0:
64,192,26394,128,0,26533:0:0:0:0:
320,192,26394,1,0,0:0:0:0:
192,192,26440,128,0,26579:0:0:0:0:
448,192,26487,128,0,26625:0:0:0:0:
320,192,26579,128,0,26718:0:0:0:0:
64,192,26672,128,0,27088:0:0:0:0:
192,192,26672,128,0,26811:0:0:0:0:
320,192,26811,1,0,0:0:0:0:
320,192,26950,1,0,0:0:0:0:
448,192,26950,1,0,0:0:0:0:
192,192,27088,128,0,27505:0:0:0:0:
320,192,27158,128,0,27297:0:0:0:0:
64,192,27227,1,0,0:0:0:0:
320,192,27366,1,0,0:0:0:0:
448,192,27505,128,0,27644:0:0:0:0:
64,192,27505,1,0,0:0:0:0:
320,192,27644,128,0,27783:0:0:0:0:
192,192,27713,128,0,27852:0:0:0:0:
64,192,27783,128,0,28200:0:0:0:0:
448,192,27783,128,0,27922:0:0:0:0:
320,192,27922,1,0,0:0:0:0:
448,192,28061,1,0,0:0:0:0:
192,192,28061,1,0,0:0:0:0:
320,192,28200,128,0,28616:0:0:0:0:
192,192,28200,1,0,0:0:0:0:
448,192,28269,128,0,28408:0:0:0:0:
64,192,28338,1,0,0:0:0:0:
192,192,28477,1,0,0:0:0:0:
448,192,28616,128,0,28894:0:0:0:0:
64,192,28616,1,0,0:0:0:0:
192,192,28755,1,0,0:0:0:0:
64,192,28894,128,0,29102:0:0:0:0:
192,192,28894,128,0,29033:0:0:0:0:
320,192,29033,128,0,29172:0:0:0:0:
448,192,29172,128,0,29380:0:0:0:0:
192,192,29172,128,0,29311:0:0:0:0:
64,192,29311,128,0,29450:0:0:0:0:
320,192,29450,1,0,0:0:0:0:
320,192,29588,128,0,29727:0:0:0:0:
448,192,29588,1,0,0:0:0:0:
192,192,29658,128,0,29797:0:0:0:0:
64,192,29727,128,0,29866:0:0:0:0:
448,192,29727,128,0,29936:0:0:0:0:
320,192,29866,128,0,30075:0:0:0:0:
192,192,30005,128,0,30213:0:0:0:0:
64,192,30005,128,0,30144:0:0:0:0:
448,192,30144,128,0,30283:0:0:0:0:
320,192,30144,128,0,30283:0:0:0:0:
448,192,30422,1,0,0:0:0:0:
64,192,30422,1,0,0:0:0:0:
320,192,30491,1,0,0:0:0:0:
192,192,30491,1,0,0:0:0:0:
448,192,30561,128,0,30769:0:0:0:0:
64,192,30561,128,0,30700:0:0:0:0:
320,192,30700,128,0,30838:0:0:0:0:
192,192,30700,1,0,0:0:0:0:
64,192,30838,128,0,31047:0:0:0:0:
192,192,30838,128,0,30977:0:0:0:0:
448,192,30838,1,0,0:0:0:0:
320,192,30977,128,0,31116:0:0:0:0:
448,192,31116,1,0,0:0:0:0:
192,192,31116,1,0,0:0:0:0:
64,192,31116,1,0,0:0:0:0:
320,192,31255,1,0,0:0:0:0:
64,192,31394,1,0,0:0:0:0:
448,192,31394,1,0,0:0:0:0:
192,192,31533,1,0,0:0:0:0:
448,192,31672,1,0,0:0:0:0:
320,192,31672,1,0,0:0:0:0:
448,192,31811,1,0,0:0:0:0:
320,192,31811,1,0,0:0:0:0:
64,192,31950,1,0,0:0:0:0:
448,192,31950,1,0,0:0:0:0:
192,192,32088,1,0,0:0:0:0:
192,192,32227,1,0,0:0:0:0:
320,192,32227,1,0,0:0:0:0:
448,192,32366,1,0,0:0:0:0:
64,192,32366,1,0,0:0:0:0:
192,192,32505,1,0,0:0:0:0:
64,192,32505,1,0,0:0:0:0:
192,192,32644,1,0,0:0:0:0:
320,192,32644,1,0,0:0:0:0:
448,192,32783,1,0,0:0:0:0:
64,192,32783,1,0,0:0:0:0:
320,192,32922,1,0,0:0:0:0:
64,192,33061,1,0,0:0:0:0:
192,192,33061,1,0,0:0:0:0:
320,192,33061,1,0,0:0:0:0:
64,192,33200,1,0,0:0:0:0:
192,192,33200,1,0,0:0:0:0:
64,192,33338,1,0,0:0:0:0:
192,192,33338,1,0,0:0:0:0:
448,192,33338,1,0,0:0:0:0:
320,192,33477,1,0,0:0:0:0:
192,192,33616,1,0,0:0:0:0:
320,192,33616,1,0,0:0:0:0:
448,192,33616,1,0,0:0:0:0:
64,192,33755,1,0,0:0:0:0:
448,192,33894,1,0,0:0:0:0:
192,192,33894,1,0,0:0:0:0:
320,192,33894,1,0,0:0:0:0:
448,192,34033,1,0,0:0:0:0:
192,192,34033,1,0,0:0:0:0:
64,192,34172,1,0,0:0:0:0:
192,192,34172,1,0,0:0:0:0:
320,192,34172,1,0,0:0:0:0:
192,192,34311,1,0,0:0:0:0:
320,192,34311,1,0,0:0:0:0:
448,192,34311,1,0,0:0:0:0:
320,192,34450,1,0,0:0:0:0:
64,192,34450,1,0,0:0:0:0:
448,192,34450,1,0,0:0:0:0:
192,192,34588,1,0,0:0:0:0:
64,192,34658,1,0,0:0:0:0:
320,192,34658,1,0,0:0:0:0:
448,192,34658,1,0,0:0:0:0:
192,192,34727,1,0,0:0:0:0:
448,192,34866,1,0,0:0:0:0:
64,192,34866,1,0,0:0:0:0:
192,192,34866,1,0,0:0:0:0:
320,192,34936,1,0,0:0:0:0:
64,192,35005,1,0,0:0:0:0:
448,192,35005,1,0,0:0:0:0:
192,192,35040,1,0,0:0:0:0:
320,192,35075,1,0,0:0:0:0:
192,192,35144,1,0,0:0:0:0:
448,192,35213,1,0,0:0:0:0:
64,192,35213,1,0,0:0:0:0:
320,192,35283,1,0,0:0:0:0:
448,192,35283,1,0,0:0:0:0:
192,192,35422,1,0,0:0:0:0:
320,192,35422,1,0,0:0:0:0:
64,192,35561,1,0,0:0:0:0:
192,192,35561,1,0,0:0:0:0:
448,192,35561,1,0,0:0:0:0:
64,192,35700,1,0,0:0:0:0:
192,192,35700,1,0,0:0:0:0:
320,192,35700,1,0,0:0:0:0:
448,192,35838,1,0,0:0:0:0:
192,192,35838,1,0,0:0:0:0:
320,192,35838,1,0,0:0:0:0:
64,192,35977,1,0,0:0:0:0:
192,192,35977,1,0,0:0:0:0:
320,192,36047,1,0,0:0:0:0:
64,192,36116,1,0,0:0:0:0:
448,192,36116,1,0,0:0:0:0:
192,192,36116,1,0,0:0:0:0:
64,192,36255,1,0,0:0:0:0:
320,192,36255,1,0,0:0:0:0:
448,192,36255,1,0,0:0:0:0:
320,192,36394,128,0,36533:0:0:0:0:
192,192,36533,1,0,0:0:0:0:
64,192,36579,1,0,0:0:0:0:
320,192,36625,1,0,0:0:0:0:
192,192,36672,1,0,0:0:0:0:
64,192,36672,1,0,0:0:0:0:
448,192,36672,1,0,0:0:0:0:
192,192,36811,1,0,0:0:0:0:
320,192,36811,1,0,0:0:0:0:
448,192,36811,1,0,0:0:0:0:
64,192,36950,1,0,0:0:0:0:
192,192,36950,1,0,0:0:0:0:
320,192,36950,1,0,0:0:0:0:
448,192,37088,1,0,0:0:0:0:
320,192,37088,1,0,0:0:0:0:
64,192,37088,1,0,0:0:0:0:
192,192,37158,1,0,0:0:0:0:
320,192,37227,1,0,0:0:0:0:
448,192,37227,1,0,0:0:0:0:
64,192,37227,1,0,0:0:0:0:
192,192,37366,1,0,0:0:0:0:
320,192,37366,1,0,0:0:0:0:
448,192,37366,1,0,0:0:0:0:
192,192,37505,128,0,37644:0:0:0:0:
448,192,37505,128,0,37644:0:0:0:0:
64,192,37644,1,0,0:0:0:0:
320,192,37644,1,0,0:0:0:0:
192,192,37783,1,0,0:0:0:0:
64,192,37783,1,0,0:0:0:0:
448,192,37783,1,0,0:0:0:0:
320,192,37852,1,0,0:0:0:0:
192,192,37922,1,0,0:0:0:0:
448,192,37922,1,0,0:0:0:0:
64,192,37991,1,0,0:0:0:0:
320,192,38061,1,0,0:0:0:0:
192,192,38061,1,0,0:0:0:0:
448,192,38061,1,0,0:0:0:0:
64,192,38130,1,0,0:0:0:0:
320,192,38200,1,0,0:0:0:0:
448,192,38200,1,0,0:0:0:0:
192,192,38269,1,0,0:0:0:0:
448,192,38338,1,0,0:0:0:0:
64,192,38338,1,0,0:0:0:0:
320,192,38373,1,0,0:0:0:0:
192,192,38408,1,0,0:0:0:0:
64,192,38443,1,0,0:0:0:0:
448,192,38477,1,0,0:0:0:0:
320,192,38477,1,0,0:0:0:0:
192,192,38547,1,0,0:0:0:0:
64,192,38547,1,0,0:0:0:0:
448,192,38616,1,0,0:0:0:0:
320,192,38616,1,0,0:0:0:0:
64,192,38686,1,0,0:0:0:0:
320,192,38755,1,0,0:0:0:0:
192,192,38755,1,0,0:0:0:0:
448,192,38825,1,0,0:0:0:0:
64,192,38894,1,0,0:0:0:0:
192,192,38894,1,0,0:0:0:0:
320,192,39033,1,0,0:0:0:0:
64,192,39172,1,0,0:0:0:0:
448,192,39172,1,0,0:0:0:0:
320,192,39311,1,0,0:0:0:0:
192,192,39380,1,0,0:0:0:0:
64,192,39380,1,0,0:0:0:0:
448,192,39450,1,0,0:0:0:0:
64,192,39519,1,0,0:0:0:0:
320,192,39588,1,0,0:0:0:0:
192,192,39588,1,0,0:0:0:0:
64,192,39727,128,0,39936:0:0:0:0:
192,192,39727,128,0,39936:0:0:0:0:
320,192,39727,128,0,39936:0:0:0:0:
448,192,39727,128,0,39936:0:0:0:0:
64,192,40005,1,0,0:0:0:0:
192,192,40005,1,0,0:0:0:0:
320,192,40005,1,0,0:0:0:0:
448,192,40005,1,0,0:0:0:0:
64,192,40144,1,0,0:0:0:0:
192,192,40144,1,0,0:0:0:0:
448,192,40213,1,0,0:0:0:0:
192,192,40283,1,0,0:0:0:0:
320,192,40283,1,0,0:0:0:0:
448,192,40352,1,0,0:0:0:0:
64,192,40422,1,0,0:0:0:0:
320,192,40422,1,0,0:0:0:0:
192,192,40491,1,0,0:0:0:0:
64,192,40561,1,0,0:0:0:0:
320,192,40561,1,0,0:0:0:0:
448,192,40595,1,0,0:0:0:0:
64,192,40700,1,0,0:0:0:0:
192,192,40769,1,0,0:0:0:0:
320,192,40838,1,0,0:0:0:0:
448,192,40838,1,0,0:0:0:0:
64,192,40908,1,0,0:0:0:0:
320,192,40977,1,0,0:0:0:0:
192,192,40995,1,0,0:0:0:0:
64,192,41012,1,0,0:0:0:0:
448,192,41047,1,0,0:0:0:0:
320,192,41116,1,0,0:0:0:0:
192,192,41116,128,0,41255:0:0:0:0:
64,192,41255,1,0,0:0:0:0:
448,192,41255,1,0,0:0:0:0:
192,192,41394,1,0,0:0:0:0:
320,192,41394,1,0,0:0:0:0:
192,192,41533,1,0,0:0:0:0:
320,192,41533,1,0,0:0:0:0:
448,192,41672,1,0,0:0:0:0:
192,192,41672,1,0,0:0:0:0:
64,192,41706,1,0,0:0:0:0:
320,192,41764,1,0,0:0:0:0:
448,192,41764,1,0,0:0:0:0:
320,192,41857,1,0,0:0:0:0:
192,192,41857,1,0,0:0:0:0:
64,192,41950,1,0,0:0:0:0:
448,192,41950,1,0,0:0:0:0:
320,192,41996,1,0,0:0:0:0:
192,192,42042,1,0,0:0:0:0:
64,192,42088,1,0,0:0:0:0:
448,192,42088,1,0,0:0:0:0:
320,192,42158,1,0,0:0:0:0:
192,192,42227,1,0,0:0:0:0:
448,192,42227,1,0,0:0:0:0:
64,192,42227,1,0,0:0:0:0:
64,192,42366,1,0,0:0:0:0:
192,192,42401,1,0,0:0:0:0:
448,192,42436,1,0,0:0:0:0:
320,192,42470,1,0,0:0:0:0:
64,192,42505,1,0,0:0:0:0:
192,192,42505,1,0,0:0:0:0:
448,192,42575,1,0,0:0:0:0:
320,192,42575,1,0,0:0:0:0:
64,192,42644,1,0,0:0:0:0:
192,192,42644,1,0,0:0:0:0:
448,192,42713,1,0,0:0:0:0:
320,192,42783,1,0,0:0:0:0:
64,192,42783,1,0,0:0:0:0:
192,192,42818,1,0,0:0:0:0:
448,192,42922,1,0,0:0:0:0:
64,192,42922,1,0,0:0:0:0:
320,192,42991,1,0,0:0:0:0:
192,192,43061,1,0,0:0:0:0:
64,192,43061,1,0,0:0:0:0:
448,192,43061,1,0,0:0:0:0:
192,192,43200,1,0,0:0:0:0:
320,192,43200,1,0,0:0:0:0:
64,192,43246,1,0,0:0:0:0:
320,192,43338,1,0,0:0:0:0:
448,192,43338,128,0,43477:0:0:0:0:
64,192,43477,1,0,0:0:0:0:
192,192,43495,1,0,0:0:0:0:
448,192,43547,1,0,0:0:0:0:
320,192,43564,1,0,0:0:0:0:
192,192,43616,1,0,0:0:0:0:
64,192,43616,128,0,43755:0:0:0:0:
320,192,43755,1,0,0:0:0:0:
448,192,43755,1,0,0:0:0:0:
64,192,43825,1,0,0:0:0:0:
192,192,43825,1,0,0:0:0:0:
64,192,43894,1,0,0:0:0:0:
192,192,43894,1,0,0:0:0:0:
320,192,43929,1,0,0:0:0:0:
320,192,44033,1,0,0:0:0:0:
448,192,44033,1,0,0:0:0:0:
64,192,44068,1,0,0:0:0:0:
192,192,44102,1,0,0:0:0:0:
320,192,44137,1,0,0:0:0:0:
448,192,44172,1,0,0:0:0:0:
192,192,44311,1,0,0:0:0:0:
448,192,44311,1,0,0:0:0:0:
64,192,44311,1,0,0:0:0:0:
320,192,44380,1,0,0:0:0:0:
448,192,44450,1,0,0:0:0:0:
192,192,44450,1,0,0:0:0:0:
64,192,44450,1,0,0:0:0:0:
320,192,44496,1,0,0:0:0:0:
192,192,44542,1,0,0:0:0:0:
448,192,44588,1,0,0:0:0:0:
64,192,44658,1,0,0:0:0:0:
192,192,44727,1,0,0:0:0:0:
192,192,44797,1,0,0:0:0:0:
320,192,44866,1,0,0:0:0:0:
448,192,44866,1,0,0:0:0:0:
192,192,44936,1,0,0:0:0:0:
64,192,45005,1,0,0:0:0:0:
448,192,45005,1,0,0:0:0:0:
320,192,45040,1,0,0:0:0:0:
320,192,45144,1,0,0:0:0:0:
192,192,45144,1,0,0:0:0:0:
64,192,45213,1,0,0:0:0:0:
192,192,45283,1,0,0:0:0:0:
448,192,45283,1,0,0:0:0:0:
448,192,45352,1,0,0:0:0:0:
64,192,45422,1,0,0:0:0:0:
192,192,45445,1,0,0:0:0:0:
320,192,45468,1,0,0:0:0:0:
448,192,45561,1,0,0:0:0:0:
320,192,45584,1,0,0:0:0:0:
64,192,45607,1,0,0:0:0:0:
192,192,45700,1,0,0:0:0:0:
448,192,45700,1,0,0:0:0:0:
320,192,45838,1,0,0:0:0:0:
64,192,45838,1,0,0:0:0:0:
192,192,45908,1,0,0:0:0:0:
320,192,45977,1,0,0:0:0:0:
448,192,45977,1,0,0:0:0:0:
64,192,46047,1,0,0:0:0:0:
192,192,46047,1,0,0:0:0:0:
64,192,46116,1,0,0:0:0:0:
448,192,46116,1,0,0:0:0:0:
320,192,46151,1,0,0:0:0:0:
192,192,46209,128,0,46301:0:0:0:0:
64,192,46301,128,0,46394:0:0:0:0:
448,192,46394,1,0,0:0:0:0:
320,192,46394,1,0,0:0:0:0:
192,192,46394,1,0,0:0:0:0:
64,192,46533,1,0,0:0:0:0:
192,192,46533,1,0,0:0:0:0:
320,192,46533,128,0,46672:0:0:0:0:
192,192,46672,1,0,0:0:0:0:
64,192,46672,1,0,0:0:0:0:
448,192,46672,1,0,0:0:0:0:
320,192,46741,128,0,46811:0:0:0:0:
64,192,46811,1,0,0:0:0:0:
192,192,46845,1,0,0:0:0:0:
320,192,46880,1,0,0:0:0:0:
64,192,46950,1,0,0:0:0:0:
448,192,46950,1,0,0:0:0:0:
320,192,47019,1,0,0:0:0:0:
320,192,47088,1,0,0:0:0:0:
192,192,47088,1,0,0:0:0:0:
448,192,47158,1,0,0:0:0:0:
64,192,47227,1,0,0:0:0:0:
192,192,47227,1,0,0:0:0:0:
320,192,47262,1,0,0:0:0:0:
192,192,47366,1,0,0:0:0:0:
192,192,47436,1,0,0:0:0:0:
448,192,47505,1,0,0:0:0:0:
64,192,47505,1,0,0:0:0:0:
192,192,47575,1,0,0:0:0:0:
320,192,47644,1,0,0:0:0:0:
448,192,47644,1,0,0:0:0:0:
64,192,47713,1,0,0:0:0:0:
192,192,47783,1,0,0:0:0:0:
320,192,47783,1,0,0:0:0:0:
448,192,47783,1,0,0:0:0:0:
64,192,47852,1,0,0:0:0:0:
320,192,47922,1,0,0:0:0:0:
448,192,47991,1,0,0:0:0:0:
64,192,47991,1,0,0:0:0:0:
192,192,47991,1,0,0:0:0:0:
320,192,48061,1,0,0:0:0:0:
192,192,48130,1,0,0:0:0:0:
64,192,48200,1,0,0:0:0:0:
320,192,48200,1,0,0:0:0:0:
448,192,48200,1,0,0:0:0:0:
192,192,48269,1,0,0:0:0:0:
64,192,48338,1,0,0:0:0:0:
448,192,48338,1,0,0:0:0:0:
320,192,48356,1,0,0:0:0:0:
192,192,48408,1,0,0:0:0:0:
448,192,48477,1,0,0:0:0:0:
320,192,48477,1,0,0:0:0:0:
448,192,48547,1,0,0:0:0:0:
320,192,48547,1,0,0:0:0:0:
64,192,48616,1,0,0:0:0:0:
192,192,48616,1,0,0:0:0:0:
320,192,48686,1,0,0:0:0:0:
192,192,48755,1,0,0:0:0:0:
448,192,48755,1,0,0:0:0:0:
64,192,48755,1,0,0:0:0:0:
448,192,48894,1,0,0:0:0:0:
320,192,48894,1,0,0:0:0:0:
64,192,48894,1,0,0:0:0:0:
192,192,48940,1,0,0:0:0:0:
320,192,48987,1,0,0:0:0:0:
64,192,49033,1,0,0:0:0:0:
448,192,49079,1,0,0:0:0:0:
320,192,49125,1,0,0:0:0:0:
192,192,49172,1,0,0:0:0:0:
64,192,49172,1,0,0:0:0:0:
448,192,49241,1,0,0:0:0:0:
320,192,49311,1,0,0:0:0:0:
192,192,49311,1,0,0:0:0:0:
64,192,49380,1,0,0:0:0:0:
320,192,49450,1,0,0:0:0:0:
448,192,49450,1,0,0:0:0:0:
192,192,49484,1,0,0:0:0:0:
320,192,49588,1,0,0:0:0:0:
448,192,49606,1,0,0:0:0:0:
192,192,49658,1,0,0:0:0:0:
64,192,49675,1,0,0:0:0:0:
320,192,49727,1,0,0:0:0:0:
448,192,49727,128,0,49866:0:0:0:0:
192,192,49797,1,0,0:0:0:0:
320,192,49866,128,0,50005:0:0:0:0:
64,192,49866,1,0,0:0:0:0:
448,192,49936,1,0,0:0:0:0:
64,192,50005,128,0,50213:0:0:0:0:
192,192,50005,128,0,50144:0:0:0:0:
320,192,50144,1,0,0:0:0:0:
448,192,50144,1,0,0:0:0:0:
192,192,50213,1,0,0:0:0:0:
64,192,50283,1,0,0:0:0:0:
320,192,50283,1,0,0:0:0:0:
448,192,50283,1,0,0:0:0:0:
192,192,50422,1,0,0:0:0:0:
320,192,50422,1,0,0:0:0:0:
448,192,50561,1,0,0:0:0:0:
64,192,50561,1,0,0:0:0:0:
320,192,50595,1,0,0:0:0:0:
192,192,50653,1,0,0:0:0:0:
64,192,50653,1,0,0:0:0:0:
320,192,50746,1,0,0:0:0:0:
192,192,50746,1,0,0:0:0:0:
448,192,50838,1,0,0:0:0:0:
320,192,50838,1,0,0:0:0:0:
64,192,50838,128,0,50908:0:0:0:0:
192,192,50908,1,0,0:0:0:0:
320,192,50977,128,0,51116:0:0:0:0:
448,192,50977,1,0,0:0:0:0:
192,192,51116,128,0,51290:0:0:0:0:
64,192,51116,128,0,51220:0:0:0:0:
448,192,51151,128,0,51325:0:0:0:0:
320,192,51255,128,0,51394:0:0:0:0:
64,192,51394,128,0,51579:0:0:0:0:
448,192,51394,128,0,51579:0:0:0:0:
192,192,51487,1,0,0:0:0:0:
320,192,51487,128,0,51579:0:0:0:0:
192,192,51579,128,0,51672:0:0:0:0:
64,192,51672,128,0,51857:0:0:0:0:
320,192,51672,128,0,51857:0:0:0:0:
448,192,51672,1,0,0:0:0:0:
448,192,51764,128,0,51857:0:0:0:0:
192,192,51764,1,0,0:0:0:0:
192,192,51857,128,0,51950:0:0:0:0:
64,192,51950,1,0,0:0:0:0:
448,192,51950,1,0,0:0:0:0:
320,192,52019,1,0,0:0:0:0:
192,192,52088,1,0,0:0:0:0:
320,192,52123,1,0,0:0:0:0:
448,192,52123,1,0,0:0:0:0:
64,192,52158,1,0,0:0:0:0:
192,192,52227,1,0,0:0:0:0:
448,192,52297,1,0,0:0:0:0:
448,192,52366,1,0,0:0:0:0:
192,192,52366,1,0,0:0:0:0:
192,192,52436,1,0,0:0:0:0:
64,192,52505,1,0,0:0:0:0:
320,192,52505,1,0,0:0:0:0:
192,192,52575,1,0,0:0:0:0:
320,192,52644,1,0,0:0:0:0:
448,192,52644,1,0,0:0:0:0:
192,192,52713,128,0,52783:0:0:0:0:
64,192,52783,1,0,0:0:0:0:
448,192,52783,1,0,0:0:0:0:
320,192,52922,1,0,0:0:0:0:
64,192,52922,1,0,0:0:0:0:
448,192,52922,1,0,0:0:0:0:
448,192,53061,1,0,0:0:0:0:
64,192,53061,128,0,53269:0:0:0:0:
320,192,53061,128,0,53200:0:0:0:0:
192,192,53061,128,0,53234:0:0:0:0:
64,192,53338,1,0,0:0:0:0:
320,192,53338,1,0,0:0:0:0:
448,192,53338,1,0,0:0:0:0:
192,192,53385,1,0,0:0:0:0:
448,192,53431,1,0,0:0:0:0:
64,192,53477,1,0,0:0:0:0:
320,192,53524,1,0,0:0:0:0:
192,192,53570,1,0,0:0:0:0:
64,192,53616,1,0,0:0:0:0:
448,192,53616,1,0,0:0:0:0:
192,192,53686,1,0,0:0:0:0:
320,192,53686,1,0,0:0:0:0:
64,192,53755,1,0,0:0:0:0:
448,192,53755,1,0,0:0:0:0:
320,192,53825,1,0,0:0:0:0:
448,192,53894,1,0,0:0:0:0:
64,192,53894,1,0,0:0:0:0:
192,192,53894,1,0,0:0:0:0:
320,192,54033,1,0,0:0:0:0:
320,192,54102,1,0,0:0:0:0:
192,192,54172,1,0,0:0:0:0:
64,192,54172,1,0,0:0:0:0:
448,192,54241,1,0,0:0:0:0:
320,192,54311,1,0,0:0:0:0:
192,192,54334,1,0,0:0:0:0:
64,192,54357,1,0,0:0:0:0:
192,192,54450,1,0,0:0:0:0:
320,192,54473,1,0,0:0:0:0:
448,192,54496,1,0,0:0:0:0:
64,192,54588,1,0,0:0:0:0:
192,192,54588,1,0,0:0:0:0:
64,192,54727,1,0,0:0:0:0:
448,192,54727,1,0,0:0:0:0:
320,192,54797,1,0,0:0:0:0:
448,192,54866,1,0,0:0:0:0:
192,192,54866,1,0,0:0:0:0:
64,192,54936,1,0,0:0:0:0:
448,192,55005,1,0,0:0:0:0:
192,192,55005,1,0,0:0:0:0:
320,192,55005,1,0,0:0:0:0:
320,192,55144,1,0,0:0:0:0:
192,192,55213,1,0,0:0:0:0:
448,192,55213,1,0,0:0:0:0:
64,192,55213,1,0,0:0:0:0:
320,192,55352,1,0,0:0:0:0:
192,192,55352,1,0,0:0:0:0:
448,192,55422,1,0,0:0:0:0:
64,192,55422,1,0,0:0:0:0:
192,192,55422,1,0,0:0:0:0:
64,192,55630,1,0,0:0:0:0:
192,192,55630,1,0,0:0:0:0:
320,192,55630,1,0,0:0:0:0:
64,192,55838,1,0,0:0:0:0:
192,192,55838,1,0,0:0:0:0:
448,192,55838,1,0,0:0:0:0:
320,192,56047,1,0,0:0:0:0:
448,192,56047,1,0,0:0:0:0:
64,192,56047,1,0,0:0:0:0:
192,192,56255,1,0,0:0:0:0:
320,192,56255,1,0,0:0:0:0:
448,192,56255,1,0,0:0:0:0:
64,192,56255,1,0,0:0:0:0:
64,192,56463,1,0,0:0:0:0:
192,192,56463,1,0,0:0:0:0:
320,192,56463,1,0,0:0:0:0:
448,192,56463,1,0,0:0:0:0:
64,192,56672,1,0,0:0:0:0:
192,192,56672,1,0,0:0:0:0:
320,192,56672,1,0,0:0:0:0:
448,192,56672,1,0,0:0:0:0:
64,192,56880,1,0,0:0:0:0:
192,192,56880,1,0,0:0:0:0:
320,192,56880,1,0,0:0:0:0:
448,192,56880,1,0,0:0:0:0:
448,192,57088,1,0,0:0:0:0:
320,192,57088,1,0,0:0:0:0:
320,192,57158,1,0,0:0:0:0:
64,192,57158,1,0,0:0:0:0:
192,192,57227,1,0,0:0:0:0:
64,192,57227,1,0,0:0:0:0:
448,192,57227,1,0,0:0:0:0:
320,192,57366,1,0,0:0:0:0:
192,192,57366,1,0,0:0:0:0:
64,192,57505,1,0,0:0:0:0:
320,192,57505,1,0,0:0:0:0:
448,192,57505,1,0,0:0:0:0:
64,192,57644,1,0,0:0:0:0:
192,192,57644,1,0,0:0:0:0:
448,192,57644,1,0,0:0:0:0:
448,192,57783,128,0,57922:0:0:0:0:
64,192,57783,1,0,0:0:0:0:
320,192,57783,1,0,0:0:0:0:
192,192,57852,1,0,0:0:0:0:
64,192,57922,128,0,58061:0:0:0:0:
320,192,57922,1,0,0:0:0:0:
448,192,57991,1,0,0:0:0:0:
320,192,58061,128,0,58200:0:0:0:0:
192,192,58061,1,0,0:0:0:0:
448,192,58130,1,0,0:0:0:0:
64,192,58200,1,0,0:0:0:0:
192,192,58246,1,0,0:0:0:0:
320,192,58292,1,0,0:0:0:0:
64,192,58338,1,0,0:0:0:0:
448,192,58338,1,0,0:0:0:0:
192,192,58408,1,0,0:0:0:0:
448,192,58477,1,0,0:0:0:0:
320,192,58547,1,0,0:0:0:0:
64,192,58616,1,0,0:0:0:0:
192,192,58616,128,0,58755:0:0:0:0:
448,192,58616,1,0,0:0:0:0:
320,192,58686,1,0,0:0:0:0:
448,192,58755,128,0,58894:0:0:0:0:
64,192,58755,1,0,0:0:0:0:
192,192,58825,1,0,0:0:0:0:
64,192,58894,128,0,59033:0:0:0:0:
320,192,58894,1,0,0:0:0:0:
192,192,58963,1,0,0:0:0:0:
448,192,59033,1,0,0:0:0:0:
320,192,59079,1,0,0:0:0:0:
192,192,59125,1,0,0:0:0:0:
448,192,59172,1,0,0:0:0:0:
64,192,59172,1,0,0:0:0:0:
320,192,59241,1,0,0:0:0:0:
64,192,59311,1,0,0:0:0:0:
448,192,59311,128,0,59380:0:0:0:0:
192,192,59380,1,0,0:0:0:0:
320,192,59380,128,0,59450:0:0:0:0:
64,192,59450,128,0,59519:0:0:0:0:
448,192,59450,128,0,59519:0:0:0:0:
192,192,59588,128,0,59658:0:0:0:0:
64,192,59588,128,0,59658:0:0:0:0:
448,192,59727,1,0,0:0:0:0:
64,192,59727,128,0,59936:0:0:0:0:
192,192,59727,128,0,59936:0:0:0:0:
320,192,59866,128,0,59936:0:0:0:0:
448,192,59866,128,0,59936:0:0:0:0:
64,192,60005,128,0,60144:0:0:0:0:
448,192,60005,1,0,0:0:0:0:
192,192,60075,1,0,0:0:0:0:
320,192,60144,128,0,60283:0:0:0:0:
448,192,60144,1,0,0:0:0:0:
192,192,60213,1,0,0:0:0:0:
448,192,60283,128,0,60422:0:0:0:0:
64,192,60283,1,0,0:0:0:0:
320,192,60352,1,0,0:0:0:0:
64,192,60422,1,0,0:0:0:0:
192,192,60468,1,0,0:0:0:0:
320,192,60514,1,0,0:0:0:0:
448,192,60561,1,0,0:0:0:0:
64,192,60561,1,0,0:0:0:0:
192,192,60630,1,0,0:0:0:0:
448,192,60700,1,0,0:0:0:0:
320,192,60769,1,0,0:0:0:0:
448,192,60838,128,0,60977:0:0:0:0:
64,192,60838,1,0,0:0:0:0:
192,192,60838,1,0,0:0:0:0:
320,192,60908,1,0,0:0:0:0:
64,192,60977,128,0,61116:0:0:0:0:
192,192,60977,1,0,0:0:0:0:
448,192,61047,1,0,0:0:0:0:
192,192,61116,128,0,61255:0:0:0:0:
320,192,61116,1,0,0:0:0:0:
64,192,61186,1,0,0:0:0:0:
448,192,61255,1,0,0:0:0:0:
320,192,61301,1,0,0:0:0:0:
192,192,61348,1,0,0:0:0:0:
64,192,61394,1,0,0:0:0:0:
448,192,61394,1,0,0:0:0:0:
192,192,61463,1,0,0:0:0:0:
448,192,61533,128,0,61602:0:0:0:0:
320,192,61533,1,0,0:0:0:0:
192,192,61602,128,0,61672:0:0:0:0:
64,192,61602,1,0,0:0:0:0:
320,192,61672,128,0,61741:0:0:0:0:
448,192,61672,128,0,61741:0:0:0:0:
192,192,61811,128,0,61880:0:0:0:0:
320,192,61811,128,0,61880:0:0:0:0:
448,192,61950,128,0,62158:0:0:0:0:
64,192,61950,128,0,62158:0:0:0:0:
192,192,61950,1,0,0:0:0:0:
320,192,62088,128,0,62158:0:0:0:0:
192,192,62088,128,0,62158:0:0:0:0:
192,192,62227,128,0,62366:0:0:0:0:
64,192,62227,1,0,0:0:0:0:
320,192,62297,1,0,0:0:0:0:
64,192,62366,128,0,62505:0:0:0:0:
448,192,62366,1,0,0:0:0:0:
320,192,62436,1,0,0:0:0:0:
448,192,62505,128,0,62644:0:0:0:0:
192,192,62505,1,0,0:0:0:0:
320,192,62575,1,0,0:0:0:0:
64,192,62644,1,0,0:0:0:0:
192,192,62690,1,0,0:0:0:0:
320,192,62737,1,0,0:0:0:0:
64,192,62783,1,0,0:0:0:0:
448,192,62783,1,0,0:0:0:0:
192,192,62852,1,0,0:0:0:0:
320,192,62922,1,0,0:0:0:0:
64,192,62991,1,0,0:0:0:0:
448,192,63061,128,0,63200:0:0:0:0:
192,192,63061,1,0,0:0:0:0:
320,192,63061,1,0,0:0:0:0:
64,192,63130,1,0,0:0:0:0:
192,192,63200,128,0,63338:0:0:0:0:
320,192,63200,1,0,0:0:0:0:
448,192,63269,1,0,0:0:0:0:
64,192,63338,128,0,63477:0:0:0:0:
320,192,63338,1,0,0:0:0:0:
192,192,63408,1,0,0:0:0:0:
448,192,63477,1,0,0:0:0:0:
320,192,63524,1,0,0:0:0:0:
192,192,63570,1,0,0:0:0:0:
64,192,63616,1,0,0:0:0:0:
448,192,63616,1,0,0:0:0:0:
320,192,63686,1,0,0:0:0:0:
192,192,63755,128,0,63825:0:0:0:0:
64,192,63755,1,0,0:0:0:0:
448,192,63825,1,0,0:0:0:0:
320,192,63825,128,0,63894:0:0:0:0:
64,192,63894,128,0,63963:0:0:0:0:
192,192,63894,128,0,63963:0:0:0:0:
64,192,64033,128,0,64102:0:0:0:0:
448,192,64033,128,0,64102:0:0:0:0:
64,192,64172,1,0,0:0:0:0:
320,192,64172,128,0,64380:0:0:0:0:
448,192,64172,128,0,64380:0:0:0:0:
192,192,64311,128,0,64380:0:0:0:0:
64,192,64311,128,0,64380:0:0:0:0:
64,192,64450,128,0,64588:0:0:0:0:
448,192,64450,1,0,0:0:0:0:
192,192,64519,1,0,0:0:0:0:
320,192,64588,128,0,64727:0:0:0:0:
448,192,64588,1,0,0:0:0:0:
192,192,64658,1,0,0:0:0:0:
448,192,64727,128,0,64866:0:0:0:0:
64,192,64727,1,0,0:0:0:0:
320,192,64797,1,0,0:0:0:0:
64,192,64866,1,0,0:0:0:0:
192,192,64912,1,0,0:0:0:0:
320,192,64959,1,0,0:0:0:0:
64,192,65005,1,0,0:0:0:0:
448,192,65005,1,0,0:0:0:0:
192,192,65075,1,0,0:0:0:0:
320,192,65144,1,0,0:0:0:0:
192,192,65213,1,0,0:0:0:0:
448,192,65283,1,0,0:0:0:0:
320,192,65283,128,0,65422:0:0:0:0:
64,192,65283,1,0,0:0:0:0:
192,192,65352,1,0,0:0:0:0:
64,192,65422,128,0,65561:0:0:0:0:
448,192,65422,1,0,0:0:0:0:
320,192,65491,1,0,0:0:0:0:
192,192,65561,128,0,65700:0:0:0:0:
448,192,65561,1,0,0:0:0:0:
320,192,65700,1,0,0:0:0:0:
448,192,65769,1,0,0:0:0:0:
320,192,65838,1,0,0:0:0:0:
64,192,65838,1,0,0:0:0:0:
192,192,65873,1,0,0:0:0:0:
320,192,65977,1,0,0:0:0:0:
448,192,65977,1,0,0:0:0:0:
64,192,66047,1,0,0:0:0:0:
192,192,66047,1,0,0:0:0:0:
64,192,66116,128,0,66186:0:0:0:0:
448,192,66116,128,0,66325:0:0:0:0:
320,192,66116,128,0,66186:0:0:0:0:
64,192,66255,128,0,66463:0:0:0:0:
192,192,66255,128,0,66325:0:0:0:0:
320,192,66255,128,0,66325:0:0:0:0:
192,192,66394,128,0,66463:0:0:0:0:
320,192,66394,128,0,66602:0:0:0:0:
448,192,66394,128,0,66463:0:0:0:0:
192,192,66533,128,0,66672:0:0:0:0:
448,192,66533,128,0,66602:0:0:0:0:
64,192,66533,128,0,66672:0:0:0:0:
320,192,66672,128,0,66811:0:0:0:0:
448,192,66672,1,0,0:0:0:0:
192,192,66741,1,0,0:0:0:0:
64,192,66811,1,0,0:0:0:0:
448,192,66811,128,0,66950:0:0:0:0:
320,192,66880,1,0,0:0:0:0:
192,192,66950,128,0,67088:0:0:0:0:
64,192,66950,1,0,0:0:0:0:
320,192,67019,1,0,0:0:0:0:
448,192,67088,1,0,0:0:0:0:
64,192,67088,1,0,0:0:0:0:
320,192,67135,1,0,0:0:0:0:
192,192,67181,1,0,0:0:0:0:
64,192,67227,1,0,0:0:0:0:
448,192,67227,1,0,0:0:0:0:
320,192,67297,1,0,0:0:0:0:
192,192,67366,1,0,0:0:0:0:
64,192,67436,1,0,0:0:0:0:
192,192,67505,128,0,67644:0:0:0:0:
448,192,67505,1,0,0:0:0:0:
320,192,67505,1,0,0:0:0:0:
64,192,67575,1,0,0:0:0:0:
448,192,67644,128,0,67783:0:0:0:0:
320,192,67644,1,0,0:0:0:0:
192,192,67713,1,0,0:0:0:0:
320,192,67783,128,0,67922:0:0:0:0:
64,192,67783,1,0,0:0:0:0:
448,192,67852,1,0,0:0:0:0:
64,192,67922,1,0,0:0:0:0:
192,192,67968,1,0,0:0:0:0:
320,192,68014,1,0,0:0:0:0:
64,192,68061,1,0,0:0:0:0:
448,192,68061,1,0,0:0:0:0:
192,192,68130,1,0,0:0:0:0:
64,192,68200,128,0,68269:0:0:0:0:
448,192,68200,128,0,68269:0:0:0:0:
320,192,68269,128,0,68408:0:0:0:0:
192,192,68269,128,0,68338:0:0:0:0:
64,192,68338,128,0,68477:0:0:0:0:
448,192,68338,128,0,68477:0:0:0:0:
192,192,68477,128,0,68616:0:0:0:0:
320,192,68477,128,0,68547:0:0:0:0:
320,192,68616,128,0,68755:0:0:0:0:
64,192,68616,128,0,68686:0:0:0:0:
448,192,68616,128,0,68686:0:0:0:0:
64,192,68755,128,0,68894:0:0:0:0:
192,192,68755,128,0,68825:0:0:0:0:
320,192,68825,1,0,0:0:0:0:
448,192,68894,1,0,0:0:0:0:
192,192,68894,1,0,0:0:0:0:
192,192,68963,1,0,0:0:0:0:
320,192,69033,1,0,0:0:0:0:
320,192,69102,1,0,0:0:0:0:
64,192,69172,1,0,0:0:0:0:
64,192,69241,1,0,0:0:0:0:
448,192,69311,1,0,0:0:0:0:
448,192,69380,1,0,0:0:0:0:
192,192,69450,1,0,0:0:0:0:
320,192,69450,1,0,0:0:0:0:
192,192,69519,1,0,0:0:0:0:
64,192,69588,1,0,0:0:0:0:
320,192,69658,1,0,0:0:0:0:
448,192,69727,1,0,0:0:0:0:
64,192,69727,1,0,0:0:0:0:
192,192,69797,1,0,0:0:0:0:
448,192,69866,1,0,0:0:0:0:
320,192,69866,1,0,0:0:0:0:
64,192,69936,1,0,0:0:0:0:
192,192,69936,1,0,0:0:0:0:
448,192,70005,1,0,0:0:0:0:
320,192,70005,1,0,0:0:0:0:
64,192,70144,1,0,0:0:0:0:
320,192,70144,1,0,0:0:0:0:
192,192,70161,1,0,0:0:0:0:
448,192,70283,1,0,0:0:0:0:
192,192,70283,1,0,0:0:0:0:
320,192,70300,1,0,0:0:0:0:
320,192,70422,128,0,70491:0:0:0:0:
64,192,70422,1,0,0:0:0:0:
192,192,70439,1,0,0:0:0:0:
448,192,70491,128,0,70561:0:0:0:0:
64,192,70561,128,0,70769:0:0:0:0:
192,192,70561,128,0,70700:0:0:0:0:
320,192,70561,128,0,70630:0:0:0:0:
320,192,70700,128,0,70838:0:0:0:0:
64,192,70838,128,0,70977:0:0:0:0:
192,192,70838,128,0,70908:0:0:0:0:
448,192,70838,128,0,70977:0:0:0:0:
320,192,70977,128,0,71047:0:0:0:0:
192,192,70977,128,0,71116:0:0:0:0:
448,192,71116,128,0,71255:0:0:0:0:
64,192,71116,1,0,0:0:0:0:
320,192,71116,1,0,0:0:0:0:
192,192,71186,1,0,0:0:0:0:
64,192,71255,128,0,71394:0:0:0:0:
320,192,71255,1,0,0:0:0:0:
448,192,71325,1,0,0:0:0:0:
192,192,71394,1,0,0:0:0:0:
320,192,71394,128,0,71533:0:0:0:0:
448,192,71463,1,0,0:0:0:0:
64,192,71533,1,0,0:0:0:0:
192,192,71579,1,0,0:0:0:0:
320,192,71625,1,0,0:0:0:0:
448,192,71672,1,0,0:0:0:0:
64,192,71672,1,0,0:0:0:0:
192,192,71741,1,0,0:0:0:0:
448,192,71811,1,0,0:0:0:0:
320,192,71857,1,0,0:0:0:0:
192,192,71903,1,0,0:0:0:0:
64,192,71950,1,0,0:0:0:0:
448,192,71950,1,0,0:0:0:0:
320,192,72019,1,0,0:0:0:0:
448,192,72088,128,0,72181:0:0:0:0:
64,192,72088,1,0,0:0:0:0:
320,192,72135,128,0,72227:0:0:0:0:
192,192,72181,128,0,72274:0:0:0:0:
64,192,72227,128,0,72366:0:0:0:0:
448,192,72227,1,0,0:0:0:0:
320,192,72297,1,0,0:0:0:0:
448,192,72366,128,0,72505:0:0:0:0:
192,192,72366,1,0,0:0:0:0:
64,192,72436,1,0,0:0:0:0:
192,192,72505,1,0,0:0:0:0:
320,192,72505,1,0,0:0:0:0:
448,192,72575,1,0,0:0:0:0:
192,192,72644,1,0,0:0:0:0:
192,192,72713,1,0,0:0:0:0:
320,192,72783,128,0,72922:0:0:0:0:
448,192,72783,128,0,72991:0:0:0:0:
64,192,72783,1,0,0:0:0:0:
64,192,72922,128,0,73061:0:0:0:0:
192,192,72922,1,0,0:0:0:0:
192,192,73061,128,0,73269:0:0:0:0:
320,192,73061,128,0,73200:0:0:0:0:
448,192,73061,128,0,73130:0:0:0:0:
448,192,73200,1,0,0:0:0:0:
64,192,73200,128,0,73269:0:0:0:0:
320,192,73269,1,0,0:0:0:0:
64,192,73338,128,0,73477:0:0:0:0:
448,192,73338,128,0,73408:0:0:0:0:
192,192,73338,1,0,0:0:0:0:
320,192,73408,128,0,73547:0:0:0:0:
192,192,73477,128,0,73547:0:0:0:0:
448,192,73477,1,0,0:0:0:0:
64,192,73547,128,0,73616:0:0:0:0:
448,192,73616,128,0,73686:0:0:0:0:
320,192,73616,128,0,73755:0:0:0:0:
192,192,73616,1,0,0:0:0:0:
64,192,73686,128,0,73825:0:0:0:0:
192,192,73755,128,0,73825:0:0:0:0:
448,192,73755,1,0,0:0:0:0:
320,192,73825,128,0,73894:0:0:0:0:
448,192,73894,128,0,73963:0:0:0:0:
64,192,73894,128,0,74033:0:0:0:0:
192,192,73963,128,0,74033:0:0:0:0:
320,192,73963,128,0,74102:0:0:0:0:
448,192,74033,128,0,74102:0:0:0:0:
64,192,74102,128,0,74172:0:0:0:0:
192,192,74102,128,0,74172:0:0:0:0:
320,192,74172,128,0,74241:0:0:0:0:
448,192,74172,128,0,74241:0:0:0:0:
192,192,74241,128,0,74311:0:0:0:0:
64,192,74241,128,0,74311:0:0:0:0:
448,192,74311,128,0,74380:0:0:0:0:
320,192,74311,128,0,74380:0:0:0:0:
192,192,74380,128,0,74450:0:0:0:0:
64,192,74450,1,0,0:0:0:0:
320,192,74450,1,0,0:0:0:0:
448,192,74450,1,0,0:0:0:0:
192,192,74588,1,0,0:0:0:0:
64,192,74623,1,0,0:0:0:0:
192,192,74727,1,0,0:0:0:0:
64,192,74762,1,0,0:0:0:0:
192,192,74866,1,0,0:0:0:0:
64,192,74901,1,0,0:0:0:0:
192,192,75005,1,0,0:0:0:0:
64,192,75040,1,0,0:0:0:0:
192,192,75144,1,0,0:0:0:0:
64,192,75179,1,0,0:0:0:0:
192,192,75283,1,0,0:0:0:0:
64,192,75318,1,0,0:0:0:0:
192,192,75422,1,0,0:0:0:0:
64,192,75456,1,0,0:0:0:0:
64,192,75561,1,0,0:0:0:0:
448,192,75561,1,0,0:0:0:0:
320,192,75561,1,0,0:0:0:0:
192,192,75607,1,0,0:0:0:0:
320,192,75653,1,0,0:0:0:0:
64,192,75700,1,0,0:0:0:0:
448,192,75746,1,0,0:0:0:0:
320,192,75792,1,0,0:0:0:0:
64,192,75838,1,0,0:0:0:0:
192,192,75838,1,0,0:0:0:0:
448,192,75908,1,0,0:0:0:0:
320,192,75977,1,0,0:0:0:0:
64,192,76047,128,0,76186:0:0:0:0:
192,192,76047,128,0,76116:0:0:0:0:
448,192,76116,1,0,0:0:0:0:
192,192,76186,1,0,0:0:0:0:
64,192,76255,1,0,0:0:0:0:
320,192,76255,1,0,0:0:0:0:
448,192,76325,1,0,0:0:0:0:
192,192,76394,1,0,0:0:0:0:
320,192,76394,1,0,0:0:0:0:
64,192,76463,1,0,0:0:0:0:
192,192,76533,1,0,0:0:0:0:
320,192,76602,1,0,0:0:0:0:
64,192,76672,128,0,76950:0:0:0:0:
448,192,76672,1,0,0:0:0:0:
320,192,76741,1,0,0:0:0:0:
192,192,76811,128,0,77088:0:0:0:0:
320,192,76880,128,0,77019:0:0:0:0:
448,192,76950,128,0,77088:0:0:0:0:
64,192,77019,1,0,0:0:0:0:
320,192,77088,1,0,0:0:0:0:
64,192,77158,128,0,77297:0:0:0:0:
192,192,77158,128,0,77227:0:0:0:0:
448,192,77227,1,0,0:0:0:0:
320,192,77297,1,0,0:0:0:0:
448,192,77366,128,0,77436:0:0:0:0:
64,192,77366,128,0,77436:0:0:0:0:
320,192,77505,128,0,77575:0:0:0:0:
448,192,77505,128,0,77575:0:0:0:0:
192,192,77505,1,0,0:0:0:0:
64,192,77644,128,0,77713:0:0:0:0:
192,192,77644,128,0,77713:0:0:0:0:
320,192,77644,1,0,0:0:0:0:
64,192,77783,1,0,0:0:0:0:
192,192,77783,1,0,0:0:0:0:
448,192,77783,1,0,0:0:0:0:
320,192,77829,1,0,0:0:0:0:
192,192,77875,1,0,0:0:0:0:
64,192,77922,1,0,0:0:0:0:
448,192,77991,1,0,0:0:0:0:
320,192,77991,1,0,0:0:0:0:
64,192,78061,1,0,0:0:0:0:
192,192,78061,1,0,0:0:0:0:
448,192,78130,1,0,0:0:0:0:
64,192,78200,1,0,0:0:0:0:
320,192,78200,1,0,0:0:0:0:
192,192,78269,1,0,0:0:0:0:
64,192,78338,1,0,0:0:0:0:
448,192,78338,1,0,0:0:0:0:
320,192,78338,1,0,0:0:0:0:
192,192,78385,1,0,0:0:0:0:
320,192,78431,1,0,0:0:0:0:
448,192,78477,1,0,0:0:0:0:
64,192,78547,1,0,0:0:0:0:
192,192,78547,1,0,0:0:0:0:
320,192,78616,1,0,0:0:0:0:
448,192,78616,1,0,0:0:0:0:
64,192,78686,1,0,0:0:0:0:
448,192,78755,1,0,0:0:0:0:
192,192,78755,1,0,0:0:0:0:
320,192,78825,1,0,0:0:0:0:
448,192,78894,1,0,0:0:0:0:
64,192,78894,1,0,0:0:0:0:
192,192,78894,1,0,0:0:0:0:
320,192,78940,1,0,0:0:0:0:
192,192,78987,1,0,0:0:0:0:
64,192,79033,1,0,0:0:0:0:
320,192,79102,1,0,0:0:0:0:
448,192,79102,1,0,0:0:0:0:
64,192,79172,1,0,0:0:0:0:
192,192,79172,1,0,0:0:0:0:
448,192,79241,1,0,0:0:0:0:
64,192,79311,1,0,0:0:0:0:
320,192,79311,1,0,0:0:0:0:
192,192,79380,1,0,0:0:0:0:
320,192,79450,1,0,0:0:0:0:
448,192,79450,1,0,0:0:0:0:
64,192,79450,1,0,0:0:0:0:
192,192,79519,1,0,0:0:0:0:
448,192,79588,1,0,0:0:0:0:
320,192,79658,1,0,0:0:0:0:
192,192,79658,1,0,0:0:0:0:
64,192,79658,1,0,0:0:0:0:
448,192,79727,1,0,0:0:0:0:
320,192,79797,1,0,0:0:0:0:
64,192,79866,1,0,0:0:0:0:
192,192,79866,1,0,0:0:0:0:
448,192,79936,1,0,0:0:0:0:
320,192,79936,1,0,0:0:0:0:
64,192,80005,1,0,0:0:0:0:
448,192,80005,1,0,0:0:0:0:
320,192,80005,1,0,0:0:0:0:
192,192,80051,1,0,0:0:0:0:
320,192,80098,1,0,0:0:0:0:
64,192,80144,1,0,0:0:0:0:
448,192,80190,1,0,0:0:0:0:
320,192,80237,1,0,0:0:0:0:
64,192,80283,1,0,0:0:0:0:
192,192,80283,1,0,0:0:0:0:
320,192,80352,1,0,0:0:0:0:
448,192,80422,1,0,0:0:0:0:
64,192,80491,1,0,0:0:0:0:
192,192,80491,1,0,0:0:0:0:
320,192,80561,1,0,0:0:0:0:
192,192,80630,1,0,0:0:0:0:
320,192,80700,128,0,80769:0:0:0:0:
64,192,80700,1,0,0:0:0:0:
448,192,80769,128,0,80838:0:0:0:0:
64,192,80838,128,0,81012:0:0:0:0:
192,192,80873,128,0,81047:0:0:0:0:
320,192,80908,128,0,81047:0:0:0:0:
448,192,80943,128,0,81116:0:0:0:0:
320,192,81116,1,0,0:0:0:0:
64,192,81116,128,0,81255:0:0:0:0:
192,192,81116,128,0,81186:0:0:0:0:
448,192,81186,1,0,0:0:0:0:
192,192,81255,1,0,0:0:0:0:
192,192,81325,1,0,0:0:0:0:
64,192,81394,1,0,0:0:0:0:
448,192,81394,1,0,0:0:0:0:
320,192,81463,1,0,0:0:0:0:
448,192,81533,1,0,0:0:0:0:
64,192,81602,1,0,0:0:0:0:
192,192,81602,1,0,0:0:0:0:
320,192,81672,1,0,0:0:0:0:
192,192,81741,1,0,0:0:0:0:
448,192,81811,128,0,81950:0:0:0:0:
64,192,81811,1,0,0:0:0:0:
320,192,81811,128,0,81880:0:0:0:0:
192,192,81880,1,0,0:0:0:0:
64,192,81950,1,0,0:0:0:0:
320,192,81950,1,0,0:0:0:0:
448,192,82019,1,0,0:0:0:0:
320,192,82088,1,0,0:0:0:0:
192,192,82088,1,0,0:0:0:0:
448,192,82158,1,0,0:0:0:0:
64,192,82227,1,0,0:0:0:0:
192,192,82227,1,0,0:0:0:0:
320,192,82297,1,0,0:0:0:0:
448,192,82366,1,0,0:0:0:0:
192,192,82436,1,0,0:0:0:0:
320,192,82505,1,0,0:0:0:0:
448,192,82505,1,0,0:0:0:0:
64,192,82540,1,0,0:0:0:0:
192,192,82575,1,0,0:0:0:0:
448,192,82609,1,0,0:0:0:0:
320,192,82644,1,0,0:0:0:0:
64,192,82713,1,0,0:0:0:0:
192,192,82713,1,0,0:0:0:0:
320,192,82783,1,0,0:0:0:0:
448,192,82852,1,0,0:0:0:0:
192,192,82922,1,0,0:0:0:0:
320,192,82991,1,0,0:0:0:0:
64,192,83061,1,0,0:0:0:0:
448,192,83061,1,0,0:0:0:0:
320,192,83095,1,0,0:0:0:0:
192,192,83130,1,0,0:0:0:0:
64,192,83165,1,0,0:0:0:0:
448,192,83200,1,0,0:0:0:0:
192,192,83269,1,0,0:0:0:0:
320,192,83269,1,0,0:0:0:0:
64,192,83338,1,0,0:0:0:0:
448,192,83408,1,0,0:0:0:0:
192,192,83477,1,0,0:0:0:0:
448,192,83547,1,0,0:0:0:0:
320,192,83547,1,0,0:0:0:0:
64,192,83616,1,0,0:0:0:0:
192,192,83616,1,0,0:0:0:0:
320,192,83651,1,0,0:0:0:0:
448,192,83686,1,0,0:0:0:0:
192,192,83720,1,0,0:0:0:0:
64,192,83755,1,0,0:0:0:0:
320,192,83825,1,0,0:0:0:0:
448,192,83825,1,0,0:0:0:0:
64,192,83894,1,0,0:0:0:0:
320,192,83963,1,0,0:0:0:0:
192,192,84033,1,0,0:0:0:0:
448,192,84033,1,0,0:0:0:0:
64,192,84102,1,0,0:0:0:0:
320,192,84172,1,0,0:0:0:0:
448,192,84172,128,0,84241:0:0:0:0:
192,192,84241,1,0,0:0:0:0:
64,192,84241,128,0,84311:0:0:0:0:
448,192,84311,1,0,0:0:0:0:
320,192,84311,128,0,84380:0:0:0:0:
64,192,84380,1,0,0:0:0:0:
192,192,84380,128,0,84450:0:0:0:0:
320,192,84450,1,0,0:0:0:0:
448,192,84450,128,0,85144:0:0:0:0:
64,192,84450,1,0,0:0:0:0:
192,192,84519,1,0,0:0:0:0:
320,192,84588,1,0,0:0:0:0:
64,192,84658,1,0,0:0:0:0:
192,192,84727,128,0,84797:0:0:0:0:
320,192,84727,128,0,84797:0:0:0:0:
64,192,84797,1,0,0:0:0:0:
192,192,84866,1,0,0:0:0:0:
64,192,84936,128,0,85075:0:0:0:0:
320,192,84936,128,0,85005:0:0:0:0:
192,192,85005,1,0,0:0:0:0:
320,192,85075,1,0,0:0:0:0:
64,192,85144,1,0,0:0:0:0:
192,192,85213,1,0,0:0:0:0:
64,192,85283,128,0,85561:0:0:0:0:
320,192,85283,128,0,85352:0:0:0:0:
448,192,85283,1,0,0:0:0:0:
192,192,85422,1,0,0:0:0:0:
448,192,85422,128,0,85491:0:0:0:0:
192,192,85561,128,0,86186:0:0:0:0:
448,192,85561,1,0,0:0:0:0:
320,192,85630,1,0,0:0:0:0:
64,192,85700,128,0,85977:0:0:0:0:
448,192,85769,128,0,85908:0:0:0:0:
320,192,85838,128,0,85977:0:0:0:0:
448,192,85977,1,0,0:0:0:0:
64,192,86047,128,0,86186:0:0:0:0:
320,192,86047,128,0,86116:0:0:0:0:
448,192,86116,1,0,0:0:0:0:
320,192,86186,1,0,0:0:0:0:
192,192,86255,128,0,86325:0:0:0:0:
64,192,86255,128,0,86325:0:0:0:0:
192,192,86394,128,0,86463:0:0:0:0:
448,192,86394,128,0,86463:0:0:0:0:
64,192,86394,1,0,0:0:0:0:
64,192,86533,128,0,86602:0:0:0:0:
320,192,86533,128,0,86602:0:0:0:0:
448,192,86533,1,0,0:0:0:0:
320,192,86672,1,0,0:0:0:0:
448,192,86672,1,0,0:0:0:0:
64,192,86672,1,0,0:0:0:0:
192,192,86741,1,0,0:0:0:0:
448,192,86811,1,0,0:0:0:0:
320,192,86857,1,0,0:0:0:0:
64,192,86903,1,0,0:0:0:0:
320,192,86950,1,0,0:0:0:0:
448,192,86950,1,0,0:0:0:0:
192,192,86950,1,0,0:0:0:0:
64,192,87019,1,0,0:0:0:0:
192,192,87088,1,0,0:0:0:0:
448,192,87088,1,0,0:0:0:0:
320,192,87158,1,0,0:0:0:0:
64,192,87227,1,0,0:0:0:0:
448,192,87227,1,0,0:0:0:0:
320,192,87297,1,0,0:0:0:0:
192,192,87297,1,0,0:0:0:0:
448,192,87366,1,0,0:0:0:0:
64,192,87366,1,0,0:0:0:0:
320,192,87436,1,0,0:0:0:0:
192,192,87436,1,0,0:0:0:0:
64,192,87505,1,0,0:0:0:0:
448,192,87505,1,0,0:0:0:0:
192,192,87575,1,0,0:0:0:0:
320,192,87644,1,0,0:0:0:0:
448,192,87644,1,0,0:0:0:0:
192,192,87713,1,0,0:0:0:0:
320,192,87783,1,0,0:0:0:0:
448,192,87783,1,0,0:0:0:0:
64,192,87783,1,0,0:0:0:0:
192,192,87852,1,0,0:0:0:0:
64,192,87922,1,0,0:0:0:0:
320,192,87968,1,0,0:0:0:0:
448,192,88014,1,0,0:0:0:0:
64,192,88061,1,0,0:0:0:0:
192,192,88061,1,0,0:0:0:0:
320,192,88061,1,0,0:0:0:0:
448,192,88130,1,0,0:0:0:0:
192,192,88200,1,0,0:0:0:0:
320,192,88200,1,0,0:0:0:0:
64,192,88269,1,0,0:0:0:0:
320,192,88338,128,0,88408:0:0:0:0:
448,192,88338,128,0,88477:0:0:0:0:
192,192,88338,1,0,0:0:0:0:
64,192,88477,1,0,0:0:0:0:
320,192,88477,1,0,0:0:0:0:
192,192,88547,1,0,0:0:0:0:
64,192,88616,128,0,88755:0:0:0:0:
448,192,88616,1,0,0:0:0:0:
192,192,88686,128,0,88825:0:0:0:0:
320,192,88686,1,0,0:0:0:0:
448,192,88755,128,0,88894:0:0:0:0:
320,192,88825,128,0,88894:0:0:0:0:
192,192,88894,1,0,0:0:0:0:
64,192,88894,128,0,89588:0:0:0:0:
320,192,88963,1,0,0:0:0:0:
448,192,89033,1,0,0:0:0:0:
192,192,89102,1,0,0:0:0:0:
448,192,89172,128,0,89241:0:0:0:0:
320,192,89172,128,0,89241:0:0:0:0:
192,192,89241,1,0,0:0:0:0:
448,192,89311,1,0,0:0:0:0:
192,192,89380,1,0,0:0:0:0:
320,192,89380,1,0,0:0:0:0:
448,192,89450,1,0,0:0:0:0:
192,192,89519,128,0,89658:0:0:0:0:
448,192,89588,1,0,0:0:0:0:
64,192,89658,1,0,0:0:0:0:
320,192,89727,128,0,89797:0:0:0:0:
448,192,89727,128,0,89797:0:0:0:0:
192,192,89727,128,0,90005:0:0:0:0:
64,192,89866,128,0,89936:0:0:0:0:
320,192,89866,128,0,89936:0:0:0:0:
448,192,90005,128,0,90561:0:0:0:0:
64,192,90005,1,0,0:0:0:0:
320,192,90005,1,0,0:0:0:0:
192,192,90075,1,0,0:0:0:0:
320,192,90144,1,0,0:0:0:0:
64,192,90213,1,0,0:0:0:0:
192,192,90283,128,0,90352:0:0:0:0:
320,192,90283,128,0,90352:0:0:0:0:
64,192,90352,1,0,0:0:0:0:
192,192,90422,1,0,0:0:0:0:
64,192,90491,128,0,90561:0:0:0:0:
320,192,90491,128,0,90630:0:0:0:0:
192,192,90561,128,0,91116:0:0:0:0:
448,192,90630,1,0,0:0:0:0:
320,192,90700,128,0,90769:0:0:0:0:
64,192,90700,128,0,90838:0:0:0:0:
448,192,90769,1,0,0:0:0:0:
320,192,90838,1,0,0:0:0:0:
448,192,90908,1,0,0:0:0:0:
64,192,90977,128,0,91047:0:0:0:0:
320,192,90977,128,0,91047:0:0:0:0:
320,192,91116,128,0,92158:0:0:0:0:
448,192,91116,128,0,91255:0:0:0:0:
64,192,91116,128,0,91186:0:0:0:0:
192,192,91186,1,0,0:0:0:0:
448,192,91325,128,0,91394:0:0:0:0:
64,192,91325,128,0,91463:0:0:0:0:
192,192,91325,128,0,91533:0:0:0:0:
448,192,91533,1,0,0:0:0:0:
64,192,91533,1,0,0:0:0:0:
192,192,91672,128,0,91811:0:0:0:0:
448,192,91672,128,0,91811:0:0:0:0:
64,192,91672,128,0,91741:0:0:0:0:
64,192,91811,1,0,0:0:0:0:
192,192,91880,128,0,92019:0:0:0:0:
448,192,91880,128,0,91950:0:0:0:0:
64,192,91950,128,0,92158:0:0:0:0:
448,192,92088,128,0,92227:0:0:0:0:
192,192,92088,128,0,92158:0:0:0:0:
64,192,92227,128,0,93269:0:0:0:0:
320,192,92227,1,0,0:0:0:0:
192,192,92227,1,0,0:0:0:0:
448,192,92297,1,0,0:0:0:0:
320,192,92436,128,0,92505:0:0:0:0:
448,192,92436,128,0,92505:0:0:0:0:
192,192,92505,1,0,0:0:0:0:
320,192,92575,1,0,0:0:0:0:
448,192,92575,1,0,0:0:0:0:
320,192,92644,1,0,0:0:0:0:
448,192,92644,1,0,0:0:0:0:
192,192,92713,1,0,0:0:0:0:
320,192,92783,128,0,92991:0:0:0:0:
448,192,92783,128,0,92991:0:0:0:0:
192,192,92922,128,0,92991:0:0:0:0:
192,192,93061,128,0,93269:0:0:0:0:
320,192,93061,128,0,93269:0:0:0:0:
448,192,93061,1,0,0:0:0:0:
448,192,93200,128,0,93269:0:0:0:0:
64,192,93338,5,0,0:0:0:0:
192,192,93338,1,0,0:0:0:0:
448,192,93338,1,0,0:0:0:0:
320,192,93477,1,0,0:0:0:0:
64,192,93616,1,0,0:0:0:0:
448,192,93755,1,0,0:0:0:0:
320,192,93894,1,0,0:0:0:0:
64,192,94033,1,0,0:0:0:0:
192,192,94033,1,0,0:0:0:0:
448,192,94172,1,0,0:0:0:0:
320,192,94172,1,0,0:0:0:0:
192,192,94241,1,0,0:0:0:0:
320,192,94311,1,0,0:0:0:0:
192,192,94380,1,0,0:0:0:0:
448,192,94450,1,0,0:0:0:0:
64,192,94450,1,0,0:0:0:0:
320,192,94588,1,0,0:0:0:0:
192,192,94727,1,0,0:0:0:0:
64,192,94727,1,0,0:0:0:0:
320,192,94866,1,0,0:0:0:0:
448,192,94936,1,0,0:0:0:0:
64,192,95005,1,0,0:0:0:0:
320,192,95005,1,0,0:0:0:0:
192,192,95144,1,0,0:0:0:0:
448,192,95283,1,0,0:0:0:0:
320,192,95283,1,0,0:0:0:0:
64,192,95422,1,0,0:0:0:0:
192,192,95491,1,0,0:0:0:0:
448,192,95561,1,0,0:0:0:0:
320,192,95561,1,0,0:0:0:0:
320,192,95700,1,0,0:0:0:0:
64,192,95838,1,0,0:0:0:0:
448,192,95838,1,0,0:0:0:0:
192,192,95977,1,0,0:0:0:0:
320,192,96047,1,0,0:0:0:0:
64,192,96116,1,0,0:0:0:0:
448,192,96116,1,0,0:0:0:0:
320,192,96186,1,0,0:0:0:0:
64,192,96255,1,0,0:0:0:0:
192,192,96255,1,0,0:0:0:0:
320,192,96394,1,0,0:0:0:0:
448,192,96394,1,0,0:0:0:0:
64,192,96463,1,0,0:0:0:0:
448,192,96533,1,0,0:0:0:0:
64,192,96602,1,0,0:0:0:0:
192,192,96672,1,0,0:0:0:0:
320,192,96672,1,0,0:0:0:0:
448,192,96811,1,0,0:0:0:0:
64,192,96950,1,0,0:0:0:0:
448,192,96950,1,0,0:0:0:0:
320,192,97088,1,0,0:0:0:0:
64,192,97158,1,0,0:0:0:0:
192,192,97227,1,0,0:0:0:0:
320,192,97227,1,0,0:0:0:0:
448,192,97297,1,0,0:0:0:0:
64,192,97366,1,0,0:0:0:0:
192,192,97366,1,0,0:0:0:0:
448,192,97505,1,0,0:0:0:0:
320,192,97505,1,0,0:0:0:0:
192,192,97505,1,0,0:0:0:0:
64,192,97644,1,0,0:0:0:0:
64,192,97783,1,0,0:0:0:0:
320,192,97783,1,0,0:0:0:0:
448,192,97783,1,0,0:0:0:0:
64,192,97922,1,0,0:0:0:0:
192,192,97922,1,0,0:0:0:0:
320,192,97922,1,0,0:0:0:0:
192,192,98061,1,0,0:0:0:0:
320,192,98061,1,0,0:0:0:0:
448,192,98061,1,0,0:0:0:0:
64,192,98200,1,0,0:0:0:0:
192,192,98200,1,0,0:0:0:0:
448,192,98200,1,0,0:0:0:0:
64,192,98338,1,0,0:0:0:0:
320,192,98338,1,0,0:0:0:0:
448,192,98338,1,0,0:0:0:0:
64,192,98477,1,0,0:0:0:0:
192,192,98477,1,0,0:0:0:0:
320,192,98512,1,0,0:0:0:0:
448,192,98547,1,0,0:0:0:0:
64,192,98581,1,0,0:0:0:0:
320,192,98616,1,0,0:0:0:0:
448,192,98616,1,0,0:0:0:0:
192,192,98616,1,0,0:0:0:0:
192,192,98755,1,0,0:0:0:0:
320,192,98755,1,0,0:0:0:0:
64,192,98755,1,0,0:0:0:0:
448,192,98894,1,0,0:0:0:0:
64,192,98894,1,0,0:0:0:0:
320,192,98894,1,0,0:0:0:0:
192,192,98963,1,0,0:0:0:0:
320,192,99033,1,0,0:0:0:0:
448,192,99033,1,0,0:0:0:0:
64,192,99102,1,0,0:0:0:0:
192,192,99172,1,0,0:0:0:0:
320,192,99172,1,0,0:0:0:0:
448,192,99172,1,0,0:0:0:0:
64,192,99241,1,0,0:0:0:0:
192,192,99311,1,0,0:0:0:0:
320,192,99311,1,0,0:0:0:0:
448,192,99380,1,0,0:0:0:0:
192,192,99450,1,0,0:0:0:0:
64,192,99450,1,0,0:0:0:0:
320,192,99519,1,0,0:0:0:0:
448,192,99519,1,0,0:0:0:0:
64,192,99588,1,0,0:0:0:0:
192,192,99588,1,0,0:0:0:0:
320,192,99658,1,0,0:0:0:0:
448,192,99658,1,0,0:0:0:0:
64,192,99727,1,0,0:0:0:0:
192,192,99727,1,0,0:0:0:0:
320,192,99797,1,0,0:0:0:0:
448,192,99797,1,0,0:0:0:0:
64,192,99866,1,0,0:0:0:0:
192,192,99866,1,0,0:0:0:0:
320,192,99936,1,0,0:0:0:0:
448,192,99936,1,0,0:0:0:0:
192,192,100005,1,0,0:0:0:0:
64,192,100005,1,0,0:0:0:0:
448,192,101116,128,0,101393:0:0:0:0:
192,192,101116,128,0,101579:0:0:0:0:
64,192,101116,1,0,0:0:0:0:
320,192,101301,128,0,101486:0:0:0:0:
448,192,101486,128,0,101856:0:0:0:0:
64,192,101486,128,0,101671:0:0:0:0:
320,192,101671,128,0,101856:0:0:0:0:
192,192,101856,128,0,102165:0:0:0:0:
64,192,101856,128,0,102165:0:0:0:0:
320,192,101980,128,0,102165:0:0:0:0:
448,192,102103,128,0,102227:0:0:0:0:
64,192,102227,128,0,102551:0:0:0:0:
320,192,102227,1,0,0:0:0:0:
192,192,102273,128,0,102551:0:0:0:0:
320,192,102319,128,0,102504:0:0:0:0:
448,192,102365,128,0,102504:0:0:0:0:
448,192,102597,128,0,102921:0:0:0:0:
64,192,102597,128,0,102689:0:0:0:0:
320,192,102643,128,0,102921:0:0:0:0:
192,192,102689,128,0,102875:0:0:0:0:
64,192,102736,128,0,102875:0:0:0:0:
64,192,102967,128,0,103029:0:0:0:0:
192,192,102967,128,0,103029:0:0:0:0:
448,192,102967,1,0,0:0:0:0:
320,192,103029,128,0,103091:0:0:0:0:
192,192,103091,128,0,103152:0:0:0:0:
64,192,103091,128,0,103152:0:0:0:0:
448,192,103152,128,0,103214:0:0:0:0:
192,192,103214,128,0,103276:0:0:0:0:
64,192,103214,128,0,103276:0:0:0:0:
320,192,103276,128,0,103338:0:0:0:0:
192,192,103338,128,0,103585:0:0:0:0:
64,192,103338,128,0,103461:0:0:0:0:
448,192,103338,128,0,103461:0:0:0:0:
320,192,103461,128,0,103708:0:0:0:0:
64,192,103585,128,0,103770:0:0:0:0:
448,192,103585,128,0,103708:0:0:0:0:
192,192,103708,128,0,103831:0:0:0:0:
320,192,103801,128,0,103924:0:0:0:0:
64,192,103893,128,0,104078:0:0:0:0:
192,192,103893,128,0,104032:0:0:0:0:
448,192,103893,128,0,103986:0:0:0:0:
320,192,104078,128,0,104140:0:0:0:0:
448,192,104078,128,0,104140:0:0:0:0:
64,192,104140,128,0,104202:0:0:0:0:
320,192,104202,128,0,104264:0:0:0:0:
448,192,104202,128,0,104264:0:0:0:0:
192,192,104264,128,0,104325:0:0:0:0:
320,192,104325,128,0,104387:0:0:0:0:
448,192,104325,128,0,104387:0:0:0:0:
64,192,104387,128,0,104449:0:0:0:0:
448,192,104449,128,0,104588:0:0:0:0:
192,192,104449,1,0,0:0:0:0:
320,192,104449,128,0,104634:0:0:0:0:
64,192,104510,128,0,104572:0:0:0:0:
192,192,104572,128,0,104634:0:0:0:0:
64,192,104634,128,0,104819:0:0:0:0:
448,192,104634,128,0,104727:0:0:0:0:
192,192,104680,128,0,104865:0:0:0:0:
320,192,104727,128,0,104912:0:0:0:0:
448,192,104773,128,0,104912:0:0:0:0:
192,192,104912,128,0,105004:0:0:0:0:
64,192,104912,128,0,105051:0:0:0:0:
448,192,104958,128,0,105097:0:0:0:0:
320,192,105004,128,0,105143:0:0:0:0:
192,192,105051,128,0,105189:0:0:0:0:
64,192,105189,128,0,105375:0:0:0:0:
320,192,105189,128,0,105282:0:0:0:0:
448,192,105236,128,0,105328:0:0:0:0:
192,192,105282,128,0,105375:0:0:0:0:
320,192,105328,128,0,105467:0:0:0:0:
448,192,105375,128,0,105514:0:0:0:0:
64,192,105421,128,0,105560:0:0:0:0:
192,192,105467,128,0,105560:0:0:0:0:
320,192,105514,128,0,105652:0:0:0:0:
448,192,105560,128,0,105884:0:0:0:0:
192,192,105652,128,0,105930:0:0:0:0:
64,192,105652,128,0,105930:0:0:0:0:
320,192,105930,128,0,105992:0:0:0:0:
448,192,105930,1,0,0:0:0:0:
192,192,105992,128,0,106054:0:0:0:0:
64,192,105992,128,0,106054:0:0:0:0:
320,192,106054,128,0,106115:0:0:0:0:
192,192,106115,128,0,106177:0:0:0:0:
64,192,106115,128,0,106177:0:0:0:0:
320,192,106177,128,0,106239:0:0:0:0:
192,192,106239,128,0,106301:0:0:0:0:
64,192,106239,128,0,106301:0:0:0:0:
320,192,106301,128,0,106424:0:0:0:0:
448,192,106301,128,0,106486:0:0:0:0:
64,192,106424,128,0,106547:0:0:0:0:
192,192,106486,128,0,106547:0:0:0:0:
320,192,106547,128,0,106609:0:0:0:0:
448,192,106547,128,0,106609:0:0:0:0:
64,192,106609,128,0,106671:0:0:0:0:
320,192,106671,128,0,106733:0:0:0:0:
448,192,106671,128,0,106856:0:0:0:0:
320,192,106794,128,0,106980:0:0:0:0:
192,192,106794,128,0,106918:0:0:0:0:
64,192,106918,128,0,106980:0:0:0:0:
448,192,106918,128,0,107103:0:0:0:0:
64,192,107041,128,0,107227:0:0:0:0:
192,192,107041,128,0,107103:0:0:0:0:
320,192,107103,128,0,107165:0:0:0:0:
192,192,107165,128,0,107227:0:0:0:0:
320,192,107227,128,0,107350:0:0:0:0:
448,192,107227,128,0,107350:0:0:0:0:
64,192,107412,128,0,107551:0:0:0:0:
448,192,107412,128,0,107736:0:0:0:0:
320,192,107412,1,0,0:0:0:0:
192,192,107412,128,0,107643:0:0:0:0:
64,192,107782,128,0,108014:0:0:0:0:
320,192,107782,128,0,108060:0:0:0:0:
192,192,107828,128,0,108060:0:0:0:0:
448,192,107875,128,0,108106:0:0:0:0:
64,192,108152,128,0,108384:0:0:0:0:
320,192,108152,128,0,108245:0:0:0:0:
192,192,108199,128,0,108430:0:0:0:0:
448,192,108245,128,0,108477:0:0:0:0:
320,192,108291,128,0,108477:0:0:0:0:
64,192,108523,128,0,108615:0:0:0:0:
192,192,108523,128,0,108754:0:0:0:0:
320,192,108569,128,0,108754:0:0:0:0:
448,192,108615,128,0,108893:0:0:0:0:
64,192,108662,128,0,108847:0:0:0:0:
192,192,108893,128,0,109078:0:0:0:0:
320,192,108893,128,0,108955:0:0:0:0:
64,192,108893,1,0,0:0:0:0:
448,192,108955,128,0,109017:0:0:0:0:
320,192,109017,128,0,109202:0:0:0:0:
64,192,109017,128,0,109202:0:0:0:0:
192,192,109140,128,0,109202:0:0:0:0:
448,192,109140,128,0,109264:0:0:0:0:
64,192,109264,128,0,109572:0:0:0:0:
192,192,109264,128,0,109449:0:0:0:0:
320,192,109264,128,0,109387:0:0:0:0:
320,192,109449,128,0,109572:0:0:0:0:
448,192,109510,128,0,109634:0:0:0:0:
192,192,109510,128,0,109572:0:0:0:0:
64,192,109634,128,0,109757:0:0:0:0:
192,192,109634,128,0,109696:0:0:0:0:
448,192,109696,128,0,109757:0:0:0:0:
320,192,109757,128,0,109819:0:0:0:0:
192,192,109819,128,0,110004:0:0:0:0:
64,192,109819,128,0,109943:0:0:0:0:
448,192,109819,128,0,109881:0:0:0:0:
64,192,110004,128,0,110066:0:0:0:0:
320,192,110004,128,0,110189:0:0:0:0:
192,192,110066,128,0,110128:0:0:0:0:
448,192,110189,128,0,110251:0:0:0:0:
64,192,110189,128,0,110313:0:0:0:0:
320,192,110251,128,0,110313:0:0:0:0:
192,192,110313,128,0,110375:0:0:0:0:
320,192,110375,128,0,110498:0:0:0:0:
448,192,110375,1,0,0:0:0:0:
64,192,110375,128,0,110514:0:0:0:0:
320,192,110560,128,0,110745:0:0:0:0:
448,192,110560,128,0,110652:0:0:0:0:
192,192,110560,128,0,110776:0:0:0:0:
64,192,110652,128,0,110776:0:0:0:0:
448,192,110699,128,0,110838:0:0:0:0:
192,192,110838,128,0,110930:0:0:0:0:
320,192,110838,128,0,110976:0:0:0:0:
64,192,110838,128,0,110976:0:0:0:0:
448,192,110930,128,0,111023:0:0:0:0:
192,192,110976,128,0,111069:0:0:0:0:
320,192,111023,128,0,111069:0:0:0:0:
448,192,111069,128,0,111115:0:0:0:0:
192,192,111115,128,0,111301:0:0:0:0:
64,192,111115,128,0,111239:0:0:0:0:
320,192,111177,128,0,111301:0:0:0:0:
448,192,111239,128,0,111362:0:0:0:0:
64,192,111301,128,0,111424:0:0:0:0:
192,192,111362,128,0,111486:0:0:0:0:
448,192,111424,128,0,111547:0:0:0:0:
320,192,111486,128,0,111671:0:0:0:0:
64,192,111486,128,0,111856:0:0:0:0:
192,192,111671,128,0,111856:0:0:0:0:
320,192,111856,1,0,0:0:0:0:
448,192,111856,128,0,111918:0:0:0:0:
64,192,111918,128,0,111980:0:0:0:0:
192,192,111918,128,0,111980:0:0:0:0:
320,192,111980,128,0,112041:0:0:0:0:
448,192,111980,128,0,112041:0:0:0:0:
192,192,112041,128,0,112103:0:0:0:0:
64,192,112041,128,0,112165:0:0:0:0:
320,192,112103,128,0,112165:0:0:0:0:
192,192,112165,128,0,112226:0:0:0:0:
320,192,112226,128,0,112365:0:0:0:0:
64,192,112226,128,0,112365:0:0:0:0:
448,192,112226,128,0,112319:0:0:0:0:
192,192,112319,128,0,112412:0:0:0:0:
448,192,112365,128,0,112458:0:0:0:0:
320,192,112412,128,0,112551:0:0:0:0:
64,192,112504,128,0,112643:0:0:0:0:
192,192,112504,128,0,112597:0:0:0:0:
448,192,112504,128,0,112689:0:0:0:0:
320,192,112597,128,0,112689:0:0:0:0:
192,192,112689,128,0,112828:0:0:0:0:
320,192,112782,128,0,112875:0:0:0:0:
448,192,112782,128,0,112967:0:0:0:0:
64,192,112782,128,0,112921:0:0:0:0:
192,192,112875,128,0,112967:0:0:0:0:
320,192,112967,128,0,113152:0:0:0:0:
192,192,113060,128,0,113199:0:0:0:0:
448,192,113060,128,0,113245:0:0:0:0:
64,192,113060,128,0,113245:0:0:0:0:
320,192,113199,128,0,113245:0:0:0:0:
192,192,113245,128,0,113291:0:0:0:0:
64,192,113291,128,0,113338:0:0:0:0:
448,192,113338,128,0,113893:0:0:0:0:
192,192,113338,128,0,113523:0:0:0:0:
320,192,113338,128,0,113708:0:0:0:0:
64,192,113523,1,0,0:0:0:0:
192,192,113708,1,0,0:0:0:0:
320,192,113893,1,0,0:0:0:0:
448,192,114078,128,0,114449:0:0:0:0:
64,192,114078,1,0,0:0:0:0:
64,192,114264,128,0,114449:0:0:0:0:
192,192,114449,128,0,114588:0:0:0:0:
320,192,114495,128,0,114634:0:0:0:0:
448,192,114541,128,0,114680:0:0:0:0:
64,192,114634,1,0,0:0:0:0:
192,192,114634,1,0,0:0:0:0:
192,192,114726,1,0,0:0:0:0:
320,192,114726,1,0,0:0:0:0:
320,192,114819,128,0,114958:0:0:0:0:
448,192,114819,128,0,115051:0:0:0:0:
64,192,114819,1,0,0:0:0:0:
192,192,114912,128,0,115097:0:0:0:0:
64,192,115004,128,0,115189:0:0:0:0:
320,192,115051,128,0,115097:0:0:0:0:
192,192,115189,128,0,115467:0:0:0:0:
448,192,115189,128,0,115282:0:0:0:0:
320,192,115189,128,0,115328:0:0:0:0:
320,192,115375,1,0,0:0:0:0:
448,192,115375,1,0,0:0:0:0:
320,192,115467,1,0,0:0:0:0:
448,192,115467,1,0,0:0:0:0:
64,192,115560,128,0,115699:0:0:0:0:
192,192,115560,128,0,115699:0:0:0:0:
448,192,115606,128,0,115745:0:0:0:0:
320,192,115652,128,0,115791:0:0:0:0:
64,192,115745,128,0,115930:0:0:0:0:
192,192,115745,128,0,115884:0:0:0:0:
448,192,115838,128,0,115930:0:0:0:0:
192,192,115930,1,0,0:0:0:0:
320,192,115930,1,0,0:0:0:0:
448,192,116023,1,0,0:0:0:0:
64,192,116023,1,0,0:0:0:0:
192,192,116115,1,0,0:0:0:0:
320,192,116115,1,0,0:0:0:0:
448,192,116208,1,0,0:0:0:0:
192,192,116208,1,0,0:0:0:0:
64,192,116301,128,0,116439:0:0:0:0:
448,192,116301,128,0,116486:0:0:0:0:
320,192,116301,1,0,0:0:0:0:
192,192,116393,128,0,116486:0:0:0:0:
64,192,116486,128,0,116625:0:0:0:0:
320,192,116486,128,0,116671:0:0:0:0:
448,192,116532,128,0,116717:0:0:0:0:
192,192,116671,128,0,116949:0:0:0:0:
64,192,116856,128,0,117041:0:0:0:0:
448,192,116856,128,0,116949:0:0:0:0:
320,192,116856,128,0,116949:0:0:0:0:
192,192,117041,128,0,117134:0:0:0:0:
320,192,117041,128,0,117134:0:0:0:0:
448,192,117041,128,0,117273:0:0:0:0:
320,192,117226,128,0,117412:0:0:0:0:
192,192,117226,128,0,117412:0:0:0:0:
64,192,117288,128,0,117412:0:0:0:0:
448,192,117412,128,0,117473:0:0:0:0:
64,192,117473,128,0,117535:0:0:0:0:
192,192,117473,128,0,117535:0:0:0:0:
448,192,117535,128,0,117597:0:0:0:0:
64,192,117597,128,0,117689:0:0:0:0:
192,192,117597,128,0,117689:0:0:0:0:
448,192,117689,128,0,117782:0:0:0:0:
192,192,117782,128,0,117921:0:0:0:0:
64,192,117782,128,0,118014:0:0:0:0:
320,192,117782,1,0,0:0:0:0:
448,192,117875,128,0,118060:0:0:0:0:
320,192,117967,128,0,118152:0:0:0:0:
64,192,118152,128,0,118430:0:0:0:0:
192,192,118152,128,0,118291:0:0:0:0:
448,192,118152,128,0,118245:0:0:0:0:
192,192,118338,128,0,118430:0:0:0:0:
448,192,118338,128,0,118476:0:0:0:0:
320,192,118430,128,0,118615:0:0:0:0:
192,192,118523,128,0,118754:0:0:0:0:
64,192,118523,128,0,118662:0:0:0:0:
448,192,118569,128,0,118662:0:0:0:0:
448,192,118708,128,0,118893:0:0:0:0:
64,192,118708,128,0,118801:0:0:0:0:
320,192,118708,128,0,118801:0:0:0:0:
320,192,118893,128,0,119078:0:0:0:0:
64,192,118893,128,0,118986:0:0:0:0:
192,192,118893,128,0,118986:0:0:0:0:
64,192,119078,1,0,0:0:0:0:
192,192,119078,1,0,0:0:0:0:
320,192,119171,1,0,0:0:0:0:
448,192,119171,1,0,0:0:0:0:
64,192,119264,1,0,0:0:0:0:
448,192,119264,128,0,119402:0:0:0:0:
320,192,119264,128,0,119541:0:0:0:0:
64,192,119449,128,0,119634:0:0:0:0:
448,192,119449,128,0,119634:0:0:0:0:
192,192,119449,128,0,119588:0:0:0:0:
192,192,119634,128,0,119958:0:0:0:0:
64,192,119726,128,0,120004:0:0:0:0:
448,192,119726,128,0,119865:0:0:0:0:
320,192,119726,128,0,119912:0:0:0:0:
448,192,120004,128,0,120189:0:0:0:0:
192,192,120189,128,0,120375:0:0:0:0:
64,192,120375,128,0,120652:0:0:0:0:
448,192,120560,128,0,120652:0:0:0:0:
192,192,120745,128,0,120884:0:0:0:0:
448,192,120745,128,0,121069:0:0:0:0:
320,192,120745,128,0,121023:0:0:0:0:
64,192,120930,128,0,121069:0:0:0:0:
192,192,120976,128,0,121069:0:0:0:0:
320,192,121115,128,0,121347:0:0:0:0:
192,192,121115,128,0,121393:0:0:0:0:
448,192,121115,128,0,121208:0:0:0:0:
64,192,121208,128,0,121486:0:0:0:0:
448,192,121301,1,0,0:0:0:0:
448,192,121393,128,0,121486:0:0:0:0:
192,192,121486,128,0,121625:0:0:0:0:
320,192,121486,128,0,121717:0:0:0:0:
64,192,121671,128,0,121902:0:0:0:0:
192,192,121671,128,0,121810:0:0:0:0:
448,192,121671,128,0,121764:0:0:0:0:
320,192,121856,128,0,121949:0:0:0:0:
64,192,121949,128,0,122088:0:0:0:0:
192,192,121949,128,0,122134:0:0:0:0:
448,192,121949,128,0,122180:0:0:0:0:
320,192,122041,1,0,0:0:0:0:
320,192,122134,128,0,122226:0:0:0:0:
448,192,122226,1,0,0:0:0:0:
192,192,122226,128,0,122412:0:0:0:0:
64,192,122226,128,0,122458:0:0:0:0:
320,192,122412,128,0,122597:0:0:0:0:
448,192,122504,128,0,122689:0:0:0:0:
64,192,122504,128,0,122643:0:0:0:0:
192,192,122504,128,0,122659:0:0:0:0:
64,192,122782,1,0,0:0:0:0:
320,192,122782,1,0,0:0:0:0:
448,192,122782,1,0,0:0:0:0:
320,192,122875,1,0,0:0:0:0:
192,192,122875,1,0,0:0:0:0:
64,192,122875,1,0,0:0:0:0:
64,192,122967,128,0,123152:0:0:0:0:
320,192,122967,128,0,123060:0:0:0:0:
192,192,122967,128,0,123106:0:0:0:0:
448,192,123060,128,0,123291:0:0:0:0:
192,192,123199,128,0,123338:0:0:0:0:
320,192,123245,128,0,123338:0:0:0:0:
64,192,123291,128,0,123430:0:0:0:0:
448,192,123338,128,0,123476:0:0:0:0:
320,192,123384,128,0,123476:0:0:0:0:
192,192,123430,128,0,123569:0:0:0:0:
64,192,123476,128,0,123615:0:0:0:0:
320,192,123523,128,0,123662:0:0:0:0:
448,192,123569,128,0,123662:0:0:0:0:
192,192,123615,128,0,123708:0:0:0:0:
64,192,123708,128,0,123986:0:0:0:0:
320,192,123708,128,0,123847:0:0:0:0:
448,192,123708,1,0,0:0:0:0:
192,192,123893,128,0,124032:0:0:0:0:
320,192,123893,128,0,124125:0:0:0:0:
448,192,123893,128,0,124078:0:0:0:0:
192,192,124078,128,0,124264:0:0:0:0:
64,192,124171,128,0,124356:0:0:0:0:
320,192,124171,128,0,124310:0:0:0:0:
448,192,124171,128,0,124264:0:0:0:0:
320,192,124449,128,0,124634:0:0:0:0:
448,192,124449,128,0,124541:0:0:0:0:
320,192,124819,128,0,124912:0:0:0:0:
192,192,124819,128,0,125004:0:0:0:0:
64,192,125189,128,0,125467:0:0:0:0:
448,192,125189,128,0,125375:0:0:0:0:
320,192,125375,1,0,0:0:0:0:
192,192,125560,1,0,0:0:0:0:
320,192,125560,1,0,0:0:0:0:
448,192,125745,1,0,0:0:0:0:
64,192,125930,1,0,0:0:0:0:
320,192,125930,1,0,0:0:0:0:
448,192,125930,1,0,0:0:0:0:
192,192,125976,1,0,0:0:0:0:
64,192,126023,1,0,0:0:0:0:
448,192,126069,1,0,0:0:0:0:
192,192,126115,1,0,0:0:0:0:
320,192,126162,1,0,0:0:0:0:
448,192,126208,1,0,0:0:0:0:
64,192,126301,1,0,0:0:0:0:
192,192,126301,1,0,0:0:0:0:
320,192,126362,1,0,0:0:0:0:
448,192,126424,1,0,0:0:0:0:
192,192,126486,1,0,0:0:0:0:
320,192,126578,1,0,0:0:0:0:
448,192,126578,1,0,0:0:0:0:
64,192,126578,1,0,0:0:0:0:
192,192,126671,1,0,0:0:0:0:
320,192,126764,1,0,0:0:0:0:
448,192,126856,1,0,0:0:0:0:
192,192,126856,1,0,0:0:0:0:
64,192,126856,1,0,0:0:0:0:
320,192,126949,1,0,0:0:0:0:
64,192,127041,1,0,0:0:0:0:
192,192,127041,1,0,0:0:0:0:
64,192,127165,1,0,0:0:0:0:
320,192,127165,1,0,0:0:0:0:
448,192,127288,1,0,0:0:0:0:
192,192,127288,1,0,0:0:0:0:
64,192,127412,1,0,0:0:0:0:
192,192,127412,1,0,0:0:0:0:
320,192,127412,1,0,0:0:0:0:
448,192,127504,1,0,0:0:0:0:
64,192,127574,1,0,0:0:0:0:
192,192,127597,1,0,0:0:0:0:
320,192,127620,1,0,0:0:0:0:
64,192,127689,1,0,0:0:0:0:
192,192,127689,1,0,0:0:0:0:
448,192,127689,1,0,0:0:0:0:
448,192,127782,1,0,0:0:0:0:
320,192,127851,1,0,0:0:0:0:
192,192,127875,1,0,0:0:0:0:
64,192,127898,1,0,0:0:0:0:
192,192,127967,1,0,0:0:0:0:
320,192,127967,1,0,0:0:0:0:
448,192,127967,1,0,0:0:0:0:
320,192,128060,1,0,0:0:0:0:
192,192,128152,1,0,0:0:0:0:
64,192,128152,1,0,0:0:0:0:
320,192,128214,1,0,0:0:0:0:
448,192,128214,1,0,0:0:0:0:
192,192,128276,1,0,0:0:0:0:
64,192,128276,1,0,0:0:0:0:
448,192,128338,1,0,0:0:0:0:
320,192,128338,1,0,0:0:0:0:
64,192,128399,1,0,0:0:0:0:
192,192,128461,1,0,0:0:0:0:
448,192,128523,1,0,0:0:0:0:
320,192,128523,1,0,0:0:0:0:
64,192,128569,1,0,0:0:0:0:
192,192,128615,1,0,0:0:0:0:
320,192,128662,1,0,0:0:0:0:
448,192,128708,1,0,0:0:0:0:
64,192,128754,1,0,0:0:0:0:
320,192,128801,1,0,0:0:0:0:
192,192,128847,1,0,0:0:0:0:
448,192,128893,1,0,0:0:0:0:
320,192,128893,1,0,0:0:0:0:
64,192,128893,1,0,0:0:0:0:
192,192,128939,1,0,0:0:0:0:
448,192,128986,1,0,0:0:0:0:
320,192,129032,1,0,0:0:0:0:
64,192,129078,1,0,0:0:0:0:
192,192,129125,1,0,0:0:0:0:
448,192,129171,1,0,0:0:0:0:
64,192,129264,1,0,0:0:0:0:
192,192,129264,1,0,0:0:0:0:
448,192,129356,1,0,0:0:0:0:
320,192,129449,1,0,0:0:0:0:
192,192,129541,1,0,0:0:0:0:
448,192,129541,1,0,0:0:0:0:
64,192,129541,1,0,0:0:0:0:
64,192,129634,1,0,0:0:0:0:
448,192,129726,1,0,0:0:0:0:
320,192,129819,1,0,0:0:0:0:
192,192,129819,1,0,0:0:0:0:
64,192,129819,1,0,0:0:0:0:
192,192,129912,1,0,0:0:0:0:
448,192,130004,1,0,0:0:0:0:
64,192,130004,1,0,0:0:0:0:
192,192,130097,1,0,0:0:0:0:
320,192,130097,1,0,0:0:0:0:
448,192,130097,1,0,0:0:0:0:
320,192,130189,1,0,0:0:0:0:
192,192,130282,1,0,0:0:0:0:
448,192,130375,1,0,0:0:0:0:
320,192,130375,1,0,0:0:0:0:
64,192,130375,1,0,0:0:0:0:
192,192,130467,1,0,0:0:0:0:
320,192,130467,1,0,0:0:0:0:
448,192,130467,1,0,0:0:0:0:
448,192,130652,1,0,0:0:0:0:
64,192,130652,1,0,0:0:0:0:
192,192,130652,1,0,0:0:0:0:
320,192,130745,1,0,0:0:0:0:
448,192,130745,1,0,0:0:0:0:
192,192,130838,1,0,0:0:0:0:
64,192,130930,1,0,0:0:0:0:
448,192,130930,1,0,0:0:0:0:
320,192,130930,1,0,0:0:0:0:
192,192,130992,1,0,0:0:0:0:
320,192,131054,1,0,0:0:0:0:
448,192,131115,128,0,131393:0:0:0:0:
64,192,131115,128,0,131486:0:0:0:0:
192,192,131301,128,0,131578:0:0:0:0:
448,192,131486,128,0,131764:0:0:0:0:
320,192,131486,128,0,131671:0:0:0:0:
64,192,131856,1,0,0:0:0:0:
192,192,131856,1,0,0:0:0:0:
448,192,131856,1,0,0:0:0:0:
320,192,131902,1,0,0:0:0:0:
64,192,131949,1,0,0:0:0:0:
448,192,131995,1,0,0:0:0:0:
192,192,132041,1,0,0:0:0:0:
320,192,132088,1,0,0:0:0:0:
448,192,132134,1,0,0:0:0:0:
320,192,132226,1,0,0:0:0:0:
192,192,132226,128,0,132412:0:0:0:0:
64,192,132319,128,0,132504:0:0:0:0:
448,192,132412,1,0,0:0:0:0:
192,192,132504,1,0,0:0:0:0:
320,192,132504,1,0,0:0:0:0:
448,192,132504,1,0,0:0:0:0:
64,192,132597,1,0,0:0:0:0:
192,192,132689,1,0,0:0:0:0:
320,192,132689,1,0,0:0:0:0:
64,192,132782,1,0,0:0:0:0:
448,192,132782,1,0,0:0:0:0:
320,192,132782,1,0,0:0:0:0:
192,192,132875,1,0,0:0:0:0:
320,192,132967,1,0,0:0:0:0:
448,192,132967,1,0,0:0:0:0:
64,192,133014,1,0,0:0:0:0:
320,192,133060,1,0,0:0:0:0:
192,192,133106,1,0,0:0:0:0:
448,192,133152,1,0,0:0:0:0:
64,192,133214,1,0,0:0:0:0:
192,192,133245,1,0,0:0:0:0:
320,192,133276,1,0,0:0:0:0:
64,192,133338,1,0,0:0:0:0:
192,192,133338,1,0,0:0:0:0:
448,192,133338,1,0,0:0:0:0:
64,192,133430,1,0,0:0:0:0:
448,192,133523,1,0,0:0:0:0:
320,192,133523,1,0,0:0:0:0:
64,192,133615,1,0,0:0:0:0:
320,192,133615,1,0,0:0:0:0:
192,192,133615,1,0,0:0:0:0:
192,192,133708,1,0,0:0:0:0:
448,192,133708,1,0,0:0:0:0:
320,192,133801,1,0,0:0:0:0:
448,192,133893,1,0,0:0:0:0:
320,192,133893,1,0,0:0:0:0:
192,192,133893,1,0,0:0:0:0:
64,192,133986,1,0,0:0:0:0:
448,192,134078,1,0,0:0:0:0:
320,192,134101,1,0,0:0:0:0:
192,192,134194,1,0,0:0:0:0:
320,192,134217,1,0,0:0:0:0:
64,192,134264,1,0,0:0:0:0:
192,192,134264,1,0,0:0:0:0:
448,192,134264,1,0,0:0:0:0:
320,192,134356,1,0,0:0:0:0:
448,192,134449,128,0,134634:0:0:0:0:
192,192,134449,1,0,0:0:0:0:
320,192,134541,128,0,134757:0:0:0:0:
64,192,134588,128,0,134726:0:0:0:0:
192,192,134634,128,0,134757:0:0:0:0:
448,192,134696,128,0,134819:0:0:0:0:
64,192,134819,1,0,0:0:0:0:
192,192,134819,1,0,0:0:0:0:
320,192,134819,1,0,0:0:0:0:
448,192,134865,1,0,0:0:0:0:
320,192,134912,1,0,0:0:0:0:
192,192,134958,1,0,0:0:0:0:
448,192,135004,1,0,0:0:0:0:
64,192,135051,1,0,0:0:0:0:
192,192,135097,1,0,0:0:0:0:
320,192,135143,1,0,0:0:0:0:
64,192,135189,1,0,0:0:0:0:
448,192,135189,1,0,0:0:0:0:
320,192,135282,1,0,0:0:0:0:
192,192,135375,1,0,0:0:0:0:
64,192,135467,1,0,0:0:0:0:
320,192,135467,1,0,0:0:0:0:
448,192,135467,1,0,0:0:0:0:
448,192,135560,1,0,0:0:0:0:
320,192,135652,1,0,0:0:0:0:
64,192,135745,1,0,0:0:0:0:
192,192,135745,1,0,0:0:0:0:
448,192,135745,1,0,0:0:0:0:
64,192,135838,1,0,0:0:0:0:
192,192,135930,1,0,0:0:0:0:
64,192,136023,1,0,0:0:0:0:
448,192,136023,1,0,0:0:0:0:
320,192,136023,1,0,0:0:0:0:
64,192,136115,1,0,0:0:0:0:
192,192,136115,1,0,0:0:0:0:
448,192,136115,1,0,0:0:0:0:
320,192,136177,1,0,0:0:0:0:
192,192,136239,1,0,0:0:0:0:
320,192,136301,1,0,0:0:0:0:
448,192,136301,1,0,0:0:0:0:
64,192,136301,1,0,0:0:0:0:
320,192,136486,1,0,0:0:0:0:
448,192,136578,1,0,0:0:0:0:
64,192,136578,1,0,0:0:0:0:
192,192,136578,1,0,0:0:0:0:
192,192,136671,1,0,0:0:0:0:
320,192,136671,1,0,0:0:0:0:
64,192,136764,1,0,0:0:0:0:
192,192,136856,1,0,0:0:0:0:
320,192,136856,1,0,0:0:0:0:
448,192,136856,1,0,0:0:0:0:
64,192,136949,1,0,0:0:0:0:
192,192,136949,1,0,0:0:0:0:
448,192,136949,1,0,0:0:0:0:
64,192,137041,1,0,0:0:0:0:
320,192,137041,1,0,0:0:0:0:
448,192,137041,1,0,0:0:0:0:
192,192,137088,1,0,0:0:0:0:
320,192,137134,1,0,0:0:0:0:
448,192,137180,1,0,0:0:0:0:
64,192,137226,1,0,0:0:0:0:
320,192,137273,1,0,0:0:0:0:
192,192,137319,1,0,0:0:0:0:
64,192,137365,1,0,0:0:0:0:
192,192,137412,1,0,0:0:0:0:
320,192,137412,1,0,0:0:0:0:
448,192,137412,1,0,0:0:0:0:
320,192,137597,1,0,0:0:0:0:
192,192,137597,1,0,0:0:0:0:
64,192,137782,5,0,0:0:0:0:
448,192,137782,1,0,0:0:0:0:
320,192,137782,1,0,0:0:0:0:
192,192,137828,1,0,0:0:0:0:
320,192,137875,1,0,0:0:0:0:
64,192,137921,1,0,0:0:0:0:
448,192,137967,1,0,0:0:0:0:
320,192,138014,1,0,0:0:0:0:
192,192,138060,1,0,0:0:0:0:
448,192,138152,1,0,0:0:0:0:
64,192,138152,1,0,0:0:0:0:
320,192,138152,1,0,0:0:0:0:
320,192,138245,1,0,0:0:0:0:
64,192,138338,1,0,0:0:0:0:
192,192,138361,1,0,0:0:0:0:
448,192,138430,1,0,0:0:0:0:
320,192,138453,1,0,0:0:0:0:
64,192,138523,1,0,0:0:0:0:
192,192,138523,1,0,0:0:0:0:
448,192,138523,1,0,0:0:0:0:
64,192,138615,1,0,0:0:0:0:
448,192,138708,1,0,0:0:0:0:
320,192,138731,1,0,0:0:0:0:
192,192,138754,1,0,0:0:0:0:
320,192,138893,1,0,0:0:0:0:
448,192,138893,1,0,0:0:0:0:
64,192,138893,1,0,0:0:0:0:
320,192,138986,1,0,0:0:0:0:
448,192,139009,1,0,0:0:0:0:
192,192,139078,1,0,0:0:0:0:
64,192,139101,1,0,0:0:0:0:
320,192,139171,1,0,0:0:0:0:
448,192,139194,1,0,0:0:0:0:
192,192,139264,1,0,0:0:0:0:
64,192,139264,1,0,0:0:0:0:
320,192,139264,1,0,0:0:0:0:
192,192,139356,1,0,0:0:0:0:
448,192,139449,1,0,0:0:0:0:
320,192,139480,1,0,0:0:0:0:
192,192,139510,1,0,0:0:0:0:
64,192,139634,1,0,0:0:0:0:
320,192,139634,1,0,0:0:0:0:
448,192,139634,1,0,0:0:0:0:
320,192,139726,1,0,0:0:0:0:
64,192,139819,1,0,0:0:0:0:
192,192,139842,1,0,0:0:0:0:
320,192,139912,1,0,0:0:0:0:
448,192,139935,1,0,0:0:0:0:
192,192,140004,1,0,0:0:0:0:
320,192,140004,1,0,0:0:0:0:
64,192,140004,1,0,0:0:0:0:
192,192,140097,1,0,0:0:0:0:
64,192,140189,1,0,0:0:0:0:
448,192,140189,1,0,0:0:0:0:
192,192,140251,1,0,0:0:0:0:
320,192,140313,1,0,0:0:0:0:
64,192,140375,1,0,0:0:0:0:
192,192,140375,1,0,0:0:0:0:
448,192,140375,1,0,0:0:0:0:
320,192,140467,1,0,0:0:0:0:
64,192,140560,1,0,0:0:0:0:
192,192,140583,1,0,0:0:0:0:
320,192,140606,1,0,0:0:0:0:
448,192,140629,1,0,0:0:0:0:
448,192,140745,1,0,0:0:0:0:
64,192,140745,1,0,0:0:0:0:
320,192,140745,1,0,0:0:0:0:
64,192,140838,1,0,0:0:0:0:
448,192,140930,1,0,0:0:0:0:
320,192,141023,1,0,0:0:0:0:
64,192,141115,1,0,0:0:0:0:
448,192,141115,1,0,0:0:0:0:
192,192,141115,1,0,0:0:0:0:
192,192,141208,1,0,0:0:0:0:
64,192,141301,1,0,0:0:0:0:
448,192,141301,1,0,0:0:0:0:
192,192,141393,1,0,0:0:0:0:
320,192,141393,1,0,0:0:0:0:
448,192,141486,1,0,0:0:0:0:
64,192,141486,1,0,0:0:0:0:
320,192,141486,1,0,0:0:0:0:
64,192,141578,1,0,0:0:0:0:
448,192,141671,1,0,0:0:0:0:
320,192,141694,1,0,0:0:0:0:
192,192,141717,1,0,0:0:0:0:
64,192,141856,1,0,0:0:0:0:
448,192,141856,1,0,0:0:0:0:
192,192,141856,1,0,0:0:0:0:
320,192,142041,1,0,0:0:0:0:
448,192,142041,1,0,0:0:0:0:
320,192,142134,1,0,0:0:0:0:
192,192,142134,1,0,0:0:0:0:
448,192,142226,1,0,0:0:0:0:
192,192,142226,1,0,0:0:0:0:
64,192,142226,1,0,0:0:0:0:
320,192,142226,1,0,0:0:0:0:
64,192,142319,1,0,0:0:0:0:
320,192,142412,1,0,0:0:0:0:
192,192,142412,1,0,0:0:0:0:
64,192,142504,1,0,0:0:0:0:
192,192,142504,1,0,0:0:0:0:
448,192,142504,1,0,0:0:0:0:
320,192,142504,1,0,0:0:0:0:
448,192,142597,1,0,0:0:0:0:
64,192,142689,1,0,0:0:0:0:
320,192,142689,1,0,0:0:0:0:
192,192,142782,1,0,0:0:0:0:
448,192,142782,1,0,0:0:0:0:
320,192,142782,1,0,0:0:0:0:
64,192,142782,1,0,0:0:0:0:
448,192,142875,1,0,0:0:0:0:
192,192,142967,1,0,0:0:0:0:
64,192,142967,1,0,0:0:0:0:
64,192,143060,1,0,0:0:0:0:
192,192,143060,1,0,0:0:0:0:
320,192,143060,1,0,0:0:0:0:
448,192,143060,1,0,0:0:0:0:
320,192,143152,1,0,0:0:0:0:
64,192,143245,1,0,0:0:0:0:
448,192,143245,1,0,0:0:0:0:
448,192,143338,1,0,0:0:0:0:
64,192,143338,1,0,0:0:0:0:
320,192,143338,1,0,0:0:0:0:
192,192,143338,1,0,0:0:0:0:
192,192,143430,1,0,0:0:0:0:
448,192,143523,1,0,0:0:0:0:
64,192,143523,1,0,0:0:0:0:
320,192,143523,1,0,0:0:0:0:
320,192,143615,1,0,0:0:0:0:
64,192,143708,1,0,0:0:0:0:
448,192,143708,1,0,0:0:0:0:
192,192,143708,1,0,0:0:0:0:
320,192,143770,1,0,0:0:0:0:
192,192,143831,1,0,0:0:0:0:
64,192,143893,1,0,0:0:0:0:
192,192,143986,1,0,0:0:0:0:
448,192,144078,1,0,0:0:0:0:
320,192,144078,1,0,0:0:0:0:
64,192,144171,1,0,0:0:0:0:
192,192,144171,1,0,0:0:0:0:
192,192,144264,1,0,0:0:0:0:
320,192,144264,1,0,0:0:0:0:
448,192,144356,1,0,0:0:0:0:
320,192,144356,1,0,0:0:0:0:
64,192,144449,1,0,0:0:0:0:
192,192,144449,1,0,0:0:0:0:
448,192,144449,1,0,0:0:0:0:
320,192,144541,1,0,0:0:0:0:
64,192,144634,1,0,0:0:0:0:
192,192,144657,1,0,0:0:0:0:
320,192,144680,1,0,0:0:0:0:
448,192,144726,1,0,0:0:0:0:
448,192,144819,1,0,0:0:0:0:
320,192,144819,1,0,0:0:0:0:
192,192,144819,1,0,0:0:0:0:
64,192,144912,1,0,0:0:0:0:
192,192,145004,1,0,0:0:0:0:
320,192,145004,1,0,0:0:0:0:
320,192,145097,1,0,0:0:0:0:
64,192,145189,1,0,0:0:0:0:
448,192,145189,1,0,0:0:0:0:
192,192,145189,1,0,0:0:0:0:
320,192,145282,1,0,0:0:0:0:
64,192,145375,1,0,0:0:0:0:
192,192,145375,1,0,0:0:0:0:
448,192,145467,1,0,0:0:0:0:
64,192,145560,1,0,0:0:0:0:
192,192,145560,1,0,0:0:0:0:
320,192,145560,1,0,0:0:0:0:
64,192,145652,1,0,0:0:0:0:
192,192,145652,1,0,0:0:0:0:
320,192,145745,1,0,0:0:0:0:
448,192,145745,1,0,0:0:0:0:
320,192,145838,1,0,0:0:0:0:
448,192,145838,1,0,0:0:0:0:
64,192,145930,1,0,0:0:0:0:
192,192,145930,1,0,0:0:0:0:
320,192,145930,1,0,0:0:0:0:
448,192,146023,1,0,0:0:0:0:
320,192,146115,1,0,0:0:0:0:
192,192,146115,1,0,0:0:0:0:
64,192,146208,1,0,0:0:0:0:
448,192,146208,1,0,0:0:0:0:
64,192,146301,1,0,0:0:0:0:
320,192,146301,1,0,0:0:0:0:
192,192,146301,1,0,0:0:0:0:
448,192,146393,1,0,0:0:0:0:
64,192,146486,1,0,0:0:0:0:
192,192,146486,1,0,0:0:0:0:
192,192,146578,1,0,0:0:0:0:
320,192,146578,1,0,0:0:0:0:
64,192,146671,1,0,0:0:0:0:
320,192,146671,1,0,0:0:0:0:
448,192,146671,1,0,0:0:0:0:
192,192,146764,1,0,0:0:0:0:
64,192,146856,1,0,0:0:0:0:
320,192,146856,1,0,0:0:0:0:
448,192,146949,1,0,0:0:0:0:
192,192,147041,5,0,0:0:0:0:
320,192,147041,1,0,0:0:0:0:
64,192,147041,1,0,0:0:0:0:
320,192,147134,1,0,0:0:0:0:
448,192,147226,1,0,0:0:0:0:
192,192,147226,1,0,0:0:0:0:
192,192,147319,1,0,0:0:0:0:
320,192,147412,1,0,0:0:0:0:
448,192,147412,1,0,0:0:0:0:
320,192,147504,1,0,0:0:0:0:
448,192,147504,1,0,0:0:0:0:
192,192,147597,1,0,0:0:0:0:
64,192,147597,1,0,0:0:0:0:
64,192,147689,1,0,0:0:0:0:
192,192,147689,1,0,0:0:0:0:
320,192,147782,1,0,0:0:0:0:
448,192,147782,1,0,0:0:0:0:
192,192,147782,1,0,0:0:0:0:
64,192,147875,1,0,0:0:0:0:
320,192,147875,1,0,0:0:0:0:
64,192,147967,1,0,0:0:0:0:
448,192,147967,1,0,0:0:0:0:
448,192,148060,1,0,0:0:0:0:
192,192,148060,1,0,0:0:0:0:
64,192,148152,5,0,0:0:0:0:
192,192,148152,1,0,0:0:0:0:
320,192,148152,1,0,0:0:0:0:
192,192,148338,1,0,0:0:0:0:
320,192,148338,1,0,0:0:0:0:
448,192,148338,1,0,0:0:0:0:
448,192,148523,1,0,0:0:0:0:
320,192,148523,1,0,0:0:0:0:
192,192,148646,1,0,0:0:0:0:
320,192,148646,1,0,0:0:0:0:
192,192,148770,1,0,0:0:0:0:
64,192,148770,1,0,0:0:0:0:
448,192,148893,1,0,0:0:0:0:
320,192,148893,1,0,0:0:0:0:
192,192,149017,1,0,0:0:0:0:
320,192,149017,1,0,0:0:0:0:
64,192,149140,1,0,0:0:0:0:
192,192,149140,1,0,0:0:0:0:
64,192,149264,128,0,149510:0:0:0:0:
448,192,149264,128,0,149510:0:0:0:0:
320,192,149387,128,0,149510:0:0:0:0:
192,192,149510,128,0,149703:0:0:0:0:
64,192,149634,128,0,149703:0:0:0:0:
320,192,149634,128,0,149842:0:0:0:0:
448,192,149634,128,0,149703:0:0:0:0:
64,192,149772,128,0,149911:0:0:0:0:
192,192,149772,128,0,149842:0:0:0:0:
448,192,149772,128,0,149911:0:0:0:0:
192,192,149911,128,0,149981:0:0:0:0:
320,192,149911,128,0,150050:0:0:0:0:
448,192,149981,128,0,150120:0:0:0:0:
64,192,150050,128,0,150120:0:0:0:0:
192,192,150050,128,0,150120:0:0:0:0:
320,192,150120,128,0,150189:0:0:0:0:
192,192,150189,128,0,150328:0:0:0:0:
64,192,150189,128,0,150328:0:0:0:0:
448,192,150189,128,0,150259:0:0:0:0:
448,192,150328,128,0,150467:0:0:0:0:
320,192,150328,128,0,150397:0:0:0:0:
64,192,150397,128,0,150536:0:0:0:0:
192,192,150397,128,0,150467:0:0:0:0:
320,192,150467,128,0,150675:0:0:0:0:
192,192,150536,128,0,150606:0:0:0:0:
448,192,150606,128,0,150745:0:0:0:0:
64,192,150606,128,0,150675:0:0:0:0:
192,192,150745,128,0,150884:0:0:0:0:
320,192,150745,128,0,150884:0:0:0:0:
64,192,150745,128,0,150814:0:0:0:0:
448,192,150814,128,0,150884:0:0:0:0:
64,192,150884,128,0,150976:0:0:0:0:
192,192,150930,128,0,151022:0:0:0:0:
320,192,150976,128,0,151069:0:0:0:0:
64,192,151022,128,0,151231:0:0:0:0:
448,192,151022,128,0,151231:0:0:0:0:
192,192,151161,128,0,151300:0:0:0:0:
320,192,151161,128,0,151231:0:0:0:0:
64,192,151300,128,0,151509:0:0:0:0:
448,192,151300,128,0,151370:0:0:0:0:
320,192,151300,128,0,151439:0:0:0:0:
192,192,151439,128,0,151578:0:0:0:0:
448,192,151439,128,0,151509:0:0:0:0:
64,192,151578,128,0,151647:0:0:0:0:
320,192,151578,128,0,151786:0:0:0:0:
448,192,151578,128,0,151717:0:0:0:0:
192,192,151717,128,0,151786:0:0:0:0:
64,192,151717,128,0,151856:0:0:0:0:
320,192,151856,128,0,151925:0:0:0:0:
192,192,151856,128,0,152064:0:0:0:0:
448,192,151856,128,0,151925:0:0:0:0:
64,192,151995,128,0,152134:0:0:0:0:
320,192,151995,128,0,152064:0:0:0:0:
448,192,151995,128,0,152134:0:0:0:0:
320,192,152134,128,0,152203:0:0:0:0:
192,192,152134,128,0,152272:0:0:0:0:
64,192,152203,128,0,152342:0:0:0:0:
448,192,152272,128,0,152342:0:0:0:0:
320,192,152272,128,0,152342:0:0:0:0:
192,192,152342,128,0,152411:0:0:0:0:
320,192,152411,128,0,152550:0:0:0:0:
448,192,152411,128,0,152550:0:0:0:0:
64,192,152411,128,0,152481:0:0:0:0:
64,192,152550,128,0,152689:0:0:0:0:
192,192,152550,128,0,152620:0:0:0:0:
448,192,152620,128,0,152689:0:0:0:0:
320,192,152620,128,0,152759:0:0:0:0:
192,192,152689,128,0,152897:0:0:0:0:
448,192,152759,128,0,152828:0:0:0:0:
64,192,152828,128,0,152967:0:0:0:0:
320,192,152828,128,0,152897:0:0:0:0:
192,192,152967,128,0,153106:0:0:0:0:
320,192,152967,128,0,153106:0:0:0:0:
448,192,152967,128,0,153036:0:0:0:0:
64,192,153036,128,0,153106:0:0:0:0:
448,192,153106,128,0,153198:0:0:0:0:
320,192,153152,128,0,153245:0:0:0:0:
192,192,153198,128,0,153291:0:0:0:0:
448,192,153245,128,0,153453:0:0:0:0:
64,192,153245,128,0,153453:0:0:0:0:
192,192,153384,128,0,153592:0:0:0:0:
320,192,153384,128,0,153453:0:0:0:0:
448,192,153522,128,0,153592:0:0:0:0:
64,192,153522,128,0,153731:0:0:0:0:
320,192,153522,128,0,153661:0:0:0:0:
192,192,153661,128,0,153731:0:0:0:0:
448,192,153731,128,0,153870:0:0:0:0:
320,192,153731,128,0,153870:0:0:0:0:
192,192,153800,128,0,153939:0:0:0:0:
64,192,153800,128,0,153870:0:0:0:0:
64,192,153939,128,0,154009:0:0:0:0:
320,192,153939,128,0,154009:0:0:0:0:
448,192,153939,128,0,154078:0:0:0:0:
192,192,154078,128,0,154147:0:0:0:0:
64,192,154078,128,0,154286:0:0:0:0:
320,192,154078,128,0,154147:0:0:0:0:
320,192,154217,128,0,154356:0:0:0:0:
448,192,154217,128,0,154286:0:0:0:0:
192,192,154217,128,0,154356:0:0:0:0:
448,192,154356,128,0,154495:0:0:0:0:
64,192,154356,128,0,154425:0:0:0:0:
192,192,154425,128,0,154564:0:0:0:0:
320,192,154495,128,0,154564:0:0:0:0:
64,192,154495,128,0,154564:0:0:0:0:
448,192,154564,128,0,154634:0:0:0:0:
320,192,154634,128,0,154703:0:0:0:0:
192,192,154634,128,0,154772:0:0:0:0:
64,192,154634,128,0,154842:0:0:0:0:
448,192,154772,128,0,154842:0:0:0:0:
320,192,154772,128,0,154911:0:0:0:0:
192,192,154842,128,0,154911:0:0:0:0:
448,192,154911,128,0,155120:0:0:0:0:
64,192,154911,128,0,155050:0:0:0:0:
320,192,155050,128,0,155120:0:0:0:0:
192,192,155050,128,0,155189:0:0:0:0:
64,192,155189,128,0,155259:0:0:0:0:
320,192,155189,128,0,155328:0:0:0:0:
448,192,155189,128,0,155328:0:0:0:0:
192,192,155259,128,0,155328:0:0:0:0:
64,192,155328,128,0,155421:0:0:0:0:
192,192,155374,128,0,155467:0:0:0:0:
320,192,155421,128,0,155513:0:0:0:0:
64,192,155467,128,0,155675:0:0:0:0:
448,192,155467,128,0,155675:0:0:0:0:
320,192,155606,128,0,155675:0:0:0:0:
192,192,155606,128,0,155745:0:0:0:0:
320,192,155745,128,0,155884:0:0:0:0:
64,192,155745,128,0,155814:0:0:0:0:
448,192,155745,128,0,155953:0:0:0:0:
192,192,155884,128,0,155953:0:0:0:0:
64,192,155884,128,0,156022:0:0:0:0:
320,192,156022,128,0,156161:0:0:0:0:
448,192,156022,128,0,156231:0:0:0:0:
192,192,156022,128,0,156092:0:0:0:0:
192,192,156161,128,0,156300:0:0:0:0:
64,192,156161,128,0,156231:0:0:0:0:
64,192,156300,128,0,156370:0:0:0:0:
448,192,156300,128,0,156509:0:0:0:0:
320,192,156300,128,0,156370:0:0:0:0:
320,192,156439,128,0,156578:0:0:0:0:
64,192,156439,128,0,156509:0:0:0:0:
192,192,156439,128,0,156578:0:0:0:0:
64,192,156578,128,0,156717:0:0:0:0:
448,192,156578,128,0,156647:0:0:0:0:
192,192,156647,128,0,156786:0:0:0:0:
320,192,156717,128,0,156786:0:0:0:0:
448,192,156717,128,0,156786:0:0:0:0:
64,192,156786,128,0,156856:0:0:0:0:
320,192,156856,128,0,156995:0:0:0:0:
448,192,156856,128,0,156925:0:0:0:0:
192,192,156856,128,0,157064:0:0:0:0:
64,192,156995,128,0,157064:0:0:0:0:
320,192,157064,128,0,157203:0:0:0:0:
448,192,157064,128,0,157203:0:0:0:0:
192,192,157134,128,0,157203:0:0:0:0:
64,192,157134,128,0,157272:0:0:0:0:
192,192,157272,128,0,157342:0:0:0:0:
320,192,157272,128,0,157411:0:0:0:0:
448,192,157272,128,0,157342:0:0:0:0:
192,192,157411,128,0,157550:0:0:0:0:
448,192,157411,128,0,157620:0:0:0:0:
64,192,157411,128,0,157481:0:0:0:0:
320,192,157481,128,0,157620:0:0:0:0:
64,192,157550,128,0,157689:0:0:0:0:
192,192,157620,128,0,157689:0:0:0:0:
320,192,157689,128,0,157759:0:0:0:0:
448,192,157689,128,0,157828:0:0:0:0:
192,192,157828,128,0,157897:0:0:0:0:
64,192,157828,128,0,157897:0:0:0:0:
320,192,157897,128,0,157967:0:0:0:0:
448,192,157897,128,0,157967:0:0:0:0:
192,192,157967,128,0,158036:0:0:0:0:
64,192,157967,128,0,158106:0:0:0:0:
320,192,158036,128,0,158106:0:0:0:0:
448,192,158106,128,0,158175:0:0:0:0:
64,192,158175,128,0,158314:0:0:0:0:
320,192,158175,128,0,158314:0:0:0:0:
192,192,158175,128,0,158245:0:0:0:0:
448,192,158245,128,0,158314:0:0:0:0:
192,192,158314,128,0,158384:0:0:0:0:
448,192,158384,128,0,158453:0:0:0:0:
320,192,158384,128,0,158522:0:0:0:0:
64,192,158384,128,0,158453:0:0:0:0:
64,192,158522,1,0,0:0:0:0:
192,192,158522,1,0,0:0:0:0:
448,192,158522,1,0,0:0:0:0:
320,192,158569,1,0,0:0:0:0:
192,192,158615,1,0,0:0:0:0:
64,192,158661,1,0,0:0:0:0:
448,192,158731,1,0,0:0:0:0:
320,192,158800,1,0,0:0:0:0:
64,192,158800,1,0,0:0:0:0:
192,192,158846,1,0,0:0:0:0:
320,192,158893,1,0,0:0:0:0:
448,192,158939,1,0,0:0:0:0:
64,192,159009,1,0,0:0:0:0:
320,192,159078,1,0,0:0:0:0:
192,192,159078,1,0,0:0:0:0:
64,192,159147,1,0,0:0:0:0:
448,192,159217,1,0,0:0:0:0:
192,192,159217,1,0,0:0:0:0:
320,192,159263,1,0,0:0:0:0:
192,192,159309,1,0,0:0:0:0:
64,192,159356,1,0,0:0:0:0:
448,192,159356,1,0,0:0:0:0:
320,192,159411,1,0,0:0:0:0:
64,192,159467,1,0,0:0:0:0:
192,192,159522,1,0,0:0:0:0:
448,192,159578,1,0,0:0:0:0:
320,192,159634,1,0,0:0:0:0:
192,192,159703,1,0,0:0:0:0:
448,192,159772,1,0,0:0:0:0:
320,192,159772,1,0,0:0:0:0:
192,192,159819,1,0,0:0:0:0:
64,192,159865,1,0,0:0:0:0:
320,192,159911,1,0,0:0:0:0:
448,192,159981,1,0,0:0:0:0:
64,192,160050,1,0,0:0:0:0:
192,192,160050,1,0,0:0:0:0:
320,192,160120,1,0,0:0:0:0:
448,192,160120,1,0,0:0:0:0:
448,192,160189,1,0,0:0:0:0:
64,192,160189,1,0,0:0:0:0:
320,192,160189,1,0,0:0:0:0:
192,192,160259,1,0,0:0:0:0:
64,192,160328,1,0,0:0:0:0:
448,192,160328,1,0,0:0:0:0:
320,192,160397,1,0,0:0:0:0:
192,192,160467,1,0,0:0:0:0:
64,192,160467,1,0,0:0:0:0:
448,192,160467,1,0,0:0:0:0:
320,192,160536,1,0,0:0:0:0:
448,192,160606,1,0,0:0:0:0:
64,192,160606,1,0,0:0:0:0:
192,192,160675,1,0,0:0:0:0:
64,192,160745,1,0,0:0:0:0:
448,192,160745,1,0,0:0:0:0:
320,192,160745,128,0,160884:0:0:0:0:
192,192,160884,1,0,0:0:0:0:
64,192,160884,1,0,0:0:0:0:
448,192,160953,1,0,0:0:0:0:
320,192,160953,1,0,0:0:0:0:
64,192,161022,128,0,161161:0:0:0:0:
192,192,161022,128,0,161092:0:0:0:0:
192,192,161161,128,0,161300:0:0:0:0:
320,192,161161,128,0,161231:0:0:0:0:
64,192,161300,128,0,161439:0:0:0:0:
448,192,161300,128,0,161439:0:0:0:0:
320,192,161439,128,0,161578:0:0:0:0:
192,192,161578,1,0,0:0:0:0:
64,192,161578,1,0,0:0:0:0:
448,192,161578,1,0,0:0:0:0:
64,192,161717,1,0,0:0:0:0:
448,192,161717,1,0,0:0:0:0:
192,192,161786,1,0,0:0:0:0:
320,192,161856,1,0,0:0:0:0:
64,192,161856,1,0,0:0:0:0:
448,192,161856,1,0,0:0:0:0:
192,192,161925,1,0,0:0:0:0:
448,192,161995,1,0,0:0:0:0:
320,192,161995,1,0,0:0:0:0:
64,192,162064,1,0,0:0:0:0:
320,192,162134,1,0,0:0:0:0:
448,192,162134,1,0,0:0:0:0:
192,192,162203,1,0,0:0:0:0:
448,192,162272,1,0,0:0:0:0:
64,192,162272,1,0,0:0:0:0:
320,192,162342,1,0,0:0:0:0:
64,192,162411,1,0,0:0:0:0:
192,192,162411,1,0,0:0:0:0:
448,192,162411,1,0,0:0:0:0:
320,192,162481,1,0,0:0:0:0:
448,192,162550,1,0,0:0:0:0:
64,192,162550,1,0,0:0:0:0:
192,192,162620,1,0,0:0:0:0:
64,192,162689,1,0,0:0:0:0:
448,192,162689,1,0,0:0:0:0:
320,192,162689,1,0,0:0:0:0:
320,192,162828,1,0,0:0:0:0:
192,192,162828,1,0,0:0:0:0:
448,192,162828,1,0,0:0:0:0:
320,192,162967,128,0,163036:0:0:0:0:
64,192,162967,128,0,163175:0:0:0:0:
448,192,162967,128,0,163036:0:0:0:0:
192,192,163106,128,0,163245:0:0:0:0:
320,192,163106,128,0,163175:0:0:0:0:
448,192,163106,128,0,163245:0:0:0:0:
64,192,163245,128,0,163314:0:0:0:0:
320,192,163245,128,0,163384:0:0:0:0:
448,192,163314,128,0,163453:0:0:0:0:
192,192,163384,128,0,163453:0:0:0:0:
64,192,163384,128,0,163453:0:0:0:0:
320,192,163453,128,0,163522:0:0:0:0:
64,192,163522,128,0,163661:0:0:0:0:
192,192,163522,128,0,163661:0:0:0:0:
448,192,163522,128,0,163592:0:0:0:0:
448,192,163661,128,0,163800:0:0:0:0:
320,192,163661,128,0,163731:0:0:0:0:
192,192,163731,128,0,163800:0:0:0:0:
64,192,163731,128,0,163870:0:0:0:0:
320,192,163800,128,0,164009:0:0:0:0:
192,192,163870,128,0,163939:0:0:0:0:
64,192,163939,128,0,164078:0:0:0:0:
448,192,163939,128,0,164009:0:0:0:0:
192,192,164078,128,0,164217:0:0:0:0:
320,192,164078,128,0,164217:0:0:0:0:
448,192,164078,128,0,164147:0:0:0:0:
64,192,164147,128,0,164217:0:0:0:0:
448,192,164217,128,0,164309:0:0:0:0:
320,192,164263,128,0,164356:0:0:0:0:
192,192,164309,128,0,164402:0:0:0:0:
448,192,164356,128,0,164564:0:0:0:0:
64,192,164356,128,0,164564:0:0:0:0:
192,192,164495,128,0,164703:0:0:0:0:
320,192,164495,128,0,164564:0:0:0:0:
448,192,164634,128,0,164703:0:0:0:0:
64,192,164634,128,0,164842:0:0:0:0:
320,192,164634,128,0,164772:0:0:0:0:
448,192,164772,128,0,164842:0:0:0:0:
192,192,164772,128,0,164911:0:0:0:0:
448,192,164911,128,0,165050:0:0:0:0:
64,192,164911,128,0,164981:0:0:0:0:
320,192,164911,128,0,165120:0:0:0:0:
64,192,165050,128,0,165120:0:0:0:0:
192,192,165050,128,0,165189:0:0:0:0:
448,192,165189,128,0,165259:0:0:0:0:
64,192,165189,128,0,165397:0:0:0:0:
320,192,165189,128,0,165259:0:0:0:0:
320,192,165328,128,0,165467:0:0:0:0:
448,192,165328,128,0,165397:0:0:0:0:
192,192,165328,128,0,165467:0:0:0:0:
448,192,165467,128,0,165606:0:0:0:0:
64,192,165467,128,0,165536:0:0:0:0:
192,192,165536,128,0,165675:0:0:0:0:
320,192,165606,128,0,165675:0:0:0:0:
64,192,165606,128,0,165675:0:0:0:0:
448,192,165675,128,0,165745:0:0:0:0:
320,192,165745,128,0,165814:0:0:0:0:
192,192,165745,128,0,165884:0:0:0:0:
64,192,165745,128,0,165953:0:0:0:0:
448,192,165884,128,0,165953:0:0:0:0:
320,192,165953,128,0,166092:0:0:0:0:
192,192,165953,128,0,166092:0:0:0:0:
448,192,166022,128,0,166092:0:0:0:0:
64,192,166022,128,0,166161:0:0:0:0:
320,192,166161,128,0,166231:0:0:0:0:
192,192,166161,128,0,166300:0:0:0:0:
448,192,166161,128,0,166231:0:0:0:0:
320,192,166300,128,0,166370:0:0:0:0:
448,192,166300,128,0,166439:0:0:0:0:
64,192,166300,128,0,166439:0:0:0:0:
192,192,166370,128,0,166439:0:0:0:0:
320,192,166439,128,0,166509:0:0:0:0:
64,192,166509,128,0,166578:0:0:0:0:
192,192,166509,128,0,166647:0:0:0:0:
448,192,166509,128,0,166647:0:0:0:0:
320,192,166578,128,0,166647:0:0:0:0:
64,192,166647,128,0,166717:0:0:0:0:
320,192,166717,128,0,166856:0:0:0:0:
448,192,166717,128,0,166786:0:0:0:0:
192,192,166717,128,0,166856:0:0:0:0:
64,192,166786,128,0,166856:0:0:0:0:
448,192,166856,128,0,166925:0:0:0:0:
320,192,166925,128,0,166995:0:0:0:0:
192,192,166925,128,0,167064:0:0:0:0:
64,192,166925,128,0,167134:0:0:0:0:
192,192,167134,128,0,167203:0:0:0:0:
320,192,167134,128,0,167203:0:0:0:0:
448,192,167134,128,0,167272:0:0:0:0:
64,192,167272,128,0,167342:0:0:0:0:
320,192,167272,128,0,167342:0:0:0:0:
192,192,167272,128,0,167411:0:0:0:0:
320,192,167411,128,0,167481:0:0:0:0:
448,192,167411,128,0,168245:0:0:0:0:
64,192,167411,128,0,168384:0:0:0:0:
192,192,168245,128,0,168384:0:0:0:0:
320,192,168314,128,0,168453:0:0:0:0:
448,192,168384,128,0,168522:0:0:0:0:
192,192,168522,1,0,0:0:0:0:
64,192,168661,128,0,168731:0:0:0:0:
448,192,168800,1,0,0:0:0:0:
320,192,168800,1,0,0:0:0:0:
192,192,168939,1,0,0:0:0:0:
320,192,168939,1,0,0:0:0:0:
192,192,169009,1,0,0:0:0:0:
320,192,169009,1,0,0:0:0:0:
448,192,169078,128,0,169286:0:0:0:0:
64,192,169078,128,0,169286:0:0:0:0:
192,192,169217,128,0,169286:0:0:0:0:
64,192,169356,1,0,0:0:0:0:
320,192,169356,1,0,0:0:0:0:
448,192,169356,1,0,0:0:0:0:
192,192,169356,1,0,0:0:0:0:
64,192,169634,1,0,0:0:0:0:
192,192,169634,1,0,0:0:0:0:
448,192,169634,1,0,0:0:0:0:
64,192,169772,1,0,0:0:0:0:
448,192,169911,1,0,0:0:0:0:
320,192,169911,1,0,0:0:0:0:
448,192,170050,1,0,0:0:0:0:
320,192,170050,1,0,0:0:0:0:
448,192,170189,1,0,0:0:0:0:
192,192,170189,1,0,0:0:0:0:
192,192,170328,1,0,0:0:0:0:
448,192,170467,1,0,0:0:0:0:
64,192,170467,1,0,0:0:0:0:
320,192,170606,1,0,0:0:0:0:
64,192,170745,1,0,0:0:0:0:
448,192,170745,1,0,0:0:0:0:
448,192,170884,1,0,0:0:0:0:
192,192,171022,1,0,0:0:0:0:
64,192,171022,1,0,0:0:0:0:
64,192,171161,1,0,0:0:0:0:
192,192,171300,1,0,0:0:0:0:
320,192,171300,1,0,0:0:0:0:
320,192,171439,1,0,0:0:0:0:
64,192,171578,1,0,0:0:0:0:
192,192,171578,1,0,0:0:0:0:
192,192,171717,1,0,0:0:0:0:
64,192,171717,1,0,0:0:0:0:
64,192,171856,1,0,0:0:0:0:
448,192,171856,1,0,0:0:0:0:
192,192,171995,1,0,0:0:0:0:
64,192,172134,1,0,0:0:0:0:
320,192,172134,1,0,0:0:0:0:
448,192,172134,1,0,0:0:0:0:
320,192,172272,1,0,0:0:0:0:
64,192,172411,1,0,0:0:0:0:
448,192,172411,1,0,0:0:0:0:
192,192,172411,1,0,0:0:0:0:
192,192,172550,1,0,0:0:0:0:
64,192,172689,1,0,0:0:0:0:
320,192,172689,1,0,0:0:0:0:
448,192,172689,1,0,0:0:0:0:
64,192,172828,1,0,0:0:0:0:
448,192,172828,1,0,0:0:0:0:
192,192,172828,1,0,0:0:0:0:
320,192,172967,1,0,0:0:0:0:
64,192,172967,1,0,0:0:0:0:
448,192,172967,1,0,0:0:0:0:
192,192,173036,1,0,0:0:0:0:
320,192,173106,1,0,0:0:0:0:
192,192,173175,1,0,0:0:0:0:
64,192,173175,1,0,0:0:0:0:
448,192,173175,1,0,0:0:0:0:
320,192,173245,1,0,0:0:0:0:
192,192,173314,1,0,0:0:0:0:
448,192,173384,1,0,0:0:0:0:
64,192,173384,1,0,0:0:0:0:
320,192,173384,1,0,0:0:0:0:
192,192,173453,1,0,0:0:0:0:
64,192,173522,1,0,0:0:0:0:
448,192,173522,1,0,0:0:0:0:
320,192,173557,1,0,0:0:0:0:
192,192,173592,1,0,0:0:0:0:
320,192,173661,1,0,0:0:0:0:
64,192,173731,1,0,0:0:0:0:
448,192,173731,1,0,0:0:0:0:
64,192,173800,1,0,0:0:0:0:
192,192,173800,1,0,0:0:0:0:
320,192,173939,1,0,0:0:0:0:
64,192,173939,1,0,0:0:0:0:
320,192,174078,1,0,0:0:0:0:
192,192,174078,1,0,0:0:0:0:
448,192,174078,1,0,0:0:0:0:
64,192,174217,1,0,0:0:0:0:
192,192,174217,1,0,0:0:0:0:
320,192,174217,1,0,0:0:0:0:
448,192,174356,1,0,0:0:0:0:
64,192,174356,1,0,0:0:0:0:
320,192,174356,1,0,0:0:0:0:
448,192,174495,1,0,0:0:0:0:
320,192,174495,1,0,0:0:0:0:
192,192,174495,1,0,0:0:0:0:
64,192,174634,1,0,0:0:0:0:
448,192,174634,1,0,0:0:0:0:
192,192,174634,1,0,0:0:0:0:
64,192,174772,1,0,0:0:0:0:
320,192,174772,1,0,0:0:0:0:
448,192,174772,1,0,0:0:0:0:
64,192,174911,1,0,0:0:0:0:
192,192,174911,1,0,0:0:0:0:
448,192,175050,1,0,0:0:0:0:
320,192,175096,1,0,0:0:0:0:
192,192,175143,1,0,0:0:0:0:
320,192,175189,1,0,0:0:0:0:
64,192,175189,1,0,0:0:0:0:
448,192,175189,1,0,0:0:0:0:
192,192,175328,1,0,0:0:0:0:
320,192,175328,1,0,0:0:0:0:
448,192,175328,1,0,0:0:0:0:
64,192,175467,1,0,0:0:0:0:
192,192,175467,1,0,0:0:0:0:
320,192,175467,1,0,0:0:0:0:
448,192,175606,1,0,0:0:0:0:
192,192,175606,1,0,0:0:0:0:
64,192,175606,1,0,0:0:0:0:
320,192,175675,1,0,0:0:0:0:
192,192,175745,1,0,0:0:0:0:
448,192,175745,1,0,0:0:0:0:
64,192,175745,1,0,0:0:0:0:
192,192,175884,1,0,0:0:0:0:
320,192,175884,1,0,0:0:0:0:
448,192,175884,1,0,0:0:0:0:
448,192,176022,128,0,176161:0:0:0:0:
320,192,176022,128,0,176161:0:0:0:0:
64,192,176161,1,0,0:0:0:0:
192,192,176161,1,0,0:0:0:0:
192,192,176300,1,0,0:0:0:0:
64,192,176300,1,0,0:0:0:0:
448,192,176300,1,0,0:0:0:0:
320,192,176370,1,0,0:0:0:0:
448,192,176439,1,0,0:0:0:0:
192,192,176439,1,0,0:0:0:0:
64,192,176509,1,0,0:0:0:0:
320,192,176578,1,0,0:0:0:0:
448,192,176578,1,0,0:0:0:0:
192,192,176578,1,0,0:0:0:0:
64,192,176647,1,0,0:0:0:0:
320,192,176717,1,0,0:0:0:0:
448,192,176717,1,0,0:0:0:0:
192,192,176786,1,0,0:0:0:0:
64,192,176856,1,0,0:0:0:0:
448,192,176856,1,0,0:0:0:0:
320,192,176890,1,0,0:0:0:0:
192,192,176925,1,0,0:0:0:0:
64,192,176960,1,0,0:0:0:0:
448,192,176995,1,0,0:0:0:0:
320,192,176995,1,0,0:0:0:0:
192,192,177064,1,0,0:0:0:0:
64,192,177064,1,0,0:0:0:0:
448,192,177134,1,0,0:0:0:0:
320,192,177134,1,0,0:0:0:0:
192,192,177203,1,0,0:0:0:0:
448,192,177272,1,0,0:0:0:0:
64,192,177272,1,0,0:0:0:0:
320,192,177342,1,0,0:0:0:0:
192,192,177411,1,0,0:0:0:0:
64,192,177411,1,0,0:0:0:0:
448,192,177550,1,0,0:0:0:0:
320,192,177550,1,0,0:0:0:0:
192,192,177689,1,0,0:0:0:0:
448,192,177689,1,0,0:0:0:0:
320,192,177828,1,0,0:0:0:0:
192,192,177897,1,0,0:0:0:0:
64,192,177897,1,0,0:0:0:0:
448,192,177967,1,0,0:0:0:0:
64,192,178036,1,0,0:0:0:0:
192,192,178106,1,0,0:0:0:0:
320,192,178106,1,0,0:0:0:0:
448,192,178245,128,0,178453:0:0:0:0:
64,192,178245,128,0,178314:0:0:0:0:
192,192,178245,128,0,178384:0:0:0:0:
64,192,178522,128,0,178661:0:0:0:0:
192,192,178522,128,0,178731:0:0:0:0:
320,192,178522,128,0,178800:0:0:0:0:
448,192,178661,128,0,178870:0:0:0:0:
192,192,178800,128,0,178939:0:0:0:0:
64,192,178800,128,0,178870:0:0:0:0:
448,192,178939,128,0,179147:0:0:0:0:
320,192,178939,128,0,179078:0:0:0:0:
64,192,178939,128,0,179217:0:0:0:0:
192,192,179078,128,0,179286:0:0:0:0:
320,192,179217,128,0,179356:0:0:0:0:
448,192,179217,128,0,179356:0:0:0:0:
64,192,179356,128,0,179425:0:0:0:0:
192,192,179390,128,0,179460:0:0:0:0:
320,192,179425,128,0,179495:0:0:0:0:
448,192,179460,128,0,179529:0:0:0:0:
448,192,179634,128,0,179703:0:0:0:0:
320,192,179634,128,0,179772:0:0:0:0:
64,192,179634,1,0,0:0:0:0:
192,192,179772,1,0,0:0:0:0:
64,192,179772,128,0,179842:0:0:0:0:
448,192,179772,128,0,179981:0:0:0:0:
192,192,179911,128,0,180120:0:0:0:0:
64,192,179911,1,0,0:0:0:0:
320,192,179911,128,0,179981:0:0:0:0:
320,192,180050,1,0,0:0:0:0:
64,192,180050,128,0,180259:0:0:0:0:
448,192,180050,128,0,180189:0:0:0:0:
192,192,180189,128,0,180467:0:0:0:0:
320,192,180328,128,0,180467:0:0:0:0:
192,192,180606,128,0,180675:0:0:0:0:
448,192,180606,128,0,180745:0:0:0:0:
64,192,180606,1,0,0:0:0:0:
64,192,180745,128,0,180884:0:0:0:0:
192,192,180745,128,0,180953:0:0:0:0:
320,192,180745,128,0,181022:0:0:0:0:
448,192,180884,128,0,181092:0:0:0:0:
192,192,181022,128,0,181092:0:0:0:0:
64,192,181022,128,0,181161:0:0:0:0:
448,192,181161,128,0,181300:0:0:0:0:
320,192,181161,128,0,181370:0:0:0:0:
192,192,181161,128,0,181439:0:0:0:0:
64,192,181300,128,0,181509:0:0:0:0:
448,192,181439,128,0,181509:0:0:0:0:
320,192,181439,128,0,181578:0:0:0:0:
448,192,181578,1,0,0:0:0:0:
64,192,181578,128,0,181717:0:0:0:0:
192,192,181578,128,0,181647:0:0:0:0:
320,192,181717,1,0,0:0:0:0:
448,192,181717,1,0,0:0:0:0:
192,192,181786,1,0,0:0:0:0:
64,192,181856,1,0,0:0:0:0:
448,192,181856,1,0,0:0:0:0:
320,192,181856,1,0,0:0:0:0:
192,192,181925,1,0,0:0:0:0:
448,192,181995,1,0,0:0:0:0:
64,192,182064,1,0,0:0:0:0:
192,192,182064,1,0,0:0:0:0:
320,192,182064,1,0,0:0:0:0:
448,192,182134,1,0,0:0:0:0:
64,192,182203,1,0,0:0:0:0:
192,192,182272,1,0,0:0:0:0:
320,192,182272,1,0,0:0:0:0:
448,192,182272,1,0,0:0:0:0:
64,192,182342,1,0,0:0:0:0:
448,192,182411,128,0,182550:0:0:0:0:
320,192,182411,128,0,182620:0:0:0:0:
320,192,182689,1,0,0:0:0:0:
448,192,182689,1,0,0:0:0:0:
192,192,182735,1,0,0:0:0:0:
64,192,182735,1,0,0:0:0:0:
448,192,182782,1,0,0:0:0:0:
320,192,182782,1,0,0:0:0:0:
192,192,182828,1,0,0:0:0:0:
320,192,182897,1,0,0:0:0:0:
64,192,182967,128,0,183175:0:0:0:0:
192,192,182967,128,0,183106:0:0:0:0:
448,192,182967,128,0,183175:0:0:0:0:
320,192,183106,128,0,183314:0:0:0:0:
192,192,183175,1,0,0:0:0:0:
448,192,183245,128,0,183384:0:0:0:0:
64,192,183245,128,0,183314:0:0:0:0:
64,192,183384,128,0,183592:0:0:0:0:
192,192,183384,128,0,183592:0:0:0:0:
320,192,183384,128,0,183522:0:0:0:0:
448,192,183522,128,0,183661:0:0:0:0:
320,192,183592,1,0,0:0:0:0:
192,192,183661,128,0,183800:0:0:0:0:
64,192,183661,128,0,183835:0:0:0:0:
448,192,183731,1,0,0:0:0:0:
320,192,183800,1,0,0:0:0:0:
448,192,183870,1,0,0:0:0:0:
64,192,183939,1,0,0:0:0:0:
192,192,183939,1,0,0:0:0:0:
320,192,184009,1,0,0:0:0:0:
64,192,184078,128,0,184286:0:0:0:0:
192,192,184078,128,0,184217:0:0:0:0:
448,192,184078,128,0,184182:0:0:0:0:
320,192,184217,128,0,184286:0:0:0:0:
192,192,184286,128,0,184356:0:0:0:0:
64,192,184356,128,0,184495:0:0:0:0:
320,192,184356,1,0,0:0:0:0:
448,192,184356,128,0,184425:0:0:0:0:
320,192,184495,128,0,184634:0:0:0:0:
192,192,184495,128,0,184564:0:0:0:0:
448,192,184495,128,0,184634:0:0:0:0:
64,192,184634,1,0,0:0:0:0:
192,192,184634,1,0,0:0:0:0:
448,192,184726,1,0,0:0:0:0:
64,192,184819,1,0,0:0:0:0:
192,192,184819,1,0,0:0:0:0:
64,192,184911,1,0,0:0:0:0:
448,192,184911,1,0,0:0:0:0:
192,192,184911,1,0,0:0:0:0:
320,192,184981,1,0,0:0:0:0:
64,192,185050,1,0,0:0:0:0:
448,192,185050,1,0,0:0:0:0:
192,192,185120,1,0,0:0:0:0:
320,192,185120,1,0,0:0:0:0:
64,192,185189,128,0,185467:0:0:0:0:
448,192,185189,128,0,185397:0:0:0:0:
192,192,185189,128,0,185328:0:0:0:0:
320,192,185328,128,0,185536:0:0:0:0:
192,192,185467,128,0,185536:0:0:0:0:
448,192,185467,128,0,185606:0:0:0:0:
192,192,185606,128,0,185745:0:0:0:0:
320,192,185606,128,0,185814:0:0:0:0:
64,192,185606,128,0,185814:0:0:0:0:
448,192,185745,128,0,185884:0:0:0:0:
192,192,185814,1,0,0:0:0:0:
64,192,185884,128,0,185953:0:0:0:0:
320,192,185884,128,0,186022:0:0:0:0:
64,192,186022,128,0,186161:0:0:0:0:
192,192,186022,128,0,186092:0:0:0:0:
448,192,186022,128,0,186127:0:0:0:0:
192,192,186161,1,0,0:0:0:0:
320,192,186161,1,0,0:0:0:0:
64,192,186231,1,0,0:0:0:0:
448,192,186231,1,0,0:0:0:0:
192,192,186300,1,0,0:0:0:0:
320,192,186300,1,0,0:0:0:0:
448,192,186300,1,0,0:0:0:0:
64,192,186509,1,0,0:0:0:0:
192,192,186509,1,0,0:0:0:0:
320,192,186509,1,0,0:0:0:0:
192,192,186717,1,0,0:0:0:0:
64,192,186717,1,0,0:0:0:0:
448,192,186717,1,0,0:0:0:0:
448,192,186856,1,0,0:0:0:0:
64,192,186856,1,0,0:0:0:0:
192,192,186925,1,0,0:0:0:0:
448,192,186995,1,0,0:0:0:0:
320,192,186995,1,0,0:0:0:0:
192,192,187064,1,0,0:0:0:0:
64,192,187134,1,0,0:0:0:0:
448,192,187134,1,0,0:0:0:0:
320,192,187168,1,0,0:0:0:0:
192,192,187203,1,0,0:0:0:0:
64,192,187238,1,0,0:0:0:0:
448,192,187272,1,0,0:0:0:0:
320,192,187307,1,0,0:0:0:0:
192,192,187342,1,0,0:0:0:0:
64,192,187377,1,0,0:0:0:0:
320,192,187411,1,0,0:0:0:0:
448,192,187411,1,0,0:0:0:0:
192,192,187458,1,0,0:0:0:0:
448,192,187504,1,0,0:0:0:0:
320,192,187550,1,0,0:0:0:0:
64,192,187596,1,0,0:0:0:0:
192,192,187643,1,0,0:0:0:0:
448,192,187689,1,0,0:0:0:0:
320,192,187689,1,0,0:0:0:0:
64,192,187759,1,0,0:0:0:0:
192,192,187828,1,0,0:0:0:0:
64,192,187897,128,0,188036:0:0:0:0:
320,192,187897,128,0,187967:0:0:0:0:
448,192,187967,1,0,0:0:0:0:
192,192,188036,1,0,0:0:0:0:
64,192,188106,1,0,0:0:0:0:
448,192,188106,1,0,0:0:0:0:
192,192,188175,1,0,0:0:0:0:
320,192,188245,1,0,0:0:0:0:
448,192,188245,1,0,0:0:0:0:
64,192,188314,1,0,0:0:0:0:
192,192,188384,1,0,0:0:0:0:
320,192,188453,1,0,0:0:0:0:
448,192,188522,128,0,188800:0:0:0:0:
64,192,188522,1,0,0:0:0:0:
320,192,188592,1,0,0:0:0:0:
192,192,188661,128,0,188939:0:0:0:0:
64,192,188731,128,0,188870:0:0:0:0:
320,192,188800,128,0,188939:0:0:0:0:
448,192,188870,1,0,0:0:0:0:
64,192,188939,1,0,0:0:0:0:
320,192,189009,128,0,189147:0:0:0:0:
192,192,189009,128,0,189078:0:0:0:0:
64,192,189078,1,0,0:0:0:0:
192,192,189147,1,0,0:0:0:0:
448,192,189217,128,0,189286:0:0:0:0:
320,192,189217,128,0,189286:0:0:0:0:
64,192,189356,128,0,189425:0:0:0:0:
320,192,189356,128,0,189425:0:0:0:0:
192,192,189356,1,0,0:0:0:0:
64,192,189495,128,0,189564:0:0:0:0:
192,192,189495,128,0,189564:0:0:0:0:
448,192,189495,1,0,0:0:0:0:
320,192,189634,128,0,189911:0:0:0:0:
448,192,189634,128,0,189842:0:0:0:0:
64,192,189634,128,0,189772:0:0:0:0:
192,192,189772,128,0,189981:0:0:0:0:
448,192,189911,128,0,189981:0:0:0:0:
64,192,189911,128,0,190050:0:0:0:0:
192,192,190050,128,0,190189:0:0:0:0:
320,192,190050,128,0,190259:0:0:0:0:
448,192,190050,128,0,190328:0:0:0:0:
64,192,190189,128,0,190397:0:0:0:0:
192,192,190328,128,0,190397:0:0:0:0:
320,192,190328,128,0,190467:0:0:0:0:
192,192,190467,1,0,0:0:0:0:
448,192,190467,128,0,190606:0:0:0:0:
64,192,190467,128,0,190536:0:0:0:0:
64,192,190606,1,0,0:0:0:0:
192,192,190606,1,0,0:0:0:0:
320,192,190675,1,0,0:0:0:0:
448,192,190745,1,0,0:0:0:0:
64,192,190745,1,0,0:0:0:0:
192,192,190814,1,0,0:0:0:0:
320,192,190884,1,0,0:0:0:0:
448,192,190884,1,0,0:0:0:0:
64,192,190884,1,0,0:0:0:0:
192,192,190953,1,0,0:0:0:0:
320,192,191022,1,0,0:0:0:0:
448,192,191092,1,0,0:0:0:0:
320,192,191161,1,0,0:0:0:0:
192,192,191161,1,0,0:0:0:0:
64,192,191161,1,0,0:0:0:0:
320,192,191300,1,0,0:0:0:0:
192,192,191300,1,0,0:0:0:0:
448,192,191300,1,0,0:0:0:0:
64,192,191370,1,0,0:0:0:0:
448,192,191439,1,0,0:0:0:0:
64,192,191509,1,0,0:0:0:0:
192,192,191509,1,0,0:0:0:0:
320,192,191509,1,0,0:0:0:0:
448,192,191578,1,0,0:0:0:0:
320,192,191647,1,0,0:0:0:0:
64,192,191717,1,0,0:0:0:0:
192,192,191717,1,0,0:0:0:0:
448,192,191786,1,0,0:0:0:0:
320,192,191786,1,0,0:0:0:0:
64,192,191856,1,0,0:0:0:0:
448,192,191856,1,0,0:0:0:0:
320,192,191856,1,0,0:0:0:0:
192,192,191902,1,0,0:0:0:0:
320,192,191948,1,0,0:0:0:0:
448,192,191995,1,0,0:0:0:0:
192,192,192041,1,0,0:0:0:0:
64,192,192087,1,0,0:0:0:0:
320,192,192134,1,0,0:0:0:0:
448,192,192134,1,0,0:0:0:0:
64,192,192203,1,0,0:0:0:0:
192,192,192272,1,0,0:0:0:0:
320,192,192342,1,0,0:0:0:0:
448,192,192342,1,0,0:0:0:0:
64,192,192411,1,0,0:0:0:0:
320,192,192481,1,0,0:0:0:0:
448,192,192550,1,0,0:0:0:0:
192,192,192550,128,0,192620:0:0:0:0:
64,192,192620,128,0,192689:0:0:0:0:
448,192,192689,128,0,192863:0:0:0:0:
320,192,192724,128,0,192897:0:0:0:0:
192,192,192759,128,0,192897:0:0:0:0:
64,192,192793,128,0,192967:0:0:0:0:
192,192,192967,1,0,0:0:0:0:
448,192,192967,128,0,193106:0:0:0:0:
320,192,192967,128,0,193036:0:0:0:0:
64,192,193036,1,0,0:0:0:0:
320,192,193106,1,0,0:0:0:0:
320,192,193175,1,0,0:0:0:0:
64,192,193245,1,0,0:0:0:0:
448,192,193245,1,0,0:0:0:0:
192,192,193314,1,0,0:0:0:0:
448,192,193384,1,0,0:0:0:0:
320,192,193384,1,0,0:0:0:0:
64,192,193453,1,0,0:0:0:0:
192,192,193453,1,0,0:0:0:0:
320,192,193522,1,0,0:0:0:0:
192,192,193592,1,0,0:0:0:0:
448,192,193661,128,0,193731:0:0:0:0:
64,192,193661,1,0,0:0:0:0:
320,192,193661,128,0,193731:0:0:0:0:
192,192,193731,1,0,0:0:0:0:
64,192,193800,128,0,193870:0:0:0:0:
448,192,193800,128,0,193870:0:0:0:0:
320,192,193800,1,0,0:0:0:0:
192,192,193939,128,0,194009:0:0:0:0:
320,192,193939,128,0,194009:0:0:0:0:
64,192,193939,1,0,0:0:0:0:
192,192,194078,128,0,194217:0:0:0:0:
64,192,194078,128,0,194286:0:0:0:0:
448,192,194078,128,0,194147:0:0:0:0:
320,192,194147,1,0,0:0:0:0:
448,192,194217,1,0,0:0:0:0:
192,192,194286,1,0,0:0:0:0:
320,192,194286,1,0,0:0:0:0:
64,192,194356,1,0,0:0:0:0:
448,192,194356,1,0,0:0:0:0:
192,192,194356,1,0,0:0:0:0:
320,192,194425,1,0,0:0:0:0:
64,192,194495,1,0,0:0:0:0:
448,192,194495,1,0,0:0:0:0:
192,192,194564,1,0,0:0:0:0:
320,192,194564,1,0,0:0:0:0:
448,192,194634,1,0,0:0:0:0:
192,192,194703,1,0,0:0:0:0:
64,192,194703,1,0,0:0:0:0:
320,192,194772,1,0,0:0:0:0:
64,192,194772,1,0,0:0:0:0:
448,192,194772,1,0,0:0:0:0:
192,192,194842,1,0,0:0:0:0:
320,192,194911,1,0,0:0:0:0:
64,192,194981,1,0,0:0:0:0:
448,192,194981,1,0,0:0:0:0:
320,192,195050,1,0,0:0:0:0:
448,192,195050,1,0,0:0:0:0:
192,192,195050,1,0,0:0:0:0:
64,192,195120,1,0,0:0:0:0:
448,192,195189,1,0,0:0:0:0:
320,192,195189,1,0,0:0:0:0:
192,192,195259,1,0,0:0:0:0:
64,192,195259,1,0,0:0:0:0:
448,192,195328,1,0,0:0:0:0:
320,192,195328,1,0,0:0:0:0:
64,192,195328,1,0,0:0:0:0:
192,192,195397,1,0,0:0:0:0:
320,192,195467,1,0,0:0:0:0:
192,192,195536,1,0,0:0:0:0:
448,192,195536,1,0,0:0:0:0:
64,192,195536,1,0,0:0:0:0:
320,192,195606,1,0,0:0:0:0:
192,192,195675,1,0,0:0:0:0:
64,192,195745,1,0,0:0:0:0:
320,192,195745,1,0,0:0:0:0:
448,192,195745,1,0,0:0:0:0:
192,192,195814,1,0,0:0:0:0:
320,192,195884,1,0,0:0:0:0:
448,192,195884,1,0,0:0:0:0:
192,192,195953,1,0,0:0:0:0:
64,192,195953,1,0,0:0:0:0:
320,192,196022,128,0,196092:0:0:0:0:
448,192,196022,128,0,196161:0:0:0:0:
64,192,196022,1,0,0:0:0:0:
192,192,196092,1,0,0:0:0:0:
320,192,196161,1,0,0:0:0:0:
192,192,196300,128,0,196509:0:0:0:0:
64,192,196300,128,0,196578:0:0:0:0:
320,192,196300,128,0,196439:0:0:0:0:
448,192,196300,1,0,0:0:0:0:
448,192,196439,128,0,196509:0:0:0:0:
192,192,196578,128,0,196647:0:0:0:0:
320,192,196578,128,0,196717:0:0:0:0:
448,192,196578,128,0,196647:0:0:0:0:
64,192,196647,128,0,196786:0:0:0:0:
448,192,196717,128,0,196786:0:0:0:0:
192,192,196717,128,0,196786:0:0:0:0:
320,192,196786,128,0,196925:0:0:0:0:
64,192,196856,128,0,196995:0:0:0:0:
448,192,196856,128,0,196995:0:0:0:0:
192,192,196856,128,0,196925:0:0:0:0:
192,192,196995,128,0,197134:0:0:0:0:
320,192,196995,128,0,197203:0:0:0:0:
64,192,197134,128,0,197203:0:0:0:0:
448,192,197134,128,0,197203:0:0:0:0:
192,192,197203,128,0,197342:0:0:0:0:
64,192,197272,128,0,197411:0:0:0:0:
448,192,197272,128,0,197481:0:0:0:0:
320,192,197272,128,0,197342:0:0:0:0:
192,192,197411,128,0,197550:0:0:0:0:
320,192,197411,128,0,197550:0:0:0:0:
64,192,197550,128,0,197620:0:0:0:0:
448,192,197550,128,0,197620:0:0:0:0:
192,192,197620,128,0,197689:0:0:0:0:
320,192,197689,128,0,197759:0:0:0:0:
64,192,197689,128,0,197828:0:0:0:0:
448,192,197689,128,0,197759:0:0:0:0:
192,192,197759,128,0,197897:0:0:0:0:
448,192,197828,128,0,197967:0:0:0:0:
320,192,197828,128,0,197967:0:0:0:0:
64,192,197967,128,0,198036:0:0:0:0:
192,192,197967,128,0,198036:0:0:0:0:
320,192,198036,128,0,198175:0:0:0:0:
448,192,198106,128,0,198314:0:0:0:0:
64,192,198106,128,0,198453:0:0:0:0:
192,192,198106,128,0,198175:0:0:0:0:
192,192,198245,128,0,198418:0:0:0:0:
320,192,198245,128,0,198384:0:0:0:0:
448,192,198384,128,0,198476:0:0:0:0:
320,192,198430,128,0,198522:0:0:0:0:
192,192,198476,128,0,198569:0:0:0:0:
64,192,198522,128,0,198731:0:0:0:0:
448,192,198522,128,0,198661:0:0:0:0:
320,192,198661,1,0,0:0:0:0:
192,192,198731,1,0,0:0:0:0:
64,192,198800,1,0,0:0:0:0:
448,192,198800,1,0,0:0:0:0:
320,192,198846,1,0,0:0:0:0:
192,192,198893,1,0,0:0:0:0:
64,192,198939,1,0,0:0:0:0:
448,192,198939,1,0,0:0:0:0:
320,192,199009,1,0,0:0:0:0:
192,192,199078,1,0,0:0:0:0:
448,192,199078,1,0,0:0:0:0:
64,192,199078,1,0,0:0:0:0:
64,192,199217,1,0,0:0:0:0:
192,192,199234,1,0,0:0:0:0:
320,192,199252,1,0,0:0:0:0:
448,192,199356,1,0,0:0:0:0:
320,192,199373,1,0,0:0:0:0:
192,192,199390,1,0,0:0:0:0:
64,192,199495,1,0,0:0:0:0:
320,192,199495,1,0,0:0:0:0:
448,192,199495,1,0,0:0:0:0:
192,192,199564,1,0,0:0:0:0:
448,192,199634,1,0,0:0:0:0:
64,192,199634,1,0,0:0:0:0:
320,192,199703,1,0,0:0:0:0:
64,192,199772,1,0,0:0:0:0:
448,192,199772,1,0,0:0:0:0:
192,192,199772,1,0,0:0:0:0:
320,192,199842,1,0,0:0:0:0:
192,192,199911,1,0,0:0:0:0:
64,192,199911,1,0,0:0:0:0:
320,192,200050,1,0,0:0:0:0:
448,192,200050,1,0,0:0:0:0:
192,192,200120,1,0,0:0:0:0:
64,192,200120,1,0,0:0:0:0:
320,192,200189,1,0,0:0:0:0:
448,192,200189,1,0,0:0:0:0:
64,192,200189,1,0,0:0:0:0:
192,192,200259,1,0,0:0:0:0:
448,192,200328,1,0,0:0:0:0:
320,192,200397,1,0,0:0:0:0:
192,192,200397,1,0,0:0:0:0:
64,192,200397,1,0,0:0:0:0:
448,192,200467,1,0,0:0:0:0:
192,192,200536,1,0,0:0:0:0:
64,192,200606,1,0,0:0:0:0:
448,192,200606,1,0,0:0:0:0:
320,192,200606,1,0,0:0:0:0:
192,192,200675,1,0,0:0:0:0:
320,192,200745,128,0,200953:0:0:0:0:
448,192,200745,128,0,201022:0:0:0:0:
64,192,200745,128,0,200884:0:0:0:0:
192,192,200884,128,0,200953:0:0:0:0:
320,192,201022,128,0,201092:0:0:0:0:
64,192,201022,128,0,201161:0:0:0:0:
192,192,201022,128,0,201092:0:0:0:0:
448,192,201092,128,0,201231:0:0:0:0:
320,192,201161,128,0,201231:0:0:0:0:
192,192,201161,128,0,201231:0:0:0:0:
64,192,201231,128,0,201370:0:0:0:0:
192,192,201300,128,0,201439:0:0:0:0:
448,192,201300,128,0,201439:0:0:0:0:
320,192,201300,128,0,201370:0:0:0:0:
320,192,201439,128,0,201578:0:0:0:0:
64,192,201439,128,0,201647:0:0:0:0:
192,192,201578,128,0,201647:0:0:0:0:
448,192,201578,128,0,201647:0:0:0:0:
320,192,201647,128,0,201786:0:0:0:0:
64,192,201717,128,0,201856:0:0:0:0:
192,192,201717,128,0,201925:0:0:0:0:
448,192,201717,128,0,201786:0:0:0:0:
448,192,201856,128,0,201995:0:0:0:0:
320,192,201856,128,0,201995:0:0:0:0:
64,192,201995,1,0,0:0:0:0:
192,192,201995,1,0,0:0:0:0:
320,192,202041,1,0,0:0:0:0:
448,192,202041,1,0,0:0:0:0:
192,192,202087,1,0,0:0:0:0:
320,192,202134,128,0,202203:0:0:0:0:
64,192,202134,128,0,202272:0:0:0:0:
448,192,202134,128,0,202203:0:0:0:0:
192,192,202203,128,0,202342:0:0:0:0:
448,192,202272,128,0,202411:0:0:0:0:
320,192,202272,128,0,202411:0:0:0:0:
64,192,202411,128,0,202481:0:0:0:0:
192,192,202411,128,0,202481:0:0:0:0:
448,192,202481,128,0,202620:0:0:0:0:
64,192,202550,128,0,202689:0:0:0:0:
320,192,202550,128,0,202620:0:0:0:0:
192,192,202550,128,0,202620:0:0:0:0:
448,192,202689,1,0,0:0:0:0:
320,192,202706,1,0,0:0:0:0:
192,192,202724,1,0,0:0:0:0:
64,192,202828,1,0,0:0:0:0:
192,192,202845,1,0,0:0:0:0:
320,192,202863,1,0,0:0:0:0:
64,192,202967,128,0,203106:0:0:0:0:
320,192,202967,128,0,203245:0:0:0:0:
448,192,202967,128,0,203175:0:0:0:0:
192,192,203106,1,0,0:0:0:0:
448,192,203245,1,0,0:0:0:0:
64,192,203245,128,0,203314:0:0:0:0:
320,192,203384,1,0,0:0:0:0:
192,192,203384,128,0,203453:0:0:0:0:
320,192,203522,1,0,0:0:0:0:
448,192,203522,1,0,0:0:0:0:
64,192,203522,1,0,0:0:0:0:
192,192,203592,1,0,0:0:0:0:
448,192,203661,128,0,203731:0:0:0:0:
320,192,203661,128,0,203800:0:0:0:0:
448,192,203800,128,0,203939:0:0:0:0:
64,192,203800,128,0,203870:0:0:0:0:
192,192,203939,128,0,204078:0:0:0:0:
320,192,203939,128,0,204009:0:0:0:0:
64,192,203939,128,0,204078:0:0:0:0:
320,192,204078,1,0,0:0:0:0:
448,192,204078,1,0,0:0:0:0:
192,192,204147,1,0,0:0:0:0:
448,192,204217,1,0,0:0:0:0:
64,192,204217,1,0,0:0:0:0:
320,192,204217,1,0,0:0:0:0:
192,192,204286,1,0,0:0:0:0:
320,192,204356,128,0,204425:0:0:0:0:
448,192,204356,128,0,204448:0:0:0:0:
320,192,204495,128,0,204564:0:0:0:0:
192,192,204495,128,0,204634:0:0:0:0:
64,192,204495,128,0,204703:0:0:0:0:
448,192,204564,1,0,0:0:0:0:
192,192,204703,128,0,204772:0:0:0:0:
320,192,204703,128,0,204842:0:0:0:0:
448,192,204703,128,0,204911:0:0:0:0:
64,192,204772,1,0,0:0:0:0:
192,192,204911,128,0,204981:0:0:0:0:
64,192,204911,128,0,205050:0:0:0:0:
320,192,204911,1,0,0:0:0:0:
320,192,205050,128,0,205120:0:0:0:0:
448,192,205050,1,0,0:0:0:0:
192,192,205050,128,0,205189:0:0:0:0:
64,192,205189,1,0,0:0:0:0:
320,192,205189,1,0,0:0:0:0:
448,192,205189,1,0,0:0:0:0:
192,192,205235,1,0,0:0:0:0:
320,192,205282,1,0,0:0:0:0:
448,192,205328,1,0,0:0:0:0:
64,192,205374,1,0,0:0:0:0:
320,192,205421,1,0,0:0:0:0:
192,192,205467,128,0,205606:0:0:0:0:
64,192,205467,128,0,205606:0:0:0:0:
448,192,205467,1,0,0:0:0:0:
320,192,205606,128,0,205675:0:0:0:0:
448,192,205606,128,0,205675:0:0:0:0:
64,192,205745,128,0,205953:0:0:0:0:
448,192,205745,128,0,205814:0:0:0:0:
192,192,205745,128,0,205884:0:0:0:0:
448,192,205884,128,0,206092:0:0:0:0:
320,192,205953,128,0,206092:0:0:0:0:
192,192,206022,128,0,206161:0:0:0:0:
64,192,206022,1,0,0:0:0:0:
448,192,206161,128,0,206300:0:0:0:0:
64,192,206161,128,0,206231:0:0:0:0:
320,192,206161,128,0,206370:0:0:0:0:
64,192,206300,1,0,0:0:0:0:
192,192,206300,1,0,0:0:0:0:
64,192,206370,128,0,206439:0:0:0:0:
192,192,206370,128,0,206509:0:0:0:0:
448,192,206509,128,0,206717:0:0:0:0:
320,192,206509,128,0,206578:0:0:0:0:
64,192,206509,128,0,206647:0:0:0:0:
320,192,206647,1,0,0:0:0:0:
192,192,206647,1,0,0:0:0:0:
192,192,206717,128,0,206786:0:0:0:0:
320,192,206717,128,0,206786:0:0:0:0:
64,192,206856,1,0,0:0:0:0:
192,192,206856,1,0,0:0:0:0:
320,192,206925,1,0,0:0:0:0:
448,192,206925,1,0,0:0:0:0:
64,192,206995,1,0,0:0:0:0:
192,192,206995,1,0,0:0:0:0:
320,192,207064,1,0,0:0:0:0:
448,192,207064,1,0,0:0:0:0:
64,192,207134,128,0,207342:0:0:0:0:
192,192,207134,128,0,207203:0:0:0:0:
448,192,207134,128,0,207272:0:0:0:0:
192,192,207272,1,0,0:0:0:0:
320,192,207272,1,0,0:0:0:0:
320,192,207411,1,0,0:0:0:0:
448,192,207411,1,0,0:0:0:0:
64,192,207411,1,0,0:0:0:0:
192,192,207458,1,0,0:0:0:0:
448,192,207504,1,0,0:0:0:0:
320,192,207550,1,0,0:0:0:0:
64,192,207596,1,0,0:0:0:0:
192,192,207643,1,0,0:0:0:0:
448,192,207689,1,0,0:0:0:0:
320,192,207689,1,0,0:0:0:0:
64,192,207759,1,0,0:0:0:0:
192,192,207828,1,0,0:0:0:0:
320,192,207828,1,0,0:0:0:0:
448,192,207897,1,0,0:0:0:0:
64,192,207967,1,0,0:0:0:0:
192,192,207967,1,0,0:0:0:0:
320,192,208013,1,0,0:0:0:0:
64,192,208059,1,0,0:0:0:0:
448,192,208106,1,0,0:0:0:0:
320,192,208152,1,0,0:0:0:0:
192,192,208198,1,0,0:0:0:0:
64,192,208245,1,0,0:0:0:0:
448,192,208245,1,0,0:0:0:0:
320,192,208291,1,0,0:0:0:0:
448,192,208337,1,0,0:0:0:0:
64,192,208384,1,0,0:0:0:0:
192,192,208430,1,0,0:0:0:0:
320,192,208476,1,0,0:0:0:0:
448,192,208522,1,0,0:0:0:0:
64,192,208522,1,0,0:0:0:0:
192,192,208522,1,0,0:0:0:0:
320,192,208592,1,0,0:0:0:0:
192,192,208661,1,0,0:0:0:0:
320,192,208731,1,0,0:0:0:0:
64,192,208731,1,0,0:0:0:0:
448,192,208731,1,0,0:0:0:0:
192,192,208800,1,0,0:0:0:0:
448,192,208870,1,0,0:0:0:0:
320,192,208939,1,0,0:0:0:0:
64,192,208939,1,0,0:0:0:0:
192,192,208939,1,0,0:0:0:0:
448,192,209078,1,0,0:0:0:0:
64,192,209078,128,0,209217:0:0:0:0:
320,192,209078,128,0,209147:0:0:0:0:
192,192,209217,128,0,209286:0:0:0:0:
448,192,209217,128,0,209356:0:0:0:0:
320,192,209217,1,0,0:0:0:0:
64,192,209356,1,0,0:0:0:0:
192,192,209356,1,0,0:0:0:0:
320,192,209402,1,0,0:0:0:0:
448,192,209402,1,0,0:0:0:0:
192,192,209448,1,0,0:0:0:0:
64,192,209448,1,0,0:0:0:0:
448,192,209495,1,0,0:0:0:0:
320,192,209495,1,0,0:0:0:0:
64,192,209564,1,0,0:0:0:0:
448,192,209634,1,0,0:0:0:0:
192,192,209634,1,0,0:0:0:0:
320,192,209634,1,0,0:0:0:0:
64,192,209772,1,0,0:0:0:0:
448,192,209772,1,0,0:0:0:0:
320,192,209772,1,0,0:0:0:0:
64,192,209911,1,0,0:0:0:0:
192,192,209911,1,0,0:0:0:0:
320,192,209981,1,0,0:0:0:0:
448,192,209981,1,0,0:0:0:0:
192,192,210050,1,0,0:0:0:0:
64,192,210050,1,0,0:0:0:0:
320,192,210120,1,0,0:0:0:0:
448,192,210120,1,0,0:0:0:0:
448,192,210189,1,0,0:0:0:0:
192,192,210189,1,0,0:0:0:0:
64,192,210189,1,0,0:0:0:0:
320,192,210328,1,0,0:0:0:0:
448,192,210328,1,0,0:0:0:0:
64,192,210397,1,0,0:0:0:0:
192,192,210397,1,0,0:0:0:0:
320,192,210397,1,0,0:0:0:0:
64,192,210536,1,0,0:0:0:0:
192,192,210536,1,0,0:0:0:0:
192,192,210606,1,0,0:0:0:0:
320,192,210606,1,0,0:0:0:0:
448,192,210606,1,0,0:0:0:0:
192,192,210745,1,0,0:0:0:0:
320,192,210745,1,0,0:0:0:0:
64,192,210814,1,0,0:0:0:0:
448,192,210814,1,0,0:0:0:0:
192,192,210884,1,0,0:0:0:0:
320,192,210884,1,0,0:0:0:0:
448,192,211022,1,0,0:0:0:0:
192,192,211022,1,0,0:0:0:0:
64,192,211022,1,0,0:0:0:0:
320,192,211092,1,0,0:0:0:0:
64,192,211161,1,0,0:0:0:0:
192,192,211161,1,0,0:0:0:0:
192,192,211231,1,0,0:0:0:0:
320,192,211231,1,0,0:0:0:0:
320,192,211300,1,0,0:0:0:0:
448,192,211300,1,0,0:0:0:0:
64,192,211300,1,0,0:0:0:0:
192,192,211439,1,0,0:0:0:0:
320,192,211439,1,0,0:0:0:0:
64,192,211578,1,0,0:0:0:0:
192,192,211595,1,0,0:0:0:0:
320,192,211613,1,0,0:0:0:0:
448,192,211717,1,0,0:0:0:0:
320,192,211734,1,0,0:0:0:0:
192,192,211752,1,0,0:0:0:0:
64,192,211856,1,0,0:0:0:0:
448,192,211856,1,0,0:0:0:0:
320,192,211856,1,0,0:0:0:0:
192,192,211925,1,0,0:0:0:0:
320,192,211995,1,0,0:0:0:0:
448,192,211995,1,0,0:0:0:0:
64,192,212064,1,0,0:0:0:0:
192,192,212134,1,0,0:0:0:0:
320,192,212134,1,0,0:0:0:0:
448,192,212134,1,0,0:0:0:0:
64,192,212203,1,0,0:0:0:0:
192,192,212272,1,0,0:0:0:0:
320,192,212272,1,0,0:0:0:0:
448,192,212342,1,0,0:0:0:0:
64,192,212411,1,0,0:0:0:0:
192,192,212434,1,0,0:0:0:0:
320,192,212458,1,0,0:0:0:0:
448,192,212481,1,0,0:0:0:0:
64,192,212504,1,0,0:0:0:0:
192,192,212527,1,0,0:0:0:0:
320,192,212550,1,0,0:0:0:0:
448,192,212550,1,0,0:0:0:0:
192,192,212689,1,0,0:0:0:0:
320,192,212689,1,0,0:0:0:0:
64,192,212689,1,0,0:0:0:0:
448,192,212759,1,0,0:0:0:0:
64,192,212828,1,0,0:0:0:0:
320,192,212828,1,0,0:0:0:0:
192,192,212897,1,0,0:0:0:0:
64,192,212967,1,0,0:0:0:0:
448,192,212967,128,0,213384:0:0:0:0:
320,192,212967,128,0,213175:0:0:0:0:
192,192,213522,128,0,214078:0:0:0:0:
320,192,213800,1,0,0:0:0:0:
64,192,213800,128,0,213870:0:0:0:0:
448,192,213800,128,0,213939:0:0:0:0:
320,192,214078,128,0,216022:0:0:0:0:
448,192,214078,1,0,0:0:0:0:
64,192,214078,128,0,214286:0:0:0:0:
64,192,216022,1,0,0:0:0:0:
192,192,216022,128,0,216161:0:0:0:0:
320,192,216161,128,0,216300:0:0:0:0:
448,192,216300,1,0,0:0:0:0:
64,192,216300,128,0,217134:0:0:0:0:
320,192,217134,128,0,217967:0:0:0:0:
448,192,217134,1,0,0:0:0:0:
64,192,217967,128,0,218036:0:0:0:0:
448,192,217967,128,0,218106:0:0:0:0:
64,192,218245,128,0,218384:0:0:0:0:
192,192,218245,128,0,218314:0:0:0:0:
448,192,218384,128,0,218522:0:0:0:0:
320,192,218453,128,0,218592:0:0:0:0:
192,192,218522,128,0,219356:0:0:0:0:
64,192,218522,1,0,0:0:0:0:
448,192,219356,128,0,220467:0:0:0:0:
64,192,219356,1,0,0:0:0:0:
64,192,220467,128,0,220652:0:0:0:0:
192,192,220559,128,0,220745:0:0:0:0:
448,192,220652,128,0,220837:0:0:0:0:
320,192,220745,128,0,221578:0:0:0:0:
64,192,220745,1,0,0:0:0:0:
192,192,220884,1,0,0:0:0:0:
448,192,221022,1,0,0:0:0:0:
64,192,221161,1,0,0:0:0:0:
448,192,221300,1,0,0:0:0:0:
192,192,221439,1,0,0:0:0:0:
64,192,221578,1,0,0:0:0:0:
192,192,221578,128,0,221856:0:0:0:0:
320,192,221717,1,0,0:0:0:0:
448,192,221856,1,0,0:0:0:0:
320,192,221856,1,0,0:0:0:0:
64,192,221856,128,0,222897:0:0:0:0:
448,192,221995,1,0,0:0:0:0:
192,192,222134,128,0,222342:0:0:0:0:
320,192,222226,128,0,222411:0:0:0:0:
448,192,222272,128,0,222550:0:0:0:0:
192,192,222411,1,0,0:0:0:0:
320,192,222550,128,0,222897:0:0:0:0:
192,192,222689,128,0,222897:0:0:0:0:
448,192,222689,1,0,0:0:0:0:
448,192,222828,128,0,222967:0:0:0:0:
64,192,222967,128,0,225189:0:0:0:0:
320,192,222967,1,0,0:0:0:0:
192,192,222967,128,0,223453:0:0:0:0:
448,192,223106,1,0,0:0:0:0:
320,192,223245,1,0,0:0:0:0:
448,192,223384,1,0,0:0:0:0:
448,192,223522,128,0,224009:0:0:0:0:
320,192,223522,1,0,0:0:0:0:
192,192,223661,1,0,0:0:0:0:
320,192,223800,1,0,0:0:0:0:
192,192,223939,1,0,0:0:0:0:
320,192,224078,128,0,224772:0:0:0:0:
448,192,224078,1,0,0:0:0:0:
192,192,224217,1,0,0:0:0:0:
448,192,224356,1,0,0:0:0:0:
192,192,224495,1,0,0:0:0:0:
448,192,224634,1,0,0:0:0:0:
192,192,224772,1,0,0:0:0:0:
320,192,224911,128,0,225120:0:0:0:0:
448,192,224911,1,0,0:0:0:0:
192,192,225050,128,0,225884:0:0:0:0:
320,192,225189,128,0,227411:0:0:0:0:
448,192,225189,1,0,0:0:0:0:
64,192,225328,1,0,0:0:0:0:
448,192,225467,1,0,0:0:0:0:
64,192,225606,1,0,0:0:0:0:
448,192,225745,1,0,0:0:0:0:
64,192,225884,1,0,0:0:0:0:
192,192,226022,128,0,226231:0:0:0:0:
448,192,226022,1,0,0:0:0:0:
448,192,226161,128,0,226856:0:0:0:0:
64,192,226161,1,0,0:0:0:0:
192,192,226300,1,0,0:0:0:0:
64,192,226439,1,0,0:0:0:0:
192,192,226578,1,0,0:0:0:0:
64,192,226717,1,0,0:0:0:0:
192,192,226856,1,0,0:0:0:0:
448,192,226995,128,0,227203:0:0:0:0:
64,192,226995,1,0,0:0:0:0:
192,192,227134,128,0,227342:0:0:0:0:
64,192,227272,128,0,228384:0:0:0:0:
448,192,227272,1,0,0:0:0:0:
448,192,227411,128,0,229634:0:0:0:0:
192,192,227411,1,0,0:0:0:0:
320,192,227550,1,0,0:0:0:0:
192,192,227689,1,0,0:0:0:0:
320,192,227828,1,0,0:0:0:0:
192,192,227967,1,0,0:0:0:0:
320,192,228106,1,0,0:0:0:0:
192,192,228245,1,0,0:0:0:0:
320,192,228384,1,0,0:0:0:0:
192,192,228522,128,0,228731:0:0:0:0:
64,192,228592,128,0,228870:0:0:0:0:
320,192,228661,1,0,0:0:0:0:
192,192,228800,1,0,0:0:0:0:
320,192,228939,128,0,229356:0:0:0:0:
64,192,228939,1,0,0:0:0:0:
192,192,229078,1,0,0:0:0:0:
64,192,229217,1,0,0:0:0:0:
64,192,229356,128,0,229564:0:0:0:0:
192,192,229356,1,0,0:0:0:0:
320,192,229495,1,0,0:0:0:0:
64,192,229634,128,0,230328:0:0:0:0:
192,192,229634,128,0,231856:0:0:0:0:
320,192,229634,1,0,0:0:0:0:
448,192,229772,1,0,0:0:0:0:
320,192,229911,1,0,0:0:0:0:
448,192,230050,1,0,0:0:0:0:
320,192,230189,1,0,0:0:0:0:
448,192,230328,1,0,0:0:0:0:
64,192,230467,128,0,230675:0:0:0:0:
320,192,230467,1,0,0:0:0:0:
320,192,230606,128,0,231300:0:0:0:0:
448,192,230606,1,0,0:0:0:0:
64,192,230745,1,0,0:0:0:0:
448,192,230884,1,0,0:0:0:0:
64,192,231022,1,0,0:0:0:0:
448,192,231161,1,0,0:0:0:0:
64,192,231300,1,0,0:0:0:0:
320,192,231439,128,0,231647:0:0:0:0:
448,192,231439,1,0,0:0:0:0:
64,192,231578,128,0,231786:0:0:0:0:
448,192,231717,128,0,232342:0:0:0:0:
320,192,231717,1,0,0:0:0:0:
64,192,231856,128,0,234078:0:0:0:0:
320,192,231856,1,0,0:0:0:0:
192,192,231995,1,0,0:0:0:0:
320,192,232134,1,0,0:0:0:0:
192,192,232272,1,0,0:0:0:0:
320,192,232411,128,0,232897:0:0:0:0:
448,192,232411,1,0,0:0:0:0:
192,192,232550,1,0,0:0:0:0:
448,192,232689,1,0,0:0:0:0:
192,192,232828,1,0,0:0:0:0:
320,192,232967,1,0,0:0:0:0:
448,192,232967,128,0,233522:0:0:0:0:
192,192,233106,1,0,0:0:0:0:
320,192,233245,1,0,0:0:0:0:
192,192,233384,1,0,0:0:0:0:
192,192,233522,128,0,233661:0:0:0:0:
320,192,233522,1,0,0:0:0:0:
448,192,233661,1,0,0:0:0:0:
320,192,233731,128,0,233870:0:0:0:0:
192,192,233800,1,0,0:0:0:0:
192,192,233939,128,0,234078:0:0:0:0:
448,192,233939,1,0,0:0:0:0:
320,192,234078,128,0,234842:0:0:0:0:
448,192,234078,128,0,236300:0:0:0:0:
64,192,234217,1,0,0:0:0:0:
192,192,234356,1,0,0:0:0:0:
64,192,234495,1,0,0:0:0:0:
192,192,234634,1,0,0:0:0:0:
64,192,234772,1,0,0:0:0:0:
192,192,234911,1,0,0:0:0:0:
320,192,234911,128,0,235050:0:0:0:0:
192,192,235050,128,0,235745:0:0:0:0:
64,192,235120,128,0,235259:0:0:0:0:
320,192,235189,1,0,0:0:0:0:
64,192,235328,1,0,0:0:0:0:
320,192,235467,1,0,0:0:0:0:
64,192,235606,1,0,0:0:0:0:
320,192,235745,1,0,0:0:0:0:
320,192,235884,128,0,236092:0:0:0:0:
192,192,235884,1,0,0:0:0:0:
192,192,236022,128,0,236231:0:0:0:0:
64,192,236161,128,0,236856:0:0:0:0:
320,192,236161,1,0,0:0:0:0:
192,192,236300,128,0,237411:0:0:0:0:
320,192,236370,128,0,236509:0:0:0:0:
448,192,236439,1,0,0:0:0:0:
320,192,236578,1,0,0:0:0:0:
448,192,236717,1,0,0:0:0:0:
320,192,236856,1,0,0:0:0:0:
64,192,236995,128,0,237203:0:0:0:0:
448,192,236995,1,0,0:0:0:0:
320,192,237134,128,0,237342:0:0:0:0:
448,192,237272,128,0,237967:0:0:0:0:
64,192,237272,1,0,0:0:0:0:
64,192,237411,128,0,238522:0:0:0:0:
320,192,237411,1,0,0:0:0:0:
192,192,237550,1,0,0:0:0:0:
320,192,237689,1,0,0:0:0:0:
192,192,237828,1,0,0:0:0:0:
320,192,237967,1,0,0:0:0:0:
448,192,238106,128,0,238314:0:0:0:0:
192,192,238106,1,0,0:0:0:0:
320,192,238245,128,0,238453:0:0:0:0:
192,192,238384,128,0,239286:0:0:0:0:
448,192,238384,1,0,0:0:0:0:
320,192,238522,128,0,239564:0:0:0:0:
448,192,238592,128,0,238731:0:0:0:0:
64,192,238661,1,0,0:0:0:0:
448,192,238800,1,0,0:0:0:0:
64,192,238939,1,0,0:0:0:0:
448,192,239078,1,0,0:0:0:0:
64,192,239147,1,0,0:0:0:0:
448,192,239217,1,0,0:0:0:0:
192,192,239356,1,0,0:0:0:0:
64,192,239356,1,0,0:0:0:0:
448,192,239495,1,0,0:0:0:0:
64,192,239495,1,0,0:0:0:0:
192,192,239564,1,0,0:0:0:0:
320,192,239634,1,0,0:0:0:0:
448,192,239634,1,0,0:0:0:0:
64,192,239703,1,0,0:0:0:0:
448,192,239772,1,0,0:0:0:0:
192,192,239772,1,0,0:0:0:0:
320,192,239842,1,0,0:0:0:0:
64,192,239911,1,0,0:0:0:0:
192,192,239911,1,0,0:0:0:0:
448,192,239981,1,0,0:0:0:0:
64,192,240050,1,0,0:0:0:0:
192,192,240050,1,0,0:0:0:0:
448,192,240120,1,0,0:0:0:0:
320,192,240120,1,0,0:0:0:0:
448,192,240189,1,0,0:0:0:0:
64,192,240189,128,0,240328:0:0:0:0:
192,192,240189,128,0,240259:0:0:0:0:
192,192,240328,128,0,240467:0:0:0:0:
320,192,240328,128,0,240397:0:0:0:0:
448,192,240328,1,0,0:0:0:0:
64,192,240467,128,0,240606:0:0:0:0:
448,192,240467,128,0,240606:0:0:0:0:
320,192,240467,1,0,0:0:0:0:
192,192,240606,128,0,240675:0:0:0:0:
320,192,240606,128,0,240745:0:0:0:0:
192,192,240745,1,0,0:0:0:0:
448,192,240745,1,0,0:0:0:0:
64,192,240745,128,0,240884:0:0:0:0:
448,192,240884,128,0,241022:0:0:0:0:
192,192,240884,1,0,0:0:0:0:
320,192,240884,1,0,0:0:0:0:
320,192,241022,128,0,241231:0:0:0:0:
64,192,241022,1,0,0:0:0:0:
192,192,241092,128,0,241231:0:0:0:0:
448,192,241161,128,0,241300:0:0:0:0:
64,192,241231,128,0,241370:0:0:0:0:
192,192,241300,128,0,241370:0:0:0:0:
320,192,241300,128,0,241509:0:0:0:0:
64,192,241439,128,0,241647:0:0:0:0:
192,192,241439,128,0,241509:0:0:0:0:
448,192,241578,128,0,241647:0:0:0:0:
320,192,241578,128,0,241925:0:0:0:0:
64,192,241717,128,0,241995:0:0:0:0:
448,192,241717,128,0,241925:0:0:0:0:
192,192,241717,128,0,241925:0:0:0:0:
448,192,241995,128,0,242203:0:0:0:0:
192,192,241995,128,0,242064:0:0:0:0:
320,192,242134,128,0,242342:0:0:0:0:
64,192,242134,128,0,242203:0:0:0:0:
64,192,242272,128,0,242411:0:0:0:0:
192,192,242272,128,0,242342:0:0:0:0:
320,192,242411,128,0,242550:0:0:0:0:
448,192,242411,128,0,242481:0:0:0:0:
192,192,242481,128,0,242620:0:0:0:0:
64,192,242550,128,0,242689:0:0:0:0:
448,192,242550,128,0,242689:0:0:0:0:
192,192,242689,128,0,242828:0:0:0:0:
320,192,242689,128,0,242828:0:0:0:0:
64,192,242828,128,0,242897:0:0:0:0:
448,192,242828,128,0,242967:0:0:0:0:
64,192,242967,1,0,0:0:0:0:
320,192,242967,1,0,0:0:0:0:
192,192,242967,128,0,243106:0:0:0:0:
320,192,243106,128,0,243245:0:0:0:0:
448,192,243106,1,0,0:0:0:0:
64,192,243106,1,0,0:0:0:0:
64,192,243245,128,0,243453:0:0:0:0:
448,192,243245,1,0,0:0:0:0:
192,192,243314,128,0,243453:0:0:0:0:
448,192,243384,128,0,243522:0:0:0:0:
320,192,243453,128,0,243592:0:0:0:0:
64,192,243522,128,0,243731:0:0:0:0:
192,192,243522,128,0,243592:0:0:0:0:
320,192,243661,128,0,243731:0:0:0:0:
192,192,243661,128,0,243870:0:0:0:0:
448,192,243800,128,0,244147:0:0:0:0:
64,192,243800,128,0,243870:0:0:0:0:
320,192,243939,128,0,244217:0:0:0:0:
192,192,243939,128,0,244147:0:0:0:0:
64,192,243939,128,0,244147:0:0:0:0:
64,192,244217,128,0,244425:0:0:0:0:
448,192,244217,128,0,244286:0:0:0:0:
192,192,244356,128,0,244564:0:0:0:0:
320,192,244356,128,0,244425:0:0:0:0:
320,192,244495,128,0,244634:0:0:0:0:
64,192,244495,128,0,244564:0:0:0:0:
64,192,244634,128,0,244726:0:0:0:0:
448,192,244634,128,0,244726:0:0:0:0:
192,192,244680,128,0,244772:0:0:0:0:
320,192,244726,128,0,244819:0:0:0:0:
448,192,244772,128,0,244865:0:0:0:0:
192,192,244842,128,0,244911:0:0:0:0:
320,192,244911,128,0,245050:0:0:0:0:
448,192,244911,128,0,244981:0:0:0:0:
64,192,244911,1,0,0:0:0:0:
192,192,244981,128,0,245120:0:0:0:0:
64,192,245050,128,0,245120:0:0:0:0:
448,192,245050,1,0,0:0:0:0:
320,192,245120,128,0,245189:0:0:0:0:
64,192,245189,128,0,245328:0:0:0:0:
448,192,245189,1,0,0:0:0:0:
192,192,245189,1,0,0:0:0:0:
320,192,245328,128,0,245467:0:0:0:0:
192,192,245328,1,0,0:0:0:0:
448,192,245328,1,0,0:0:0:0:
192,192,245467,128,0,245675:0:0:0:0:
64,192,245467,1,0,0:0:0:0:
448,192,245536,128,0,245675:0:0:0:0:
320,192,245606,128,0,245745:0:0:0:0:
64,192,245675,128,0,245814:0:0:0:0:
448,192,245745,128,0,245953:0:0:0:0:
192,192,245745,128,0,245814:0:0:0:0:
64,192,245884,128,0,246092:0:0:0:0:
192,192,245884,128,0,246092:0:0:0:0:
320,192,246022,128,0,246231:0:0:0:0:
448,192,246022,128,0,246092:0:0:0:0:
64,192,246161,128,0,246370:0:0:0:0:
448,192,246161,128,0,246231:0:0:0:0:
192,192,246161,128,0,246231:0:0:0:0:
192,192,246300,1,0,0:0:0:0:
448,192,246300,1,0,0:0:0:0:
320,192,246300,1,0,0:0:0:0:
192,192,246439,1,0,0:0:0:0:
448,192,246439,128,0,246647:0:0:0:0:
64,192,246439,1,0,0:0:0:0:
320,192,246578,128,0,246786:0:0:0:0:
64,192,246578,128,0,246647:0:0:0:0:
192,192,246717,128,0,246856:0:0:0:0:
448,192,246717,128,0,246786:0:0:0:0:
64,192,246856,128,0,246995:0:0:0:0:
320,192,246856,128,0,246925:0:0:0:0:
448,192,246925,128,0,247064:0:0:0:0:
192,192,246995,128,0,247203:0:0:0:0:
320,192,246995,128,0,247064:0:0:0:0:
64,192,247134,128,0,247203:0:0:0:0:
448,192,247134,128,0,247342:0:0:0:0:
320,192,247134,128,0,247342:0:0:0:0:
192,192,247272,128,0,247342:0:0:0:0:
64,192,247272,128,0,247411:0:0:0:0:
448,192,247411,128,0,247550:0:0:0:0:
320,192,247411,1,0,0:0:0:0:
192,192,247411,1,0,0:0:0:0:
320,192,247550,128,0,247689:0:0:0:0:
64,192,247550,1,0,0:0:0:0:
192,192,247550,1,0,0:0:0:0:
64,192,247689,128,0,247897:0:0:0:0:
448,192,247689,128,0,247828:0:0:0:0:
192,192,247759,128,0,247897:0:0:0:0:
320,192,247828,128,0,247897:0:0:0:0:
448,192,247897,128,0,247967:0:0:0:0:
64,192,247967,128,0,248106:0:0:0:0:
192,192,247967,1,0,0:0:0:0:
320,192,247967,1,0,0:0:0:0:
192,192,248106,128,0,248245:0:0:0:0:
320,192,248106,1,0,0:0:0:0:
448,192,248106,1,0,0:0:0:0:
448,192,248245,128,0,248314:0:0:0:0:
64,192,248245,128,0,248384:0:0:0:0:
320,192,248314,128,0,248453:0:0:0:0:
192,192,248314,128,0,248453:0:0:0:0:
448,192,248384,128,0,248453:0:0:0:0:
64,192,248453,128,0,248522:0:0:0:0:
448,192,248522,1,0,0:0:0:0:
192,192,248522,1,0,0:0:0:0:
320,192,248522,128,0,248661:0:0:0:0:
64,192,248661,1,0,0:0:0:0:
448,192,248661,1,0,0:0:0:0:
192,192,248661,128,0,248800:0:0:0:0:
320,192,248731,1,0,0:0:0:0:
448,192,248800,1,0,0:0:0:0:
64,192,248800,1,0,0:0:0:0:
192,192,248870,1,0,0:0:0:0:
448,192,248939,128,0,249078:0:0:0:0:
320,192,248939,1,0,0:0:0:0:
64,192,248939,128,0,249009:0:0:0:0:
192,192,249009,128,0,249147:0:0:0:0:
320,192,249078,1,0,0:0:0:0:
64,192,249078,128,0,249147:0:0:0:0:
320,192,249217,128,0,249356:0:0:0:0:
448,192,249217,1,0,0:0:0:0:
192,192,249217,128,0,249425:0:0:0:0:
64,192,249356,1,0,0:0:0:0:
448,192,249356,128,0,249425:0:0:0:0:
320,192,249425,1,0,0:0:0:0:
448,192,249495,128,0,249634:0:0:0:0:
64,192,249495,128,0,249564:0:0:0:0:
192,192,249495,1,0,0:0:0:0:
320,192,249564,128,0,249634:0:0:0:0:
192,192,249634,1,0,0:0:0:0:
64,192,249634,1,0,0:0:0:0:
320,192,249772,1,0,0:0:0:0:
64,192,249911,1,0,0:0:0:0:
448,192,249911,1,0,0:0:0:0:
320,192,249981,1,0,0:0:0:0:
192,192,250050,1,0,0:0:0:0:
64,192,250120,1,0,0:0:0:0:
320,192,250189,1,0,0:0:0:0:
448,192,250189,1,0,0:0:0:0:
320,192,250328,1,0,0:0:0:0:
64,192,250467,1,0,0:0:0:0:
192,192,250467,1,0,0:0:0:0:
192,192,250606,1,0,0:0:0:0:
320,192,250606,1,0,0:0:0:0:
448,192,250745,1,0,0:0:0:0:
64,192,250745,1,0,0:0:0:0:
192,192,250884,1,0,0:0:0:0:
192,192,251022,1,0,0:0:0:0:
320,192,251022,1,0,0:0:0:0:
64,192,251161,1,0,0:0:0:0:
320,192,251161,1,0,0:0:0:0:
448,192,251300,1,0,0:0:0:0:
64,192,251300,1,0,0:0:0:0:
448,192,251439,1,0,0:0:0:0:
64,192,251578,1,0,0:0:0:0:
320,192,251578,1,0,0:0:0:0:
64,192,251717,1,0,0:0:0:0:
448,192,251717,1,0,0:0:0:0:
192,192,251856,1,0,0:0:0:0:
320,192,251856,1,0,0:0:0:0:
192,192,251995,1,0,0:0:0:0:
320,192,251995,1,0,0:0:0:0:
64,192,252134,1,0,0:0:0:0:
192,192,252134,1,0,0:0:0:0:
448,192,252134,1,0,0:0:0:0:
320,192,252203,1,0,0:0:0:0:
64,192,252272,1,0,0:0:0:0:
192,192,252272,1,0,0:0:0:0:
448,192,252342,1,0,0:0:0:0:
320,192,252411,1,0,0:0:0:0:
64,192,252411,1,0,0:0:0:0:
320,192,252550,1,0,0:0:0:0:
448,192,252550,1,0,0:0:0:0:
64,192,252689,1,0,0:0:0:0:
192,192,252689,1,0,0:0:0:0:
448,192,252689,1,0,0:0:0:0:
64,192,252828,1,0,0:0:0:0:
320,192,252828,1,0,0:0:0:0:
192,192,252967,1,0,0:0:0:0:
320,192,252967,1,0,0:0:0:0:
448,192,252967,1,0,0:0:0:0:
64,192,253036,1,0,0:0:0:0:
192,192,253106,1,0,0:0:0:0:
320,192,253175,1,0,0:0:0:0:
448,192,253175,1,0,0:0:0:0:
64,192,253175,1,0,0:0:0:0:
192,192,253245,1,0,0:0:0:0:
320,192,253314,1,0,0:0:0:0:
192,192,253384,1,0,0:0:0:0:
448,192,253384,1,0,0:0:0:0:
64,192,253384,1,0,0:0:0:0:
64,192,253522,1,0,0:0:0:0:
448,192,253522,1,0,0:0:0:0:
192,192,253557,1,0,0:0:0:0:
320,192,253592,1,0,0:0:0:0:
192,192,253661,1,0,0:0:0:0:
448,192,253731,1,0,0:0:0:0:
64,192,253731,1,0,0:0:0:0:
320,192,253800,1,0,0:0:0:0:
448,192,253800,1,0,0:0:0:0:
192,192,253939,1,0,0:0:0:0:
320,192,253939,1,0,0:0:0:0:
64,192,254078,1,0,0:0:0:0:
192,192,254078,1,0,0:0:0:0:
448,192,254078,1,0,0:0:0:0:
64,192,254217,1,0,0:0:0:0:
448,192,254217,1,0,0:0:0:0:
320,192,254217,1,0,0:0:0:0:
64,192,254356,1,0,0:0:0:0:
192,192,254356,1,0,0:0:0:0:
448,192,254356,1,0,0:0:0:0:
320,192,254425,1,0,0:0:0:0:
448,192,254495,1,0,0:0:0:0:
64,192,254495,1,0,0:0:0:0:
192,192,254564,1,0,0:0:0:0:
64,192,254634,1,0,0:0:0:0:
448,192,254634,1,0,0:0:0:0:
320,192,254634,1,0,0:0:0:0:
320,192,254772,1,0,0:0:0:0:
192,192,254772,1,0,0:0:0:0:
64,192,254772,1,0,0:0:0:0:
448,192,254911,1,0,0:0:0:0:
320,192,254911,1,0,0:0:0:0:
192,192,255050,1,0,0:0:0:0:
64,192,255050,1,0,0:0:0:0:
320,192,255120,1,0,0:0:0:0:
192,192,255189,1,0,0:0:0:0:
64,192,255189,1,0,0:0:0:0:
448,192,255189,1,0,0:0:0:0:
192,192,255328,1,0,0:0:0:0:
320,192,255328,1,0,0:0:0:0:
448,192,255328,1,0,0:0:0:0:
64,192,255467,1,0,0:0:0:0:
192,192,255467,1,0,0:0:0:0:
320,192,255467,1,0,0:0:0:0:
448,192,255606,1,0,0:0:0:0:
64,192,255606,1,0,0:0:0:0:
192,192,255606,1,0,0:0:0:0:
320,192,255675,1,0,0:0:0:0:
192,192,255745,1,0,0:0:0:0:
448,192,255745,1,0,0:0:0:0:
64,192,255745,1,0,0:0:0:0:
320,192,255884,1,0,0:0:0:0:
448,192,255884,1,0,0:0:0:0:
64,192,255884,1,0,0:0:0:0:
448,192,256022,1,0,0:0:0:0:
192,192,256022,1,0,0:0:0:0:
320,192,256092,1,0,0:0:0:0:
64,192,256161,1,0,0:0:0:0:
192,192,256161,1,0,0:0:0:0:
320,192,256231,1,0,0:0:0:0:
192,192,256300,1,0,0:0:0:0:
64,192,256300,1,0,0:0:0:0:
448,192,256300,1,0,0:0:0:0:
320,192,256370,1,0,0:0:0:0:
448,192,256439,1,0,0:0:0:0:
64,192,256439,1,0,0:0:0:0:
192,192,256509,1,0,0:0:0:0:
320,192,256578,1,0,0:0:0:0:
448,192,256578,1,0,0:0:0:0:
64,192,256647,1,0,0:0:0:0:
320,192,256717,1,0,0:0:0:0:
448,192,256717,1,0,0:0:0:0:
192,192,256786,1,0,0:0:0:0:
64,192,256856,1,0,0:0:0:0:
448,192,256856,1,0,0:0:0:0:
320,192,256890,1,0,0:0:0:0:
192,192,256925,1,0,0:0:0:0:
64,192,256960,1,0,0:0:0:0:
320,192,256995,1,0,0:0:0:0:
448,192,256995,1,0,0:0:0:0:
64,192,257064,1,0,0:0:0:0:
192,192,257064,1,0,0:0:0:0:
448,192,257134,1,0,0:0:0:0:
320,192,257134,1,0,0:0:0:0:
64,192,257203,1,0,0:0:0:0:
192,192,257272,1,0,0:0:0:0:
320,192,257272,1,0,0:0:0:0:
448,192,257342,1,0,0:0:0:0:
320,192,257411,1,0,0:0:0:0:
64,192,257411,128,0,257689:0:0:0:0:
192,192,257411,128,0,257481:0:0:0:0:
320,192,257550,128,0,257620:0:0:0:0:
448,192,257689,128,0,257759:0:0:0:0:
320,192,257828,128,0,258106:0:0:0:0:
192,192,257967,1,0,0:0:0:0:
448,192,257967,128,0,258175:0:0:0:0:
64,192,257967,128,0,258036:0:0:0:0:
192,192,258106,128,0,258314:0:0:0:0:
64,192,258106,128,0,258175:0:0:0:0:
448,192,258245,128,0,258453:0:0:0:0:
320,192,258245,128,0,258384:0:0:0:0:
64,192,258245,1,0,0:0:0:0:
64,192,258384,128,0,258522:0:0:0:0:
192,192,258384,1,0,0:0:0:0:
448,192,258522,1,0,0:0:0:0:
192,192,258522,128,0,258731:0:0:0:0:
320,192,258522,128,0,258661:0:0:0:0:
64,192,258661,1,0,0:0:0:0:
320,192,258731,1,0,0:0:0:0:
64,192,258800,128,0,259009:0:0:0:0:
192,192,258800,128,0,258939:0:0:0:0:
448,192,258800,1,0,0:0:0:0:
320,192,258870,128,0,259009:0:0:0:0:
448,192,258939,128,0,259078:0:0:0:0:
192,192,259078,128,0,259217:0:0:0:0:
320,192,259078,128,0,259286:0:0:0:0:
64,192,259078,1,0,0:0:0:0:
448,192,259217,1,0,0:0:0:0:
192,192,259286,1,0,0:0:0:0:
64,192,259356,128,0,259634:0:0:0:0:
448,192,259356,128,0,259495:0:0:0:0:
320,192,259356,1,0,0:0:0:0:
192,192,259495,128,0,259634:0:0:0:0:
320,192,259495,1,0,0:0:0:0:
320,192,259634,128,0,259772:0:0:0:0:
448,192,259634,128,0,259842:0:0:0:0:
192,192,259703,128,0,259842:0:0:0:0:
64,192,259772,128,0,259911:0:0:0:0:
192,192,259911,128,0,259981:0:0:0:0:
320,192,259911,128,0,260050:0:0:0:0:
448,192,259911,1,0,0:0:0:0:
64,192,260050,128,0,260189:0:0:0:0:
448,192,260050,128,0,260189:0:0:0:0:
192,192,260050,1,0,0:0:0:0:
320,192,260189,128,0,260397:0:0:0:0:
192,192,260189,128,0,260328:0:0:0:0:
448,192,260259,128,0,260397:0:0:0:0:
64,192,260328,128,0,260467:0:0:0:0:
320,192,260467,1,0,0:0:0:0:
192,192,260467,128,0,260536:0:0:0:0:
448,192,260467,1,0,0:0:0:0:
64,192,260606,1,0,0:0:0:0:
192,192,260606,1,0,0:0:0:0:
320,192,260606,128,0,260675:0:0:0:0:
64,192,260745,128,0,260953:0:0:0:0:
192,192,260745,128,0,260884:0:0:0:0:
448,192,260745,1,0,0:0:0:0:
320,192,260884,1,0,0:0:0:0:
448,192,260953,1,0,0:0:0:0:
192,192,261022,128,0,261161:0:0:0:0:
320,192,261022,128,0,261231:0:0:0:0:
64,192,261022,1,0,0:0:0:0:
448,192,261092,128,0,261300:0:0:0:0:
64,192,261161,128,0,261300:0:0:0:0:
192,192,261300,1,0,0:0:0:0:
320,192,261300,1,0,0:0:0:0:
64,192,261370,1,0,0:0:0:0:
320,192,261439,1,0,0:0:0:0:
448,192,261439,1,0,0:0:0:0:
64,192,261509,1,0,0:0:0:0:
192,192,261578,1,0,0:0:0:0:
320,192,261578,1,0,0:0:0:0:
448,192,261578,1,0,0:0:0:0:
320,192,261717,1,0,0:0:0:0:
64,192,261717,1,0,0:0:0:0:
448,192,261856,1,0,0:0:0:0:
64,192,261856,1,0,0:0:0:0:
320,192,261925,1,0,0:0:0:0:
192,192,261995,1,0,0:0:0:0:
64,192,261995,1,0,0:0:0:0:
448,192,262064,1,0,0:0:0:0:
64,192,262134,1,0,0:0:0:0:
320,192,262134,1,0,0:0:0:0:
192,192,262134,1,0,0:0:0:0:
448,192,262203,1,0,0:0:0:0:
192,192,262272,1,0,0:0:0:0:
320,192,262272,1,0,0:0:0:0:
64,192,262342,1,0,0:0:0:0:
448,192,262411,1,0,0:0:0:0:
320,192,262411,1,0,0:0:0:0:
192,192,262481,1,0,0:0:0:0:
64,192,262550,1,0,0:0:0:0:
448,192,262550,1,0,0:0:0:0:
320,192,262620,1,0,0:0:0:0:
448,192,262689,1,0,0:0:0:0:
64,192,262689,1,0,0:0:0:0:
192,192,262689,1,0,0:0:0:0:
320,192,262735,1,0,0:0:0:0:
192,192,262782,1,0,0:0:0:0:
448,192,262828,1,0,0:0:0:0:
64,192,262874,1,0,0:0:0:0:
192,192,262921,1,0,0:0:0:0:
320,192,262967,128,0,263106:0:0:0:0:
448,192,262967,128,0,263036:0:0:0:0:
192,192,263036,1,0,0:0:0:0:
64,192,263106,128,0,263245:0:0:0:0:
448,192,263106,1,0,0:0:0:0:
192,192,263175,128,0,263245:0:0:0:0:
320,192,263245,128,0,263314:0:0:0:0:
448,192,263245,128,0,263453:0:0:0:0:
192,192,263314,1,0,0:0:0:0:
320,192,263384,1,0,0:0:0:0:
64,192,263384,128,0,263453:0:0:0:0:
192,192,263453,1,0,0:0:0:0:
320,192,263522,128,0,263661:0:0:0:0:
448,192,263522,128,0,263592:0:0:0:0:
64,192,263522,1,0,0:0:0:0:
192,192,263661,128,0,263800:0:0:0:0:
448,192,263661,128,0,263731:0:0:0:0:
320,192,263731,1,0,0:0:0:0:
448,192,263800,128,0,263939:0:0:0:0:
64,192,263800,128,0,263870:0:0:0:0:
192,192,263870,128,0,264009:0:0:0:0:
320,192,263870,128,0,264009:0:0:0:0:
64,192,263939,128,0,264078:0:0:0:0:
448,192,264078,1,0,0:0:0:0:
192,192,264078,128,0,264286:0:0:0:0:
320,192,264078,128,0,264217:0:0:0:0:
64,192,264147,1,0,0:0:0:0:
448,192,264217,1,0,0:0:0:0:
64,192,264286,1,0,0:0:0:0:
320,192,264286,1,0,0:0:0:0:
448,192,264356,128,0,264495:0:0:0:0:
192,192,264356,1,0,0:0:0:0:
64,192,264425,128,0,264564:0:0:0:0:
320,192,264425,128,0,264564:0:0:0:0:
192,192,264495,128,0,264564:0:0:0:0:
448,192,264564,1,0,0:0:0:0:
64,192,264634,128,0,264842:0:0:0:0:
192,192,264634,128,0,264772:0:0:0:0:
320,192,264634,1,0,0:0:0:0:
320,192,264772,128,0,264842:0:0:0:0:
448,192,264772,128,0,264842:0:0:0:0:
192,192,264842,128,0,264911:0:0:0:0:
320,192,264911,128,0,265050:0:0:0:0:
448,192,264911,128,0,265120:0:0:0:0:
64,192,264911,1,0,0:0:0:0:
64,192,265050,128,0,265120:0:0:0:0:
192,192,265050,1,0,0:0:0:0:
320,192,265120,1,0,0:0:0:0:
192,192,265189,128,0,265328:0:0:0:0:
448,192,265189,128,0,265397:0:0:0:0:
64,192,265189,1,0,0:0:0:0:
320,192,265328,1,0,0:0:0:0:
64,192,265328,128,0,265467:0:0:0:0:
192,192,265397,128,0,265467:0:0:0:0:
320,192,265467,128,0,265606:0:0:0:0:
448,192,265467,128,0,265536:0:0:0:0:
192,192,265536,128,0,265675:0:0:0:0:
64,192,265606,128,0,265675:0:0:0:0:
448,192,265606,128,0,265745:0:0:0:0:
64,192,265745,128,0,266022:0:0:0:0:
192,192,265745,128,0,265953:0:0:0:0:
320,192,265745,128,0,265884:0:0:0:0:
448,192,265884,128,0,265953:0:0:0:0:
320,192,265953,128,0,266092:0:0:0:0:
192,192,266022,128,0,266092:0:0:0:0:
448,192,266022,128,0,266231:0:0:0:0:
64,192,266161,128,0,266231:0:0:0:0:
192,192,266161,128,0,266300:0:0:0:0:
320,192,266161,128,0,266231:0:0:0:0:
448,192,266300,1,0,0:0:0:0:
64,192,266300,1,0,0:0:0:0:
320,192,266300,1,0,0:0:0:0:
64,192,266439,1,0,0:0:0:0:
192,192,266439,1,0,0:0:0:0:
320,192,266439,1,0,0:0:0:0:
64,192,266717,1,0,0:0:0:0:
320,192,266717,1,0,0:0:0:0:
448,192,266717,1,0,0:0:0:0:
64,192,266995,1,0,0:0:0:0:
448,192,266995,1,0,0:0:0:0:
320,192,267064,1,0,0:0:0:0:
64,192,267134,1,0,0:0:0:0:
192,192,267134,1,0,0:0:0:0:
448,192,267134,1,0,0:0:0:0:
448,192,267272,1,0,0:0:0:0:
64,192,267272,1,0,0:0:0:0:
320,192,267411,128,0,267620:0:0:0:0:
192,192,267411,128,0,267550:0:0:0:0:
448,192,267411,128,0,267481:0:0:0:0:
64,192,267411,1,0,0:0:0:0:
448,192,267550,1,0,0:0:0:0:
192,192,267620,1,0,0:0:0:0:
448,192,267689,128,0,267897:0:0:0:0:
320,192,267689,128,0,267828:0:0:0:0:
64,192,267689,1,0,0:0:0:0:
192,192,267759,128,0,267897:0:0:0:0:
64,192,267828,128,0,267967:0:0:0:0:
192,192,267967,128,0,268106:0:0:0:0:
320,192,267967,128,0,268175:0:0:0:0:
448,192,267967,1,0,0:0:0:0:
64,192,268106,1,0,0:0:0:0:
192,192,268175,1,0,0:0:0:0:
448,192,268245,128,0,268522:0:0:0:0:
64,192,268245,128,0,268384:0:0:0:0:
320,192,268245,1,0,0:0:0:0:
320,192,268384,128,0,268522:0:0:0:0:
192,192,268384,1,0,0:0:0:0:
64,192,268522,128,0,268661:0:0:0:0:
192,192,268522,128,0,268731:0:0:0:0:
448,192,268592,128,0,268731:0:0:0:0:
320,192,268661,128,0,268800:0:0:0:0:
192,192,268800,128,0,268870:0:0:0:0:
64,192,268800,128,0,268939:0:0:0:0:
448,192,268800,1,0,0:0:0:0:
320,192,268939,128,0,269078:0:0:0:0:
448,192,268939,128,0,269078:0:0:0:0:
192,192,268939,1,0,0:0:0:0:
64,192,269078,128,0,269286:0:0:0:0:
192,192,269078,128,0,269217:0:0:0:0:
320,192,269147,128,0,269286:0:0:0:0:
448,192,269217,128,0,269286:0:0:0:0:
192,192,269286,1,0,0:0:0:0:
320,192,269356,1,0,0:0:0:0:
448,192,269356,128,0,269425:0:0:0:0:
64,192,269356,1,0,0:0:0:0:
64,192,269495,1,0,0:0:0:0:
192,192,269495,1,0,0:0:0:0:
320,192,269495,128,0,269564:0:0:0:0:
192,192,269634,1,0,0:0:0:0:
320,192,269634,1,0,0:0:0:0:
448,192,269634,1,0,0:0:0:0:
64,192,269703,1,0,0:0:0:0:
320,192,269772,1,0,0:0:0:0:
192,192,269842,1,0,0:0:0:0:
448,192,269911,1,0,0:0:0:0:
64,192,269911,1,0,0:0:0:0:
192,192,269981,1,0,0:0:0:0:
320,192,270050,1,0,0:0:0:0:
448,192,270050,1,0,0:0:0:0:
64,192,270120,1,0,0:0:0:0:
192,192,270189,1,0,0:0:0:0:
320,192,270189,1,0,0:0:0:0:
64,192,270259,1,0,0:0:0:0:
448,192,270259,1,0,0:0:0:0:
320,192,270328,1,0,0:0:0:0:
192,192,270328,1,0,0:0:0:0:
448,192,270397,1,0,0:0:0:0:
320,192,270467,1,0,0:0:0:0:
192,192,270467,1,0,0:0:0:0:
64,192,270467,1,0,0:0:0:0:
448,192,270536,1,0,0:0:0:0:
64,192,270606,1,0,0:0:0:0:
192,192,270606,1,0,0:0:0:0:
320,192,270675,1,0,0:0:0:0:
448,192,270745,1,0,0:0:0:0:
64,192,270745,1,0,0:0:0:0:
192,192,270745,1,0,0:0:0:0:
320,192,270814,1,0,0:0:0:0:
64,192,270884,1,0,0:0:0:0:
192,192,270884,1,0,0:0:0:0:
448,192,270953,1,0,0:0:0:0:
64,192,270953,1,0,0:0:0:0:
320,192,270953,1,0,0:0:0:0:
192,192,271022,1,0,0:0:0:0:
320,192,271092,1,0,0:0:0:0:
448,192,271161,1,0,0:0:0:0:
64,192,271161,1,0,0:0:0:0:
192,192,271161,1,0,0:0:0:0:
320,192,271300,1,0,0:0:0:0:
448,192,271300,1,0,0:0:0:0:
64,192,271300,1,0,0:0:0:0:
192,192,271370,1,0,0:0:0:0:
64,192,271439,1,0,0:0:0:0:
448,192,271439,1,0,0:0:0:0:
320,192,271509,1,0,0:0:0:0:
192,192,271578,1,0,0:0:0:0:
64,192,271578,1,0,0:0:0:0:
320,192,271647,1,0,0:0:0:0:
448,192,271647,1,0,0:0:0:0:
192,192,271717,1,0,0:0:0:0:
64,192,271717,1,0,0:0:0:0:
448,192,271786,1,0,0:0:0:0:
320,192,271786,1,0,0:0:0:0:
448,192,271856,1,0,0:0:0:0:
192,192,271856,128,0,271995:0:0:0:0:
64,192,271856,128,0,271925:0:0:0:0:
320,192,271925,128,0,272064:0:0:0:0:
64,192,271995,1,0,0:0:0:0:
448,192,271995,128,0,272064:0:0:0:0:
192,192,272064,1,0,0:0:0:0:
448,192,272134,128,0,272203:0:0:0:0:
64,192,272134,1,0,0:0:0:0:
320,192,272134,128,0,272272:0:0:0:0:
192,192,272203,128,0,272342:0:0:0:0:
448,192,272272,1,0,0:0:0:0:
64,192,272272,128,0,272342:0:0:0:0:
320,192,272342,128,0,272411:0:0:0:0:
64,192,272411,128,0,272550:0:0:0:0:
192,192,272411,128,0,272481:0:0:0:0:
448,192,272481,1,0,0:0:0:0:
192,192,272550,128,0,272689:0:0:0:0:
320,192,272550,128,0,272620:0:0:0:0:
64,192,272620,1,0,0:0:0:0:
320,192,272689,128,0,272759:0:0:0:0:
448,192,272689,128,0,272828:0:0:0:0:
64,192,272828,128,0,272897:0:0:0:0:
320,192,272828,128,0,272967:0:0:0:0:
192,192,272828,1,0,0:0:0:0:
64,192,272967,128,0,273175:0:0:0:0:
192,192,272967,128,0,273106:0:0:0:0:
448,192,272967,128,0,273036:0:0:0:0:
320,192,273036,1,0,0:0:0:0:
448,192,273106,1,0,0:0:0:0:
320,192,273175,1,0,0:0:0:0:
64,192,273245,1,0,0:0:0:0:
192,192,273245,128,0,273384:0:0:0:0:
448,192,273245,128,0,273453:0:0:0:0:
320,192,273314,128,0,273453:0:0:0:0:
64,192,273384,128,0,273522:0:0:0:0:
192,192,273453,128,0,273522:0:0:0:0:
320,192,273522,128,0,273661:0:0:0:0:
448,192,273522,128,0,273661:0:0:0:0:
192,192,273661,128,0,273731:0:0:0:0:
64,192,273661,128,0,273870:0:0:0:0:
448,192,273731,128,0,273939:0:0:0:0:
320,192,273731,128,0,273870:0:0:0:0:
192,192,273800,1,0,0:0:0:0:
64,192,273939,1,0,0:0:0:0:
320,192,273939,1,0,0:0:0:0:
192,192,274009,1,0,0:0:0:0:
64,192,274078,128,0,274217:0:0:0:0:
320,192,274078,128,0,274147:0:0:0:0:
448,192,274078,128,0,274286:0:0:0:0:
192,192,274147,1,0,0:0:0:0:
320,192,274217,1,0,0:0:0:0:
64,192,274286,1,0,0:0:0:0:
192,192,274356,128,0,274425:0:0:0:0:
320,192,274356,128,0,274495:0:0:0:0:
448,192,274356,1,0,0:0:0:0:
64,192,274425,128,0,274564:0:0:0:0:
192,192,274495,128,0,274564:0:0:0:0:
448,192,274495,128,0,274634:0:0:0:0:
320,192,274634,128,0,274842:0:0:0:0:
192,192,274634,128,0,274772:0:0:0:0:
64,192,274634,128,0,274703:0:0:0:0:
448,192,274703,128,0,274842:0:0:0:0:
64,192,274772,128,0,274842:0:0:0:0:
192,192,274842,1,0,0:0:0:0:
64,192,274911,128,0,275120:0:0:0:0:
448,192,274911,128,0,275050:0:0:0:0:
320,192,274911,128,0,274981:0:0:0:0:
192,192,274981,128,0,275050:0:0:0:0:
320,192,275050,128,0,275120:0:0:0:0:
448,192,275120,128,0,275189:0:0:0:0:
320,192,275189,1,0,0:0:0:0:
64,192,275189,1,0,0:0:0:0:
192,192,275189,1,0,0:0:0:0:
448,192,275259,1,0,0:0:0:0:
64,192,275328,1,0,0:0:0:0:
320,192,275328,1,0,0:0:0:0:
192,192,275397,1,0,0:0:0:0:
320,192,275467,1,0,0:0:0:0:
448,192,275467,1,0,0:0:0:0:
64,192,275502,1,0,0:0:0:0:
192,192,275536,1,0,0:0:0:0:
320,192,275571,1,0,0:0:0:0:
448,192,275606,1,0,0:0:0:0:
192,192,275675,1,0,0:0:0:0:
64,192,275675,1,0,0:0:0:0:
448,192,275745,1,0,0:0:0:0:
320,192,275745,1,0,0:0:0:0:
192,192,275814,1,0,0:0:0:0:
64,192,275884,1,0,0:0:0:0:
448,192,275884,1,0,0:0:0:0:
192,192,275953,1,0,0:0:0:0:
320,192,275953,1,0,0:0:0:0:
64,192,276022,1,0,0:0:0:0:
448,192,276022,1,0,0:0:0:0:
320,192,276092,1,0,0:0:0:0:
192,192,276161,1,0,0:0:0:0:
64,192,276161,1,0,0:0:0:0:
320,192,276231,1,0,0:0:0:0:
64,192,276300,1,0,0:0:0:0:
192,192,276300,1,0,0:0:0:0:
448,192,276300,1,0,0:0:0:0:
320,192,276346,1,0,0:0:0:0:
192,192,276393,1,0,0:0:0:0:
448,192,276439,1,0,0:0:0:0:
64,192,276485,1,0,0:0:0:0:
320,192,276532,1,0,0:0:0:0:
192,192,276578,1,0,0:0:0:0:
448,192,276578,1,0,0:0:0:0:
64,192,276624,1,0,0:0:0:0:
320,192,276671,1,0,0:0:0:0:
448,192,276717,1,0,0:0:0:0:
64,192,276763,1,0,0:0:0:0:
192,192,276809,1,0,0:0:0:0:
320,192,276856,1,0,0:0:0:0:
448,192,276856,128,0,277041:0:0:0:0:
64,192,276948,128,0,277134:0:0:0:0:
320,192,277041,128,0,277134:0:0:0:0:
192,192,277134,128,0,277272:0:0:0:0:
448,192,277134,128,0,277342:0:0:0:0:
320,192,277203,128,0,277272:0:0:0:0:
64,192,277272,128,0,277342:0:0:0:0:
320,192,277342,128,0,277434:0:0:0:0:
192,192,277365,128,0,277458:0:0:0:0:
64,192,277411,128,0,277550:0:0:0:0:
448,192,277411,128,0,277620:0:0:0:0:
320,192,277481,128,0,277550:0:0:0:0:
192,192,277550,128,0,277620:0:0:0:0:
64,192,277620,128,0,277689:0:0:0:0:
320,192,277689,128,0,277759:0:0:0:0:
192,192,277689,1,0,0:0:0:0:
448,192,277689,1,0,0:0:0:0:
192,192,277828,128,0,277897:0:0:0:0:
64,192,277828,1,0,0:0:0:0:
320,192,277828,1,0,0:0:0:0:
64,192,277967,128,0,278175:0:0:0:0:
320,192,277967,128,0,278036:0:0:0:0:
448,192,277967,128,0,278175:0:0:0:0:
192,192,278106,128,0,278314:0:0:0:0:
320,192,278106,128,0,278314:0:0:0:0:
64,192,278245,128,0,278314:0:0:0:0:
448,192,278245,128,0,278384:0:0:0:0:
64,192,278384,128,0,278522:0:0:0:0:
320,192,278384,128,0,278453:0:0:0:0:
192,192,278384,1,0,0:0:0:0:
192,192,278522,128,0,278731:0:0:0:0:
448,192,278522,128,0,278661:0:0:0:0:
320,192,278522,128,0,278592:0:0:0:0:
64,192,278592,1,0,0:0:0:0:
320,192,278661,1,0,0:0:0:0:
64,192,278731,128,0,278800:0:0:0:0:
448,192,278731,128,0,278800:0:0:0:0:
192,192,278800,128,0,278870:0:0:0:0:
320,192,278800,128,0,278939:0:0:0:0:
64,192,278870,128,0,279009:0:0:0:0:
448,192,278939,128,0,279078:0:0:0:0:
320,192,279009,1,0,0:0:0:0:
64,192,279078,128,0,279286:0:0:0:0:
192,192,279078,128,0,279147:0:0:0:0:
448,192,279147,128,0,279217:0:0:0:0:
320,192,279217,128,0,279356:0:0:0:0:
192,192,279217,1,0,0:0:0:0:
64,192,279356,128,0,279495:0:0:0:0:
192,192,279356,128,0,279425:0:0:0:0:
448,192,279356,1,0,0:0:0:0:
320,192,279425,1,0,0:0:0:0:
448,192,279495,128,0,279564:0:0:0:0:
192,192,279495,128,0,279634:0:0:0:0:
64,192,279564,1,0,0:0:0:0:
320,192,279634,128,0,279703:0:0:0:0:
448,192,279634,128,0,279772:0:0:0:0:
64,192,279772,128,0,279911:0:0:0:0:
320,192,279772,128,0,279842:0:0:0:0:
448,192,279911,128,0,280096:0:0:0:0:
192,192,279911,128,0,279981:0:0:0:0:
320,192,279911,128,0,280050:0:0:0:0:
64,192,280050,1,0,0:0:0:0:
192,192,280096,1,0,0:0:0:0:
320,192,280143,1,0,0:0:0:0:
448,192,280189,1,0,0:0:0:0:
192,192,280189,128,0,280259:0:0:0:0:
64,192,280189,1,0,0:0:0:0:
320,192,280259,1,0,0:0:0:0:
192,192,280328,1,0,0:0:0:0:
64,192,280397,1,0,0:0:0:0:
320,192,280467,128,0,280536:0:0:0:0:
448,192,280467,128,0,280606:0:0:0:0:
192,192,280467,1,0,0:0:0:0:
64,192,280536,1,0,0:0:0:0:
320,192,280606,1,0,0:0:0:0:
192,192,280675,1,0,0:0:0:0:
64,192,280745,1,0,0:0:0:0:
320,192,280745,1,0,0:0:0:0:
448,192,280745,1,0,0:0:0:0:
192,192,280791,1,0,0:0:0:0:
320,192,280837,1,0,0:0:0:0:
64,192,280884,1,0,0:0:0:0:
448,192,280930,1,0,0:0:0:0:
192,192,280976,1,0,0:0:0:0:
64,192,281022,1,0,0:0:0:0:
320,192,281022,1,0,0:0:0:0:
448,192,281069,1,0,0:0:0:0:
192,192,281115,1,0,0:0:0:0:
320,192,281161,1,0,0:0:0:0:
64,192,281208,1,0,0:0:0:0:
448,192,281254,1,0,0:0:0:0:
192,192,281300,128,0,281370:0:0:0:0:
320,192,281300,128,0,281439:0:0:0:0:
448,192,281370,1,0,0:0:0:0:
64,192,281439,128,0,281509:0:0:0:0:
192,192,281439,128,0,281578:0:0:0:0:
320,192,281509,1,0,0:0:0:0:
64,192,281578,128,0,281717:0:0:0:0:
448,192,281578,128,0,281647:0:0:0:0:
192,192,281647,1,0,0:0:0:0:
320,192,281717,128,0,281856:0:0:0:0:
448,192,281717,128,0,281925:0:0:0:0:
64,192,281856,1,0,0:0:0:0:
192,192,281856,1,0,0:0:0:0:
320,192,281925,1,0,0:0:0:0:
64,192,281995,128,0,282203:0:0:0:0:
192,192,281995,128,0,282134:0:0:0:0:
448,192,281995,128,0,282134:0:0:0:0:
320,192,282134,1,0,0:0:0:0:
192,192,282203,1,0,0:0:0:0:
448,192,282272,128,0,282411:0:0:0:0:
320,192,282272,128,0,282481:0:0:0:0:
64,192,282272,128,0,282481:0:0:0:0:
192,192,282411,1,0,0:0:0:0:
448,192,282481,1,0,0:0:0:0:
64,192,282550,1,0,0:0:0:0:
192,192,282596,1,0,0:0:0:0:
320,192,282643,1,0,0:0:0:0:
192,192,282689,128,0,282897:0:0:0:0:
448,192,282689,128,0,282828:0:0:0:0:
64,192,282724,128,0,282897:0:0:0:0:
320,192,282828,1,0,0:0:0:0:
64,192,282967,128,0,283175:0:0:0:0:
192,192,282967,128,0,283106:0:0:0:0:
448,192,282967,128,0,283036:0:0:0:0:
320,192,283036,128,0,283175:0:0:0:0:
448,192,283106,1,0,0:0:0:0:
192,192,283175,1,0,0:0:0:0:
320,192,283245,128,0,283453:0:0:0:0:
64,192,283245,128,0,283384:0:0:0:0:
448,192,283279,128,0,283453:0:0:0:0:
192,192,283384,1,0,0:0:0:0:
448,192,283522,128,0,283731:0:0:0:0:
320,192,283522,128,0,283661:0:0:0:0:
64,192,283522,128,0,283592:0:0:0:0:
192,192,283592,128,0,283731:0:0:0:0:
64,192,283661,1,0,0:0:0:0:
320,192,283731,1,0,0:0:0:0:
448,192,283800,128,0,284009:0:0:0:0:
64,192,283800,128,0,283939:0:0:0:0:
192,192,283800,1,0,0:0:0:0:
320,192,283939,1,0,0:0:0:0:
192,192,283939,1,0,0:0:0:0:
64,192,284009,1,0,0:0:0:0:
320,192,284078,128,0,284147:0:0:0:0:
448,192,284078,128,0,284217:0:0:0:0:
192,192,284147,1,0,0:0:0:0:
320,192,284217,1,0,0:0:0:0:
64,192,284217,1,0,0:0:0:0:
192,192,284286,1,0,0:0:0:0:
64,192,284356,128,0,284495:0:0:0:0:
448,192,284356,128,0,284425:0:0:0:0:
320,192,284425,1,0,0:0:0:0:
192,192,284495,1,0,0:0:0:0:
448,192,284495,1,0,0:0:0:0:
64,192,284564,1,0,0:0:0:0:
448,192,284634,128,0,284772:0:0:0:0:
320,192,284634,128,0,284772:0:0:0:0:
192,192,284772,128,0,284911:0:0:0:0:
64,192,284772,128,0,284911:0:0:0:0:
320,192,284911,1,0,0:0:0:0:
448,192,284911,1,0,0:0:0:0:
64,192,284981,1,0,0:0:0:0:
192,192,284981,1,0,0:0:0:0:
320,192,285050,1,0,0:0:0:0:
448,192,285050,1,0,0:0:0:0:
192,192,285120,1,0,0:0:0:0:
64,192,285189,1,0,0:0:0:0:
320,192,285189,1,0,0:0:0:0:
448,192,285189,1,0,0:0:0:0:
192,192,285235,1,0,0:0:0:0:
448,192,285282,1,0,0:0:0:0:
64,192,285328,1,0,0:0:0:0:
320,192,285374,1,0,0:0:0:0:
448,192,285421,1,0,0:0:0:0:
192,192,285467,1,0,0:0:0:0:
64,192,285467,1,0,0:0:0:0:
320,192,285513,1,0,0:0:0:0:
448,192,285559,1,0,0:0:0:0:
64,192,285606,1,0,0:0:0:0:
192,192,285652,1,0,0:0:0:0:
320,192,285698,1,0,0:0:0:0:
64,192,285745,128,0,285930:0:0:0:0:
448,192,285745,128,0,285837:0:0:0:0:
192,192,285837,128,0,285930:0:0:0:0:
320,192,285837,128,0,285930:0:0:0:0:
448,192,285930,128,0,286022:0:0:0:0:
192,192,286022,128,0,286161:0:0:0:0:
64,192,286022,128,0,286231:0:0:0:0:
320,192,286092,128,0,286161:0:0:0:0:
448,192,286161,128,0,286231:0:0:0:0:
192,192,286231,128,0,286323:0:0:0:0:
320,192,286254,128,0,286346:0:0:0:0:
64,192,286300,128,0,286439:0:0:0:0:
448,192,286300,128,0,286509:0:0:0:0:
192,192,286370,128,0,286439:0:0:0:0:
320,192,286439,128,0,286509:0:0:0:0:
64,192,286509,128,0,286578:0:0:0:0:
448,192,286578,128,0,286647:0:0:0:0:
192,192,286578,128,0,286786:0:0:0:0:
320,192,286578,128,0,286647:0:0:0:0:
320,192,286717,128,0,286925:0:0:0:0:
64,192,286717,128,0,286786:0:0:0:0:
64,192,286856,128,0,287064:0:0:0:0:
448,192,286856,128,0,286925:0:0:0:0:
192,192,286856,128,0,287064:0:0:0:0:
448,192,286995,128,0,287203:0:0:0:0:
320,192,286995,128,0,287064:0:0:0:0:
64,192,287134,128,0,287203:0:0:0:0:
192,192,287134,128,0,287203:0:0:0:0:
320,192,287134,128,0,287342:0:0:0:0:
64,192,287272,128,0,287481:0:0:0:0:
192,192,287272,128,0,287342:0:0:0:0:
448,192,287272,128,0,287342:0:0:0:0:
192,192,287411,128,0,287620:0:0:0:0:
448,192,287411,128,0,287550:0:0:0:0:
320,192,287411,128,0,287481:0:0:0:0:
320,192,287550,128,0,287620:0:0:0:0:
64,192,287620,128,0,287689:0:0:0:0:
192,192,287689,128,0,287759:0:0:0:0:
320,192,287689,128,0,287828:0:0:0:0:
448,192,287689,1,0,0:0:0:0:
64,192,287759,128,0,287897:0:0:0:0:
448,192,287828,128,0,287897:0:0:0:0:
192,192,287828,1,0,0:0:0:0:
320,192,287897,1,0,0:0:0:0:
64,192,287967,128,0,288175:0:0:0:0:
192,192,287967,128,0,288036:0:0:0:0:
448,192,287967,128,0,288036:0:0:0:0:
320,192,288036,128,0,288175:0:0:0:0:
448,192,288106,128,0,288245:0:0:0:0:
64,192,288245,128,0,288384:0:0:0:0:
192,192,288245,128,0,288314:0:0:0:0:
320,192,288245,1,0,0:0:0:0:
448,192,288314,1,0,0:0:0:0:
192,192,288384,128,0,288522:0:0:0:0:
320,192,288384,128,0,288453:0:0:0:0:
320,192,288522,128,0,288661:0:0:0:0:
448,192,288522,128,0,288592:0:0:0:0:
64,192,288522,1,0,0:0:0:0:
64,192,288661,128,0,288731:0:0:0:0:
448,192,288661,1,0,0:0:0:0:
192,192,288731,128,0,288800:0:0:0:0:
320,192,288800,128,0,288870:0:0:0:0:
64,192,288800,128,0,288939:0:0:0:0:
448,192,288800,1,0,0:0:0:0:
192,192,288870,1,0,0:0:0:0:
448,192,288939,1,0,0:0:0:0:
320,192,288939,1,0,0:0:0:0:
64,192,289009,1,0,0:0:0:0:
192,192,289009,1,0,0:0:0:0:
192,192,289078,1,0,0:0:0:0:
320,192,289078,128,0,289217:0:0:0:0:
448,192,289078,128,0,289147:0:0:0:0:
64,192,289147,1,0,0:0:0:0:
448,192,289217,1,0,0:0:0:0:
192,192,289217,1,0,0:0:0:0:
320,192,289286,1,0,0:0:0:0:
64,192,289356,1,0,0:0:0:0:
192,192,289356,1,0,0:0:0:0:
448,192,289425,1,0,0:0:0:0:
320,192,289425,1,0,0:0:0:0:
64,192,289495,1,0,0:0:0:0:
192,192,289495,1,0,0:0:0:0:
320,192,289564,1,0,0:0:0:0:
448,192,289564,1,0,0:0:0:0:
64,192,289634,1,0,0:0:0:0:
448,192,289634,1,0,0:0:0:0:
192,192,289634,1,0,0:0:0:0:
320,192,289680,1,0,0:0:0:0:
192,192,289726,1,0,0:0:0:0:
448,192,289772,1,0,0:0:0:0:
320,192,289819,1,0,0:0:0:0:
64,192,289865,1,0,0:0:0:0:
192,192,289911,1,0,0:0:0:0:
320,192,289958,1,0,0:0:0:0:
64,192,290004,1,0,0:0:0:0:
448,192,290050,1,0,0:0:0:0:
320,192,290096,1,0,0:0:0:0:
192,192,290143,1,0,0:0:0:0:
64,192,290189,128,0,290397:0:0:0:0:
320,192,290189,128,0,290328:0:0:0:0:
448,192,290189,128,0,290259:0:0:0:0:
192,192,290259,128,0,290397:0:0:0:0:
448,192,290328,1,0,0:0:0:0:
320,192,290397,128,0,290536:0:0:0:0:
448,192,290467,128,0,290536:0:0:0:0:
192,192,290467,128,0,290675:0:0:0:0:
64,192,290467,128,0,290606:0:0:0:0:
448,192,290606,128,0,290745:0:0:0:0:
320,192,290640,128,0,290745:0:0:0:0:
192,192,290745,128,0,290814:0:0:0:0:
64,192,290745,128,0,290884:0:0:0:0:
320,192,290814,1,0,0:0:0:0:
448,192,290884,1,0,0:0:0:0:
320,192,290930,1,0,0:0:0:0:
192,192,290976,1,0,0:0:0:0:
448,192,291022,128,0,291161:0:0:0:0:
64,192,291022,128,0,291092:0:0:0:0:
320,192,291092,1,0,0:0:0:0:
64,192,291161,1,0,0:0:0:0:
192,192,291161,128,0,291370:0:0:0:0:
448,192,291300,1,0,0:0:0:0:
64,192,291300,128,0,291509:0:0:0:0:
320,192,291300,128,0,291439:0:0:0:0:
192,192,291439,128,0,291509:0:0:0:0:
448,192,291439,128,0,291509:0:0:0:0:
320,192,291509,1,0,0:0:0:0:
64,192,291578,128,0,291647:0:0:0:0:
192,192,291578,128,0,291717:0:0:0:0:
448,192,291578,1,0,0:0:0:0:
64,192,291717,128,0,291856:0:0:0:0:
448,192,291717,128,0,291786:0:0:0:0:
192,192,291856,128,0,291995:0:0:0:0:
320,192,291856,128,0,291925:0:0:0:0:
448,192,291856,1,0,0:0:0:0:
320,192,291995,128,0,292134:0:0:0:0:
448,192,291995,128,0,292064:0:0:0:0:
64,192,291995,1,0,0:0:0:0:
192,192,292134,128,0,292342:0:0:0:0:
448,192,292134,1,0,0:0:0:0:
64,192,292134,128,0,292342:0:0:0:0:
448,192,292272,128,0,292411:0:0:0:0:
320,192,292272,128,0,292342:0:0:0:0:
64,192,292411,128,0,292481:0:0:0:0:
192,192,292411,128,0,292550:0:0:0:0:
320,192,292411,128,0,292620:0:0:0:0:
448,192,292550,128,0,292620:0:0:0:0:
64,192,292550,128,0,292620:0:0:0:0:
192,192,292620,128,0,292689:0:0:0:0:
320,192,292689,128,0,292828:0:0:0:0:
448,192,292689,128,0,292897:0:0:0:0:
64,192,292689,1,0,0:0:0:0:
64,192,292828,128,0,292897:0:0:0:0:
192,192,292828,128,0,292897:0:0:0:0:
320,192,292897,128,0,292967:0:0:0:0:
64,192,292967,1,0,0:0:0:0:
448,192,292967,1,0,0:0:0:0:
192,192,293002,1,0,0:0:0:0:
320,192,293036,1,0,0:0:0:0:
448,192,293071,1,0,0:0:0:0:
64,192,293106,1,0,0:0:0:0:
320,192,293175,1,0,0:0:0:0:
192,192,293245,1,0,0:0:0:0:
64,192,293245,1,0,0:0:0:0:
448,192,293314,1,0,0:0:0:0:
320,192,293384,1,0,0:0:0:0:
192,192,293384,1,0,0:0:0:0:
64,192,293453,1,0,0:0:0:0:
448,192,293522,128,0,293661:0:0:0:0:
320,192,293522,128,0,293592:0:0:0:0:
192,192,293522,1,0,0:0:0:0:
64,192,293592,1,0,0:0:0:0:
192,192,293661,128,0,293731:0:0:0:0:
320,192,293661,128,0,293800:0:0:0:0:
448,192,293731,1,0,0:0:0:0:
64,192,293800,128,0,293870:0:0:0:0:
192,192,293800,128,0,293939:0:0:0:0:
448,192,293870,1,0,0:0:0:0:
64,192,293939,128,0,294078:0:0:0:0:
320,192,293939,128,0,294009:0:0:0:0:
448,192,294009,1,0,0:0:0:0:
192,192,294078,128,0,296022:0:0:0:0:
320,192,294078,1,0,0:0:0:0:
448,192,294217,1,0,0:0:0:0:
64,192,294356,1,0,0:0:0:0:
320,192,294356,1,0,0:0:0:0:
448,192,294495,1,0,0:0:0:0:
448,192,294634,1,0,0:0:0:0:
320,192,294634,1,0,0:0:0:0:
64,192,294772,1,0,0:0:0:0:
320,192,294911,1,0,0:0:0:0:
448,192,294911,1,0,0:0:0:0:
64,192,295050,1,0,0:0:0:0:
448,192,295189,1,0,0:0:0:0:
64,192,295189,1,0,0:0:0:0:
320,192,295328,1,0,0:0:0:0:
64,192,295467,1,0,0:0:0:0:
448,192,295467,1,0,0:0:0:0:
320,192,295606,1,0,0:0:0:0:
64,192,295745,1,0,0:0:0:0:
320,192,295745,1,0,0:0:0:0:
448,192,295884,1,0,0:0:0:0:
448,192,296022,1,0,0:0:0:0:
320,192,296022,1,0,0:0:0:0:
64,192,296022,1,0,0:0:0:0:
192,192,296161,1,0,0:0:0:0:
64,192,296300,1,0,0:0:0:0:
320,192,296300,1,0,0:0:0:0:
448,192,296300,1,0,0:0:0:0:
64,192,296439,1,0,0:0:0:0:
192,192,296578,1,0,0:0:0:0:
320,192,296578,1,0,0:0:0:0:
448,192,296578,1,0,0:0:0:0:
448,192,296717,1,0,0:0:0:0:
320,192,296717,1,0,0:0:0:0:
64,192,296856,1,0,0:0:0:0:
192,192,296856,1,0,0:0:0:0:
320,192,296856,1,0,0:0:0:0:
192,192,296995,1,0,0:0:0:0:
320,192,297134,1,0,0:0:0:0:
448,192,297134,1,0,0:0:0:0:
64,192,297134,1,0,0:0:0:0:
64,192,297272,1,0,0:0:0:0:
192,192,297272,1,0,0:0:0:0:
320,192,297272,1,0,0:0:0:0:
64,192,297411,1,0,0:0:0:0:
192,192,297411,1,0,0:0:0:0:
448,192,297411,1,0,0:0:0:0:
320,192,297481,1,0,0:0:0:0:
192,192,297550,1,0,0:0:0:0:
320,192,297620,1,0,0:0:0:0:
448,192,297620,1,0,0:0:0:0:
64,192,297620,1,0,0:0:0:0:
192,192,297689,1,0,0:0:0:0:
448,192,297759,1,0,0:0:0:0:
320,192,297828,1,0,0:0:0:0:
64,192,297828,1,0,0:0:0:0:
192,192,297828,1,0,0:0:0:0:
64,192,297967,1,0,0:0:0:0:
448,192,297967,1,0,0:0:0:0:
320,192,298002,1,0,0:0:0:0:
192,192,298036,1,0,0:0:0:0:
320,192,298106,1,0,0:0:0:0:
448,192,298175,1,0,0:0:0:0:
64,192,298175,1,0,0:0:0:0:
64,192,298245,1,0,0:0:0:0:
192,192,298245,1,0,0:0:0:0:
192,192,298384,1,0,0:0:0:0:
320,192,298384,1,0,0:0:0:0:
64,192,298522,1,0,0:0:0:0:
192,192,298522,1,0,0:0:0:0:
448,192,298522,1,0,0:0:0:0:
448,192,298661,1,0,0:0:0:0:
64,192,298661,1,0,0:0:0:0:
320,192,298661,1,0,0:0:0:0:
448,192,298800,1,0,0:0:0:0:
192,192,298800,1,0,0:0:0:0:
320,192,298800,1,0,0:0:0:0:
448,192,298939,1,0,0:0:0:0:
64,192,298939,1,0,0:0:0:0:
192,192,299009,1,0,0:0:0:0:
64,192,299078,1,0,0:0:0:0:
448,192,299078,1,0,0:0:0:0:
320,192,299078,1,0,0:0:0:0:
192,192,299217,1,0,0:0:0:0:
320,192,299217,1,0,0:0:0:0:
448,192,299217,1,0,0:0:0:0:
64,192,299356,1,0,0:0:0:0:
192,192,299356,1,0,0:0:0:0:
448,192,299495,1,0,0:0:0:0:
320,192,299541,1,0,0:0:0:0:
192,192,299587,1,0,0:0:0:0:
320,192,299634,1,0,0:0:0:0:
64,192,299634,1,0,0:0:0:0:
448,192,299634,1,0,0:0:0:0:
192,192,299772,1,0,0:0:0:0:
320,192,299772,1,0,0:0:0:0:
448,192,299772,1,0,0:0:0:0:
64,192,299911,1,0,0:0:0:0:
192,192,299911,1,0,0:0:0:0:
320,192,299911,1,0,0:0:0:0:
448,192,300050,1,0,0:0:0:0:
192,192,300050,1,0,0:0:0:0:
64,192,300050,1,0,0:0:0:0:
320,192,300120,1,0,0:0:0:0:
192,192,300189,1,0,0:0:0:0:
448,192,300189,1,0,0:0:0:0:
64,192,300189,1,0,0:0:0:0:
192,192,300328,1,0,0:0:0:0:
320,192,300328,1,0,0:0:0:0:
448,192,300328,1,0,0:0:0:0:
192,192,300467,128,0,300606:0:0:0:0:
64,192,300467,128,0,300606:0:0:0:0:
448,192,300606,1,0,0:0:0:0:
320,192,300606,1,0,0:0:0:0:
192,192,300745,1,0,0:0:0:0:
64,192,300745,1,0,0:0:0:0:
448,192,300745,1,0,0:0:0:0:
320,192,300814,1,0,0:0:0:0:
448,192,300884,1,0,0:0:0:0:
192,192,300884,1,0,0:0:0:0:
64,192,300953,1,0,0:0:0:0:
320,192,301022,1,0,0:0:0:0:
448,192,301022,1,0,0:0:0:0:
192,192,301022,1,0,0:0:0:0:
64,192,301092,1,0,0:0:0:0:
192,192,301161,1,0,0:0:0:0:
448,192,301161,1,0,0:0:0:0:
320,192,301231,1,0,0:0:0:0:
64,192,301300,1,0,0:0:0:0:
448,192,301300,1,0,0:0:0:0:
192,192,301335,1,0,0:0:0:0:
320,192,301370,1,0,0:0:0:0:
448,192,301404,1,0,0:0:0:0:
64,192,301439,1,0,0:0:0:0:
192,192,301439,1,0,0:0:0:0:
320,192,301509,1,0,0:0:0:0:
448,192,301509,1,0,0:0:0:0:
64,192,301578,1,0,0:0:0:0:
192,192,301578,1,0,0:0:0:0:
320,192,301647,1,0,0:0:0:0:
448,192,301717,1,0,0:0:0:0:
64,192,301717,1,0,0:0:0:0:
192,192,301786,1,0,0:0:0:0:
320,192,301856,1,0,0:0:0:0:
448,192,301856,1,0,0:0:0:0:
64,192,301856,1,0,0:0:0:0:
192,192,301995,1,0,0:0:0:0:
448,192,302134,1,0,0:0:0:0:
64,192,302134,1,0,0:0:0:0:
320,192,302272,1,0,0:0:0:0:
64,192,302342,1,0,0:0:0:0:
192,192,302342,1,0,0:0:0:0:
320,192,302411,1,0,0:0:0:0:
192,192,302481,1,0,0:0:0:0:
64,192,302550,1,0,0:0:0:0:
448,192,302550,1,0,0:0:0:0:
448,192,302689,1,0,0:0:0:0:
192,192,302689,1,0,0:0:0:0:
320,192,302689,1,0,0:0:0:0:
64,192,302967,1,0,0:0:0:0:
192,192,302967,1,0,0:0:0:0:
448,192,302967,1,0,0:0:0:0:
64,192,303106,1,0,0:0:0:0:
192,192,303106,1,0,0:0:0:0:
320,192,303140,1,0,0:0:0:0:
448,192,303175,1,0,0:0:0:0:
64,192,303210,1,0,0:0:0:0:
192,192,303245,1,0,0:0:0:0:
320,192,303245,1,0,0:0:0:0:
448,192,303279,1,0,0:0:0:0:
192,192,303384,1,0,0:0:0:0:
64,192,303384,1,0,0:0:0:0:
192,192,303453,1,0,0:0:0:0:
64,192,303453,1,0,0:0:0:0:
448,192,303522,1,0,0:0:0:0:
320,192,303522,1,0,0:0:0:0:
64,192,303615,1,0,0:0:0:0:
448,192,303615,1,0,0:0:0:0:
320,192,303708,1,0,0:0:0:0:
192,192,303708,1,0,0:0:0:0:
64,192,303800,1,0,0:0:0:0:
192,192,303800,1,0,0:0:0:0:
448,192,303846,1,0,0:0:0:0:
320,192,303893,1,0,0:0:0:0:
192,192,303939,1,0,0:0:0:0:
64,192,303985,1,0,0:0:0:0:
320,192,304078,1,0,0:0:0:0:
448,192,304078,1,0,0:0:0:0:
64,192,304147,1,0,0:0:0:0:
192,192,304147,1,0,0:0:0:0:
448,192,304217,1,0,0:0:0:0:
320,192,304217,1,0,0:0:0:0:
64,192,304356,1,0,0:0:0:0:
192,192,304356,1,0,0:0:0:0:
320,192,304379,1,0,0:0:0:0:
448,192,304402,1,0,0:0:0:0:
320,192,304495,1,0,0:0:0:0:
192,192,304541,1,0,0:0:0:0:
64,192,304587,1,0,0:0:0:0:
320,192,304634,1,0,0:0:0:0:
448,192,304634,1,0,0:0:0:0:
448,192,304703,1,0,0:0:0:0:
320,192,304703,1,0,0:0:0:0:
64,192,304772,1,0,0:0:0:0:
192,192,304772,1,0,0:0:0:0:
320,192,304842,1,0,0:0:0:0:
448,192,304911,128,0,305050:0:0:0:0:
64,192,304911,128,0,305050:0:0:0:0:
192,192,305050,1,0,0:0:0:0:
64,192,305189,1,0,0:0:0:0:
448,192,305189,1,0,0:0:0:0:
320,192,305189,1,0,0:0:0:0:
448,192,305282,1,0,0:0:0:0:
320,192,305282,1,0,0:0:0:0:
64,192,305282,1,0,0:0:0:0:
64,192,305374,1,0,0:0:0:0:
448,192,305374,1,0,0:0:0:0:
320,192,305374,1,0,0:0:0:0:
320,192,305467,1,0,0:0:0:0:
448,192,305467,1,0,0:0:0:0:
64,192,305467,1,0,0:0:0:0:
448,192,305559,1,0,0:0:0:0:
320,192,305559,1,0,0:0:0:0:
64,192,305559,1,0,0:0:0:0:
448,192,305652,1,0,0:0:0:0:
320,192,305652,1,0,0:0:0:0:
64,192,305652,1,0,0:0:0:0:
192,192,305745,1,0,0:0:0:0:
64,192,305745,1,0,0:0:0:0:
320,192,305779,1,0,0:0:0:0:
448,192,305814,1,0,0:0:0:0:
320,192,305953,1,0,0:0:0:0:
448,192,305953,1,0,0:0:0:0:
192,192,306022,1,0,0:0:0:0:
64,192,306022,1,0,0:0:0:0:
448,192,306057,1,0,0:0:0:0:
320,192,306092,1,0,0:0:0:0:
192,192,306127,1,0,0:0:0:0:
64,192,306161,1,0,0:0:0:0:
448,192,306231,1,0,0:0:0:0:
192,192,306300,1,0,0:0:0:0:
320,192,306300,1,0,0:0:0:0:
64,192,306370,1,0,0:0:0:0:
320,192,306439,1,0,0:0:0:0:
320,192,306509,1,0,0:0:0:0:
448,192,306578,1,0,0:0:0:0:
64,192,306578,1,0,0:0:0:0:
192,192,306624,1,0,0:0:0:0:
320,192,306671,1,0,0:0:0:0:
64,192,306717,1,0,0:0:0:0:
448,192,306763,1,0,0:0:0:0:
320,192,306809,1,0,0:0:0:0:
64,192,306856,1,0,0:0:0:0:
192,192,306856,1,0,0:0:0:0:
448,192,306925,1,0,0:0:0:0:
192,192,306995,1,0,0:0:0:0:
320,192,306995,1,0,0:0:0:0:
64,192,307064,1,0,0:0:0:0:
192,192,307134,1,0,0:0:0:0:
448,192,307134,1,0,0:0:0:0:
320,192,307203,1,0,0:0:0:0:
448,192,307272,1,0,0:0:0:0:
192,192,307342,1,0,0:0:0:0:
320,192,307411,1,0,0:0:0:0:
448,192,307411,1,0,0:0:0:0:
64,192,307411,1,0,0:0:0:0:
192,192,307481,1,0,0:0:0:0:
448,192,307550,1,0,0:0:0:0:
64,192,307550,1,0,0:0:0:0:
320,192,307620,1,0,0:0:0:0:
64,192,307689,1,0,0:0:0:0:
192,192,307689,1,0,0:0:0:0:
448,192,307689,1,0,0:0:0:0:
192,192,307828,1,0,0:0:0:0:
320,192,307828,1,0,0:0:0:0:
448,192,307897,1,0,0:0:0:0:
64,192,307967,1,0,0:0:0:0:
192,192,307967,1,0,0:0:0:0:
64,192,308036,1,0,0:0:0:0:
320,192,308036,1,0,0:0:0:0:
448,192,308106,1,0,0:0:0:0:
320,192,308175,1,0,0:0:0:0:
192,192,308175,1,0,0:0:0:0:
64,192,308245,1,0,0:0:0:0:
448,192,308337,1,0,0:0:0:0:
320,192,308360,1,0,0:0:0:0:
192,192,308384,1,0,0:0:0:0:
64,192,308453,1,0,0:0:0:0:
448,192,308453,1,0,0:0:0:0:
192,192,308522,1,0,0:0:0:0:
320,192,308522,1,0,0:0:0:0:
320,192,308661,1,0,0:0:0:0:
64,192,308661,1,0,0:0:0:0:
448,192,308731,1,0,0:0:0:0:
192,192,308800,1,0,0:0:0:0:
64,192,308800,1,0,0:0:0:0:
64,192,308870,1,0,0:0:0:0:
192,192,308870,1,0,0:0:0:0:
448,192,308939,1,0,0:0:0:0:
320,192,308939,1,0,0:0:0:0:
192,192,309009,1,0,0:0:0:0:
64,192,309078,1,0,0:0:0:0:
448,192,309078,1,0,0:0:0:0:
320,192,309124,1,0,0:0:0:0:
192,192,309171,1,0,0:0:0:0:
64,192,309217,1,0,0:0:0:0:
448,192,309263,1,0,0:0:0:0:
320,192,309309,1,0,0:0:0:0:
64,192,309356,1,0,0:0:0:0:
192,192,309356,1,0,0:0:0:0:
320,192,309448,1,0,0:0:0:0:
448,192,309448,1,0,0:0:0:0:
448,192,309541,1,0,0:0:0:0:
320,192,309541,1,0,0:0:0:0:
64,192,309634,1,0,0:0:0:0:
192,192,309634,1,0,0:0:0:0:
448,192,309703,1,0,0:0:0:0:
320,192,309720,1,0,0:0:0:0:
64,192,309772,1,0,0:0:0:0:
192,192,309842,1,0,0:0:0:0:
448,192,309911,1,0,0:0:0:0:
320,192,309911,1,0,0:0:0:0:
192,192,309981,1,0,0:0:0:0:
64,192,309981,1,0,0:0:0:0:
320,192,310050,1,0,0:0:0:0:
64,192,310120,1,0,0:0:0:0:
448,192,310120,1,0,0:0:0:0:
192,192,310189,1,0,0:0:0:0:
320,192,310189,1,0,0:0:0:0:
192,192,310259,1,0,0:0:0:0:
320,192,310328,1,0,0:0:0:0:
448,192,310328,1,0,0:0:0:0:
64,192,310328,1,0,0:0:0:0:
192,192,310467,1,0,0:0:0:0:
448,192,310536,1,0,0:0:0:0:
64,192,310536,1,0,0:0:0:0:
320,192,310536,1,0,0:0:0:0:
320,192,310675,1,0,0:0:0:0:
64,192,310745,1,0,0:0:0:0:
448,192,310745,1,0,0:0:0:0:
192,192,310745,1,0,0:0:0:0:
320,192,310814,1,0,0:0:0:0:
64,192,310884,1,0,0:0:0:0:
192,192,310884,1,0,0:0:0:0:
448,192,310953,1,0,0:0:0:0:
192,192,311022,1,0,0:0:0:0:
320,192,311022,1,0,0:0:0:0:
64,192,311115,1,0,0:0:0:0:
448,192,311115,1,0,0:0:0:0:
192,192,311208,1,0,0:0:0:0:
320,192,311208,1,0,0:0:0:0:
64,192,311300,1,0,0:0:0:0:
448,192,311300,1,0,0:0:0:0:
320,192,311346,1,0,0:0:0:0:
192,192,311393,1,0,0:0:0:0:
448,192,311439,1,0,0:0:0:0:
64,192,311509,1,0,0:0:0:0:
192,192,311578,1,0,0:0:0:0:
320,192,311578,1,0,0:0:0:0:
448,192,311647,1,0,0:0:0:0:
320,192,311717,1,0,0:0:0:0:
192,192,311786,1,0,0:0:0:0:
448,192,311856,1,0,0:0:0:0:
320,192,311856,1,0,0:0:0:0:
64,192,311856,1,0,0:0:0:0:
192,192,311902,1,0,0:0:0:0:
448,192,311948,1,0,0:0:0:0:
320,192,311995,1,0,0:0:0:0:
64,192,312041,1,0,0:0:0:0:
192,192,312087,1,0,0:0:0:0:
448,192,312134,1,0,0:0:0:0:
320,192,312168,1,0,0:0:0:0:
192,192,312203,1,0,0:0:0:0:
64,192,312238,1,0,0:0:0:0:
320,192,312272,1,0,0:0:0:0:
448,192,312307,1,0,0:0:0:0:
192,192,312342,1,0,0:0:0:0:
64,192,312411,1,0,0:0:0:0:
320,192,312411,1,0,0:0:0:0:
448,192,312411,1,0,0:0:0:0:
64,192,312550,1,0,0:0:0:0:
192,192,312550,1,0,0:0:0:0:
320,192,312550,1,0,0:0:0:0:
192,192,312689,1,0,0:0:0:0:
320,192,312689,1,0,0:0:0:0:
448,192,312689,1,0,0:0:0:0:
320,192,312828,1,0,0:0:0:0:
448,192,312828,1,0,0:0:0:0:
320,192,312897,1,0,0:0:0:0:
448,192,312897,1,0,0:0:0:0:
64,192,312967,1,0,0:0:0:0:
192,192,312967,1,0,0:0:0:0:
64,192,313036,1,0,0:0:0:0:
192,192,313036,1,0,0:0:0:0:
64,192,313106,1,0,0:0:0:0:
448,192,313106,1,0,0:0:0:0:
320,192,313106,1,0,0:0:0:0:
320,192,313245,1,0,0:0:0:0:
192,192,313245,1,0,0:0:0:0:
448,192,313245,1,0,0:0:0:0:
192,192,313384,1,0,0:0:0:0:
320,192,313384,1,0,0:0:0:0:
64,192,313384,1,0,0:0:0:0:
64,192,313522,1,0,0:0:0:0:
448,192,313522,1,0,0:0:0:0:
192,192,313569,1,0,0:0:0:0:
320,192,313615,1,0,0:0:0:0:
64,192,313661,1,0,0:0:0:0:
448,192,313661,1,0,0:0:0:0:
320,192,313731,1,0,0:0:0:0:
192,192,313731,1,0,0:0:0:0:
448,192,313800,1,0,0:0:0:0:
320,192,313870,1,0,0:0:0:0:
192,192,313939,1,0,0:0:0:0:
64,192,313939,1,0,0:0:0:0:
448,192,314009,1,0,0:0:0:0:
64,192,314078,1,0,0:0:0:0:
320,192,314078,1,0,0:0:0:0:
192,192,314124,1,0,0:0:0:0:
448,192,314171,1,0,0:0:0:0:
320,192,314217,1,0,0:0:0:0:
192,192,314263,1,0,0:0:0:0:
64,192,314309,1,0,0:0:0:0:
448,192,314356,1,0,0:0:0:0:
192,192,314448,1,0,0:0:0:0:
320,192,314448,1,0,0:0:0:0:
448,192,314541,1,0,0:0:0:0:
64,192,314541,1,0,0:0:0:0:
64,192,314634,1,0,0:0:0:0:
192,192,314634,1,0,0:0:0:0:
320,192,314726,1,0,0:0:0:0:
448,192,314726,1,0,0:0:0:0:
448,192,314819,1,0,0:0:0:0:
320,192,314819,1,0,0:0:0:0:
192,192,314911,1,0,0:0:0:0:
64,192,314911,1,0,0:0:0:0:
320,192,315004,1,0,0:0:0:0:
448,192,315004,1,0,0:0:0:0:
192,192,315004,1,0,0:0:0:0:
192,192,315096,1,0,0:0:0:0:
320,192,315096,1,0,0:0:0:0:
64,192,315096,1,0,0:0:0:0:
64,192,315189,1,0,0:0:0:0:
448,192,315189,1,0,0:0:0:0:
320,192,315235,1,0,0:0:0:0:
192,192,315282,1,0,0:0:0:0:
320,192,315374,1,0,0:0:0:0:
448,192,315467,1,0,0:0:0:0:
192,192,315467,1,0,0:0:0:0:
64,192,315467,1,0,0:0:0:0:
192,192,315559,1,0,0:0:0:0:
448,192,315559,1,0,0:0:0:0:
64,192,315559,1,0,0:0:0:0:
448,192,315652,1,0,0:0:0:0:
192,192,315652,1,0,0:0:0:0:
64,192,315652,1,0,0:0:0:0:
64,192,315745,1,0,0:0:0:0:
448,192,315745,1,0,0:0:0:0:
320,192,315791,1,0,0:0:0:0:
192,192,315837,1,0,0:0:0:0:
64,192,315884,1,0,0:0:0:0:
320,192,315976,1,0,0:0:0:0:
448,192,316022,1,0,0:0:0:0:
64,192,316022,1,0,0:0:0:0:
192,192,316069,1,0,0:0:0:0:
320,192,316115,1,0,0:0:0:0:
448,192,316161,1,0,0:0:0:0:
192,192,316208,1,0,0:0:0:0:
64,192,316254,1,0,0:0:0:0:
320,192,316300,1,0,0:0:0:0:
448,192,316300,1,0,0:0:0:0:
64,192,316439,1,0,0:0:0:0:
192,192,316474,1,0,0:0:0:0:
320,192,316509,1,0,0:0:0:0:
448,192,316543,1,0,0:0:0:0:
64,192,316578,1,0,0:0:0:0:
192,192,316578,1,0,0:0:0:0:
320,192,316647,1,0,0:0:0:0:
448,192,316717,1,0,0:0:0:0:
192,192,316752,1,0,0:0:0:0:
64,192,316786,1,0,0:0:0:0:
320,192,316821,1,0,0:0:0:0:
192,192,316856,1,0,0:0:0:0:
448,192,316856,1,0,0:0:0:0:
320,192,316925,1,0,0:0:0:0:
64,192,316995,1,0,0:0:0:0:
192,192,316995,1,0,0:0:0:0:
64,192,317064,1,0,0:0:0:0:
192,192,317064,1,0,0:0:0:0:
448,192,317134,1,0,0:0:0:0:
320,192,317134,1,0,0:0:0:0:
64,192,317203,1,0,0:0:0:0:
192,192,317272,1,0,0:0:0:0:
320,192,317296,1,0,0:0:0:0:
448,192,317319,1,0,0:0:0:0:
64,192,317342,1,0,0:0:0:0:
192,192,317411,1,0,0:0:0:0:
320,192,317411,1,0,0:0:0:0:
448,192,317481,1,0,0:0:0:0:
64,192,317550,1,0,0:0:0:0:
192,192,317550,1,0,0:0:0:0:
320,192,317620,1,0,0:0:0:0:
64,192,317689,1,0,0:0:0:0:
448,192,317689,1,0,0:0:0:0:
320,192,317759,1,0,0:0:0:0:
192,192,317828,1,0,0:0:0:0:
448,192,317828,1,0,0:0:0:0:
192,192,317897,1,0,0:0:0:0:
448,192,317897,1,0,0:0:0:0:
64,192,317967,1,0,0:0:0:0:
320,192,317967,1,0,0:0:0:0:
192,192,318036,1,0,0:0:0:0:
320,192,318106,1,0,0:0:0:0:
448,192,318106,1,0,0:0:0:0:
64,192,318175,1,0,0:0:0:0:
192,192,318210,1,0,0:0:0:0:
320,192,318245,1,0,0:0:0:0:
448,192,318245,1,0,0:0:0:0:
64,192,318314,1,0,0:0:0:0:
448,192,318384,1,0,0:0:0:0:
320,192,318418,1,0,0:0:0:0:
192,192,318453,1,0,0:0:0:0:
64,192,318488,1,0,0:0:0:0:
320,192,318522,1,0,0:0:0:0:
448,192,318522,1,0,0:0:0:0:
192,192,318592,1,0,0:0:0:0:
448,192,318661,1,0,0:0:0:0:
320,192,318661,1,0,0:0:0:0:
64,192,318731,1,0,0:0:0:0:
192,192,318800,1,0,0:0:0:0:
320,192,318800,1,0,0:0:0:0:
448,192,318870,1,0,0:0:0:0:
64,192,318939,1,0,0:0:0:0:
320,192,318939,1,0,0:0:0:0:
192,192,319009,1,0,0:0:0:0:
448,192,319078,1,0,0:0:0:0:
320,192,319113,1,0,0:0:0:0:
64,192,319147,1,0,0:0:0:0:
192,192,319182,1,0,0:0:0:0:
448,192,319217,1,0,0:0:0:0:
320,192,319252,1,0,0:0:0:0:
64,192,319286,1,0,0:0:0:0:
192,192,319321,1,0,0:0:0:0:
448,192,319356,1,0,0:0:0:0:
320,192,319356,1,0,0:0:0:0:
64,192,319425,1,0,0:0:0:0:
448,192,319495,1,0,0:0:0:0:
192,192,319495,1,0,0:0:0:0:
320,192,319564,1,0,0:0:0:0:
192,192,319634,1,0,0:0:0:0:
448,192,319634,1,0,0:0:0:0:
64,192,319634,1,0,0:0:0:0:
320,192,319703,1,0,0:0:0:0:
448,192,319772,1,0,0:0:0:0:
64,192,319772,1,0,0:0:0:0:
192,192,319842,1,0,0:0:0:0:
64,192,319911,1,0,0:0:0:0:
448,192,319911,1,0,0:0:0:0:
320,192,319981,1,0,0:0:0:0:
192,192,320050,1,0,0:0:0:0:
320,192,320120,1,0,0:0:0:0:
448,192,320189,1,0,0:0:0:0:
64,192,320189,1,0,0:0:0:0:
192,192,320189,1,0,0:0:0:0:
320,192,320235,1,0,0:0:0:0:
64,192,320282,1,0,0:0:0:0:
192,192,320328,1,0,0:0:0:0:
448,192,320374,1,0,0:0:0:0:
320,192,320421,1,0,0:0:0:0:
64,192,320467,1,0,0:0:0:0:
192,192,320502,1,0,0:0:0:0:
320,192,320536,1,0,0:0:0:0:
448,192,320571,1,0,0:0:0:0:
64,192,320606,1,0,0:0:0:0:
192,192,320640,1,0,0:0:0:0:
320,192,320675,1,0,0:0:0:0:
448,192,320710,1,0,0:0:0:0:
64,192,320745,128,0,322967:0:0:0:0:
192,192,320745,1,0,0:0:0:0:
320,192,320884,1,0,0:0:0:0:
192,192,321022,1,0,0:0:0:0:
448,192,321161,1,0,0:0:0:0:
192,192,321300,1,0,0:0:0:0:
320,192,321439,1,0,0:0:0:0:
192,192,321578,1,0,0:0:0:0:
448,192,321578,1,0,0:0:0:0:
192,192,321717,1,0,0:0:0:0:
320,192,321856,1,0,0:0:0:0:
448,192,321856,1,0,0:0:0:0:
192,192,321995,1,0,0:0:0:0:
448,192,322134,1,0,0:0:0:0:
320,192,322272,1,0,0:0:0:0:
448,192,322411,1,0,0:0:0:0:
320,192,322411,1,0,0:0:0:0:
192,192,322550,1,0,0:0:0:0:
320,192,322689,1,0,0:0:0:0:
448,192,322689,1,0,0:0:0:0:
448,192,322828,1,0,0:0:0:0:
192,192,322967,128,0,325189:0:0:0:0:
320,192,322967,1,0,0:0:0:0:
448,192,323106,1,0,0:0:0:0:
64,192,323245,1,0,0:0:0:0:
320,192,323384,1,0,0:0:0:0:
448,192,323522,1,0,0:0:0:0:
64,192,323661,1,0,0:0:0:0:
320,192,323800,1,0,0:0:0:0:
448,192,323800,1,0,0:0:0:0:
64,192,323939,1,0,0:0:0:0:
320,192,323939,1,0,0:0:0:0:
448,192,324078,1,0,0:0:0:0:
64,192,324217,1,0,0:0:0:0:
448,192,324356,1,0,0:0:0:0:
320,192,324495,1,0,0:0:0:0:
64,192,324634,1,0,0:0:0:0:
320,192,324772,1,0,0:0:0:0:
448,192,324911,1,0,0:0:0:0:
64,192,325050,1,0,0:0:0:0:
448,192,325189,128,0,327411:0:0:0:0:
320,192,325189,1,0,0:0:0:0:
192,192,325328,1,0,0:0:0:0:
64,192,325467,1,0,0:0:0:0:
320,192,325606,1,0,0:0:0:0:
64,192,325745,1,0,0:0:0:0:
320,192,325884,1,0,0:0:0:0:
192,192,326022,1,0,0:0:0:0:
320,192,326022,1,0,0:0:0:0:
64,192,326161,1,0,0:0:0:0:
192,192,326300,1,0,0:0:0:0:
320,192,326300,1,0,0:0:0:0:
192,192,326439,1,0,0:0:0:0:
320,192,326578,1,0,0:0:0:0:
64,192,326717,1,0,0:0:0:0:
192,192,326856,1,0,0:0:0:0:
320,192,326856,1,0,0:0:0:0:
64,192,326995,1,0,0:0:0:0:
320,192,327064,1,0,0:0:0:0:
192,192,327110,1,0,0:0:0:0:
64,192,327272,1,0,0:0:0:0:
192,192,327319,1,0,0:0:0:0:
320,192,327411,128,0,329634:0:0:0:0:
64,192,327411,1,0,0:0:0:0:
448,192,327550,1,0,0:0:0:0:
64,192,327689,1,0,0:0:0:0:
192,192,327828,1,0,0:0:0:0:
448,192,327967,1,0,0:0:0:0:
64,192,328106,1,0,0:0:0:0:
192,192,328245,1,0,0:0:0:0:
448,192,328291,1,0,0:0:0:0:
192,192,328384,1,0,0:0:0:0:
64,192,328430,1,0,0:0:0:0:
448,192,328522,1,0,0:0:0:0:
64,192,328661,1,0,0:0:0:0:
192,192,328800,1,0,0:0:0:0:
64,192,328939,1,0,0:0:0:0:
448,192,329078,1,0,0:0:0:0:
192,192,329217,1,0,0:0:0:0:
64,192,329356,1,0,0:0:0:0:
192,192,329495,1,0,0:0:0:0:
64,192,329634,128,0,335189:0:0:0:0:
448,192,329634,1,0,0:0:0:0:
192,192,329772,128,0,335189:0:0:0:0:
320,192,329911,128,0,335189:0:0:0:0:
448,192,330050,128,0,335189:0:0:0:0:
