osu file format v14

[General]
AudioFilename: audio.mp3
AudioLeadIn: 0
PreviewTime: 76779
Countdown: 0
SampleSet: Normal
StackLeniency: 0.7
Mode: 1
LetterboxInBreaks: 0
WidescreenStoryboard: 0

[Editor]
DistanceSpacing: 0.5
BeatDivisor: 4
GridSize: 4
TimelineZoom: 2.5

[Metadata]
Title:Heisei Saikyou no Curry Ya
TitleUnicode:平成最強のカレー屋™
Artist:katagiri
ArtistUnicode:かたぎり
Creator:KTYN
Version:SPICE
Source:
Tags:The Mightiest Curry House in Heisei TM インド India Ved"A"Works Ved A Works hardcore breakcore featured artist fa electronic instrumental KitajimaYN
BeatmapID:1957032
BeatmapSetID:936833

[Difficulty]
HPDrainRate:4.7
CircleSize:5
OverallDifficulty:6.3
ApproachRate:5
SliderMultiplier:1.4
SliderTickRate:1

[Events]
//Background and Video events
0,0,"dreamstime_xl_41132327_Bruno_Weltmann_Dreamstime.com_1200x.jpg",0,0
//Break Periods
//Storyboard Layer 0 (Background)
//Storyboard Layer 1 (Fail)
//Storyboard Layer 2 (Pass)
//Storyboard Layer 3 (Foreground)
//Storyboard Layer 4 (Overlay)
//Storyboard Sound Samples

[TimingPoints]
3819,240,4,1,0,100,1,0
3819,-111.111111111111,4,1,0,100,0,0
7659,-111.111111111111,4,1,0,100,0,0
7899,-110.345801673284,4,1,0,100,0,0
8019,-109.967086850906,4,1,0,100,0,0
8139,-109.590962690853,4,1,0,100,0,0
8259,-109.217402700946,4,1,0,100,0,0
8379,-108.846380748994,4,1,0,100,0,0
8499,-108.477871056694,4,1,0,100,0,0
8619,-108.111965075511,4,1,0,100,0,0
8739,-107.748403168665,4,1,0,100,0,0
8859,-107.387278258694,4,1,0,100,0,0
8979,-107.028565924245,4,1,0,100,0,0
9099,-106.672242069185,4,1,0,100,0,0
9219,-106.318282917204,4,1,0,100,0,0
9339,-105.966665006522,4,1,0,100,0,0
9459,-105.617365184714,4,1,0,100,0,0
9579,-105.27036060362,4,1,0,100,0,0
9819,-104.583147262484,4,1,0,100,0,0
9939,-104.242894283111,4,1,0,100,0,0
10179,-103.568987302442,4,1,0,100,0,0
10299,-103.235290777682,4,1,0,100,0,0
10419,-102.90373766956,4,1,0,100,0,0
10539,-102.574412607626,4,1,0,100,0,0
10659,-102.247084168777,4,1,0,100,0,0
10719,-102.084150006533,4,1,0,100,0,0
10779,-101.921838180736,4,1,0,100,0,0
10899,-101.59865483381,4,1,0,100,0,0
11019,-101.27751456877,4,1,0,100,0,0
11259,-100.641286276152,4,1,0,100,0,0
11379,-100.326160347289,4,1,0,100,0,0
11499,-100.01300169022,4,1,0,100,0,0
26859,-100,4,1,0,100,0,1
42219,-100,4,1,0,100,0,0
44139,-111.111111111111,4,1,0,100,0,0
44619,-108.115705427949,4,1,0,100,0,0
45099,-105.277564298272,4,1,0,100,0,0
45219,-104.591132345435,4,1,0,100,0,0
45339,-103.91359376851,4,1,0,100,0,0
45459,-103.244883441689,4,1,0,100,0,0
45579,-102.584619488,4,1,0,100,0,0
45639,-102.257644270197,4,1,0,100,0,0
45699,-101.932746812308,4,1,0,100,0,0
45759,-101.609907372408,4,1,0,100,0,0
45819,-101.28910645789,4,1,0,100,0,0
45939,-100.653644769131,4,1,0,100,0,0
46059,-100,4,1,0,100,0,1
61419,-100,4,1,0,100,0,0
68619,-100,4,1,0,100,0,0
68679,-98.7780171498393,4,1,0,100,0,0
68739,-97.5855386038632,4,1,0,100,0,0
68799,-96.4215085530699,4,1,0,100,0,0
68859,-95.2848301786114,4,1,0,100,0,0
68919,-94.1747280233855,4,1,0,100,0,0
68979,-93.090194158218,4,1,0,100,0,0
69099,-95.2380952380952,4,1,0,100,0,0
72819,-95.2380952380952,4,1,0,100,0,0
72879,-95.057305296498,4,1,0,100,0,0
72939,-94.8772904563882,4,1,0,100,0,0
72999,-94.6978664570687,4,1,0,100,0,0
73059,-94.5191198001488,4,1,0,100,0,0
73119,-94.3411356597229,4,1,0,100,0,0
73179,-94.1637318970225,4,1,0,100,0,0
73239,-93.9869940797592,4,1,0,100,0,0
73299,-93.8110064701451,4,1,0,100,0,0
73359,-93.6355890146727,4,1,0,100,0,0
73419,-93.4608263619345,4,1,0,100,0,0
73479,-93.2868018765573,4,1,0,100,0,0
73539,-93.1133375544713,4,1,0,100,0,0
73599,-92.9405171396255,4,1,0,100,0,0
73659,-92.7684231130671,4,1,0,100,0,0
73719,-92.5968794851614,4,1,0,100,0,0
73779,-92.4259691093926,4,1,0,100,0,0
73899,-92.0861189384312,4,1,0,100,0,0
73959,-91.9170871107426,4,1,0,100,0,0
74019,-91.7487588686644,4,1,0,100,0,0
74079,-91.5809621495883,4,1,0,100,0,0
74139,-91.4137780674579,4,1,0,100,0,0
74199,-91.2472865338167,4,1,0,100,0,0
74259,-91.0813174001749,4,1,0,100,0,0
74319,-90.915950930843,4,1,0,100,0,0
74379,-90.7512662070418,4,1,0,100,0,0
74439,-90.5870949624517,4,1,0,100,0,0
74499,-90.4235166248156,4,1,0,100,0,0
74559,-90.2606094576872,4,1,0,100,0,0
74619,-90.0982070456798,4,1,0,100,0,0
74679,-89.9363879927727,4,1,0,100,0,0
74739,-89.7751491614103,4,1,0,100,0,0
74859,-89.454479746164,4,1,0,100,0,0
74919,-89.2949626925646,4,1,0,100,0,0
74979,-89.1360929867722,4,1,0,100,0,0
75039,-88.9777084147109,4,1,0,100,0,0
75099,-88.8198857065711,4,1,0,100,0,0
75159,-88.6627004885315,4,1,0,100,0,0
75219,-88.5059922982086,4,1,0,100,0,0
75279,-88.3498370829004,4,1,0,100,0,0
75339,-88.1943097031379,4,1,0,100,0,0
75399,-88.039251419853,4,1,0,100,0,0
75459,-87.8847374091931,4,1,0,100,0,0
75519,-87.7308417774268,4,1,0,100,0,0
75579,-87.5774074810373,4,1,0,100,0,0
75639,-87.4245089365333,4,1,0,100,0,0
75699,-87.2722195070865,4,1,0,100,0,0
75759,-87.120383817563,4,1,0,100,0,0
75819,-86.9565217391304,4,1,0,100,0,0
75879,-87.6674667784135,4,1,0,100,0,0
75939,-88.3902109609165,4,1,0,100,0,0
75999,-89.1248916018506,4,1,0,100,0,0
76059,-89.8719683938262,4,1,0,100,0,0
76119,-90.6315934484234,4,1,0,100,0,0
76179,-91.4042526742599,4,1,0,100,0,0
76239,-92.1901144540271,4,1,0,100,0,0
76299,-92.9896065516757,4,1,0,100,0,0
76359,-93.8031746746437,4,1,0,100,0,0
76419,-94.6310147472973,4,1,0,100,0,0
76539,-96.3314108794769,4,1,0,100,0,0
76659,-98.0940329399763,4,1,0,100,0,0
76779,-99.9223603260267,4,1,0,100,0,0
93579,-125,4,1,0,100,0,0
93819,-120.016610298865,4,1,0,100,0,0
94059,-115.415333619563,4,1,0,100,0,0
94119,-114.319683563116,4,1,0,100,0,0
94179,-113.244511887843,4,1,0,100,0,0
94239,-112.189501530826,4,1,0,100,0,0
94299,-111.153843588757,4,1,0,100,0,0
94359,-110.137253044744,4,1,0,100,0,0
94419,-109.138969924574,4,1,0,100,0,0
94479,-108.158738090371,4,1,0,100,0,0
94539,-107.195842516444,4,1,0,100,0,0
94599,-106.250053125027,4,1,0,100,0,0
94659,-105.320696254059,4,1,0,100,0,0
94719,-104.407565372187,4,1,0,100,0,0
94779,-103.510024945916,4,1,0,100,0,0
94839,-102.627889744805,4,1,0,100,0,0
94899,-101.760559438852,4,1,0,100,0,0
94959,-100.907868089199,4,1,0,100,0,0
95019,-100.06924791956,4,1,0,100,0,0
111699,-86.9565217391304,4,1,0,100,0,0
111759,-87.4731457442565,4,1,0,100,0,0
111819,-87.9960225797794,4,1,0,100,0,0
111879,-88.5251097047422,4,1,0,100,0,0
111939,-89.0606770392668,4,1,0,100,0,0
111999,-89.6026837795846,4,1,0,100,0,0
112059,-90.1514092919058,4,1,0,100,0,0
112119,-90.7068147122825,4,1,0,100,0,0
112179,-91.2691893470602,4,1,0,100,0,0
112239,-91.8384964936062,4,1,0,100,0,0
112299,-92.4150359263452,4,1,0,100,0,0
112359,-92.9987733461796,4,1,0,100,0,0
112419,-93.5899319694784,4,1,0,100,0,0
112479,-94.188742938199,4,1,0,100,0,0
112539,-94.7951760630805,4,1,0,100,0,0
112599,-95.4095598470775,4,1,0,100,0,0
112659,-96.0318672148166,4,1,0,100,0,0
112719,-96.6624392959881,4,1,0,100,0,0
112779,-97.3012524617217,4,1,0,100,0,0
112839,-97.9486611887245,4,1,0,100,0,0
112899,-98.6046456592756,4,1,0,100,0,0
112959,-99.2695744710421,4,1,0,100,0,0
113019,-99.9434320174781,4,1,0,100,0,0
113739,-86.9565217391304,4,1,0,100,0,0
113799,-87.4300122751737,4,1,0,100,0,0
113859,-87.9087647675736,4,1,0,100,0,0
113919,-88.3927111370396,4,1,0,100,0,0
113979,-88.8820153463688,4,1,0,100,0,0
114039,-89.376846749096,4,1,0,100,0,0
114099,-89.877137952419,4,1,0,100,0,0
114159,-90.3831431822639,4,1,0,100,0,0
114219,-90.8947956366862,4,1,0,100,0,0
114279,-91.41227392602,4,1,0,100,0,0
114339,-91.9357626439254,4,1,0,100,0,0
114399,-92.4651961001879,4,1,0,100,0,0
114459,-93.0007626062534,4,1,0,100,0,0
114519,-93.5426568546656,4,1,0,100,0,0
114579,-94.090814572409,4,1,0,100,0,0
114639,-94.6455241185189,4,1,0,100,0,0
114699,-95.2067223562521,4,1,0,100,0,0
114759,-95.774615512806,4,1,0,100,0,0
114819,-96.3494169415034,4,1,0,100,0,0
114879,-96.9310655341241,4,1,0,100,0,0
114939,-97.5197794492668,4,1,0,100,0,0
115059,-98.7190219709055,4,1,0,100,0,0
115179,-99.9481269221274,4,1,0,100,0,0
115659,-86.9565217391304,4,1,0,100,0,0
115719,-87.5110373295832,4,1,0,100,0,0
115779,-88.0727480899223,4,1,0,100,0,0
115839,-88.6416378138135,4,1,0,100,0,0
115899,-89.2180041932462,4,1,0,100,0,0
115959,-89.8018342922672,4,1,0,100,0,0
116019,-90.3934374364421,4,1,0,100,0,0
116079,-90.9928042890368,4,1,0,100,0,0
116139,-91.6002564807182,4,1,0,100,0,0
116199,-92.2157886340352,4,1,0,100,0,0
116259,-92.8396492146694,4,1,0,100,0,0
116319,-93.4720957752482,4,1,0,100,0,0
116379,-94.1131296286014,4,1,0,100,0,0
116439,-94.7631064483451,4,1,0,100,0,0
116499,-95.4220325656313,4,1,0,100,0,0
116559,-96.0902787386806,4,1,0,100,0,0
116619,-96.7678568145376,4,1,0,100,0,0
116649,-97.1102891264638,4,1,0,100,0,0
116739,-98.152186928877,4,1,0,100,0,0
116769,-98.5045046109959,4,1,0,100,0,0
116859,-99.5766994506353,4,1,0,100,0,0
116889,-99.9393368225487,4,1,0,100,0,0
117579,-86.9565217391304,4,1,0,100,0,0
117639,-87.6674667784135,4,1,0,100,0,0
117699,-88.3902109609165,4,1,0,100,0,0
117759,-89.1248916018506,4,1,0,100,0,0
117819,-89.8719683938262,4,1,0,100,0,0
117879,-90.6315934484234,4,1,0,100,0,0
117939,-91.4042526742599,4,1,0,100,0,0
117999,-92.1901144540271,4,1,0,100,0,0
118059,-92.9896065516757,4,1,0,100,0,0
118119,-93.8031746746437,4,1,0,100,0,0
118179,-94.6310147472973,4,1,0,100,0,0
118239,-95.4736879289752,4,1,0,100,0,0
118299,-96.3314108794769,4,1,0,100,0,0
118359,-97.2047793645918,4,1,0,100,0,0
118419,-98.0940329399763,4,1,0,100,0,0
118479,-98.9997069608674,4,1,0,100,0,0
118539,-99.9223603260267,4,1,0,100,0,0
119499,-100,4,1,0,100,0,0
119559,-99.2586372384659,4,1,0,100,0,0
119619,-98.5281859581571,4,1,0,100,0,0
119679,-97.8084070238173,4,1,0,100,0,0
119739,-97.0990682373412,4,1,0,100,0,0
119799,-96.4000370176142,4,1,0,100,0,0
119859,-95.7109071192644,4,1,0,100,0,0
119919,-95.0315599810697,4,1,0,100,0,0
119979,-94.3617887598124,4,1,0,100,0,0
120039,-93.7013924026911,4,1,0,100,0,0
120099,-93.0501754461058,4,1,0,100,0,0
120159,-92.4079478227764,4,1,0,100,0,0
120219,-91.7745246767931,4,1,0,100,0,0
120279,-91.1498092690241,4,1,0,100,0,0
120339,-90.5334593559087,4,1,0,100,0,0
120399,-89.9253889048257,4,1,0,100,0,0
120459,-89.3254322011037,4,1,0,100,0,0
120519,-88.7334279231675,4,1,0,100,0,0
120579,-88.1492189979197,4,1,0,100,0,0
120639,-87.5726524617986,4,1,0,100,0,0
120699,-87.0035793272535,4,1,0,100,0,0
120939,-100,4,1,0,100,0,0
121419,-100,4,1,0,100,0,0
121479,-99.2586372384659,4,1,0,100,0,0
121539,-98.5281859581571,4,1,0,100,0,0
121599,-97.8084070238173,4,1,0,100,0,0
121659,-97.0990682373412,4,1,0,100,0,0
121719,-96.4000370176142,4,1,0,100,0,0
121779,-95.7109071192644,4,1,0,100,0,0
121839,-95.0315599810697,4,1,0,100,0,0
121899,-94.3617887598124,4,1,0,100,0,0
121959,-93.7013924026911,4,1,0,100,0,0
122019,-93.0501754461058,4,1,0,100,0,0
122079,-92.4079478227764,4,1,0,100,0,0
122139,-91.7745246767931,4,1,0,100,0,0
122199,-91.1498092690241,4,1,0,100,0,0
122259,-90.5334593559087,4,1,0,100,0,0
122319,-89.9253889048257,4,1,0,100,0,0
122379,-89.3254322011037,4,1,0,100,0,0
122439,-88.7334279231675,4,1,0,100,0,0
122499,-88.1492189979197,4,1,0,100,0,0
122559,-87.5726524617986,4,1,0,100,0,0
122619,-87.0035793272535,4,1,0,100,0,0
122859,-86.9565217391304,4,1,0,100,0,0
123099,-100,4,1,0,100,0,0
123339,-100,4,1,0,100,0,0
123399,-99.2765716225862,4,1,0,100,0,0
123459,-98.5634378927137,4,1,0,100,0,0
123519,-97.8605721711934,4,1,0,100,0,0
123579,-97.1675654666472,4,1,0,100,0,0
123639,-96.4843979904229,4,1,0,100,0,0
123699,-95.8106781000743,4,1,0,100,0,0
123759,-95.1463922390991,4,1,0,100,0,0
123819,-94.4911650760654,4,1,0,100,0,0
123879,-93.8449887245246,4,1,0,100,0,0
123939,-93.2075900804754,4,1,0,100,0,0
123999,-92.5787057867246,4,1,0,100,0,0
124059,-91.9583355173438,4,1,0,100,0,0
124119,-91.3461406712297,4,1,0,100,0,0
124179,-90.7421253983579,4,1,0,100,0,0
124239,-90.1459643454682,4,1,0,100,0,0
124299,-89.5576657331773,4,1,0,100,0,0
124329,-89.2663466765693,4,1,0,100,0,0
124419,-88.4037292229135,4,1,0,100,0,0
124449,-88.1198571048397,4,1,0,100,0,0
124539,-87.2791510182422,4,1,0,100,0,0
124569,-87.0024438986491,4,1,0,100,0,0
124779,-86.9565217391304,4,1,0,100,0,0
124839,-87.3114618121494,4,1,0,100,0,0
124899,-87.6693882167082,4,1,0,100,0,0
124959,-88.0301837894177,4,1,0,100,0,0
125019,-88.3939612781413,4,1,0,100,0,0
125079,-88.760836588637,4,1,0,100,0,0
125139,-89.1306905489381,4,1,0,100,0,0
125199,-89.503639665507,4,1,0,100,0,0
125259,-89.8798037384606,4,1,0,100,0,0
125319,-90.2590615584852,4,1,0,100,0,0
125379,-90.641533582235,4,1,0,100,0,0
125439,-91.0273437037752,4,1,0,100,0,0
125499,-91.4163686493049,4,1,0,100,0,0
125559,-91.8087330303033,4,1,0,100,0,0
125619,-92.2045650480155,4,1,0,100,0,0
125679,-92.6037393389945,4,1,0,100,0,0
125739,-93.0063848883226,4,1,0,100,0,0
125799,-93.4126344324575,4,1,0,100,0,0
125859,-93.8223604955322,4,1,0,100,0,0
125919,-94.2356966703701,4,1,0,100,0,0
125979,-94.6526908813491,4,1,0,100,0,0
126039,-95.0734822944654,4,1,0,100,0,0
126099,-95.4979405869113,4,1,0,100,0,0
126159,-95.9262058883342,4,1,0,100,0,0
126219,-96.3584224969936,4,1,0,100,0,0
126279,-96.7944579365164,4,1,0,100,0,0
126339,-97.2344575581316,4,1,0,100,0,0
126399,-97.6785710797194,4,1,0,100,0,0
126459,-98.1266638602441,4,1,0,100,0,0
126519,-98.5788867683475,4,1,0,100,0,0
126579,-99.0353952502624,4,1,0,100,0,0
126639,-99.4960524941173,4,1,0,100,0,0
126699,-100.06924791956,4,1,0,100,0,1
142059,-100,4,1,0,100,0,0
156939,-100,4,1,0,100,0,0
157059,-98.7780171498393,4,1,0,100,0,0
157179,-97.5855386038632,4,1,0,100,0,0
157239,-96.9999844800025,4,1,0,100,0,0
157299,-96.4215085530699,4,1,0,100,0,0
157359,-95.8497995301443,4,1,0,100,0,0
157419,-95.2848301786114,4,1,0,100,0,1
172779,-95.2380952380952,4,1,0,100,0,0
173259,-96.6758025300057,4,1,0,100,0,0
173739,-98.1575821824357,4,1,0,100,0,0
174219,-99.6854922718822,4,1,0,100,0,0
174399,-100.270730973629,4,1,0,100,0,0
174579,-100.862983688438,4,1,0,100,0,0
174699,-101.261618504953,4,1,0,100,0,0
175179,-102.888491510671,4,1,0,100,0,0
175419,-103.721743603999,4,1,0,100,0,0
175659,-104.568492885683,4,1,0,100,0,0
176139,-106.304268328982,4,1,0,100,0,0
176379,-107.193889090771,4,1,0,100,0,0
176619,-108.098642172956,4,1,0,100,0,0
177099,-109.95463271854,4,1,0,100,0,0
177579,-111.875344016683,4,1,0,100,0,0
178059,-113.864480772274,4,1,0,100,0,0
178239,-114.628814703667,4,1,0,100,0,0
178419,-115.403346235427,4,1,0,100,0,0
178539,-115.925631388951,4,1,0,100,0,0
179019,-118.062778701947,4,1,0,100,0,0
179499,-120.280204765021,4,1,0,100,0,0
179539,-120.468719694588,4,1,0,100,0,0
179579,-120.657826469914,4,1,0,100,0,0
179859,-121.998679974283,4,1,0,100,0,0
179979,-122.582519487556,4,1,0,100,0,0
180219,-123.766971545973,4,1,0,100,0,0
180459,-124.974536438201,4,1,0,100,0,0
184299,-125,4,1,0,100,0,0
185259,-117.656056051345,4,1,0,100,0,0
186219,-111.127162812406,4,1,0,100,0,0
186699,-108.127161867443,4,1,0,100,0,0
187179,-105.284768978896,4,1,0,100,0,0
187419,-103.918885075066,4,1,0,100,0,0
187659,-102.58809239494,4,1,0,100,0,0
187779,-101.935344449722,4,1,0,100,0,0
187899,-101.290850600047,4,1,0,100,0,0
187959,-100.971650189776,4,1,0,100,0,0
188019,-100.654455268154,4,1,0,100,0,0
188139,-100.026006761758,4,1,0,100,0,1
203499,-100.026006761758,4,1,0,100,0,0
205419,-111.111111111111,4,1,0,100,0,0
205899,-108.115705427949,4,1,0,100,0,0
206379,-105.277564298272,4,1,0,100,0,0
206499,-104.591132345435,4,1,0,100,0,0
206619,-103.91359376851,4,1,0,100,0,0
206739,-103.244883441689,4,1,0,100,0,0
206859,-102.584619488,4,1,0,100,0,0
206919,-102.257644270197,4,1,0,100,0,0
206979,-101.932746812308,4,1,0,100,0,0
207039,-101.609907372408,4,1,0,100,0,0
207099,-101.28910645789,4,1,0,100,0,0
207219,-100.653644769131,4,1,0,100,0,0
207339,-100.026006761758,4,1,0,100,0,1
222699,-100.026006761758,4,1,0,100,0,0

[HitObjects]
201,133,3819,5,0,0:0:0:0:
201,133,4059,1,2,0:0:0:0:
153,138,4179,1,0,0:0:0:0:
153,138,4299,1,2,0:0:0:0:
152,148,4419,1,2,0:0:0:0:
152,151,4539,1,0,0:0:0:0:
131,132,4659,1,2,0:0:0:0:
153,124,4779,1,0,0:0:0:0:
131,132,4899,1,0,0:0:0:0:
151,112,5019,1,2,0:0:0:0:
151,112,5139,1,0,0:0:0:0:
131,132,5259,1,0,0:0:0:0:
131,132,5379,1,0,0:0:0:0:
151,112,5499,1,2,0:0:0:0:
131,132,5619,1,2,0:0:0:0:
131,132,5739,1,0,0:0:0:0:
131,132,5859,1,0,0:0:0:0:
131,132,5979,1,2,0:0:0:0:
131,132,6099,1,0,0:0:0:0:
143,111,6219,1,2,0:0:0:0:
143,112,6339,1,2,0:0:0:0:
143,111,6459,1,0,0:0:0:0:
143,112,6579,1,2,0:0:0:0:
143,111,6699,1,0,0:0:0:0:
143,112,6819,1,0,0:0:0:0:
143,111,6939,1,2,0:0:0:0:
143,112,7059,1,0,0:0:0:0:
143,123,7179,1,2,0:0:0:0:
143,119,7299,1,2,0:0:0:0:
143,123,7419,1,2,0:0:0:0:
175,77,7539,1,2,0:0:0:0:
201,133,7659,1,0,0:0:0:0:
201,133,7899,1,2,0:0:0:0:
153,138,8019,1,0,0:0:0:0:
153,138,8139,1,2,0:0:0:0:
152,148,8259,1,2,0:0:0:0:
152,151,8379,1,0,0:0:0:0:
131,132,8499,1,2,0:0:0:0:
153,124,8619,1,0,0:0:0:0:
131,132,8739,1,0,0:0:0:0:
151,112,8859,1,2,0:0:0:0:
151,112,8979,1,0,0:0:0:0:
131,132,9099,1,0,0:0:0:0:
131,132,9219,1,0,0:0:0:0:
151,112,9339,1,2,0:0:0:0:
177,87,9459,1,0,0:0:0:0:
177,87,9579,1,2,0:0:0:0:
131,132,9819,1,2,0:0:0:0:
131,132,9939,1,0,0:0:0:0:
176,65,10179,1,0,0:0:0:0:
176,65,10299,1,2,0:0:0:0:
176,65,10419,1,2,0:0:0:0:
176,65,10539,1,0,0:0:0:0:
168,92,10659,1,2,0:0:0:0:
168,92,10719,1,2,0:0:0:0:
168,92,10779,1,2,0:0:0:0:
143,112,10899,1,0,0:0:0:0:
181,132,11019,1,2,0:0:0:0:
181,132,11259,1,2,0:0:0:0:
181,132,11379,1,2,0:0:0:0:
181,132,11499,1,4,0:0:0:0:
181,132,11979,1,2,0:0:0:0:
181,132,12039,1,2,0:0:0:0:
181,132,12099,1,0,0:0:0:0:
181,132,12159,1,0,0:0:0:0:
181,132,12219,1,0,0:0:0:0:
181,132,12339,1,0,0:0:0:0:
181,132,12459,1,2,0:0:0:0:
163,78,12699,1,0,0:0:0:0:
166,111,12819,1,0,0:0:0:0:
166,111,12939,1,2,0:0:0:0:
139,97,12979,1,0,0:0:0:0:
139,97,13019,1,0,0:0:0:0:
139,97,13059,1,0,0:0:0:0:
166,111,13179,1,2,0:0:0:0:
166,111,13299,1,2,0:0:0:0:
166,111,13419,1,4,0:0:0:0:
166,111,13659,1,0,0:0:0:0:
166,116,13779,1,0,0:0:0:0:
166,116,13899,1,2,0:0:0:0:
258,86,13929,1,2,0:0:0:0:
258,86,14139,1,2,0:0:0:0:
258,86,14169,1,2,0:0:0:0:
258,86,14379,1,0,0:0:0:0:
258,86,14499,1,0,0:0:0:0:
258,86,14559,1,0,0:0:0:0:
255,91,14619,1,2,0:0:0:0:
253,95,14739,1,0,0:0:0:0:
252,97,14859,1,2,0:0:0:0:
253,95,14919,1,2,0:0:0:0:
253,95,14979,1,2,0:0:0:0:
252,97,15039,1,2,0:0:0:0:
252,97,15099,1,0,0:0:0:0:
252,100,15219,1,2,0:0:0:0:
252,97,15339,1,4,0:0:0:0:
177,38,15819,1,2,0:0:0:0:
177,38,15879,1,2,0:0:0:0:
177,38,15939,1,2,0:0:0:0:
179,42,15999,1,2,0:0:0:0:
180,43,16059,1,2,0:0:0:0:
180,43,16179,1,2,0:0:0:0:
180,43,16299,1,0,0:0:0:0:
180,43,16539,1,0,0:0:0:0:
180,43,16779,1,2,0:0:0:0:
266,43,16819,1,0,0:0:0:0:
266,43,16859,1,0,0:0:0:0:
266,43,16899,1,0,0:0:0:0:
266,43,17019,1,2,0:0:0:0:
266,43,17139,1,2,0:0:0:0:
266,43,17259,1,4,0:0:0:0:
212,57,17499,1,0,0:0:0:0:
212,57,17619,1,0,0:0:0:0:
212,57,17739,1,2,0:0:0:0:
212,57,17859,1,2,0:0:0:0:
212,57,17979,1,0,0:0:0:0:
330,64,18099,1,0,0:0:0:0:
330,64,18219,1,2,0:0:0:0:
330,64,18339,1,0,0:0:0:0:
330,64,18399,1,0,0:0:0:0:
330,64,18459,1,2,0:0:0:0:
330,64,18579,1,0,0:0:0:0:
330,64,18699,1,2,0:0:0:0:
211,62,18819,1,0,0:0:0:0:
211,62,18939,1,2,0:0:0:0:
327,67,19059,1,2,0:0:0:0:
211,62,19179,1,4,0:0:0:0:
211,62,19659,1,2,0:0:0:0:
211,62,19719,1,2,0:0:0:0:
211,62,19779,1,2,0:0:0:0:
211,62,19839,1,2,0:0:0:0:
211,62,19899,1,0,0:0:0:0:
211,62,20019,1,0,0:0:0:0:
211,62,20139,1,2,0:0:0:0:
211,62,20259,1,2,0:0:0:0:
211,62,20379,1,0,0:0:0:0:
211,62,20499,1,2,0:0:0:0:
251,51,20619,1,0,0:0:0:0:
251,51,20659,1,0,0:0:0:0:
251,51,20699,1,0,0:0:0:0:
251,51,20739,1,0,0:0:0:0:
251,51,20859,1,2,0:0:0:0:
251,51,20979,1,2,0:0:0:0:
168,58,21099,1,4,0:0:0:0:
179,78,21339,1,0,0:0:0:0:
179,78,21459,1,0,0:0:0:0:
327,67,21579,1,2,0:0:0:0:
322,37,21609,1,2,0:0:0:0:
322,37,21819,1,2,0:0:0:0:
322,37,21849,1,2,0:0:0:0:
222,52,22059,1,0,0:0:0:0:
222,52,22179,1,0,0:0:0:0:
222,52,22299,1,2,0:0:0:0:
277,57,22339,1,2,0:0:0:0:
277,57,22379,1,2,0:0:0:0:
277,57,22419,1,0,0:0:0:0:
254,43,22539,1,0,0:0:0:0:
197,56,22659,1,0,0:0:0:0:
197,56,22719,1,0,0:0:0:0:
197,56,22779,1,2,0:0:0:0:
189,62,22899,1,0,0:0:0:0:
189,62,23019,1,4,0:0:0:0:
189,62,23499,1,2,0:0:0:0:
189,62,23559,1,2,0:0:0:0:
189,62,23619,1,2,0:0:0:0:
189,62,23679,1,2,0:0:0:0:
189,62,23739,1,2,0:0:0:0:
189,62,23859,1,2,0:0:0:0:
189,62,23979,1,4,0:0:0:0:
188,69,24099,1,2,0:0:0:0:
188,69,24219,1,0,0:0:0:0:
188,69,24339,1,0,0:0:0:0:
188,69,24459,1,2,0:0:0:0:
314,42,24499,1,0,0:0:0:0:
314,42,24539,1,0,0:0:0:0:
314,42,24579,1,0,0:0:0:0:
188,69,24699,1,2,0:0:0:0:
261,47,24819,1,2,0:0:0:0:
261,47,24939,1,4,0:0:0:0:
236,57,25059,1,2,0:0:0:0:
189,64,25119,1,0,0:0:0:0:
231,65,25179,1,0,0:0:0:0:
230,67,25299,1,0,0:0:0:0:
154,72,25419,1,12,0:0:0:0:
188,68,25659,1,0,0:0:0:0:
132,82,25899,1,0,0:0:0:0:
135,87,25959,1,2,0:0:0:0:
135,87,26019,1,0,0:0:0:0:
135,88,26079,1,0,0:0:0:0:
135,88,26139,1,2,0:0:0:0:
135,87,26199,1,2,0:0:0:0:
135,87,26259,1,0,0:0:0:0:
182,87,26319,1,2,0:0:0:0:
182,87,26379,1,0,0:0:0:0:
188,68,26499,1,0,0:0:0:0:
188,68,26559,1,0,0:0:0:0:
188,68,26619,1,2,0:0:0:0:
132,54,26739,1,0,0:0:0:0:
133,58,26859,1,4,0:0:0:0:
145,87,26979,1,0,0:0:0:0:
145,87,27039,1,0,0:0:0:0:
145,87,27099,1,2,0:0:0:0:
111,97,27219,1,2,0:0:0:0:
133,58,27339,1,0,0:0:0:0:
113,89,27399,1,0,0:0:0:0:
113,89,27459,1,0,0:0:0:0:
147,84,27579,1,0,0:0:0:0:
161,49,27699,1,2,0:0:0:0:
133,58,27819,1,0,0:0:0:0:
162,114,27939,1,2,0:0:0:0:
162,114,27999,1,0,0:0:0:0:
191,82,28059,1,2,0:0:0:0:
162,114,28119,1,2,0:0:0:0:
133,65,28179,1,0,0:0:0:0:
149,14,28239,1,0,0:0:0:0:
133,66,28299,1,2,0:0:0:0:
131,69,28419,1,0,0:0:0:0:
161,102,28479,1,0,0:0:0:0:
131,72,28539,1,2,0:0:0:0:
147,75,28659,1,0,0:0:0:0:
220,183,28719,1,2,0:0:0:0:
131,72,28779,1,0,0:0:0:0:
131,69,28899,1,0,0:0:0:0:
156,67,29019,1,2,0:0:0:0:
153,97,29139,1,2,0:0:0:0:
124,55,29259,1,0,0:0:0:0:
131,65,29319,1,0,0:0:0:0:
161,87,29379,1,2,0:0:0:0:
161,87,29499,1,0,0:0:0:0:
156,77,29619,1,2,0:0:0:0:
161,87,29679,1,2,0:0:0:0:
154,72,29739,1,0,0:0:0:0:
174,122,29799,1,0,0:0:0:0:
156,112,29859,1,2,0:0:0:0:
174,122,29919,1,0,0:0:0:0:
134,111,29979,1,2,0:0:0:0:
148,117,30099,1,2,0:0:0:0:
141,79,30159,1,0,0:0:0:0:
154,72,30219,1,2,0:0:0:0:
176,141,30279,1,2,0:0:0:0:
176,141,30339,1,0,0:0:0:0:
149,118,30399,1,0,0:0:0:0:
151,96,30459,1,2,0:0:0:0:
154,72,30579,1,0,0:0:0:0:
154,72,30699,1,0,0:0:0:0:
154,72,30819,1,0,0:0:0:0:
154,72,30879,1,0,0:0:0:0:
154,72,30939,1,2,0:0:0:0:
154,72,31059,1,2,0:0:0:0:
154,72,31179,1,0,0:0:0:0:
154,72,31239,1,0,0:0:0:0:
156,77,31299,1,0,0:0:0:0:
161,67,31419,1,0,0:0:0:0:
154,72,31539,1,2,0:0:0:0:
154,72,31659,1,0,0:0:0:0:
193,92,31779,1,2,0:0:0:0:
154,72,31839,1,0,0:0:0:0:
193,86,31899,1,2,0:0:0:0:
163,63,31959,1,2,0:0:0:0:
146,72,32019,1,0,0:0:0:0:
146,74,32079,1,0,0:0:0:0:
146,72,32139,1,2,0:0:0:0:
153,77,32259,1,0,0:0:0:0:
151,92,32319,1,0,0:0:0:0:
153,77,32379,1,2,0:0:0:0:
151,92,32499,1,0,0:0:0:0:
219,172,32559,1,2,0:0:0:0:
151,92,32619,1,0,0:0:0:0:
219,172,32739,1,0,0:0:0:0:
151,92,32859,1,2,0:0:0:0:
166,76,32979,1,2,0:0:0:0:
151,92,33099,1,0,0:0:0:0:
171,104,33159,1,0,0:0:0:0:
166,62,33219,1,2,0:0:0:0:
166,62,33279,1,0,0:0:0:0:
166,70,33399,1,0,0:0:0:0:
166,72,33459,1,2,0:0:0:0:
156,109,33579,1,0,0:0:0:0:
166,75,33819,1,2,0:0:0:0:
159,91,33939,1,2,0:0:0:0:
166,75,34059,1,0,0:0:0:0:
166,75,34179,1,0,0:0:0:0:
166,75,34299,1,2,0:0:0:0:
242,58,34339,1,2,0:0:0:0:
242,63,34379,1,2,0:0:0:0:
242,65,34419,1,0,0:0:0:0:
133,58,34539,1,4,0:0:0:0:
145,87,34659,1,0,0:0:0:0:
145,87,34719,1,0,0:0:0:0:
145,87,34779,1,2,0:0:0:0:
111,97,34899,1,2,0:0:0:0:
133,58,35019,1,0,0:0:0:0:
113,89,35079,1,0,0:0:0:0:
113,89,35139,1,0,0:0:0:0:
150,143,35259,1,2,0:0:0:0:
150,143,35379,1,0,0:0:0:0:
133,58,35499,1,0,0:0:0:0:
150,143,35619,1,2,0:0:0:0:
162,114,35679,1,0,0:0:0:0:
191,82,35739,1,2,0:0:0:0:
162,114,35799,1,2,0:0:0:0:
133,65,35859,1,0,0:0:0:0:
149,14,35919,1,0,0:0:0:0:
133,66,35979,1,2,0:0:0:0:
131,69,36099,1,0,0:0:0:0:
161,102,36159,1,0,0:0:0:0:
131,72,36219,1,2,0:0:0:0:
185,139,36279,1,2,0:0:0:0:
185,139,36339,1,0,0:0:0:0:
185,139,36399,1,2,0:0:0:0:
131,72,36459,1,0,0:0:0:0:
131,69,36579,1,0,0:0:0:0:
156,67,36699,1,2,0:0:0:0:
153,97,36819,1,2,0:0:0:0:
124,55,36939,1,0,0:0:0:0:
131,65,36999,1,0,0:0:0:0:
151,142,37059,1,0,0:0:0:0:
151,142,37179,1,2,0:0:0:0:
156,77,37299,1,2,0:0:0:0:
161,87,37359,1,2,0:0:0:0:
154,72,37419,1,0,0:0:0:0:
174,122,37479,1,0,0:0:0:0:
156,112,37539,1,2,0:0:0:0:
174,122,37599,1,0,0:0:0:0:
134,111,37659,1,2,0:0:0:0:
165,59,37779,1,0,0:0:0:0:
154,72,37899,1,2,0:0:0:0:
176,141,37959,1,2,0:0:0:0:
176,141,38019,1,0,0:0:0:0:
149,118,38079,1,0,0:0:0:0:
151,96,38139,1,2,0:0:0:0:
154,72,38259,1,0,0:0:0:0:
163,196,38379,1,0,0:0:0:0:
154,72,38499,1,0,0:0:0:0:
154,72,38559,1,0,0:0:0:0:
154,72,38619,1,2,0:0:0:0:
154,72,38739,1,2,0:0:0:0:
154,72,38859,1,0,0:0:0:0:
154,72,38919,1,0,0:0:0:0:
156,77,38979,1,0,0:0:0:0:
161,79,39099,1,2,0:0:0:0:
161,83,39219,1,0,0:0:0:0:
164,194,39339,1,0,0:0:0:0:
193,92,39459,1,2,0:0:0:0:
154,72,39519,1,0,0:0:0:0:
193,86,39579,1,2,0:0:0:0:
163,63,39639,1,2,0:0:0:0:
146,72,39699,1,0,0:0:0:0:
146,74,39759,1,0,0:0:0:0:
146,72,39819,1,2,0:0:0:0:
157,80,39879,1,2,0:0:0:0:
153,77,39939,1,0,0:0:0:0:
151,92,39999,1,0,0:0:0:0:
153,77,40059,1,2,0:0:0:0:
151,92,40179,1,0,0:0:0:0:
151,92,40299,1,0,0:0:0:0:
157,80,40419,1,0,0:0:0:0:
151,92,40539,1,2,0:0:0:0:
166,76,40659,1,2,0:0:0:0:
153,134,40779,1,0,0:0:0:0:
153,134,40839,1,0,0:0:0:0:
153,134,40899,1,2,0:0:0:0:
153,134,41019,1,0,0:0:0:0:
153,134,41139,1,2,0:0:0:0:
153,139,41259,1,0,0:0:0:0:
176,81,41319,1,0,0:0:0:0:
176,81,41379,1,0,0:0:0:0:
176,81,41439,1,0,0:0:0:0:
176,81,41499,1,2,0:0:0:0:
191,87,41619,1,0,0:0:0:0:
191,90,41739,1,2,0:0:0:0:
191,87,41799,1,2,0:0:0:0:
191,87,41859,1,2,0:0:0:0:
191,90,41979,1,0,0:0:0:0:
191,87,42099,1,0,0:0:0:0:
191,90,42219,1,4,0:0:0:0:
198,164,44139,1,4,0:0:0:0:
198,164,44619,1,4,0:0:0:0:
164,127,45099,1,0,0:0:0:0:
173,137,45219,1,2,0:0:0:0:
173,139,45339,1,0,0:0:0:0:
173,137,45459,1,0,0:0:0:0:
198,164,45579,1,2,0:0:0:0:
173,137,45639,1,0,0:0:0:0:
173,137,45699,1,2,0:0:0:0:
173,137,45759,1,2,0:0:0:0:
173,137,45819,1,0,0:0:0:0:
161,96,45939,1,2,0:0:0:0:
162,119,46059,1,4,0:0:0:0:
162,119,46239,1,0,0:0:0:0:
162,119,46299,1,2,0:0:0:0:
162,119,46419,1,0,0:0:0:0:
162,119,46539,1,2,0:0:0:0:
150,115,46599,1,0,0:0:0:0:
150,114,46659,1,0,0:0:0:0:
150,119,46779,1,2,0:0:0:0:
150,122,46899,1,2,0:0:0:0:
150,125,47019,1,0,0:0:0:0:
150,122,47079,1,0,0:0:0:0:
150,129,47139,1,2,0:0:0:0:
165,85,47199,1,2,0:0:0:0:
151,132,47259,1,0,0:0:0:0:
135,98,47379,1,2,0:0:0:0:
135,103,47499,1,0,0:0:0:0:
135,106,47559,1,0,0:0:0:0:
165,85,47619,1,2,0:0:0:0:
165,85,47739,1,2,0:0:0:0:
165,85,47859,1,0,0:0:0:0:
131,120,47919,1,2,0:0:0:0:
131,120,47979,1,0,0:0:0:0:
171,126,48099,1,0,0:0:0:0:
131,117,48219,1,2,0:0:0:0:
166,132,48339,1,0,0:0:0:0:
159,121,48459,1,2,0:0:0:0:
159,121,48519,1,0,0:0:0:0:
159,121,48579,1,0,0:0:0:0:
159,121,48699,1,2,0:0:0:0:
159,121,48819,1,2,0:0:0:0:
159,121,48939,1,0,0:0:0:0:
159,121,48999,1,0,0:0:0:0:
159,121,49059,1,2,0:0:0:0:
159,121,49179,1,0,0:0:0:0:
159,121,49299,1,2,0:0:0:0:
165,82,49359,1,2,0:0:0:0:
159,121,49419,1,0,0:0:0:0:
165,82,49479,1,0,0:0:0:0:
165,87,49539,1,2,0:0:0:0:
166,88,49599,1,0,0:0:0:0:
165,82,49659,1,2,0:0:0:0:
165,87,49779,1,0,0:0:0:0:
166,88,49839,1,0,0:0:0:0:
181,158,49899,1,0,0:0:0:0:
162,119,50079,1,0,0:0:0:0:
162,119,50139,1,2,0:0:0:0:
162,119,50259,1,0,0:0:0:0:
162,119,50379,1,2,0:0:0:0:
150,115,50439,1,0,0:0:0:0:
150,114,50499,1,0,0:0:0:0:
150,119,50619,1,2,0:0:0:0:
150,122,50739,1,2,0:0:0:0:
150,125,50859,1,0,0:0:0:0:
150,122,50919,1,0,0:0:0:0:
150,129,50979,1,2,0:0:0:0:
165,85,51039,1,2,0:0:0:0:
151,132,51099,1,0,0:0:0:0:
135,98,51219,1,2,0:0:0:0:
135,103,51339,1,0,0:0:0:0:
135,106,51399,1,0,0:0:0:0:
165,85,51459,1,2,0:0:0:0:
165,85,51579,1,2,0:0:0:0:
165,85,51699,1,0,0:0:0:0:
131,120,51759,1,2,0:0:0:0:
131,120,51819,1,0,0:0:0:0:
171,126,51939,1,0,0:0:0:0:
131,117,52059,1,2,0:0:0:0:
166,132,52179,1,0,0:0:0:0:
190,153,52239,1,0,0:0:0:0:
159,121,52299,1,2,0:0:0:0:
159,121,52359,1,0,0:0:0:0:
159,121,52419,1,0,0:0:0:0:
187,75,52539,1,0,0:0:0:0:
172,87,52659,1,2,0:0:0:0:
172,87,52779,1,0,0:0:0:0:
176,72,52839,1,0,0:0:0:0:
159,121,52899,1,2,0:0:0:0:
173,92,52959,1,0,0:0:0:0:
186,78,53019,1,2,0:0:0:0:
173,92,53079,1,2,0:0:0:0:
173,87,53139,1,0,0:0:0:0:
173,92,53199,1,0,0:0:0:0:
173,87,53259,1,2,0:0:0:0:
173,87,53319,1,0,0:0:0:0:
173,87,53379,1,0,0:0:0:0:
166,88,53439,1,0,0:0:0:0:
165,82,53499,1,2,0:0:0:0:
173,92,53559,1,2,0:0:0:0:
165,87,53619,1,0,0:0:0:0:
166,88,53679,1,0,0:0:0:0:
104,156,53739,1,0,0:0:0:0:
162,119,53919,1,0,0:0:0:0:
162,119,53979,1,2,0:0:0:0:
162,119,54099,1,0,0:0:0:0:
162,119,54219,1,2,0:0:0:0:
150,115,54279,1,0,0:0:0:0:
150,114,54339,1,0,0:0:0:0:
150,119,54459,1,2,0:0:0:0:
150,122,54579,1,2,0:0:0:0:
150,125,54699,1,0,0:0:0:0:
150,122,54759,1,0,0:0:0:0:
150,129,54819,1,2,0:0:0:0:
165,85,54879,1,2,0:0:0:0:
151,132,54939,1,0,0:0:0:0:
135,98,55059,1,2,0:0:0:0:
135,103,55179,1,0,0:0:0:0:
135,106,55239,1,0,0:0:0:0:
165,85,55299,1,2,0:0:0:0:
181,107,55359,1,0,0:0:0:0:
181,107,55419,1,2,0:0:0:0:
165,85,55539,1,0,0:0:0:0:
131,120,55599,1,2,0:0:0:0:
131,120,55659,1,0,0:0:0:0:
171,126,55779,1,0,0:0:0:0:
131,117,55899,1,2,0:0:0:0:
166,132,56019,1,0,0:0:0:0:
159,121,56139,1,2,0:0:0:0:
159,121,56199,1,0,0:0:0:0:
159,121,56259,1,0,0:0:0:0:
159,121,56379,1,2,0:0:0:0:
159,121,56499,1,2,0:0:0:0:
159,121,56619,1,0,0:0:0:0:
159,121,56679,1,0,0:0:0:0:
159,121,56739,1,2,0:0:0:0:
159,121,56859,1,0,0:0:0:0:
159,121,56979,1,2,0:0:0:0:
165,82,57039,1,2,0:0:0:0:
159,121,57099,1,0,0:0:0:0:
165,82,57159,1,0,0:0:0:0:
165,87,57219,1,2,0:0:0:0:
166,88,57279,1,0,0:0:0:0:
165,82,57339,1,2,0:0:0:0:
165,87,57459,1,0,0:0:0:0:
166,88,57519,1,0,0:0:0:0:
181,158,57579,1,0,0:0:0:0:
162,119,57759,1,0,0:0:0:0:
162,119,57819,1,2,0:0:0:0:
162,119,57939,1,0,0:0:0:0:
162,119,58059,1,2,0:0:0:0:
150,115,58119,1,0,0:0:0:0:
150,114,58179,1,0,0:0:0:0:
150,119,58299,1,2,0:0:0:0:
150,122,58419,1,2,0:0:0:0:
150,125,58539,1,0,0:0:0:0:
150,122,58599,1,0,0:0:0:0:
150,129,58659,1,2,0:0:0:0:
165,85,58719,1,2,0:0:0:0:
151,132,58779,1,0,0:0:0:0:
135,98,58899,1,2,0:0:0:0:
135,103,59019,1,0,0:0:0:0:
135,106,59079,1,0,0:0:0:0:
165,85,59139,1,2,0:0:0:0:
181,106,59199,1,0,0:0:0:0:
165,85,59259,1,2,0:0:0:0:
181,106,59319,1,2,0:0:0:0:
165,85,59379,1,0,0:0:0:0:
131,120,59439,1,2,0:0:0:0:
131,120,59499,1,0,0:0:0:0:
171,126,59619,1,0,0:0:0:0:
131,117,59739,1,2,0:0:0:0:
166,132,59859,1,0,0:0:0:0:
190,153,59919,1,0,0:0:0:0:
159,121,59979,1,2,0:0:0:0:
159,121,60039,1,0,0:0:0:0:
159,121,60099,1,0,0:0:0:0:
187,75,60219,1,0,0:0:0:0:
172,87,60339,1,2,0:0:0:0:
172,87,60459,1,0,0:0:0:0:
183,102,60519,1,2,0:0:0:0:
183,102,60579,1,0,0:0:0:0:
173,92,60639,1,0,0:0:0:0:
186,78,60699,1,2,0:0:0:0:
173,92,60759,1,2,0:0:0:0:
173,87,60819,1,0,0:0:0:0:
173,92,60879,1,0,0:0:0:0:
173,87,60939,1,2,0:0:0:0:
173,87,60999,1,0,0:0:0:0:
183,102,61059,1,2,0:0:0:0:
183,103,61119,1,2,0:0:0:0:
183,105,61179,1,0,0:0:0:0:
173,92,61239,1,2,0:0:0:0:
165,87,61299,1,0,0:0:0:0:
168,84,61419,1,4,0:0:0:0:
168,96,62139,1,0,0:0:0:0:
168,101,62259,1,0,0:0:0:0:
168,101,62379,1,0,0:0:0:0:
168,101,62619,1,2,0:0:0:0:
168,101,62739,1,0,0:0:0:0:
181,75,62859,5,12,0:0:0:0:
181,75,63099,1,12,0:0:0:0:
156,92,63339,5,4,0:0:0:0:
144,70,63459,1,0,0:0:0:0:
181,81,63579,1,2,0:0:0:0:
181,82,63639,1,2,0:0:0:0:
181,82,63699,1,0,0:0:0:0:
91,154,63759,1,0,0:0:0:0:
181,87,63819,1,2,0:0:0:0:
165,123,63939,1,2,0:0:0:0:
181,87,64059,1,0,0:0:0:0:
201,89,64119,1,0,0:0:0:0:
165,135,64179,1,0,0:0:0:0:
181,87,64299,1,0,0:0:0:0:
181,87,64359,1,0,0:0:0:0:
181,87,64419,1,2,0:0:0:0:
173,95,64479,1,0,0:0:0:0:
181,87,64539,1,2,0:0:0:0:
181,87,64659,1,2,0:0:0:0:
181,87,64779,1,0,0:0:0:0:
181,87,64839,1,2,0:0:0:0:
181,87,64899,1,0,0:0:0:0:
181,87,64959,1,0,0:0:0:0:
181,87,65019,1,2,0:0:0:0:
181,87,65079,1,2,0:0:0:0:
166,92,65139,1,0,0:0:0:0:
165,69,65199,1,2,0:0:0:0:
163,73,65259,1,0,0:0:0:0:
166,92,65379,1,0,0:0:0:0:
166,92,65439,1,0,0:0:0:0:
166,93,65499,1,2,0:0:0:0:
166,92,65559,1,2,0:0:0:0:
166,92,65619,1,0,0:0:0:0:
204,17,65679,1,0,0:0:0:0:
166,93,65739,1,2,0:0:0:0:
166,92,65859,1,2,0:0:0:0:
166,93,65979,1,0,0:0:0:0:
138,128,66039,5,0,0:0:0:0:
138,128,66099,1,2,0:0:0:0:
166,93,66219,1,0,0:0:0:0:
132,97,66279,1,0,0:0:0:0:
151,83,66339,1,2,0:0:0:0:
151,85,66399,1,0,0:0:0:0:
166,93,66459,1,2,0:0:0:0:
158,87,66519,1,2,0:0:0:0:
166,98,66579,1,0,0:0:0:0:
160,81,66699,1,2,0:0:0:0:
159,83,66759,1,0,0:0:0:0:
166,98,66819,1,2,0:0:0:0:
160,81,66879,1,2,0:0:0:0:
160,81,66939,1,0,0:0:0:0:
151,64,67059,1,0,0:0:0:0:
151,64,67119,1,2,0:0:0:0:
134,112,67179,1,0,0:0:0:0:
155,122,67299,5,0,0:0:0:0:
156,128,67419,1,2,0:0:0:0:
156,129,67479,1,2,0:0:0:0:
157,130,67539,1,0,0:0:0:0:
157,131,67599,1,0,0:0:0:0:
156,85,67659,1,2,0:0:0:0:
156,85,67779,1,2,0:0:0:0:
156,85,67899,1,0,0:0:0:0:
201,140,67959,1,0,0:0:0:0:
174,126,68019,1,0,0:0:0:0:
161,97,68139,1,2,0:0:0:0:
161,80,68259,1,2,0:0:0:0:
160,82,68319,1,2,0:0:0:0:
160,85,68379,1,2,0:0:0:0:
160,86,68499,1,2,0:0:0:0:
154,93,68619,1,2,0:0:0:0:
154,89,68679,1,0,0:0:0:0:
160,86,68739,1,2,0:0:0:0:
154,93,68799,1,0,0:0:0:0:
154,98,68859,1,2,0:0:0:0:
154,99,68919,1,0,0:0:0:0:
154,100,68979,1,2,0:0:0:0:
162,135,69099,1,0,0:0:0:0:
162,135,69159,1,0,0:0:0:0:
162,135,69219,1,2,0:0:0:0:
167,28,69279,1,2,0:0:0:0:
167,32,69339,1,0,0:0:0:0:
167,33,69399,1,0,0:0:0:0:
167,35,69459,1,2,0:0:0:0:
181,87,69579,1,2,0:0:0:0:
163,128,69639,1,0,0:0:0:0:
181,87,69699,1,2,0:0:0:0:
164,135,69759,1,2,0:0:0:0:
181,87,69819,1,0,0:0:0:0:
181,87,69879,1,2,0:0:0:0:
181,87,69939,1,0,0:0:0:0:
181,87,70059,1,0,0:0:0:0:
181,87,70119,1,0,0:0:0:0:
181,87,70179,1,2,0:0:0:0:
173,95,70239,1,0,0:0:0:0:
181,87,70299,1,2,0:0:0:0:
164,135,70359,1,2,0:0:0:0:
164,135,70419,1,0,0:0:0:0:
164,147,70539,1,2,0:0:0:0:
165,145,70599,1,0,0:0:0:0:
164,148,70659,1,2,0:0:0:0:
164,146,70719,1,2,0:0:0:0:
164,147,70779,1,0,0:0:0:0:
165,145,70839,1,0,0:0:0:0:
164,148,70899,1,2,0:0:0:0:
163,73,71019,1,0,0:0:0:0:
148,73,71079,1,2,0:0:0:0:
166,92,71139,1,0,0:0:0:0:
166,92,71199,1,0,0:0:0:0:
166,93,71259,1,2,0:0:0:0:
166,92,71319,1,2,0:0:0:0:
166,92,71379,1,0,0:0:0:0:
166,93,71499,1,2,0:0:0:0:
158,89,71559,1,0,0:0:0:0:
166,92,71619,1,2,0:0:0:0:
158,91,71679,1,2,0:0:0:0:
166,93,71739,1,0,0:0:0:0:
166,92,71799,1,2,0:0:0:0:
166,92,71859,1,0,0:0:0:0:
166,93,71979,1,0,0:0:0:0:
132,97,72039,1,0,0:0:0:0:
151,83,72099,1,2,0:0:0:0:
155,113,72159,1,0,0:0:0:0:
166,93,72219,1,2,0:0:0:0:
155,113,72279,1,0,0:0:0:0:
155,113,72339,1,2,0:0:0:0:
155,113,72399,1,2,0:0:0:0:
156,119,72459,1,0,0:0:0:0:
159,83,72519,1,0,0:0:0:0:
166,98,72579,1,2,0:0:0:0:
160,101,72639,1,0,0:0:0:0:
154,110,72699,1,2,0:0:0:0:
159,76,72819,1,0,0:0:0:0:
157,92,72879,1,2,0:0:0:0:
134,112,72939,1,0,0:0:0:0:
157,95,72999,1,0,0:0:0:0:
157,97,73059,1,2,0:0:0:0:
155,122,73119,1,0,0:0:0:0:
156,128,73179,1,2,0:0:0:0:
156,129,73239,1,2,0:0:0:0:
157,130,73299,1,0,0:0:0:0:
157,131,73359,1,0,0:0:0:0:
156,85,73419,1,2,0:0:0:0:
157,97,73479,1,0,0:0:0:0:
156,85,73539,1,2,0:0:0:0:
157,97,73599,1,2,0:0:0:0:
156,85,73659,1,0,0:0:0:0:
174,126,73719,1,2,0:0:0:0:
174,126,73779,1,0,0:0:0:0:
156,103,73899,1,2,0:0:0:0:
156,103,73959,1,0,0:0:0:0:
161,80,74019,1,2,0:0:0:0:
160,82,74079,1,2,0:0:0:0:
156,103,74139,1,0,0:0:0:0:
156,103,74199,1,2,0:0:0:0:
156,108,74259,1,0,0:0:0:0:
156,109,74319,1,0,0:0:0:0:
154,93,74379,1,2,0:0:0:0:
156,109,74439,1,2,0:0:0:0:
156,108,74499,1,0,0:0:0:0:
154,93,74559,1,0,0:0:0:0:
154,98,74619,1,2,0:0:0:0:
154,99,74679,1,0,0:0:0:0:
154,100,74739,1,2,0:0:0:0:
154,98,74859,1,0,0:0:0:0:
166,73,74919,1,0,0:0:0:0:
166,78,74979,1,2,0:0:0:0:
166,96,75039,1,2,0:0:0:0:
166,97,75099,1,0,0:0:0:0:
166,100,75159,1,0,0:0:0:0:
166,100,75219,1,2,0:0:0:0:
166,80,75279,1,0,0:0:0:0:
166,82,75339,1,2,0:0:0:0:
181,199,75399,1,0,0:0:0:0:
181,199,75459,1,2,0:0:0:0:
181,199,75519,1,2,0:0:0:0:
166,92,75579,1,0,0:0:0:0:
166,100,75639,1,0,0:0:0:0:
166,102,75699,1,2,0:0:0:0:
166,90,75759,1,0,0:0:0:0:
166,92,75819,1,2,0:0:0:0:
156,102,75879,1,2,0:0:0:0:
192,118,75939,1,0,0:0:0:0:
164,65,75999,1,0,0:0:0:0:
164,65,76059,1,2,0:0:0:0:
164,67,76119,1,2,0:0:0:0:
164,67,76179,1,2,0:0:0:0:
166,152,76239,1,0,0:0:0:0:
166,152,76299,1,2,0:0:0:0:
166,152,76359,1,2,0:0:0:0:
156,107,76419,1,0,0:0:0:0:
156,107,76539,1,2,0:0:0:0:
164,114,76659,1,0,0:0:0:0:
156,109,76779,1,4,0:0:0:0:
171,81,77259,1,2,0:0:0:0:
157,107,77739,1,0,0:0:0:0:
156,87,77859,1,0,0:0:0:0:
156,79,77919,1,0,0:0:0:0:
156,89,77979,1,0,0:0:0:0:
156,87,78099,1,0,0:0:0:0:
181,73,78219,1,2,0:0:0:0:
158,71,78459,1,0,0:0:0:0:
181,73,78579,1,0,0:0:0:0:
159,87,78699,1,0,0:0:0:0:
159,87,79179,1,2,0:0:0:0:
159,87,79659,1,0,0:0:0:0:
155,56,79839,1,0,0:0:0:0:
155,56,79899,1,0,0:0:0:0:
156,67,80019,1,0,0:0:0:0:
159,87,80139,1,2,0:0:0:0:
143,106,80259,1,2,0:0:0:0:
143,106,80379,1,2,0:0:0:0:
159,79,80619,1,4,0:0:0:0:
207,115,81099,1,2,0:0:0:0:
207,115,81579,1,0,0:0:0:0:
207,115,81699,1,0,0:0:0:0:
207,115,81759,1,0,0:0:0:0:
207,115,81819,1,0,0:0:0:0:
207,115,81939,1,0,0:0:0:0:
207,115,82059,1,2,0:0:0:0:
196,122,82299,1,0,0:0:0:0:
167,104,82419,1,0,0:0:0:0:
196,122,82539,1,0,0:0:0:0:
196,122,83019,1,2,0:0:0:0:
167,107,83499,1,0,0:0:0:0:
168,113,83679,1,0,0:0:0:0:
168,114,83739,1,0,0:0:0:0:
168,119,83859,1,0,0:0:0:0:
168,122,83979,1,2,0:0:0:0:
168,119,84099,1,2,0:0:0:0:
168,122,84219,1,0,0:0:0:0:
168,119,84339,1,2,0:0:0:0:
156,109,84459,1,4,0:0:0:0:
171,81,84939,1,2,0:0:0:0:
189,45,85119,1,2,0:0:0:0:
168,102,85179,1,2,0:0:0:0:
189,45,85299,1,2,0:0:0:0:
157,107,85419,1,0,0:0:0:0:
156,87,85539,1,0,0:0:0:0:
156,79,85599,1,0,0:0:0:0:
156,89,85659,1,0,0:0:0:0:
156,87,85779,1,0,0:0:0:0:
181,73,85899,1,2,0:0:0:0:
158,71,86139,1,0,0:0:0:0:
181,73,86259,1,0,0:0:0:0:
159,87,86379,1,0,0:0:0:0:
159,87,86859,1,2,0:0:0:0:
172,135,87039,1,2,0:0:0:0:
172,135,87099,1,0,0:0:0:0:
172,135,87219,1,2,0:0:0:0:
159,87,87339,1,0,0:0:0:0:
155,56,87519,1,0,0:0:0:0:
155,56,87579,1,0,0:0:0:0:
156,67,87699,1,0,0:0:0:0:
159,87,87819,1,2,0:0:0:0:
143,106,87939,1,2,0:0:0:0:
143,106,88059,1,2,0:0:0:0:
159,79,88299,1,4,0:0:0:0:
155,153,88779,1,2,0:0:0:0:
171,103,88959,1,2,0:0:0:0:
153,167,89019,1,2,0:0:0:0:
153,167,89079,1,0,0:0:0:0:
171,103,89139,1,2,0:0:0:0:
207,115,89259,1,0,0:0:0:0:
207,115,89379,1,0,0:0:0:0:
207,115,89439,1,0,0:0:0:0:
207,115,89499,1,0,0:0:0:0:
207,115,89619,1,0,0:0:0:0:
207,115,89739,1,2,0:0:0:0:
196,122,89979,1,0,0:0:0:0:
167,104,90099,1,0,0:0:0:0:
196,122,90219,1,0,0:0:0:0:
196,122,90699,1,2,0:0:0:0:
156,120,90879,1,2,0:0:0:0:
156,120,90939,1,0,0:0:0:0:
156,120,90999,1,0,0:0:0:0:
156,120,91059,1,2,0:0:0:0:
167,107,91179,1,0,0:0:0:0:
168,113,91359,1,0,0:0:0:0:
168,114,91419,1,0,0:0:0:0:
168,119,91539,1,0,0:0:0:0:
168,122,91659,1,2,0:0:0:0:
168,119,91779,1,2,0:0:0:0:
168,122,91899,1,0,0:0:0:0:
168,119,92019,1,2,0:0:0:0:
156,122,92139,1,4,0:0:0:0:
209,137,93579,1,2,0:0:0:0:
209,140,93819,1,2,0:0:0:0:
209,140,94059,1,0,0:0:0:0:
209,140,94119,1,0,0:0:0:0:
209,140,94179,1,0,0:0:0:0:
209,140,94239,1,0,0:0:0:0:
209,140,94299,1,0,0:0:0:0:
209,140,94359,1,0,0:0:0:0:
209,140,94419,1,0,0:0:0:0:
209,140,94479,1,0,0:0:0:0:
209,140,94539,1,0,0:0:0:0:
209,140,94599,1,0,0:0:0:0:
209,140,94659,1,0,0:0:0:0:
209,140,94719,1,0,0:0:0:0:
209,140,94779,1,0,0:0:0:0:
209,140,94839,1,0,0:0:0:0:
209,140,94899,1,0,0:0:0:0:
209,140,94959,1,0,0:0:0:0:
209,140,95019,1,2,0:0:0:0:
186,110,95259,1,2,0:0:0:0:
191,138,95379,1,0,0:0:0:0:
191,138,95439,1,0,0:0:0:0:
191,138,95499,1,2,0:0:0:0:
191,138,95619,1,2,0:0:0:0:
191,138,95739,1,0,0:0:0:0:
192,143,95859,1,2,0:0:0:0:
184,76,95979,1,4,0:0:0:0:
236,75,96459,1,2,0:0:0:0:
201,87,96519,1,2,0:0:0:0:
201,87,96579,1,0,0:0:0:0:
181,38,96639,1,0,0:0:0:0:
181,32,96699,1,2,0:0:0:0:
156,77,96819,1,0,0:0:0:0:
160,40,96939,1,2,0:0:0:0:
181,38,96999,1,0,0:0:0:0:
181,38,97059,1,2,0:0:0:0:
225,52,97119,1,0,0:0:0:0:
225,52,97179,1,2,0:0:0:0:
181,38,97299,1,0,0:0:0:0:
181,38,97419,1,2,0:0:0:0:
283,60,97539,1,2,0:0:0:0:
169,53,97659,1,0,0:0:0:0:
257,55,97899,1,0,0:0:0:0:
215,61,97959,1,0,0:0:0:0:
215,61,98019,1,2,0:0:0:0:
206,57,98079,1,2,0:0:0:0:
206,60,98139,1,0,0:0:0:0:
138,143,98259,1,0,0:0:0:0:
205,67,98379,1,2,0:0:0:0:
205,67,98439,1,2,0:0:0:0:
205,67,98499,1,0,0:0:0:0:
205,67,98559,1,0,0:0:0:0:
205,67,98619,1,2,0:0:0:0:
205,67,98739,1,2,0:0:0:0:
205,67,98859,1,0,0:0:0:0:
190,82,98919,5,0,0:0:0:0:
191,86,98979,1,0,0:0:0:0:
191,90,99039,1,0,0:0:0:0:
313,45,99099,1,2,0:0:0:0:
191,92,99219,1,0,0:0:0:0:
313,45,99339,1,2,0:0:0:0:
313,45,99399,1,2,0:0:0:0:
313,45,99459,1,0,0:0:0:0:
313,45,99519,1,0,0:0:0:0:
313,45,99579,1,2,0:0:0:0:
183,36,99819,1,0,0:0:0:0:
160,61,99939,1,0,0:0:0:0:
216,45,99999,1,0,0:0:0:0:
160,61,100059,1,2,0:0:0:0:
160,61,100179,1,2,0:0:0:0:
278,48,100299,1,2,0:0:0:0:
173,67,100359,1,2,0:0:0:0:
223,65,100419,1,0,0:0:0:0:
223,65,100479,1,0,0:0:0:0:
187,84,100539,1,2,0:0:0:0:
196,42,100599,1,2,0:0:0:0:
196,51,100659,1,2,0:0:0:0:
196,52,100719,1,2,0:0:0:0:
173,67,100779,1,0,0:0:0:0:
186,95,100839,5,0,0:0:0:0:
173,67,100899,1,2,0:0:0:0:
196,52,100959,1,0,0:0:0:0:
173,67,101019,1,0,0:0:0:0:
166,66,101139,1,0,0:0:0:0:
166,71,101259,1,2,0:0:0:0:
166,71,101319,1,2,0:0:0:0:
166,71,101379,1,0,0:0:0:0:
166,71,101439,1,0,0:0:0:0:
166,71,101499,1,2,0:0:0:0:
224,54,101559,1,2,0:0:0:0:
224,54,101619,1,2,0:0:0:0:
224,54,101739,1,0,0:0:0:0:
168,24,101799,1,0,0:0:0:0:
166,37,101859,1,2,0:0:0:0:
166,41,101919,1,2,0:0:0:0:
224,54,101979,1,0,0:0:0:0:
310,47,102099,1,0,0:0:0:0:
310,47,102219,1,2,0:0:0:0:
277,45,102279,1,2,0:0:0:0:
277,45,102339,1,0,0:0:0:0:
277,45,102399,1,0,0:0:0:0:
277,45,102459,1,2,0:0:0:0:
211,66,102519,1,0,0:0:0:0:
208,71,102579,1,2,0:0:0:0:
208,72,102639,1,2,0:0:0:0:
207,77,102699,1,0,0:0:0:0:
196,89,102759,1,0,0:0:0:0:
196,91,102819,1,2,0:0:0:0:
196,91,102879,1,2,0:0:0:0:
196,87,102939,1,0,0:0:0:0:
196,89,103059,1,0,0:0:0:0:
196,92,103179,1,2,0:0:0:0:
195,97,103419,1,2,0:0:0:0:
186,80,103449,1,2,0:0:0:0:
186,81,103539,1,2,0:0:0:0:
186,81,103569,1,2,0:0:0:0:
184,76,103659,1,4,0:0:0:0:
236,75,104139,1,2,0:0:0:0:
201,87,104199,1,2,0:0:0:0:
201,87,104259,1,0,0:0:0:0:
181,38,104319,1,0,0:0:0:0:
181,32,104379,1,2,0:0:0:0:
156,77,104499,1,0,0:0:0:0:
160,40,104619,1,2,0:0:0:0:
181,38,104679,1,0,0:0:0:0:
181,38,104739,1,2,0:0:0:0:
225,52,104799,1,0,0:0:0:0:
225,52,104859,1,2,0:0:0:0:
181,38,104979,1,0,0:0:0:0:
181,38,105099,1,2,0:0:0:0:
283,60,105219,1,2,0:0:0:0:
169,53,105339,1,0,0:0:0:0:
257,55,105579,1,0,0:0:0:0:
215,61,105639,1,0,0:0:0:0:
215,61,105699,1,2,0:0:0:0:
206,57,105759,1,2,0:0:0:0:
206,60,105819,1,0,0:0:0:0:
138,143,105939,1,0,0:0:0:0:
205,67,106059,1,2,0:0:0:0:
205,67,106119,1,2,0:0:0:0:
205,67,106179,1,0,0:0:0:0:
205,67,106239,1,0,0:0:0:0:
205,67,106299,1,2,0:0:0:0:
205,67,106419,1,2,0:0:0:0:
205,67,106539,1,0,0:0:0:0:
190,82,106599,5,0,0:0:0:0:
191,86,106659,1,0,0:0:0:0:
206,50,106699,1,0,0:0:0:0:
206,52,106739,1,0,0:0:0:0:
313,45,106779,1,2,0:0:0:0:
191,92,106899,1,0,0:0:0:0:
313,45,107019,1,2,0:0:0:0:
313,45,107079,1,2,0:0:0:0:
313,45,107139,1,0,0:0:0:0:
313,45,107199,1,0,0:0:0:0:
231,70,107259,1,2,0:0:0:0:
150,73,107379,1,2,0:0:0:0:
183,36,107499,1,0,0:0:0:0:
160,61,107619,1,0,0:0:0:0:
216,45,107679,1,0,0:0:0:0:
160,61,107739,1,2,0:0:0:0:
160,61,107859,1,2,0:0:0:0:
278,48,107979,1,2,0:0:0:0:
173,67,108039,1,2,0:0:0:0:
223,65,108099,1,0,0:0:0:0:
223,65,108159,1,0,0:0:0:0:
187,84,108219,1,2,0:0:0:0:
196,42,108279,1,2,0:0:0:0:
281,70,108339,1,2,0:0:0:0:
281,70,108399,1,2,0:0:0:0:
280,77,108459,1,0,0:0:0:0:
280,78,108519,1,0,0:0:0:0:
173,67,108579,1,2,0:0:0:0:
196,52,108639,1,0,0:0:0:0:
173,67,108699,1,0,0:0:0:0:
166,66,108819,1,0,0:0:0:0:
166,71,108939,1,2,0:0:0:0:
166,71,108999,1,2,0:0:0:0:
166,71,109059,1,0,0:0:0:0:
166,71,109119,1,0,0:0:0:0:
166,71,109179,1,2,0:0:0:0:
224,54,109239,1,2,0:0:0:0:
224,54,109299,1,2,0:0:0:0:
224,54,109419,1,0,0:0:0:0:
168,24,109479,1,0,0:0:0:0:
166,37,109539,1,2,0:0:0:0:
166,41,109599,1,2,0:0:0:0:
224,54,109659,1,0,0:0:0:0:
276,82,109779,1,2,0:0:0:0:
276,82,109899,1,0,0:0:0:0:
275,89,109959,1,2,0:0:0:0:
277,45,110019,1,0,0:0:0:0:
277,45,110079,1,0,0:0:0:0:
277,45,110139,1,2,0:0:0:0:
211,66,110199,1,0,0:0:0:0:
208,71,110259,1,2,0:0:0:0:
208,72,110319,1,2,0:0:0:0:
207,77,110379,1,0,0:0:0:0:
196,89,110439,1,0,0:0:0:0:
196,91,110499,1,2,0:0:0:0:
196,91,110559,1,2,0:0:0:0:
196,87,110619,1,0,0:0:0:0:
196,89,110739,1,0,0:0:0:0:
196,92,110859,1,2,0:0:0:0:
195,97,111099,1,2,0:0:0:0:
186,81,111219,1,2,0:0:0:0:
184,76,111339,1,4,0:0:0:0:
275,89,111699,1,0,0:0:0:0:
275,89,111759,1,0,0:0:0:0:
275,89,111819,1,2,0:0:0:0:
275,89,111879,1,2,0:0:0:0:
275,89,111939,1,0,0:0:0:0:
275,89,111999,1,0,0:0:0:0:
275,89,112059,1,2,0:0:0:0:
275,89,112119,1,0,0:0:0:0:
274,93,112179,1,2,0:0:0:0:
274,94,112239,1,2,0:0:0:0:
274,94,112299,1,0,0:0:0:0:
274,94,112359,1,0,0:0:0:0:
274,93,112419,1,2,0:0:0:0:
273,98,112479,1,0,0:0:0:0:
273,98,112539,1,2,0:0:0:0:
273,98,112599,1,2,0:0:0:0:
273,98,112659,1,0,0:0:0:0:
273,98,112719,1,0,0:0:0:0:
273,98,112779,1,2,0:0:0:0:
273,98,112839,1,0,0:0:0:0:
273,98,112899,1,2,0:0:0:0:
273,98,112959,1,2,0:0:0:0:
273,98,113019,1,0,0:0:0:0:
195,98,113259,1,2,0:0:0:0:
156,87,113319,1,2,0:0:0:0:
237,109,113379,1,2,0:0:0:0:
237,109,113439,1,2,0:0:0:0:
237,109,113499,1,0,0:0:0:0:
226,95,113619,1,0,0:0:0:0:
236,113,113739,1,2,0:0:0:0:
235,115,113799,1,2,0:0:0:0:
235,117,113859,1,2,0:0:0:0:
192,150,113919,1,2,0:0:0:0:
192,150,113979,1,0,0:0:0:0:
192,150,114039,1,0,0:0:0:0:
235,117,114099,1,2,0:0:0:0:
235,117,114159,1,2,0:0:0:0:
235,117,114219,1,2,0:0:0:0:
235,115,114279,1,2,0:0:0:0:
206,142,114339,1,0,0:0:0:0:
235,117,114399,1,0,0:0:0:0:
235,117,114459,1,2,0:0:0:0:
233,120,114519,1,2,0:0:0:0:
158,95,114579,1,2,0:0:0:0:
156,99,114639,1,2,0:0:0:0:
158,95,114699,1,0,0:0:0:0:
158,95,114759,1,0,0:0:0:0:
156,99,114819,1,0,0:0:0:0:
156,99,114879,1,0,0:0:0:0:
156,99,114939,1,2,0:0:0:0:
157,77,115059,1,2,0:0:0:0:
157,77,115179,1,4,0:0:0:0:
157,82,115419,1,0,0:0:0:0:
157,82,115539,1,0,0:0:0:0:
157,82,115659,1,2,0:0:0:0:
226,64,115719,1,2,0:0:0:0:
226,64,115779,1,0,0:0:0:0:
226,64,115839,1,0,0:0:0:0:
226,64,115899,1,2,0:0:0:0:
226,64,115959,1,0,0:0:0:0:
221,67,116019,1,2,0:0:0:0:
221,68,116079,1,2,0:0:0:0:
221,68,116139,1,0,0:0:0:0:
221,68,116199,1,0,0:0:0:0:
221,67,116259,1,2,0:0:0:0:
221,68,116319,1,0,0:0:0:0:
221,68,116379,1,2,0:0:0:0:
221,67,116439,1,2,0:0:0:0:
221,67,116499,1,0,0:0:0:0:
221,68,116559,1,0,0:0:0:0:
221,68,116619,1,2,0:0:0:0:
228,64,116649,1,2,0:0:0:0:
226,66,116739,1,0,0:0:0:0:
226,66,116769,1,0,0:0:0:0:
226,69,116859,1,2,0:0:0:0:
226,69,116889,1,2,0:0:0:0:
206,68,117099,1,0,0:0:0:0:
206,68,117159,1,2,0:0:0:0:
206,68,117219,1,0,0:0:0:0:
206,68,117279,1,0,0:0:0:0:
206,68,117339,1,2,0:0:0:0:
206,68,117399,1,0,0:0:0:0:
206,68,117459,1,2,0:0:0:0:
156,53,117579,1,2,0:0:0:0:
156,53,117639,1,2,0:0:0:0:
156,53,117699,1,2,0:0:0:0:
156,53,117759,1,2,0:0:0:0:
156,53,117819,1,0,0:0:0:0:
156,53,117879,1,0,0:0:0:0:
156,53,117939,1,2,0:0:0:0:
156,53,117999,1,2,0:0:0:0:
220,143,118059,1,0,0:0:0:0:
218,148,118119,1,0,0:0:0:0:
218,148,118179,1,2,0:0:0:0:
216,155,118239,1,0,0:0:0:0:
216,156,118299,1,2,0:0:0:0:
156,53,118359,1,2,0:0:0:0:
156,53,118419,1,0,0:0:0:0:
156,53,118479,1,0,0:0:0:0:
156,53,118539,1,2,0:0:0:0:
156,69,118779,1,2,0:0:0:0:
151,58,119019,1,4,0:0:0:0:
166,36,119259,1,2,0:0:0:0:
160,97,119379,1,2,0:0:0:0:
160,88,119499,1,2,0:0:0:0:
168,78,119559,1,2,0:0:0:0:
160,92,119619,1,0,0:0:0:0:
160,93,119679,1,0,0:0:0:0:
160,97,119739,1,2,0:0:0:0:
140,82,119799,1,0,0:0:0:0:
140,85,119859,1,2,0:0:0:0:
141,87,119919,1,2,0:0:0:0:
141,88,119979,1,0,0:0:0:0:
141,88,120039,1,0,0:0:0:0:
140,85,120099,1,2,0:0:0:0:
141,87,120159,1,2,0:0:0:0:
141,88,120219,1,0,0:0:0:0:
141,88,120279,1,0,0:0:0:0:
140,85,120339,1,2,0:0:0:0:
141,87,120399,1,0,0:0:0:0:
141,88,120459,1,2,0:0:0:0:
141,88,120519,1,2,0:0:0:0:
140,85,120579,1,0,0:0:0:0:
138,97,120639,1,0,0:0:0:0:
138,97,120699,1,2,0:0:0:0:
163,97,120939,1,2,0:0:0:0:
163,97,120999,1,2,0:0:0:0:
163,97,121059,1,2,0:0:0:0:
163,97,121119,1,2,0:0:0:0:
163,97,121179,1,0,0:0:0:0:
172,99,121299,1,0,0:0:0:0:
172,99,121419,1,2,0:0:0:0:
172,99,121479,1,2,0:0:0:0:
172,99,121539,1,2,0:0:0:0:
172,99,121599,1,2,0:0:0:0:
172,99,121659,1,0,0:0:0:0:
172,99,121719,1,0,0:0:0:0:
172,99,121779,1,2,0:0:0:0:
217,107,121839,1,2,0:0:0:0:
217,107,121899,1,2,0:0:0:0:
217,107,121959,1,2,0:0:0:0:
172,99,122019,1,0,0:0:0:0:
172,99,122079,1,0,0:0:0:0:
172,99,122139,1,2,0:0:0:0:
172,99,122199,1,2,0:0:0:0:
217,107,122259,1,2,0:0:0:0:
126,62,122319,1,2,0:0:0:0:
126,57,122379,1,0,0:0:0:0:
217,107,122439,1,2,0:0:0:0:
171,51,122499,1,0,0:0:0:0:
126,62,122559,1,0,0:0:0:0:
126,62,122619,1,2,0:0:0:0:
126,62,122739,1,2,0:0:0:0:
171,51,122859,1,0,0:0:0:0:
168,80,123099,1,2,0:0:0:0:
197,95,123219,1,2,0:0:0:0:
220,105,123339,1,2,0:0:0:0:
220,105,123399,1,2,0:0:0:0:
168,81,123459,1,0,0:0:0:0:
168,80,123519,1,0,0:0:0:0:
168,80,123579,1,2,0:0:0:0:
168,81,123639,1,0,0:0:0:0:
168,81,123699,1,2,0:0:0:0:
168,80,123759,1,2,0:0:0:0:
168,80,123819,1,0,0:0:0:0:
168,81,123879,1,0,0:0:0:0:
168,81,123939,1,2,0:0:0:0:
168,80,123999,1,0,0:0:0:0:
168,80,124059,1,2,0:0:0:0:
168,81,124119,1,2,0:0:0:0:
168,81,124179,1,0,0:0:0:0:
168,80,124239,1,0,0:0:0:0:
168,80,124299,1,2,0:0:0:0:
218,67,124329,1,2,0:0:0:0:
215,73,124419,1,0,0:0:0:0:
215,73,124449,1,0,0:0:0:0:
198,47,124539,1,2,0:0:0:0:
214,75,124569,1,2,0:0:0:0:
198,47,124779,1,0,0:0:0:0:
127,65,124839,1,2,0:0:0:0:
127,65,124899,1,0,0:0:0:0:
127,65,124959,1,0,0:0:0:0:
127,65,125019,1,2,0:0:0:0:
170,72,125079,1,2,0:0:0:0:
170,62,125139,1,0,0:0:0:0:
170,72,125199,1,0,0:0:0:0:
170,72,125259,1,2,0:0:0:0:
170,72,125319,1,2,0:0:0:0:
170,77,125379,1,2,0:0:0:0:
170,78,125439,1,2,0:0:0:0:
170,80,125499,1,0,0:0:0:0:
127,65,125559,1,0,0:0:0:0:
127,65,125619,1,2,0:0:0:0:
127,65,125679,1,2,0:0:0:0:
128,69,125739,1,0,0:0:0:0:
168,96,125799,1,0,0:0:0:0:
168,96,125859,1,2,0:0:0:0:
169,83,125919,1,0,0:0:0:0:
169,83,125979,1,2,0:0:0:0:
169,84,126039,1,2,0:0:0:0:
169,84,126099,1,0,0:0:0:0:
169,83,126159,1,0,0:0:0:0:
169,83,126219,1,2,0:0:0:0:
216,95,126279,1,2,0:0:0:0:
216,95,126339,1,0,0:0:0:0:
216,95,126399,1,2,0:0:0:0:
216,95,126459,1,0,0:0:0:0:
216,95,126519,1,0,0:0:0:0:
216,95,126579,1,2,0:0:0:0:
168,96,126639,1,0,0:0:0:0:
168,96,126699,1,2,0:0:0:0:
215,98,126879,1,0,0:0:0:0:
215,98,126939,1,2,0:0:0:0:
215,98,127059,1,2,0:0:0:0:
215,98,127179,1,0,0:0:0:0:
215,98,127239,1,0,0:0:0:0:
195,109,127299,1,0,0:0:0:0:
195,109,127419,1,2,0:0:0:0:
195,109,127539,1,2,0:0:0:0:
195,109,127599,1,2,0:0:0:0:
195,109,127659,1,0,0:0:0:0:
195,109,127779,1,0,0:0:0:0:
195,109,127899,1,2,0:0:0:0:
197,157,128079,1,0,0:0:0:0:
197,157,128139,1,2,0:0:0:0:
197,157,128259,1,0,0:0:0:0:
183,147,128379,1,2,0:0:0:0:
182,148,128439,1,2,0:0:0:0:
197,157,128499,1,0,0:0:0:0:
183,147,128559,1,0,0:0:0:0:
183,147,128619,1,2,0:0:0:0:
181,79,128739,1,0,0:0:0:0:
181,79,128859,1,2,0:0:0:0:
183,88,128979,1,2,0:0:0:0:
181,84,129039,1,0,0:0:0:0:
190,151,129099,1,2,0:0:0:0:
190,151,129219,1,0,0:0:0:0:
190,151,129339,1,2,0:0:0:0:
161,131,129399,1,0,0:0:0:0:
161,136,129459,1,2,0:0:0:0:
161,136,129519,1,2,0:0:0:0:
161,138,129579,1,0,0:0:0:0:
161,136,129699,1,0,0:0:0:0:
161,138,129819,1,2,0:0:0:0:
161,136,129939,1,0,0:0:0:0:
161,138,129999,1,0,0:0:0:0:
174,136,130059,1,2,0:0:0:0:
188,165,130119,1,0,0:0:0:0:
188,165,130179,1,2,0:0:0:0:
188,165,130239,1,2,0:0:0:0:
188,165,130299,1,0,0:0:0:0:
188,165,130419,1,0,0:0:0:0:
187,160,130539,1,0,0:0:0:0:
180,132,130719,1,0,0:0:0:0:
180,132,130779,1,2,0:0:0:0:
180,132,130899,1,2,0:0:0:0:
196,153,131019,1,0,0:0:0:0:
196,158,131079,1,0,0:0:0:0:
196,158,131199,1,0,0:0:0:0:
196,158,131259,1,2,0:0:0:0:
174,63,131379,1,2,0:0:0:0:
191,142,131499,1,0,0:0:0:0:
191,142,131559,1,0,0:0:0:0:
191,142,131619,1,2,0:0:0:0:
183,93,131679,1,2,0:0:0:0:
183,93,131739,1,0,0:0:0:0:
183,93,131799,1,2,0:0:0:0:
191,142,131859,1,0,0:0:0:0:
183,93,131979,1,2,0:0:0:0:
156,62,132099,1,0,0:0:0:0:
156,62,132159,1,0,0:0:0:0:
164,118,132219,1,2,0:0:0:0:
159,68,132339,1,2,0:0:0:0:
155,120,132459,1,0,0:0:0:0:
155,120,132519,1,0,0:0:0:0:
155,120,132639,1,0,0:0:0:0:
157,130,132699,1,2,0:0:0:0:
151,109,132819,1,0,0:0:0:0:
151,116,132939,1,2,0:0:0:0:
157,130,133059,1,0,0:0:0:0:
157,130,133119,1,0,0:0:0:0:
157,130,133179,1,2,0:0:0:0:
151,118,133299,1,0,0:0:0:0:
152,122,133419,1,0,0:0:0:0:
151,118,133479,1,0,0:0:0:0:
152,122,133539,1,2,0:0:0:0:
152,122,133599,1,0,0:0:0:0:
152,122,133659,1,2,0:0:0:0:
152,125,133719,1,2,0:0:0:0:
152,122,133779,1,0,0:0:0:0:
152,121,133839,1,0,0:0:0:0:
152,121,133899,1,2,0:0:0:0:
152,125,133959,1,2,0:0:0:0:
152,122,134019,1,0,0:0:0:0:
152,126,134079,1,0,0:0:0:0:
152,127,134139,1,2,0:0:0:0:
152,127,134199,1,2,0:0:0:0:
152,127,134259,1,2,0:0:0:0:
152,126,134319,1,2,0:0:0:0:
136,163,134379,1,0,0:0:0:0:
215,98,134559,1,0,0:0:0:0:
215,98,134619,1,2,0:0:0:0:
215,98,134739,1,2,0:0:0:0:
215,98,134859,1,0,0:0:0:0:
215,98,134919,1,0,0:0:0:0:
195,109,134979,1,0,0:0:0:0:
195,109,135099,1,2,0:0:0:0:
195,109,135219,1,2,0:0:0:0:
195,109,135279,1,2,0:0:0:0:
195,109,135339,1,0,0:0:0:0:
195,109,135459,1,0,0:0:0:0:
195,109,135579,1,2,0:0:0:0:
197,157,135759,1,0,0:0:0:0:
197,157,135819,1,2,0:0:0:0:
197,157,135939,1,0,0:0:0:0:
183,147,136059,1,2,0:0:0:0:
182,148,136119,1,2,0:0:0:0:
197,157,136179,1,0,0:0:0:0:
188,70,136299,1,0,0:0:0:0:
171,118,136419,1,0,0:0:0:0:
181,79,136539,1,2,0:0:0:0:
183,88,136659,1,2,0:0:0:0:
181,84,136719,1,0,0:0:0:0:
190,151,136779,1,2,0:0:0:0:
190,151,136899,1,0,0:0:0:0:
190,151,137019,1,2,0:0:0:0:
161,131,137079,1,0,0:0:0:0:
161,136,137139,1,2,0:0:0:0:
161,136,137199,1,2,0:0:0:0:
161,138,137259,1,0,0:0:0:0:
161,136,137379,1,0,0:0:0:0:
161,138,137499,1,2,0:0:0:0:
161,136,137619,1,0,0:0:0:0:
161,138,137679,1,0,0:0:0:0:
174,136,137739,1,2,0:0:0:0:
188,165,137799,1,0,0:0:0:0:
188,165,137859,1,2,0:0:0:0:
188,165,137919,1,2,0:0:0:0:
188,165,137979,1,0,0:0:0:0:
166,89,138099,1,0,0:0:0:0:
187,160,138219,1,0,0:0:0:0:
174,126,138339,1,0,0:0:0:0:
180,132,138399,1,0,0:0:0:0:
180,132,138459,1,2,0:0:0:0:
180,132,138579,1,2,0:0:0:0:
196,153,138699,1,0,0:0:0:0:
196,158,138759,1,0,0:0:0:0:
174,121,138819,1,0,0:0:0:0:
196,158,138879,1,0,0:0:0:0:
196,158,138939,1,2,0:0:0:0:
174,63,139059,1,2,0:0:0:0:
191,142,139179,1,0,0:0:0:0:
190,95,139299,1,2,0:0:0:0:
166,122,139359,1,0,0:0:0:0:
166,122,139419,1,2,0:0:0:0:
166,122,139479,1,2,0:0:0:0:
167,107,139539,1,0,0:0:0:0:
174,121,139599,1,0,0:0:0:0:
183,93,139659,1,2,0:0:0:0:
159,97,139779,1,0,0:0:0:0:
164,118,139899,1,2,0:0:0:0:
166,121,140019,1,2,0:0:0:0:
164,118,140139,1,0,0:0:0:0:
159,107,140199,1,0,0:0:0:0:
191,101,140259,1,0,0:0:0:0:
191,102,140319,1,0,0:0:0:0:
191,105,140379,1,2,0:0:0:0:
166,123,140439,1,0,0:0:0:0:
166,123,140499,1,2,0:0:0:0:
166,123,140559,1,2,0:0:0:0:
166,123,140619,1,0,0:0:0:0:
166,133,140679,1,2,0:0:0:0:
166,133,140739,1,0,0:0:0:0:
171,90,140799,1,0,0:0:0:0:
157,130,140859,1,2,0:0:0:0:
166,133,140919,1,2,0:0:0:0:
151,118,140979,1,0,0:0:0:0:
166,133,141039,1,0,0:0:0:0:
159,112,141099,1,2,0:0:0:0:
171,96,141159,1,2,0:0:0:0:
171,96,141219,1,0,0:0:0:0:
171,98,141279,1,0,0:0:0:0:
171,98,141339,1,2,0:0:0:0:
171,96,141399,1,0,0:0:0:0:
171,96,141459,1,2,0:0:0:0:
171,98,141519,1,2,0:0:0:0:
171,98,141579,1,0,0:0:0:0:
171,96,141639,1,0,0:0:0:0:
171,96,141699,1,0,0:0:0:0:
171,98,141759,1,0,0:0:0:0:
171,98,141819,1,2,0:0:0:0:
151,81,142059,1,4,0:0:0:0:
154,108,142299,1,0,0:0:0:0:
155,113,142419,1,2,0:0:0:0:
153,116,142539,1,0,0:0:0:0:
155,113,142659,1,0,0:0:0:0:
151,121,142719,1,2,0:0:0:0:
151,122,142839,1,2,0:0:0:0:
151,122,142899,1,0,0:0:0:0:
151,122,143019,1,0,0:0:0:0:
151,122,143139,1,0,0:0:0:0:
161,121,143199,1,0,0:0:0:0:
161,121,143259,1,2,0:0:0:0:
153,92,143379,1,2,0:0:0:0:
153,92,143499,1,0,0:0:0:0:
153,92,143559,1,2,0:0:0:0:
168,70,143619,1,0,0:0:0:0:
168,72,143679,1,2,0:0:0:0:
169,82,143739,1,0,0:0:0:0:
153,103,143979,1,0,0:0:0:0:
168,81,144099,1,2,0:0:0:0:
168,81,144159,1,2,0:0:0:0:
163,110,144219,1,0,0:0:0:0:
163,110,144339,1,0,0:0:0:0:
163,110,144459,1,2,0:0:0:0:
187,90,144519,1,2,0:0:0:0:
186,95,144579,1,0,0:0:0:0:
186,95,144639,1,0,0:0:0:0:
186,97,144699,1,2,0:0:0:0:
186,95,144819,1,2,0:0:0:0:
195,135,144939,1,0,0:0:0:0:
199,92,144999,1,0,0:0:0:0:
249,115,145059,1,0,0:0:0:0:
156,97,145119,1,0,0:0:0:0:
199,92,145179,1,2,0:0:0:0:
165,90,145299,1,0,0:0:0:0:
165,90,145359,1,0,0:0:0:0:
165,90,145419,1,2,0:0:0:0:
155,109,145479,1,2,0:0:0:0:
198,101,145539,1,0,0:0:0:0:
165,90,145599,1,0,0:0:0:0:
165,90,145659,1,2,0:0:0:0:
199,92,145779,1,0,0:0:0:0:
199,92,145899,1,4,0:0:0:0:
133,80,146139,1,0,0:0:0:0:
133,80,146199,1,0,0:0:0:0:
197,103,146259,1,0,0:0:0:0:
197,104,146379,1,2,0:0:0:0:
136,87,146499,1,0,0:0:0:0:
136,87,146559,1,2,0:0:0:0:
136,87,146679,1,2,0:0:0:0:
176,94,146739,1,0,0:0:0:0:
142,108,146859,1,0,0:0:0:0:
154,67,147099,1,2,0:0:0:0:
154,73,147219,1,2,0:0:0:0:
176,79,147339,1,0,0:0:0:0:
142,108,147459,1,0,0:0:0:0:
151,92,147519,1,0,0:0:0:0:
184,32,147639,1,2,0:0:0:0:
181,39,147699,1,0,0:0:0:0:
181,40,147759,1,0,0:0:0:0:
181,40,147819,1,2,0:0:0:0:
141,109,147939,1,0,0:0:0:0:
141,109,148179,1,0,0:0:0:0:
141,109,148239,1,0,0:0:0:0:
141,109,148299,1,2,0:0:0:0:
141,109,148419,1,0,0:0:0:0:
156,95,148539,1,2,0:0:0:0:
156,98,148599,1,2,0:0:0:0:
190,81,148659,1,2,0:0:0:0:
176,92,148779,1,0,0:0:0:0:
204,172,148899,1,0,0:0:0:0:
188,83,149019,1,2,0:0:0:0:
204,172,149139,1,0,0:0:0:0:
187,87,149259,1,2,0:0:0:0:
187,89,149319,1,2,0:0:0:0:
187,87,149379,1,0,0:0:0:0:
187,95,149439,1,0,0:0:0:0:
187,95,149499,1,2,0:0:0:0:
176,107,149619,1,2,0:0:0:0:
187,95,149739,1,0,0:0:0:0:
246,91,149799,1,2,0:0:0:0:
246,91,149859,1,2,0:0:0:0:
246,91,149919,1,0,0:0:0:0:
246,91,149979,1,2,0:0:0:0:
246,91,150039,1,2,0:0:0:0:
246,91,150099,1,0,0:0:0:0:
222,133,150159,1,0,0:0:0:0:
246,91,150219,1,2,0:0:0:0:
246,91,150279,1,0,0:0:0:0:
246,91,150339,1,0,0:0:0:0:
246,91,150399,1,2,0:0:0:0:
246,91,150459,1,0,0:0:0:0:
246,91,150519,1,0,0:0:0:0:
246,91,150579,1,2,0:0:0:0:
222,133,150639,1,0,0:0:0:0:
245,96,150699,1,2,0:0:0:0:
245,96,150759,1,2,0:0:0:0:
245,96,150819,1,0,0:0:0:0:
245,96,150879,1,2,0:0:0:0:
245,96,150939,1,0,0:0:0:0:
245,96,150999,1,0,0:0:0:0:
245,96,151059,1,2,0:0:0:0:
245,96,151119,1,2,0:0:0:0:
245,96,151179,1,0,0:0:0:0:
245,96,151239,1,2,0:0:0:0:
245,96,151299,1,0,0:0:0:0:
245,98,151659,1,0,0:0:0:0:
245,98,151719,1,0,0:0:0:0:
245,98,151779,1,2,0:0:0:0:
245,98,151839,1,0,0:0:0:0:
245,98,151899,1,0,0:0:0:0:
245,98,151959,1,2,0:0:0:0:
245,98,152019,1,0,0:0:0:0:
222,133,152079,1,0,0:0:0:0:
245,98,152139,1,2,0:0:0:0:
245,98,152199,1,2,0:0:0:0:
245,98,152259,1,0,0:0:0:0:
245,98,152319,1,2,0:0:0:0:
245,98,152379,1,2,0:0:0:0:
245,98,152439,1,0,0:0:0:0:
245,98,152499,1,2,0:0:0:0:
222,133,152559,1,0,0:0:0:0:
245,98,152619,1,2,0:0:0:0:
222,133,152679,1,2,0:0:0:0:
222,133,152739,1,0,0:0:0:0:
245,98,152799,1,2,0:0:0:0:
241,102,152859,1,0,0:0:0:0:
241,102,152919,1,0,0:0:0:0:
241,102,152979,1,2,0:0:0:0:
166,78,153039,1,2,0:0:0:0:
161,84,153099,1,0,0:0:0:0:
208,75,153139,1,0,0:0:0:0:
208,75,153179,1,0,0:0:0:0:
207,82,153219,1,2,0:0:0:0:
166,82,153339,1,0,0:0:0:0:
166,82,153399,1,2,0:0:0:0:
141,87,153459,1,0,0:0:0:0:
178,173,153519,1,2,0:0:0:0:
221,63,153579,1,0,0:0:0:0:
138,73,153699,1,2,0:0:0:0:
138,73,153759,1,0,0:0:0:0:
138,77,153879,1,2,0:0:0:0:
138,77,153939,1,0,0:0:0:0:
160,113,154059,1,2,0:0:0:0:
160,113,154119,1,0,0:0:0:0:
140,82,154179,1,0,0:0:0:0:
140,82,154239,1,2,0:0:0:0:
140,82,154299,1,0,0:0:0:0:
140,82,154359,1,0,0:0:0:0:
140,82,154419,1,2,0:0:0:0:
222,133,154479,1,0,0:0:0:0:
141,88,154539,1,2,0:0:0:0:
161,116,154599,1,2,0:0:0:0:
161,116,154659,1,0,0:0:0:0:
142,92,154719,1,2,0:0:0:0:
142,94,154779,1,0,0:0:0:0:
143,96,154839,1,0,0:0:0:0:
143,96,154899,1,2,0:0:0:0:
158,62,155019,1,12,0:0:0:0:
158,74,155259,1,4,0:0:0:0:
160,117,155499,1,2,0:0:0:0:
221,133,155559,1,0,0:0:0:0:
160,117,155619,1,0,0:0:0:0:
221,133,155679,1,2,0:0:0:0:
221,133,155739,1,0,0:0:0:0:
160,122,155799,1,0,0:0:0:0:
221,133,155859,1,2,0:0:0:0:
221,138,155919,1,0,0:0:0:0:
221,133,155979,1,2,0:0:0:0:
221,138,156039,1,2,0:0:0:0:
221,138,156099,1,0,0:0:0:0:
221,133,156159,1,2,0:0:0:0:
221,138,156219,1,2,0:0:0:0:
221,133,156279,1,0,0:0:0:0:
221,133,156339,1,2,0:0:0:0:
221,138,156399,1,0,0:0:0:0:
246,141,156459,1,2,0:0:0:0:
221,138,156519,1,2,0:0:0:0:
161,130,156579,1,0,0:0:0:0:
161,130,156639,1,2,0:0:0:0:
161,130,156699,1,0,0:0:0:0:
161,133,156759,1,0,0:0:0:0:
162,134,156819,1,2,0:0:0:0:
162,134,156879,1,0,0:0:0:0:
162,134,156939,1,2,0:0:0:0:
162,134,157059,1,0,0:0:0:0:
165,139,157179,1,2,0:0:0:0:
166,148,157239,1,2,0:0:0:0:
166,150,157299,1,0,0:0:0:0:
166,154,157359,1,0,0:0:0:0:
166,154,157419,1,0,0:0:0:0:
166,150,157539,1,0,0:0:0:0:
153,153,157599,1,0,0:0:0:0:
153,153,157659,1,2,0:0:0:0:
177,87,157719,1,2,0:0:0:0:
153,158,157779,1,0,0:0:0:0:
152,117,157839,1,0,0:0:0:0:
149,108,157899,5,2,0:0:0:0:
177,87,157959,1,2,0:0:0:0:
169,100,158019,1,2,0:0:0:0:
177,87,158079,1,0,0:0:0:0:
176,82,158139,1,2,0:0:0:0:
176,82,158199,1,2,0:0:0:0:
184,135,158259,1,0,0:0:0:0:
163,84,158319,1,0,0:0:0:0:
169,100,158379,1,2,0:0:0:0:
169,101,158439,1,2,0:0:0:0:
169,102,158499,1,0,0:0:0:0:
169,102,158559,1,0,0:0:0:0:
169,100,158619,1,2,0:0:0:0:
211,112,158739,1,2,0:0:0:0:
211,112,158779,1,2,0:0:0:0:
211,112,158819,1,2,0:0:0:0:
211,112,158859,1,0,0:0:0:0:
176,87,158919,1,0,0:0:0:0:
176,87,158979,1,2,0:0:0:0:
172,75,159099,1,0,0:0:0:0:
176,87,159219,1,0,0:0:0:0:
156,79,159339,1,2,0:0:0:0:
176,92,159459,1,0,0:0:0:0:
183,100,159519,1,0,0:0:0:0:
176,92,159579,1,2,0:0:0:0:
171,80,159699,1,2,0:0:0:0:
176,92,159819,1,0,0:0:0:0:
215,79,159859,1,0,0:0:0:0:
215,79,159899,1,0,0:0:0:0:
211,89,159939,1,0,0:0:0:0:
231,89,159999,1,0,0:0:0:0:
231,91,160059,1,2,0:0:0:0:
247,81,160179,1,0,0:0:0:0:
261,69,160299,1,2,0:0:0:0:
166,82,160339,1,0,0:0:0:0:
166,83,160379,1,0,0:0:0:0:
166,83,160419,1,0,0:0:0:0:
251,74,160479,1,0,0:0:0:0:
175,77,160539,1,2,0:0:0:0:
175,77,160659,1,0,0:0:0:0:
175,84,160779,1,2,0:0:0:0:
151,74,160839,1,2,0:0:0:0:
175,77,160899,1,0,0:0:0:0:
175,77,160959,1,0,0:0:0:0:
175,83,161019,1,2,0:0:0:0:
175,82,161139,1,0,0:0:0:0:
175,83,161259,1,0,0:0:0:0:
152,77,161319,1,0,0:0:0:0:
152,77,161379,1,0,0:0:0:0:
152,79,161499,1,2,0:0:0:0:
158,102,161619,1,0,0:0:0:0:
246,141,161679,1,0,0:0:0:0:
246,141,161739,1,0,0:0:0:0:
161,113,161859,1,0,0:0:0:0:
203,108,161899,1,0,0:0:0:0:
203,108,161939,1,0,0:0:0:0:
201,112,161979,1,2,0:0:0:0:
241,137,162039,1,2,0:0:0:0:
241,137,162099,1,0,0:0:0:0:
241,132,162219,1,0,0:0:0:0:
191,97,162259,1,2,0:0:0:0:
191,104,162299,1,2,0:0:0:0:
208,107,162339,1,0,0:0:0:0:
209,114,162399,1,0,0:0:0:0:
209,116,162459,1,2,0:0:0:0:
209,116,162579,1,2,0:0:0:0:
187,90,162699,1,0,0:0:0:0:
165,88,162759,1,0,0:0:0:0:
165,88,162819,1,0,0:0:0:0:
165,89,162939,1,2,0:0:0:0:
165,88,163059,1,0,0:0:0:0:
165,89,163119,1,0,0:0:0:0:
165,89,163179,1,2,0:0:0:0:
165,92,163239,1,0,0:0:0:0:
165,88,163299,1,2,0:0:0:0:
165,97,163359,1,2,0:0:0:0:
165,98,163419,1,0,0:0:0:0:
165,98,163539,1,0,0:0:0:0:
165,98,163659,1,2,0:0:0:0:
165,98,163719,1,2,0:0:0:0:
165,98,163779,1,0,0:0:0:0:
165,98,163839,1,0,0:0:0:0:
165,98,163899,1,2,0:0:0:0:
165,98,164019,1,2,0:0:0:0:
165,98,164139,1,0,0:0:0:0:
165,98,164199,1,0,0:0:0:0:
165,98,164259,1,2,0:0:0:0:
165,98,164379,1,2,0:0:0:0:
165,98,164499,1,0,0:0:0:0:
165,98,164559,1,0,0:0:0:0:
165,98,164619,1,0,0:0:0:0:
155,53,164799,1,0,0:0:0:0:
155,103,164859,1,2,0:0:0:0:
155,103,164979,1,2,0:0:0:0:
155,103,165099,1,0,0:0:0:0:
155,103,165159,1,0,0:0:0:0:
155,103,165219,1,0,0:0:0:0:
150,133,165339,1,2,0:0:0:0:
146,92,165459,1,0,0:0:0:0:
150,133,165519,1,0,0:0:0:0:
152,105,165579,1,2,0:0:0:0:
146,92,165639,1,0,0:0:0:0:
144,99,165699,1,0,0:0:0:0:
152,113,165759,1,2,0:0:0:0:
144,102,165819,1,0,0:0:0:0:
144,102,165879,1,0,0:0:0:0:
152,113,165939,1,2,0:0:0:0:
144,102,165999,1,0,0:0:0:0:
144,102,166059,1,0,0:0:0:0:
144,85,166119,1,2,0:0:0:0:
144,105,166179,1,0,0:0:0:0:
144,102,166239,1,0,0:0:0:0:
144,107,166299,1,2,0:0:0:0:
144,107,166359,1,0,0:0:0:0:
144,105,166419,1,0,0:0:0:0:
144,107,166479,1,2,0:0:0:0:
144,107,166539,1,0,0:0:0:0:
144,107,166599,1,0,0:0:0:0:
144,105,166659,1,2,0:0:0:0:
204,111,166689,1,2,0:0:0:0:
128,80,166899,1,0,0:0:0:0:
132,91,167019,1,2,0:0:0:0:
233,65,167139,1,0,0:0:0:0:
220,65,167199,1,0,0:0:0:0:
182,54,167259,1,2,0:0:0:0:
177,111,167499,1,0,0:0:0:0:
204,51,167579,1,2,0:0:0:0:
204,51,167659,1,2,0:0:0:0:
204,51,167739,1,0,0:0:0:0:
203,57,167819,1,2,0:0:0:0:
202,62,167899,1,2,0:0:0:0:
202,63,167979,1,0,0:0:0:0:
202,62,168059,1,0,0:0:0:0:
202,62,168139,1,2,0:0:0:0:
202,63,168219,1,0,0:0:0:0:
202,62,168299,1,0,0:0:0:0:
202,62,168379,1,0,0:0:0:0:
202,63,168459,1,2,0:0:0:0:
211,42,168579,1,0,0:0:0:0:
211,48,168639,1,0,0:0:0:0:
211,50,168699,1,2,0:0:0:0:
183,65,168819,1,0,0:0:0:0:
183,65,168939,1,2,0:0:0:0:
183,65,168999,1,2,0:0:0:0:
183,65,169059,1,0,0:0:0:0:
151,57,169179,1,0,0:0:0:0:
150,64,169299,1,2,0:0:0:0:
150,65,169359,1,2,0:0:0:0:
150,66,169419,1,0,0:0:0:0:
176,82,169539,1,0,0:0:0:0:
176,82,169659,1,2,0:0:0:0:
176,82,169719,1,2,0:0:0:0:
176,82,169779,1,2,0:0:0:0:
176,82,169899,1,0,0:0:0:0:
176,82,169959,1,0,0:0:0:0:
176,82,170019,1,2,0:0:0:0:
176,82,170079,1,0,0:0:0:0:
176,82,170139,1,2,0:0:0:0:
176,82,170259,1,0,0:0:0:0:
176,82,170319,1,0,0:0:0:0:
176,82,170379,1,2,0:0:0:0:
176,82,170439,1,2,0:0:0:0:
176,82,170499,1,2,0:0:0:0:
159,83,170619,1,2,0:0:0:0:
197,132,170679,1,2,0:0:0:0:
197,132,170739,1,0,0:0:0:0:
270,86,170859,1,0,0:0:0:0:
212,109,170939,1,2,0:0:0:0:
270,86,171019,1,2,0:0:0:0:
270,86,171099,1,0,0:0:0:0:
212,109,171179,1,2,0:0:0:0:
212,109,171259,1,2,0:0:0:0:
212,109,171339,1,0,0:0:0:0:
212,109,171419,1,0,0:0:0:0:
212,109,171499,1,0,0:0:0:0:
212,109,171579,1,2,0:0:0:0:
212,109,171659,1,2,0:0:0:0:
212,109,171739,1,2,0:0:0:0:
212,109,171819,1,0,0:0:0:0:
213,153,171879,1,0,0:0:0:0:
213,153,171939,1,2,0:0:0:0:
213,153,171999,1,0,0:0:0:0:
213,153,172059,1,2,0:0:0:0:
213,153,172119,1,2,0:0:0:0:
213,153,172179,1,0,0:0:0:0:
213,153,172239,1,0,0:0:0:0:
212,158,172299,1,2,0:0:0:0:
212,158,172359,1,2,0:0:0:0:
212,158,172419,1,0,0:0:0:0:
212,158,172479,1,0,0:0:0:0:
212,158,172539,1,2,0:0:0:0:
212,158,172599,1,0,0:0:0:0:
212,158,172659,1,2,0:0:0:0:
211,163,172779,1,4,0:0:0:0:
215,92,173259,1,2,0:0:0:0:
223,111,173739,1,0,0:0:0:0:
223,111,174219,1,2,0:0:0:0:
177,71,174399,1,2,0:0:0:0:
177,71,174579,1,2,0:0:0:0:
178,81,174699,1,0,0:0:0:0:
178,81,175179,1,2,0:0:0:0:
178,81,175419,1,2,0:0:0:0:
178,81,175659,1,0,0:0:0:0:
175,97,176139,1,2,0:0:0:0:
175,97,176379,1,0,0:0:0:0:
175,97,176619,1,4,0:0:0:0:
176,98,177099,1,2,0:0:0:0:
176,98,177579,1,0,0:0:0:0:
176,98,178059,1,2,0:0:0:0:
176,62,178239,1,2,0:0:0:0:
178,75,178419,1,2,0:0:0:0:
178,75,178539,1,0,0:0:0:0:
168,113,179019,1,2,0:0:0:0:
179,62,179499,1,0,0:0:0:0:
208,120,179539,1,0,0:0:0:0:
207,126,179579,1,0,0:0:0:0:
179,62,179859,1,0,0:0:0:0:
179,67,179979,1,2,0:0:0:0:
179,67,180219,1,0,0:0:0:0:
148,70,180459,1,4,0:0:0:0:
183,108,181419,1,2,0:0:0:0:
169,57,181779,1,0,0:0:0:0:
217,126,182379,1,4,0:0:0:0:
217,126,183339,1,2,0:0:0:0:
217,126,183699,1,0,0:0:0:0:
216,129,184059,1,0,0:0:0:0:
216,129,184299,1,4,0:0:0:0:
206,132,185259,1,12,0:0:0:0:
206,133,186219,1,4,0:0:0:0:
206,133,186699,1,4,0:0:0:0:
206,133,187179,1,12,0:0:0:0:
206,133,187419,1,12,0:0:0:0:
206,133,187659,1,2,0:0:0:0:
206,133,187779,1,2,0:0:0:0:
206,133,187899,1,2,0:0:0:0:
206,133,187959,1,2,0:0:0:0:
206,133,188019,1,2,0:0:0:0:
133,58,188139,1,4,0:0:0:0:
145,87,188259,1,0,0:0:0:0:
145,87,188319,1,0,0:0:0:0:
145,87,188379,1,2,0:0:0:0:
111,97,188499,1,2,0:0:0:0:
133,58,188619,1,0,0:0:0:0:
113,89,188679,1,0,0:0:0:0:
113,89,188739,1,0,0:0:0:0:
147,84,188859,1,0,0:0:0:0:
161,49,188979,1,2,0:0:0:0:
133,58,189099,1,0,0:0:0:0:
162,114,189219,1,2,0:0:0:0:
162,114,189279,1,0,0:0:0:0:
191,82,189339,1,2,0:0:0:0:
162,114,189399,1,2,0:0:0:0:
133,65,189459,1,0,0:0:0:0:
149,14,189519,1,0,0:0:0:0:
133,66,189579,1,2,0:0:0:0:
131,69,189699,1,0,0:0:0:0:
161,102,189759,1,0,0:0:0:0:
131,72,189819,1,2,0:0:0:0:
147,75,189939,1,0,0:0:0:0:
220,183,189999,1,2,0:0:0:0:
131,72,190059,1,0,0:0:0:0:
131,69,190179,1,0,0:0:0:0:
156,67,190299,1,2,0:0:0:0:
153,97,190419,1,2,0:0:0:0:
124,55,190539,1,0,0:0:0:0:
131,65,190599,1,0,0:0:0:0:
161,87,190659,1,2,0:0:0:0:
161,87,190779,1,0,0:0:0:0:
156,77,190899,1,2,0:0:0:0:
161,87,190959,1,2,0:0:0:0:
154,72,191019,1,0,0:0:0:0:
174,122,191079,1,0,0:0:0:0:
156,112,191139,1,2,0:0:0:0:
174,122,191199,1,0,0:0:0:0:
134,111,191259,1,2,0:0:0:0:
148,117,191379,1,2,0:0:0:0:
141,79,191439,1,0,0:0:0:0:
154,72,191499,1,2,0:0:0:0:
176,141,191559,1,2,0:0:0:0:
176,141,191619,1,0,0:0:0:0:
149,118,191679,1,0,0:0:0:0:
151,96,191739,1,2,0:0:0:0:
154,72,191859,1,0,0:0:0:0:
154,72,191979,1,0,0:0:0:0:
154,72,192099,1,0,0:0:0:0:
154,72,192159,1,0,0:0:0:0:
154,72,192219,1,2,0:0:0:0:
154,72,192339,1,2,0:0:0:0:
154,72,192459,1,0,0:0:0:0:
154,72,192519,1,0,0:0:0:0:
156,77,192579,1,0,0:0:0:0:
161,67,192699,1,0,0:0:0:0:
154,72,192819,1,2,0:0:0:0:
154,72,192939,1,0,0:0:0:0:
193,92,193059,1,2,0:0:0:0:
154,72,193119,1,0,0:0:0:0:
193,86,193179,1,2,0:0:0:0:
163,63,193239,1,2,0:0:0:0:
146,72,193299,1,0,0:0:0:0:
146,74,193359,1,0,0:0:0:0:
146,72,193419,1,2,0:0:0:0:
153,77,193539,1,0,0:0:0:0:
151,92,193599,1,0,0:0:0:0:
153,77,193659,1,2,0:0:0:0:
151,92,193779,1,0,0:0:0:0:
219,172,193839,1,2,0:0:0:0:
151,92,193899,1,0,0:0:0:0:
219,172,194019,1,0,0:0:0:0:
151,92,194139,1,2,0:0:0:0:
166,76,194259,1,2,0:0:0:0:
151,92,194379,1,0,0:0:0:0:
171,104,194439,1,0,0:0:0:0:
166,62,194499,1,2,0:0:0:0:
166,62,194559,1,0,0:0:0:0:
166,70,194679,1,0,0:0:0:0:
166,72,194739,1,2,0:0:0:0:
156,109,194859,1,0,0:0:0:0:
166,75,195099,1,2,0:0:0:0:
159,91,195219,1,2,0:0:0:0:
166,75,195339,1,0,0:0:0:0:
166,75,195459,1,0,0:0:0:0:
166,75,195579,1,2,0:0:0:0:
242,58,195619,1,2,0:0:0:0:
242,63,195659,1,2,0:0:0:0:
242,65,195699,1,0,0:0:0:0:
133,58,195819,1,4,0:0:0:0:
145,87,195939,1,0,0:0:0:0:
145,87,195999,1,0,0:0:0:0:
145,87,196059,1,2,0:0:0:0:
111,97,196179,1,2,0:0:0:0:
133,58,196299,1,0,0:0:0:0:
113,89,196359,1,0,0:0:0:0:
113,89,196419,1,0,0:0:0:0:
150,143,196539,1,2,0:0:0:0:
150,143,196659,1,0,0:0:0:0:
133,58,196779,1,0,0:0:0:0:
150,143,196899,1,2,0:0:0:0:
162,114,196959,1,0,0:0:0:0:
191,82,197019,1,2,0:0:0:0:
162,114,197079,1,2,0:0:0:0:
133,65,197139,1,0,0:0:0:0:
149,14,197199,1,0,0:0:0:0:
133,66,197259,1,2,0:0:0:0:
131,69,197379,1,0,0:0:0:0:
161,102,197439,1,0,0:0:0:0:
131,72,197499,1,2,0:0:0:0:
185,139,197559,1,2,0:0:0:0:
185,139,197619,1,0,0:0:0:0:
185,139,197679,1,2,0:0:0:0:
131,72,197739,1,0,0:0:0:0:
131,69,197859,1,0,0:0:0:0:
156,67,197979,1,2,0:0:0:0:
153,97,198099,1,2,0:0:0:0:
124,55,198219,1,0,0:0:0:0:
131,65,198279,1,0,0:0:0:0:
151,142,198339,1,0,0:0:0:0:
151,142,198459,1,2,0:0:0:0:
156,77,198579,1,2,0:0:0:0:
161,87,198639,1,2,0:0:0:0:
154,72,198699,1,0,0:0:0:0:
174,122,198759,1,0,0:0:0:0:
156,112,198819,1,2,0:0:0:0:
174,122,198879,1,0,0:0:0:0:
134,111,198939,1,2,0:0:0:0:
165,59,199059,1,0,0:0:0:0:
154,72,199179,1,2,0:0:0:0:
176,141,199239,1,2,0:0:0:0:
176,141,199299,1,0,0:0:0:0:
149,118,199359,1,0,0:0:0:0:
151,96,199419,1,2,0:0:0:0:
154,72,199539,1,0,0:0:0:0:
163,196,199659,1,0,0:0:0:0:
154,72,199779,1,0,0:0:0:0:
154,72,199839,1,0,0:0:0:0:
154,72,199899,1,2,0:0:0:0:
154,72,200019,1,2,0:0:0:0:
154,72,200139,1,0,0:0:0:0:
154,72,200199,1,0,0:0:0:0:
156,77,200259,1,0,0:0:0:0:
161,79,200379,1,2,0:0:0:0:
161,83,200499,1,0,0:0:0:0:
164,194,200619,1,0,0:0:0:0:
193,92,200739,1,2,0:0:0:0:
154,72,200799,1,0,0:0:0:0:
193,86,200859,1,2,0:0:0:0:
163,63,200919,1,2,0:0:0:0:
146,72,200979,1,0,0:0:0:0:
146,74,201039,1,0,0:0:0:0:
146,72,201099,1,2,0:0:0:0:
157,80,201159,1,2,0:0:0:0:
153,77,201219,1,0,0:0:0:0:
151,92,201279,1,0,0:0:0:0:
153,77,201339,1,2,0:0:0:0:
151,92,201459,1,0,0:0:0:0:
151,92,201579,1,0,0:0:0:0:
157,80,201699,1,0,0:0:0:0:
151,92,201819,1,2,0:0:0:0:
166,76,201939,1,2,0:0:0:0:
153,134,202059,1,0,0:0:0:0:
153,134,202119,1,0,0:0:0:0:
153,134,202179,1,2,0:0:0:0:
153,134,202299,1,0,0:0:0:0:
153,134,202419,1,2,0:0:0:0:
153,139,202539,1,0,0:0:0:0:
176,81,202599,1,0,0:0:0:0:
176,81,202659,1,0,0:0:0:0:
176,81,202719,1,0,0:0:0:0:
176,81,202779,1,2,0:0:0:0:
191,87,202899,1,0,0:0:0:0:
191,90,203019,1,2,0:0:0:0:
191,87,203079,1,2,0:0:0:0:
191,87,203139,1,2,0:0:0:0:
191,90,203259,1,0,0:0:0:0:
191,87,203379,1,0,0:0:0:0:
191,90,203499,1,4,0:0:0:0:
198,164,205419,1,4,0:0:0:0:
198,164,205899,1,4,0:0:0:0:
164,127,206379,1,0,0:0:0:0:
173,137,206499,1,2,0:0:0:0:
173,139,206619,1,0,0:0:0:0:
173,137,206739,1,0,0:0:0:0:
198,164,206859,1,2,0:0:0:0:
173,137,206919,1,0,0:0:0:0:
173,137,206979,1,2,0:0:0:0:
173,137,207039,1,2,0:0:0:0:
173,137,207099,1,0,0:0:0:0:
161,96,207219,1,2,0:0:0:0:
162,119,207339,1,4,0:0:0:0:
162,119,207519,1,0,0:0:0:0:
162,119,207579,1,2,0:0:0:0:
162,119,207699,1,0,0:0:0:0:
162,119,207819,1,2,0:0:0:0:
150,115,207879,1,0,0:0:0:0:
150,114,207939,1,0,0:0:0:0:
150,119,208059,1,2,0:0:0:0:
150,122,208179,1,2,0:0:0:0:
150,125,208299,1,0,0:0:0:0:
150,122,208359,1,0,0:0:0:0:
150,129,208419,1,2,0:0:0:0:
165,85,208479,1,2,0:0:0:0:
151,132,208539,1,0,0:0:0:0:
135,98,208659,1,2,0:0:0:0:
135,103,208779,1,0,0:0:0:0:
135,106,208839,1,0,0:0:0:0:
165,85,208899,1,2,0:0:0:0:
165,85,209019,1,2,0:0:0:0:
165,85,209139,1,0,0:0:0:0:
131,120,209199,1,2,0:0:0:0:
131,120,209259,1,0,0:0:0:0:
171,126,209379,1,0,0:0:0:0:
131,117,209499,1,2,0:0:0:0:
166,132,209619,1,0,0:0:0:0:
159,121,209739,1,2,0:0:0:0:
159,121,209799,1,0,0:0:0:0:
159,121,209859,1,0,0:0:0:0:
159,121,209979,1,2,0:0:0:0:
159,121,210099,1,2,0:0:0:0:
159,121,210219,1,0,0:0:0:0:
159,121,210279,1,0,0:0:0:0:
159,121,210339,1,2,0:0:0:0:
159,121,210459,1,0,0:0:0:0:
159,121,210579,1,2,0:0:0:0:
165,82,210639,1,2,0:0:0:0:
159,121,210699,1,0,0:0:0:0:
165,82,210759,1,0,0:0:0:0:
165,87,210819,1,2,0:0:0:0:
166,88,210879,1,0,0:0:0:0:
165,82,210939,1,2,0:0:0:0:
165,87,211059,1,0,0:0:0:0:
166,88,211119,1,0,0:0:0:0:
181,158,211179,1,0,0:0:0:0:
162,119,211359,1,0,0:0:0:0:
162,119,211419,1,2,0:0:0:0:
162,119,211539,1,0,0:0:0:0:
162,119,211659,1,2,0:0:0:0:
150,115,211719,1,0,0:0:0:0:
150,114,211779,1,0,0:0:0:0:
150,119,211899,1,2,0:0:0:0:
150,122,212019,1,2,0:0:0:0:
150,125,212139,1,0,0:0:0:0:
150,122,212199,1,0,0:0:0:0:
150,129,212259,1,2,0:0:0:0:
165,85,212319,1,2,0:0:0:0:
151,132,212379,1,0,0:0:0:0:
135,98,212499,1,2,0:0:0:0:
135,103,212619,1,0,0:0:0:0:
135,106,212679,1,0,0:0:0:0:
165,85,212739,1,2,0:0:0:0:
165,85,212859,1,2,0:0:0:0:
165,85,212979,1,0,0:0:0:0:
131,120,213039,1,2,0:0:0:0:
131,120,213099,1,0,0:0:0:0:
171,126,213219,1,0,0:0:0:0:
131,117,213339,1,2,0:0:0:0:
166,132,213459,1,0,0:0:0:0:
190,153,213519,1,0,0:0:0:0:
159,121,213579,1,2,0:0:0:0:
159,121,213639,1,0,0:0:0:0:
159,121,213699,1,0,0:0:0:0:
187,75,213819,1,0,0:0:0:0:
172,87,213939,1,2,0:0:0:0:
172,87,214059,1,0,0:0:0:0:
176,72,214119,1,0,0:0:0:0:
159,121,214179,1,2,0:0:0:0:
173,92,214239,1,0,0:0:0:0:
186,78,214299,1,2,0:0:0:0:
173,92,214359,1,2,0:0:0:0:
173,87,214419,1,0,0:0:0:0:
173,92,214479,1,0,0:0:0:0:
173,87,214539,1,2,0:0:0:0:
173,87,214599,1,0,0:0:0:0:
173,87,214659,1,0,0:0:0:0:
166,88,214719,1,0,0:0:0:0:
165,82,214779,1,2,0:0:0:0:
173,92,214839,1,2,0:0:0:0:
165,87,214899,1,0,0:0:0:0:
166,88,214959,1,0,0:0:0:0:
104,156,215019,1,0,0:0:0:0:
162,119,215199,1,0,0:0:0:0:
162,119,215259,1,2,0:0:0:0:
162,119,215379,1,0,0:0:0:0:
162,119,215499,1,2,0:0:0:0:
150,115,215559,1,0,0:0:0:0:
150,114,215619,1,0,0:0:0:0:
150,119,215739,1,2,0:0:0:0:
150,122,215859,1,2,0:0:0:0:
150,125,215979,1,0,0:0:0:0:
150,122,216039,1,0,0:0:0:0:
150,129,216099,1,2,0:0:0:0:
165,85,216159,1,2,0:0:0:0:
151,132,216219,1,0,0:0:0:0:
135,98,216339,1,2,0:0:0:0:
135,103,216459,1,0,0:0:0:0:
135,106,216519,1,0,0:0:0:0:
165,85,216579,1,2,0:0:0:0:
181,107,216639,1,0,0:0:0:0:
181,107,216699,1,2,0:0:0:0:
165,85,216819,1,0,0:0:0:0:
131,120,216879,1,2,0:0:0:0:
131,120,216939,1,0,0:0:0:0:
171,126,217059,1,0,0:0:0:0:
131,117,217179,1,2,0:0:0:0:
166,132,217299,1,0,0:0:0:0:
159,121,217419,1,2,0:0:0:0:
159,121,217479,1,0,0:0:0:0:
159,121,217539,1,0,0:0:0:0:
159,121,217659,1,2,0:0:0:0:
159,121,217779,1,2,0:0:0:0:
159,121,217899,1,0,0:0:0:0:
159,121,217959,1,0,0:0:0:0:
159,121,218019,1,2,0:0:0:0:
159,121,218139,1,0,0:0:0:0:
159,121,218259,1,2,0:0:0:0:
165,82,218319,1,2,0:0:0:0:
159,121,218379,1,0,0:0:0:0:
165,82,218439,1,0,0:0:0:0:
165,87,218499,1,2,0:0:0:0:
166,88,218559,1,0,0:0:0:0:
165,82,218619,1,2,0:0:0:0:
165,87,218739,1,0,0:0:0:0:
166,88,218799,1,0,0:0:0:0:
220,125,218859,1,2,0:0:0:0:
162,119,219039,1,0,0:0:0:0:
162,119,219099,1,2,0:0:0:0:
162,119,219219,1,0,0:0:0:0:
162,119,219339,1,2,0:0:0:0:
150,115,219399,1,0,0:0:0:0:
150,114,219459,1,0,0:0:0:0:
150,119,219579,1,2,0:0:0:0:
220,125,219699,1,0,0:0:0:0:
220,125,219819,1,2,0:0:0:0:
150,122,219879,1,0,0:0:0:0:
220,125,219939,1,0,0:0:0:0:
220,125,219999,1,0,0:0:0:0:
220,125,220059,1,2,0:0:0:0:
220,125,220179,1,0,0:0:0:0:
220,125,220299,1,2,0:0:0:0:
135,106,220359,1,0,0:0:0:0:
217,130,220419,1,0,0:0:0:0:
181,106,220479,1,0,0:0:0:0:
165,85,220539,1,2,0:0:0:0:
181,106,220599,1,2,0:0:0:0:
165,85,220659,1,0,0:0:0:0:
217,130,220719,1,0,0:0:0:0:
217,130,220779,1,2,0:0:0:0:
171,126,220899,1,0,0:0:0:0:
131,117,221019,1,2,0:0:0:0:
166,132,221139,1,0,0:0:0:0:
190,153,221199,1,0,0:0:0:0:
159,121,221259,1,2,0:0:0:0:
159,121,221319,1,0,0:0:0:0:
159,121,221379,1,0,0:0:0:0:
217,130,221499,1,2,0:0:0:0:
172,87,221619,1,2,0:0:0:0:
220,125,221739,1,0,0:0:0:0:
221,122,221799,1,0,0:0:0:0:
220,125,221859,1,2,0:0:0:0:
220,125,221919,1,0,0:0:0:0:
220,125,221979,1,2,0:0:0:0:
219,127,222039,1,2,0:0:0:0:
220,125,222099,1,0,0:0:0:0:
220,125,222159,1,0,0:0:0:0:
219,130,222219,1,2,0:0:0:0:
219,127,222279,1,2,0:0:0:0:
219,130,222339,1,2,0:0:0:0:
219,131,222399,1,0,0:0:0:0:
219,130,222459,1,2,0:0:0:0:
218,132,222519,1,2,0:0:0:0:
219,130,222579,1,0,0:0:0:0:
219,131,222639,1,0,0:0:0:0:
219,130,222699,1,2,0:0:0:0:
