osu file format v14

[General]
AudioFilename: audio.mp3
AudioLeadIn: 0
PreviewTime: 111518
Countdown: 1
SampleSet: Normal
StackLeniency: 0.7
Mode: 0
LetterboxInBreaks: 0
WidescreenStoryboard: 0

[Editor]
Bookmarks: 647,11605,28300,44996,61691,78387,86735,95083,103431,111778,120126,136822,149344,174387,182735,186909,193170,209865
DistanceSpacing: 1.2
BeatDivisor: 4
GridSize: 4
TimelineZoom: 2.799999

[Metadata]
Title:Heisei Memehunters
TitleUnicode:Heisei Memehunters
Artist:katagiri
ArtistUnicode:かたぎり
Creator:[-obee58-]
Version:jump training AR10
Source:
Tags:breakcore mashup mashcore hardcore hardstyle 230 cookiezi bait heisei cataclysm nico nico douga carameldansen speedycake remix medley sword art online disconnected taikuta can't defeat airman senbonzakura camellia geddan get down nano anime japanese society nyan nightcore
BeatmapID:1353795
BeatmapSetID:638154

[Difficulty]
HPDrainRate:4
CircleSize:4
OverallDifficulty:8
ApproachRate:10
SliderMultiplier:2
SliderTickRate:2

[Events]
//Background and Video events
//Break Periods
2,16955,27850
2,38804,148372
2,154891,171850
2,173413,182285
2,186978,192720
2,196370,203154
2,205761,209415
//Storyboard Layer 0 (Background)
//Storyboard Layer 1 (Fail)
//Storyboard Layer 2 (Pass)
//Storyboard Layer 3 (Foreground)
//Storyboard Sound Samples

[TimingPoints]
126,260.869565217391,4,1,1,80,1,0
1170.38695446938,260.869565217391,4,1,1,80,1,0
11605,260.869565217391,4,1,1,90,1,0
27778,-71.4285714285714,4,1,1,90,0,0
28300,-125,4,1,2,90,0,0
28365,-125,4,1,1,70,0,0
36387,-66.6666666666667,4,1,1,90,0,0
36648,-100,4,1,1,80,0,0
44996,-90.9090909090909,4,1,1,80,0,1
53213,-90.9090909090909,4,1,1,80,0,0
53344,-76.9230769230769,4,1,1,80,0,1
61691,-100,4,1,1,80,0,0
145170,-142.857142857143,4,1,1,80,0,0
148822,-90.9090909090909,4,1,1,90,0,0
149344,-76.9230769230769,4,1,1,90,0,1
155604,-66.6666666666667,4,1,1,90,0,1
157691,-76.9230769230769,4,1,1,90,0,1
172300,-76.9230769230769,4,1,1,90,0,0
174387,-83.3333333333333,4,1,1,90,0,1
182735,-83.3333333333333,4,1,2,90,0,1
186387,-66.6666666666667,4,1,2,90,0,1
186909,-83.3333333333333,4,1,1,90,0,1
190561,-90.9090909090909,4,1,1,90,0,0
191083,-90.9090909090909,4,1,1,90,0,1
193170,-90.9090909090909,4,1,1,90,0,0
209865,-83.3333333333333,4,1,1,90,0,0
211691,-50,4,1,1,100,0,1
211952,-50,4,1,1,30,0,0

[HitObjects]
128,48,647,5,0,0:1:0:0:
204,172,778,1,0,0:1:0:0:
51,172,908,1,0,0:1:0:0:
204,86,1039,1,0,0:1:0:0:
128,211,1169,5,4,3:1:0:0:
256,384,1300,1,0,0:1:0:0:
256,384,1366,1,0,0:1:0:0:
256,384,1431,1,8,0:1:0:0:
368,208,1561,2,0,L|264:224,1,100,0|0,3:1|0:1,0:1:0:0:
436,132,1822,1,0,3:1:0:0:
384,312,1952,2,0,L|328:304,1,50,8|0,0:1|0:1,0:1:0:0:
168,240,2083,1,0,0:1:0:0:
368,208,2213,6,0,L|472:224,1,100,0|0,3:1|0:1,0:1:0:0:
300,128,2474,1,8,0:1:0:0:
260,336,2605,2,0,L|156:352,1,100,0|0,3:1|0:1,0:1:0:0:
216,160,2866,1,0,3:1:0:0:
336,372,2996,2,0,L|344:320,1,50,8|0,0:1|0:1,0:1:0:0:
308,120,3126,1,0,0:1:0:0:
428,268,3257,5,0,3:1:0:0:
228,172,3387,1,0,0:1:0:0:
228,172,3452,1,0,0:1:0:0:
228,172,3518,1,8,0:1:0:0:
292,372,3648,2,0,L|308:268,1,100,0|0,3:1|0:1,0:1:0:0:
110,297,3909,1,0,3:1:0:0:
179,104,4039,2,0,L|186:159,1,50,8|0,0:1|0:1,0:1:0:0:
210,343,4170,1,0,0:1:0:0:
10,284,4300,6,0,L|120:298,1,100,0|0,3:1|0:1,0:1:0:0:
86,89,4561,1,8,0:1:0:0:
244,209,4692,2,0,L|134:223,1,100,0|0,3:1|0:1,0:1:0:0:
330,111,4952,1,0,3:1:0:0:
224,310,5083,1,8,0:1:0:0:
183,89,5213,1,0,0:1:0:0:
324,248,5344,6,0,P|371:262|424:251,1,100,0|0,3:1|0:1,0:1:0:0:
420,252,5539,1,0,0:1:0:0:
420,252,5605,1,8,0:1:0:0:
227,322,5735,2,0,P|180:308|127:319,1,100,0|0,3:1|0:1,0:1:0:0:
266,137,5996,1,2,3:1:0:0:
266,137,6061,1,0,0:1:0:0:
266,137,6126,1,10,0:1:0:0:
309,335,6257,1,2,0:1:0:0:
134,212,6387,6,0,L|233:220,1,100,0|0,3:1|0:1,0:1:0:0:
55,141,6648,1,8,0:1:0:0:
116,334,6779,2,0,L|17:342,1,100,0|0,3:1|0:1,0:1:0:0:
59,152,7039,1,0,3:1:0:0:
196,309,7170,2,0,L|245:304,1,50,8|0,0:1|0:1,0:1:0:0:
333,176,7300,6,0,L|432:184,1,100,2|0,3:1|3:1,0:1:0:0:
241,227,7561,1,2,0:1:0:0:
367,80,7692,1,8,0:1:0:0:
376,278,7822,2,0,L|364:377,1,100,2|0,3:1|0:1,0:1:0:0:
313,175,8083,1,2,3:1:0:0:
456,315,8213,1,10,0:1:0:0:
251,351,8344,1,0,0:1:0:0:
394,202,8474,6,0,L|382:103,1,100,0|0,3:1|0:1,0:1:0:0:
303,276,8735,1,8,0:0:0:0:
505,232,8866,2,0,L|493:331,1,100,0|0,3:1|0:1,0:1:0:0:
470,131,9126,1,0,3:0:0:0:
405,327,9257,2,0,L|355:335,1,50,8|0,0:0|0:0,0:0:0:0:
277,280,9387,2,0,L|227:288,1,50,0|0,3:0|0:0,0:0:0:0:
146,235,9518,6,0,L|132:335,1,100,4|0,3:2|0:0,0:0:0:0:
108,141,9779,1,8,0:0:0:0:
226,296,9909,2,0,L|326:310,1,100,0|0,3:0|0:0,0:0:0:0:
132,334,10170,1,0,3:0:0:0:
287,215,10300,2,0,L|294:165,1,50,8|0,0:0|0:0,0:0:0:0:
308,33,10431,1,0,0:0:0:0:
407,205,10561,5,0,3:0:0:0:
256,192,10626,12,8,11344,0:0:0:0:
58,343,11605,5,0,0:0:0:0:
383,325,11735,1,0,0:0:0:0:
116,262,11865,6,0,L|172:265,1,50
311,307,11996,2,0,L|255:310,1,50
32,256,12126,5,0,0:0:0:0:
357,238,12256,1,0,0:0:0:0:
88,184,12386,6,0,L|144:181,1,50
284,228,12517,2,0,L|228:225,1,50
104,344,15778,5,2,0:0:0:0:
385,305,15908,1,2,0:0:0:0:
184,350,16038,5,0,0:0:0:0:
180,314,16103,1,0,0:0:0:0:
176,278,16168,1,0,0:0:0:0:
172,242,16234,1,0,0:0:0:0:
168,206,16299,5,2,0:0:0:0:
449,167,16429,1,2,0:0:0:0:
249,210,16559,5,0,0:0:0:0:
245,174,16624,1,0,0:0:0:0:
241,138,16689,1,0,0:0:0:0:
237,102,16755,1,0,0:0:0:0:
216,144,28300,6,0,B|166:154|166:154|139:149|120:135|120:135|82:126|39:147|20:176|30:233|65:258|111:254|141:227|141:227|175:287|158:358,1,480,4|0,0:0|0:0,0:0:0:0:
320,248,29344,6,0,B|316:208|296:172|296:172|340:148|412:168|448:204|448:204|484:136|484:136|456:104|388:76|332:84,1,480
144,264,30387,6,0,B|188:296|260:284|296:224|296:224|288:256|276:304|308:344|340:348|340:348|368:336|380:296|364:252|332:240|332:240|323:248|320:264|320:264,1,480
304,72,31431,6,0,B|248:80|200:124|200:192|200:192|204:128|176:88|112:100|112:100|76:148|88:200|88:200|92:176|104:156,1,480,0|8,0:0|0:0,0:0:0:0:
312,360,32474,6,0,L|144:344,1,160
63,308,32865,1,0,0:0:0:0:
63,308,32996,2,0,P|46:267|53:223,1,80
110,157,33257,1,0,0:0:0:0:
110,157,33387,6,0,P|129:99|78:12,1,160
37,100,33778,1,0,0:0:0:0:
37,100,33909,1,0,0:0:0:0:
110,157,34039,2,0,L|117:240,1,80
185,304,34300,2,0,L|268:297,1,80
336,233,34561,6,0,L|502:247,1,160,2|0,0:0|0:0,0:0:0:0:
505,150,34952,2,0,L|339:136,1,160,2|0,0:0|0:0,0:0:0:0:
256,172,35344,1,0,0:0:0:0:
80,248,35604,6,0,P|152:268|240:244,1,160,2|0,0:0|0:0,0:0:0:0:
232,344,35996,2,0,P|160:364|72:340,1,160,2|0,0:0|0:0,0:0:0:0:
158,166,36387,6,0,B|174:2|174:2|134:50,1,225.000008583069,12|0,0:3|0:0,0:0:0:0:
100,228,36648,6,0,P|140:248|200:240,1,100,0|0,3:0|0:0,0:0:0:0:
340,96,36909,2,0,P|290:90|246:110,1,100,8|0,0:0|0:0,0:0:0:0:
323,298,37170,1,0,3:0:0:0:
303,170,37300,1,0,0:0:0:0:
251,346,37431,1,8,0:0:0:0:
377,221,37561,1,0,0:0:0:0:
216,263,37691,6,0,L|165:256,2,50,0|0|0,3:0|0:0|0:0,0:0:0:0:
59,360,37952,2,0,L|46:260,1,100,8|0,0:0|0:0,0:0:0:0:
178,157,38213,1,0,3:0:0:0:
166,256,38344,1,0,0:0:0:0:
30,149,38474,2,0,L|17:49,1,100,8|0,0:0|0:0,0:0:0:0:
102,80,148822,5,2,3:1:0:0:
256,331,148952,1,2,3:1:0:0:
410,80,149083,1,2,3:1:0:0:
112,212,149344,5,4,3:2:0:0:
365,264,149474,1,0,0:0:0:0:
183,79,149604,1,0,3:0:0:0:
228,336,149735,1,0,0:0:0:0:
328,97,149865,1,0,3:0:0:0:
154,292,149996,1,0,0:0:0:0:
390,184,150126,1,0,3:0:0:0:
132,139,150257,1,0,0:0:0:0:
308,328,150387,5,0,3:0:0:0:
312,60,150518,1,0,0:0:0:0:
172,320,150648,1,0,3:0:0:0:
218,65,150778,1,0,0:0:0:0:
380,268,150909,1,0,3:0:0:0:
122,238,151039,1,0,0:0:0:0:
368,151,151170,1,0,3:0:0:0:
169,318,151300,1,0,0:0:0:0:
310,83,151431,5,0,3:0:0:0:
285,340,151561,1,0,0:0:0:0:
146,121,151691,1,0,3:0:0:0:
405,147,151822,1,0,0:0:0:0:
167,250,151952,1,0,3:0:0:0:
286,18,152083,1,0,0:0:0:0:
391,254,152213,1,0,3:0:0:0:
136,92,152344,5,2,0:0:0:0:
160,336,152474,1,0,3:0:0:0:
324,160,152604,5,2,0:0:0:0:
72,196,152735,1,0,3:0:0:0:
300,320,152865,5,2,0:0:0:0:
276,76,152996,1,0,3:0:0:0:
173,255,153126,5,2,0:0:0:0:
430,209,153257,1,0,3:0:0:0:
263,10,153387,1,2,0:0:0:0:
296,254,153518,6,0,L|311:386,1,129.999994049073,4|0,3:2|0:0,0:0:0:0:
153,115,153778,1,0,3:0:0:0:
376,188,153909,1,0,0:0:0:0:
156,272,154039,6,0,L|22:287,1,129.999994049073,0|0,3:0|0:0,0:0:0:0:
185,96,154300,1,0,3:0:0:0:
235,338,154431,1,0,0:0:0:0:
66,158,154561,2,0,P|52:93|74:30,1,129.999994049073,0|0,3:0|0:0,0:0:0:0:
64,88,172300,5,0,0:0:0:0:
136,71,172365,1,0,0:0:0:0:
207,95,172431,1,0,0:0:0:0:
327,328,172691,5,0,0:0:0:0:
261,363,172757,1,0,0:0:0:0:
191,336,172822,1,0,0:0:0:0:
388,46,173083,5,0,0:0:0:0:
417,115,173148,1,0,0:0:0:0:
369,172,173213,1,0,0:0:0:0:
112,48,182735,5,8,3:0:0:0:
144,256,182865,1,0,0:0:0:0:
304,16,182996,5,8,3:0:0:0:
268,244,183126,1,0,0:0:0:0:
408,56,183257,5,8,3:0:0:0:
160,144,183387,1,0,0:0:0:0:
392,256,183518,5,8,3:0:0:0:
216,48,183648,1,0,0:0:0:0:
200,272,183778,5,8,3:0:0:0:
456,208,183909,1,0,0:0:0:0:
224,128,184039,5,8,3:0:0:0:
432,288,184170,1,0,0:0:0:0:
208,200,184300,5,8,3:0:0:0:
448,128,184431,1,0,0:0:0:0:
312,312,184561,5,8,3:0:0:0:
336,88,184691,1,0,0:0:0:0:
120,48,184822,5,8,3:0:0:0:
328,96,184952,2,0,B|356:100|356:100|380:88,1,55.0000016784668
120,172,185083,5,8,3:0:0:0:
354,180,185213,2,0,B|382:179|382:179|403:163,1,55.0000016784668
136,300,185344,5,8,3:0:0:0:
391,260,185474,2,0,B|418:254|418:254|437:234,1,55.0000016784668
260,360,185604,5,8,3:0:0:0:
224,100,185735,1,0,0:0:0:0:
436,268,185865,5,8,3:0:0:0:
104,248,185996,1,0,0:0:0:0:
404,112,186126,5,8,3:0:0:0:
96,144,186257,1,0,0:0:0:0:
460,224,186387,6,0,L|384:208,1,75.0000028610231,10|0,3:0|0:0,0:0:0:0:
192,76,186518,2,0,L|116:60,1,75.0000028610231,2|0,0:0|0:0,0:0:0:0:
200,324,186648,5,10,3:0:0:0:
356,32,186778,1,0,3:0:0:0:
144,240,193170,6,0,P|128:288|144:352,1,110.000003356934
372,344,193431,2,0,P|384:291|368:240,1,110.000003356934
176,80,193691,1,0,0:0:0:0:
256,192,193822,1,0,0:0:0:0:
336,80,193952,1,0,0:0:0:0:
256,272,194083,1,0,0:0:0:0:
144,160,194213,6,0,L|32:160,1,110.000003356934
368,160,194474,2,0,L|480:160,1,110.000003356934
256,32,194735,5,0,0:0:0:0:
256,200,194865,1,0,0:0:0:0:
144,144,194996,1,0,0:0:0:0:
368,144,195126,1,0,0:0:0:0:
164,276,195257,5,0,0:0:0:0:
347,92,195387,1,0,0:0:0:0:
256,313,195518,1,0,0:0:0:0:
257,55,195648,1,0,0:0:0:0:
348,274,195778,1,0,0:0:0:0:
164,92,195909,1,0,0:0:0:0:
385,184,196039,1,0,0:0:0:0:
127,183,196170,1,0,0:0:0:0:
171,133,203604,5,0,0:0:0:0:
314,107,203735,1,0,0:0:0:0:
340,250,203865,1,0,0:0:0:0:
197,276,203996,1,0,0:0:0:0:
176,97,204126,5,0,0:0:0:0:
350,112,204257,1,0,0:0:0:0:
335,286,204387,1,0,0:0:0:0:
161,271,204518,1,0,0:0:0:0:
199,70,204648,5,0,0:0:0:0:
312,313,204779,1,0,0:0:0:0:
377,135,204909,1,0,0:0:0:0:
134,248,205040,1,0,0:0:0:0:
344,208,205170,6,0,L|456:208,1,110.000003356934
168,176,205431,2,0,L|56:176,1,110.000003356934
133,56,209865,5,0,3:0:0:0:
451,121,209996,1,0,3:0:0:0:
113,158,210257,5,0,0:0:0:0:
380,192,210387,1,8,3:0:0:0:
48,238,210518,1,8,3:0:0:0:
406,308,210778,5,0,0:0:0:0:
176,341,210909,2,0,L|56:331,1,119.999996337891,4|0,3:2|0:0,0:0:0:0:
243,240,211104,2,0,L|294:348,1,119.999996337891,0|0,3:2|0:0,0:0:0:0:
124,231,211300,2,0,L|158:181,1,59.9999981689454,0|0,3:2|0:0,0:0:0:0:
312,91,211431,6,0,B|357:130|357:130|237:112,1,179.999994506836,4|0,3:2|0:0,0:0:0:0:
88,103,211691,6,0,B|77:83|79:56|95:29|135:23|158:32|173:46|181:71|169:103|152:119|121:122|121:122|108:153|108:153|112:173|124:190|124:190|105:231|105:231|117:248|119:269|119:269|115:310,1,400,12|0,0:0|0:0,0:0:0:0:
