osu file format v14

[General]
AudioFilename: audio.mp3
AudioLeadIn: 0
PreviewTime: 134876
Countdown: 0
SampleSet: Soft
StackLeniency: 0.7
Mode: 2
LetterboxInBreaks: 0
WidescreenStoryboard: 0

[Editor]
Bookmarks: 639,14198,22164,22249,22333,22418,22503,33011,33096,33181,33266,33350,35893,46740,68435,69622,69706,69791,69876,69961,91486,102164,102249,102333,102418,102503,124028,134876,145723,166571,166655,166740,166825,166910,188266,188350,188435,188520,188605,199961
DistanceSpacing: 1.6
BeatDivisor: 12
GridSize: 16
TimelineZoom: 1.400003

[Metadata]
Title:Angel's Salad ('Le mythe etendu' ver.)
TitleUnicode:Angel's Salad ('Le mythe étendu' ver.)
Artist:katagiri
ArtistUnicode:かたぎり
Creator:Deif
Version:Eternal Myth
Source:THE BMS OF FIGHTERS XVI -NEO DYSTOPIA-
Tags:CWC 2022 osu!catch World Cup Grand Finals No Mod NM1 Featured Artist Angels Extended Version BOFXVI The Girl Who Distorts The Music ディストーションをかける少女 Muse Dash かたぎりの長い午後 no nagai gogo m3-2020秋 autumn m3-45 Breakcore Video Game Electronic Instrumental
BeatmapID:3677111
BeatmapSetID:1794162

[Difficulty]
HPDrainRate:5
CircleSize:4.4
OverallDifficulty:9.7
ApproachRate:9.7
SliderMultiplier:2.2
SliderTickRate:1

[Events]
//Background and Video events
0,0,"BG.png",0,0
//Break Periods
//Storyboard Layer 0 (Background)
//Storyboard Layer 1 (Fail)
//Storyboard Layer 2 (Pass)
//Storyboard Layer 3 (Foreground)
//Storyboard Layer 4 (Overlay)
//Storyboard Sound Samples

[TimingPoints]
639,338.983050847458,4,2,0,40,1,0
2333,-100,4,1,0,40,0,0
3350,-100,4,2,0,60,0,0
3435,-100,4,1,0,40,0,0
4706,-100,4,2,0,60,0,0
4791,-100,4,1,0,40,0,0
6062,-100,4,2,0,60,0,0
6147,-100,4,1,0,40,0,0
7418,-100,4,2,0,60,0,0
7503,-100,4,1,0,40,0,0
8774,-100,4,2,0,60,0,0
8859,-100,4,1,1,40,0,0
10130,-100,4,2,0,60,0,0
10215,-100,4,1,1,43,0,0
11486,-100,4,2,0,60,0,0
11571,-100,4,1,1,46,0,0
12842,-100,4,2,0,60,0,0
12927,-100,4,1,1,50,0,0
13859,-100,4,3,1,80,0,0
16401,-100,4,1,0,60,0,0
16571,-100,4,3,1,80,0,0
17588,-100,4,3,0,70,0,0
18096,-100,4,3,1,80,0,0
18944,-100,4,1,0,70,0,0
19283,-34.6020761245675,4,1,0,60,0,0
19396,-34.6020761245675,4,1,0,50,0,0
19509,-34.6020761245675,4,1,0,40,0,0
19622,-100,4,3,1,80,0,0
20300,-76.9230769230769,4,3,0,70,0,0
20413,-76.9230769230769,4,1,0,50,0,0
20639,-100,4,3,1,80,0,0
22757,-100,4,1,0,50,0,0
23011,-100,4,3,1,80,0,0
24367,-76.9230769230769,4,1,0,50,0,0
24706,-100,4,3,1,80,0,0
25045,-36.101083032491,4,3,0,70,0,0
25215,-100,4,1,0,50,0,0
25384,-100,4,3,1,80,0,0
25836,-100,4,1,0,50,0,0
26175,-100,4,3,1,80,0,0
33435,-100,4,3,0,70,0,0
33605,-100,4,3,1,80,0,0
34113,-100,4,3,0,70,0,0
34283,-100,4,3,1,80,0,0
34791,-100,4,3,0,70,0,0
34961,-100,4,3,1,80,0,0
35215,-100,4,3,2,95,0,0
35554,-100,4,3,2,90,0,0
35893,-100,4,3,2,85,0,0
39706,-43.4782608695652,4,3,2,85,0,0
39791,-43.4782608695652,4,1,0,65,0,0
40130,-100,4,3,2,85,0,0
40639,-43.4782608695652,4,1,0,60,0,0
40977,-100,4,3,2,85,0,0
42079,-100,4,1,0,60,0,0
42333,-100,4,3,2,85,0,0
46740,-100,4,3,3,85,0,0
48435,-100,4,1,3,60,0,0
48774,-100,4,3,3,85,0,0
49113,-100,4,3,0,85,0,0
49452,-100,4,3,3,85,0,0
50215,-100,4,3,0,75,0,0
50469,-100,4,3,3,85,0,0
51486,-100,4,2,0,80,0,0
51712,-100,4,2,0,50,0,0
51994,-100,4,2,0,65,0,0
52164,-100,4,3,3,85,0,0
54537,-100,4,3,0,75,0,0
54876,-100,4,3,3,85,0,0
58774,-100,4,3,0,75,0,0
59113,-100,4,3,3,85,0,0
60977,-100,4,3,0,75,0,0
61316,-100,4,3,3,85,0,0
61994,-100,4,3,0,75,0,0
62164,-100,4,3,3,85,0,0
62503,-36.101083032491,4,1,0,60,0,0
63181,-100,4,3,0,75,0,0
64367,-100,4,3,3,85,0,0
68181,-100,4,2,0,80,0,0
68435,-100,4,3,3,85,0,0
69791,-100,4,3,3,75,0,0
71994,-100,4,3,0,75,0,0
72164,-100,4,2,0,30,0,0
72503,-100,4,3,3,75,0,0
73266,-100,4,3,0,65,0,0
73520,-100,4,3,3,75,0,0
76458,-100,4,2,0,55,0,0
76740,-100,4,3,3,75,0,0
76910,-43.4782608695652,4,3,3,75,0,0
77249,-100,4,3,3,75,0,0
78266,-43.4782608695652,4,1,0,60,0,0
78605,-100,4,3,0,65,0,0
78774,-100,4,3,3,75,0,0
79706,-100,4,3,0,65,0,0
80300,-100,4,3,3,75,0,0
80639,-100,4,2,0,75,0,0
81147,-100,4,1,0,60,0,0
81232,-100,4,2,0,75,0,0
81316,-100,4,1,0,60,0,0
81401,-100,4,2,0,75,0,0
83350,-100,4,1,0,60,0,0
83605,-100,4,2,0,75,0,0
84254,-100,4,3,0,75,0,0
84706,-100,4,2,0,75,0,0
87249,-100,4,1,0,60,0,0
87418,-100,4,2,0,75,0,0
88435,-76.9230769230769,4,1,0,60,0,0
88605,-100,4,2,0,75,0,0
91147,-100,4,3,0,60,0,0
91486,-100,4,3,3,75,0,0
92333,-76.9230769230769,4,3,3,75,0,0
92446,-76.9230769230769,4,1,0,60,0,0
92672,-100,4,3,3,75,0,0
93972,-76.9230769230769,4,3,3,75,0,0
94085,-100,4,3,3,75,0,0
94424,-76.9230769230769,4,3,3,75,0,0
94537,-100,4,3,3,75,0,0
95554,-76.9230769230769,4,3,3,75,0,0
95780,-100,4,3,3,75,0,0
96232,-100,4,2,0,70,0,0
96910,-100,4,3,3,75,0,0
97588,-35.2112676056338,4,1,0,60,0,0
97927,-100,4,3,3,75,0,0
100300,-42.9184549356223,4,1,0,60,0,0
100469,-100,4,3,3,75,0,0
100639,-75.187969924812,4,1,0,40,0,0
100977,-75.187969924812,4,2,0,70,0,0
101316,-100,4,1,0,60,0,0
101655,-75.187969924812,4,2,0,70,0,0
101825,-100,4,3,3,75,0,0
102333,-66.6666666666667,4,3,3,75,0,0
102503,-100,4,3,3,75,0,0
104311,-100,4,1,0,60,0,0
104537,-100,4,3,3,75,0,0
105158,-100,4,2,0,60,0,0
105384,-100,4,3,3,75,0,0
110243,-100,4,1,3,60,0,0
110469,-100,4,3,3,75,0,0
111571,-100,4,3,0,70,0,0
111910,-100,4,3,3,75,0,0
119452,-100,4,1,0,60,0,0
119791,-100,4,3,3,75,0,0
120723,-80,4,1,0,60,0,0
120977,-100,4,3,3,75,0,0
124198,-100,4,2,0,60,0,0
134876,-100,4,3,3,75,0,0
135045,-100,4,2,0,60,0,0
140300,-100,4,2,0,65,0,0
145723,-86.2068965517241,4,3,3,85,0,1
146486,-33.3333333333333,4,3,3,85,0,1
146740,-86.2068965517241,4,3,3,85,0,1
150130,-86.2068965517241,4,3,0,75,0,1
150469,-86.2068965517241,4,3,3,85,0,1
150639,-86.2068965517241,4,3,0,65,0,1
151147,-86.2068965517241,4,3,3,85,0,1
152842,-33.3333333333333,4,1,0,75,0,1
152927,-86.2068965517241,4,3,3,85,0,1
154876,-86.2068965517241,4,1,0,75,0,1
155215,-86.2068965517241,4,3,3,85,0,1
155723,-86.2068965517241,4,2,0,75,0,1
156020,-61.7283950617284,4,2,0,75,0,1
156147,-86.2068965517241,4,2,0,75,0,1
156232,-61.7283950617284,4,2,0,75,0,1
156359,-86.2068965517241,4,2,0,75,0,1
156571,-86.2068965517241,4,3,3,85,0,1
158266,-75.187969924812,4,3,3,85,0,1
158435,-86.2068965517241,4,3,3,85,0,1
158774,-75.187969924812,4,2,0,60,0,1
158944,-86.2068965517241,4,3,3,85,0,1
159622,-75.187969924812,4,3,3,85,0,1
159735,-75.187969924812,4,1,3,75,0,1
159961,-86.2068965517241,4,3,3,85,0,1
164961,-33.3333333333333,4,3,3,85,0,1
165300,-86.2068965517241,4,3,3,85,0,1
168209,-86.2068965517241,4,1,0,75,0,1
168435,-86.2068965517241,4,3,3,85,0,1
176910,-33.3333333333333,4,3,3,85,0,1
177023,-33.3333333333333,4,1,0,75,0,1
177136,-86.2068965517241,4,3,3,85,0,1
177588,-100,4,2,0,65,0,0
178266,-86.2068965517241,4,3,3,85,0,1
179961,-75.187969924812,4,3,3,85,0,1
180130,-86.2068965517241,4,3,3,85,0,1
180469,-75.187969924812,4,2,0,60,0,1
180639,-86.2068965517241,4,3,3,85,0,1
188266,-86.2068965517241,4,3,2,95,0,1
188774,-86.2068965517241,4,3,2,90,0,1
189113,-100,4,3,2,85,0,0
190130,-34.6020761245675,4,3,2,85,0,0
190300,-100,4,3,2,85,0,0
200130,-100,4,2,0,45,0,0
201316,-100,4,2,0,40,0,0
202672,-100,4,2,0,35,0,0
204028,-100,4,2,0,30,0,0
205384,-100,4,2,0,25,0,0
206740,-100,4,2,0,20,0,0
208096,-100,4,2,0,15,0,0
209452,-100,4,2,0,10,0,0

[Colours]
Combo1 : 213,213,0
Combo2 : 243,90,33
Combo3 : 112,196,193
Combo4 : 106,213,0

[HitObjects]
256,192,639,12,0,653,0:0:0:0:
256,192,695,12,0,709,0:0:0:0:
256,192,751,12,0,765,0:0:0:0:
256,192,808,12,0,822,0:0:0:0:
256,192,864,12,0,878,0:0:0:0:
256,192,921,12,0,935,0:0:0:0:
256,192,977,12,0,1020,0:0:0:0:
256,192,1062,12,0,1076,0:0:0:0:
256,192,1119,12,0,1133,0:0:0:0:
256,192,1175,12,0,1189,0:0:0:0:
256,192,1232,12,0,1246,0:0:0:0:
256,192,1288,12,0,1302,0:0:0:0:
256,192,1345,12,0,1359,0:0:0:0:
256,192,1401,12,0,1429,0:0:0:0:
256,192,1471,12,0,1486,0:0:0:0:
256,192,1528,12,0,1542,0:0:0:0:
256,192,1584,12,0,1599,0:0:0:0:
256,192,1641,12,0,1655,0:0:0:0:
256,192,1697,12,0,1712,0:0:0:0:
256,192,1754,12,0,1768,0:0:0:0:
256,192,1811,12,0,1839,0:0:0:0:
256,192,1881,12,0,1895,0:0:0:0:
256,192,1938,12,0,1952,0:0:0:0:
256,192,1994,12,0,2008,0:0:0:0:
256,192,2051,12,0,2065,0:0:0:0:
256,192,2107,12,0,2121,0:0:0:0:
256,192,2164,12,0,2178,0:0:0:0:
256,192,2220,12,0,2234,0:0:0:0:
256,192,2277,12,0,2291,0:0:0:0:
256,192,2305,12,0,2319,0:0:0:0:
256,192,2333,12,0,2418,0:0:0:0:
256,192,2588,5,0,0:0:0:0:
160,192,2672,1,0,0:0:0:0:
256,192,2757,1,0,0:0:0:0:
352,192,2842,1,0,0:0:0:0:
256,192,2927,1,0,0:0:0:0:
160,192,3011,2,0,L|160:160,1,27.5
208,192,3096,2,0,L|208:160,1,27.5
256,192,3181,2,0,L|256:160,1,27.5
304,192,3266,1,0,0:0:0:0:
144,96,3350,6,0,L|304:48,2,165,2|0|0,0:0|0:0|0:0,0:0:0:0:
304,192,4028,2,0,L|320:192,2,13.75,8|0|0,0:0|0:0|0:0,0:0:0:0:
192,288,4113,2,0,L|352:336,2,165
368,96,4706,6,0,L|256:96,1,110,2|0,0:0|0:0,0:0:0:0:
208,160,4961,2,0,L|318:160,1,110
368,224,5215,1,0,0:0:0:0:
208,192,5384,2,0,L|192:192,2,13.75,8|0|0,0:0|0:0|0:0,0:0:0:0:
320,288,5469,2,0,L|208:288,1,110
160,224,5723,2,0,L|270:224,1,110
320,160,5977,1,0,0:0:0:0:
144,96,6062,6,0,L|304:48,1,165,2|0,0:0|0:0,0:0:0:0:
302,48,6401,1,0,0:0:0:0:
64,192,6571,1,0,0:0:0:0:
304,192,6740,2,0,L|320:192,2,13.75,8|0|0,0:0|0:0|0:0,0:0:0:0:
192,288,6825,2,0,L|352:336,2,165
368,96,7418,6,0,L|256:96,1,110,2|0,0:0|0:0,0:0:0:0:
336,160,7672,2,0,L|446:160,1,110
368,224,7927,1,0,0:0:0:0:
208,192,8096,2,0,L|192:192,2,13.75,8|0|0,0:0|0:0|0:0,0:0:0:0:
320,288,8181,2,0,L|208:288,1,110
288,224,8435,2,0,L|398:224,1,110,0|8,0:0|0:0,0:0:0:0:
412,224,8626,1,0,0:0:0:0:
398,224,8647,1,0,0:0:0:0:
288,160,8689,1,0,0:0:0:0:
464,160,8774,6,0,L|480:48,1,110,10|0,0:0|0:0,0:0:0:0:
320,48,9113,1,2,0:0:0:0:
480,48,9283,1,0,0:0:0:0:
400,48,9367,1,2,0:0:0:0:
480,48,9452,2,0,L|496:48,2,13.75,8|0|0,0:0|0:0|0:0,0:0:0:0:
368,192,9537,1,0,0:0:0:0:
288,192,9622,1,2,0:0:0:0:
368,192,9706,1,0,0:0:0:0:
192,192,9791,6,0,L|176:80,1,110,2|0,0:0|0:0,0:0:0:0:
256,64,10045,2,0,L|256:128,1,55,2|10,0:0|0:0,0:0:0:0:
336,160,10215,1,0,0:0:0:0:
256,192,10300,2,0,L|256:256,1,55,2|0,0:0|0:0,0:0:0:0:
176,272,10469,1,0,0:0:0:0:
256,192,10554,2,0,L|272:80,1,110,2|0,0:0|0:0,0:0:0:0:
96,80,10808,6,0,L|80:80,2,13.75,10|0|0,0:0|0:0|0:0,0:0:0:0:
208,80,10893,1,0,0:0:0:0:
288,80,10977,1,0,0:0:0:0:
208,80,11062,1,2,0:0:0:0:
288,80,11147,1,0,0:0:0:0:
336,80,11189,1,0,0:0:0:0:
360,136,11232,1,0,0:0:0:0:
336,192,11274,1,0,0:0:0:0:
288,192,11316,1,0,0:0:0:0:
112,192,11401,1,2,0:0:0:0:
288,192,11486,5,10,0:0:0:0:
208,192,11571,1,2,0:0:0:0:
384,288,11655,2,0,L|400:288,2,13.75,8|0|0,0:0|0:0|0:0,0:0:0:0:
272,288,11740,1,0,0:0:0:0:
192,288,11825,2,0,L|176:176,1,110,2|0,0:0|0:0,0:0:0:0:
464,192,12164,2,0,L|480:192,4,13.75,8|0|0|0|0,0:0|0:0|0:0|0:0|0:0,0:0:0:0:
288,192,12333,2,0,L|272:80,1,110,2|0,0:0|0:0,0:0:0:0:
352,80,12588,1,0,0:0:0:0:
176,80,12672,1,2,0:0:0:0:
352,80,12757,1,2,0:0:0:0:
176,224,12842,6,0,L|160:336,1,110,10|0,0:0|0:0,0:0:0:0:
320,336,13181,1,2,0:0:0:0:
160,336,13350,1,0,0:0:0:0:
240,336,13435,2,0,L|240:272,1,55,2|0,0:0|0:0,0:0:0:0:
320,336,13605,1,0,0:0:0:0:
240,336,13689,2,0,L|240:272,1,55,2|0,0:0|0:0,0:0:0:0:
64,288,13859,1,2,0:0:0:0:
464,159,14198,6,0,P|487:111|464:64,1,110,12|0,0:0|0:0,0:0:0:0:
352,64,14452,2,0,L|462:64,1,110,8|0,0:0|0:0,0:0:0:0:
352,160,14706,2,0,L|352:96,1,55,8|0,0:0|0:0,0:0:0:0:
176,160,14876,6,0,P|153:112|176:65,1,110,8|0,0:0|0:0,0:0:0:0:
288,65,15130,1,8,0:0:0:0:
208,65,15215,1,0,0:0:0:0:
288,65,15300,1,2,0:0:0:0:
112,160,15384,1,8,0:0:0:0:
93,179,15405,1,0,0:0:0:0:
81,204,15427,1,0,0:0:0:0:
76,231,15448,1,0,0:0:0:0:
80,258,15469,1,0,0:0:0:0:
92,283,15490,1,0,0:0:0:0:
111,303,15511,1,0,0:0:0:0:
224,304,15554,6,0,L|112:304,1,110,8|0,0:0|0:0,0:0:0:0:
288,304,15808,1,8,0:0:0:0:
368,304,15893,1,0,0:0:0:0:
288,304,15977,1,0,0:0:0:0:
112,80,16062,6,0,L|144:80,1,18.3333333333333,0|0,1:0|0:0,0:0:0:0:
304,192,16175,2,0,L|336:192,1,18.3333333333333,0|0,1:0|0:0,0:0:0:0:
144,304,16288,2,0,L|176:304,1,18.3333333333333,0|0,1:0|0:0,0:0:0:0:
336,192,16401,2,0,L|224:192,2,110,8|0|0,1:0|1:0|0:0,0:0:0:0:
48,192,16910,5,8,0:0:0:0:
256,192,17023,1,0,1:0:0:0:
464,192,17136,2,0,L|464:144,1,36.6666666666667,2|0,0:0|0:0,0:0:0:0:
336,144,17249,1,8,0:0:0:0:
416,144,17333,1,8,0:0:0:0:
336,144,17418,1,8,0:0:0:0:
416,144,17503,1,8,0:0:0:0:
240,192,17588,6,0,L|352:192,1,110,10|0,0:0|0:0,0:0:0:0:
176,144,17842,2,0,L|288:144,1,110,10|0,0:0|0:0,0:0:0:0:
112,192,18096,2,0,L|112:128,1,55
288,224,18266,6,0,P|311:272|288:319,1,110,8|0,0:0|0:0,0:0:0:0:
208,320,18520,1,0,0:0:0:0:
287,319,18605,1,0,0:0:0:0:
128,192,18774,1,8,0:0:0:0:
304,192,18859,1,8,0:0:0:0:
128,192,18944,5,0,1:0:0:0:
88,192,18986,1,0,1:0:0:0:
128,192,19028,1,0,1:0:0:0:
88,192,19071,1,0,1:0:0:0:
128,192,19113,1,0,1:0:0:0:
240,192,19155,1,0,1:0:0:0:
480,192,19283,2,0,L|256:192,2,211.93332500618,8|8|8,0:0|0:0|0:0,0:0:0:0:
240,192,19622,6,0,P|217:144|240:97,1,110,8|2,0:0|0:0,0:0:0:0:
280,96,19833,1,0,0:0:0:0:
280,96,19876,1,0,0:0:0:0:
240,96,19918,1,0,0:0:0:0:
128,192,19961,2,0,P|105:240|128:287,1,110,8|0,0:0|0:0,0:0:0:0:
244,288,20187,1,0,0:0:0:0:
360,288,20243,1,0,0:0:0:0:
480,192,20300,6,0,L|384:192,2,95.3333289693199,8|0|8,0:0|0:0|0:0,0:0:0:0:
240,192,20639,2,0,P|217:144|240:97,1,110,8|0,0:0|0:0,0:0:0:0:
416,96,20893,1,0,0:0:0:0:
240,96,20977,5,8,0:0:0:0:
160,96,21062,1,0,0:0:0:0:
336,192,21147,1,0,0:0:0:0:
160,192,21232,2,0,L|144:192,10,13.75,2|0|0|0|0|0|0|0|0|0|0,0:0|0:0|0:0|0:0|0:0|0:0|0:0|0:0|0:0|0:0|0:0,0:0:0:0:
272,272,21486,1,8,0:0:0:0:
352,272,21571,1,0,0:0:0:0:
176,336,21655,5,10,0:0:0:0:
296,336,21712,1,0,0:0:0:0:
416,336,21768,2,0,L|416:296,1,36.6666666666667
296,336,21881,2,0,L|296:296,1,36.6666666666667
416,192,21994,1,8,0:0:0:0:
496,192,22079,1,0,0:0:0:0:
416,192,22164,1,0,0:0:0:0:
112,192,22333,5,10,0:0:0:0:
416,192,22503,2,0,P|436:124|416:96,1,110,2|0,0:0|0:0,0:0:0:0:
240,96,22757,1,0,0:0:0:0:
64,96,22842,1,8,0:0:0:0:
240,96,22927,1,0,0:0:0:0:
64,96,23011,5,0,0:0:0:0:
49,119,23033,1,0,0:0:0:0:
39,144,23054,1,0,0:0:0:0:
32,171,23075,1,0,0:0:0:0:
30,198,23096,1,0,0:0:0:0:
32,226,23117,1,0,0:0:0:0:
38,253,23139,1,0,0:0:0:0:
48,278,23160,1,0,0:0:0:0:
62,302,23181,1,0,0:0:0:0:
240,304,23266,2,0,L|304:304,2,55,8|0|0,0:0|0:0|0:0,0:0:0:0:
62,302,23520,1,2,0:0:0:0:
240,304,23605,6,0,P|260:236|240:208,1,110,8|0,0:0|0:0,0:0:0:0:
64,192,23859,2,0,L|176:192,1,110,2|0,0:0|0:0,0:0:0:0:
336,192,24198,2,0,L|384:192,2,36.6666666666667
208,112,24367,6,0,L|320:112,2,95.3333289693199,8|0|0,0:0|0:0|0:0,0:0:0:0:
416,192,24706,2,0,P|436:124|416:96,1,110,8|0,0:0|0:0,0:0:0:0:
352,96,24961,1,2,0:0:0:0:
176,192,25045,6,0,L|480:192,1,304.700009996109,8|0,0:0|0:0,0:0:0:0:
456,152,25236,1,0,0:0:0:0:
480,152,25257,1,0,0:0:0:0:
456,152,25278,1,0,0:0:0:0:
480,152,25300,1,0,0:0:0:0:
304,96,25384,2,0,L|272:48,2,55,8|0|0,0:0|0:0|0:0,0:0:0:0:
480,192,25639,1,0,0:0:0:0:
304,288,25723,6,0,L|304:240,1,36.6666666666667,10|0,0:0|0:0,0:0:0:0:
432,192,25836,1,0,0:0:0:0:
208,192,25949,2,0,P|192:144|208:88,1,110,8|0,0:0|0:0,0:0:0:0:
256,80,26175,1,8,0:0:0:0:
128,192,26232,2,0,L|112:160,2,36.6666666666667
256,192,26401,6,0,L|256:272,1,73.3333333333333,10|0,0:0|0:0,0:0:0:0:
144,272,26627,1,0,0:0:0:0:
368,272,26740,1,2,0:0:0:0:
256,265,26853,2,0,L|256:192,1,73.3333333333333,8|0,0:0|0:0,0:0:0:0:
480,192,27079,6,0,L|480:128,1,55,8|0,0:0|0:0,0:0:0:0:
304,144,27249,2,0,L|304:160,1,13.75,2|0,2:0|0:0,0:0:0:0:
240,144,27333,2,0,L|240:160,1,13.75,2|0,2:0|0:0,0:0:0:0:
304,240,27418,2,0,L|304:224,1,13.75,2|0,2:0|0:0,0:0:0:0:
240,240,27503,2,0,L|240:224,1,13.75,2|0,2:0|0:0,0:0:0:0:
64,240,27588,2,0,L|64:160,1,73.3333333333333,2|0,0:0|0:0,0:0:0:0:
192,160,27757,5,8,0:0:0:0:
144,160,27814,2,0,L|128:128,2,36.6666666666667
272,192,27983,1,2,0:0:0:0:
192,192,28096,2,0,L|192:256,1,55,8|0,0:0|0:0,0:0:0:0:
272,256,28266,1,0,0:0:0:0:
448,192,28350,1,2,0:0:0:0:
272,128,28435,6,0,L|208:128,1,55,8|0,0:0|0:0,0:0:0:0:
392,128,28605,2,0,L|408:64,1,55,2|0,0:0|0:0,0:0:0:0:
224,80,28774,1,8,0:0:0:0:
168,80,28831,1,0,0:0:0:0:
168,128,28887,1,0,0:0:0:0:
224,128,28944,1,0,0:0:0:0:
344,128,29000,2,0,L|344:168,1,36.6666666666667,2|0,0:0|0:0,0:0:0:0:
224,192,29113,6,0,L|176:192,2,36.6666666666667,8|0|0,0:0|0:0|0:0,0:0:0:0:
344,192,29283,2,0,L|392:192,2,36.6666666666667,8|0|0,0:0|0:0|0:0,0:0:0:0:
224,256,29452,2,0,L|288:256,1,55,8|0,0:0|1:0,0:0:0:0:
96,256,29622,2,0,B|13:256|13:256|96:256,1,165,8|0,2:0|0:0,0:0:0:0:
272,256,29961,6,0,L|320:256,2,36.6666666666667,8|0|0,0:0|0:0|0:0,0:0:0:0:
152,192,30130,1,0,0:0:0:0:
200,192,30187,1,0,0:0:0:0:
248,192,30243,1,0,0:0:0:0:
128,256,30300,2,0,L|128:240,1,13.75,2|0,2:0|0:0,0:0:0:0:
272,256,30384,2,0,L|272:240,1,13.75,2|0,2:0|0:0,0:0:0:0:
416,256,30469,5,8,2:0:0:0:
440,256,30490,1,0,0:0:0:0:
440,224,30511,1,0,0:0:0:0:
416,224,30533,1,0,0:0:0:0:
384,256,30554,1,0,0:0:0:0:
360,256,30575,1,0,0:0:0:0:
360,224,30596,1,0,0:0:0:0:
384,224,30617,1,0,0:0:0:0:
416,256,30639,1,0,0:0:0:0:
240,192,30723,2,0,L|176:192,2,55,8|0|0,0:0|0:0|0:0,0:0:0:0:
416,192,30977,2,0,L|352:192,1,55,2|0,0:0|0:0,0:0:0:0:
176,192,31147,6,8,L|272:192,1,73.3333333333333,8|0,0:0|0:0,2:0:0:0:
272,192,31288,1,0,0:0:0:0:
249,192,31316,1,0,0:0:0:0:
128,96,31373,1,8,2:0:0:0:
336,96,31486,2,0,L|272:96,1,55,8|0,0:0|0:0,0:0:0:0:
112,96,31655,2,0,L|80:96,2,27.5,2|0|0,0:0|0:0|0:0,0:0:0:0:
288,96,31825,5,8,1:0:0:0:
314,102,31846,1,0,0:0:0:0:
336,118,31867,1,0,0:0:0:0:
351,141,31889,1,0,0:0:0:0:
356,168,31910,1,0,0:0:0:0:
351,195,31931,1,0,0:0:0:0:
336,218,31952,1,0,0:0:0:0:
313,233,31973,1,0,0:0:0:0:
287,240,31994,1,0,0:0:0:0:
112,240,32079,1,0,0:0:0:0:
288,240,32164,2,0,L|336:240,1,36.6666666666667,2|0,0:0|0:0,0:0:0:0:
192,192,32277,2,0,L|176:152,1,36.6666666666667,2|0,0:0|0:0,0:0:0:0:
312,192,32390,2,0,L|296:152,1,36.6666666666667,2|0,0:0|0:0,0:0:0:0:
160,192,32503,6,0,L|96:192,2,55,8|0|0,0:0|0:0|0:0,0:0:0:0:
336,128,32757,2,0,L|272:128,1,55,8|0,1:0|0:0,0:0:0:0:
112,128,32927,2,0,L|96:128,4,13.75,8|0|0|0|0,1:0|0:0|0:0|0:0|0:0,0:0:0:0:
288,192,33096,1,2,0:0:0:0:
112,192,33181,6,0,L|224:192,1,110,10|0,0:0|0:0,0:0:0:0:
48,240,33435,2,0,P|25:192|48:145,1,110,10|0,0:0|0:0,0:0:0:0:
160,192,33689,2,0,L|160:128,1,55,2|0,0:0|0:0,0:0:0:0:
336,192,33859,6,0,L|224:192,1,110,10|0,0:0|0:0,0:0:0:0:
400,240,34113,2,0,P|423:192|400:145,1,110,10|0,0:0|0:0,0:0:0:0:
288,192,34367,1,2,0:0:0:0:
344,192,34424,1,2,0:0:0:0:
400,192,34480,1,2,0:0:0:0:
272,304,34537,6,0,L|384:304,1,110,10|0,0:0|0:0,0:0:0:0:
208,256,34791,2,0,P|185:304|208:351,1,110,10|0,0:0|0:0,0:0:0:0:
384,352,35045,1,2,0:0:0:0:
304,352,35130,1,2,0:0:0:0:
480,192,35215,6,0,L|400:192,2,73.3333333333333,2|0|8,0:0|0:0|0:0,0:0:0:0:
256,192,35554,2,0,L|176:192,2,73.3333333333333,2|0|8,0:0|0:0|0:0,0:0:0:0:
480,192,35893,6,0,L|496:80,1,110,6|0,0:0|0:0,0:0:0:0:
384,192,36147,2,0,L|400:80,1,110,2|0,0:0|0:0,0:0:0:0:
288,192,36401,2,0,L|304:80,1,110,2|0,0:0|0:0,0:0:0:0:
192,192,36655,2,0,L|208:80,1,110,2|0,0:0|0:0,0:0:0:0:
384,288,36910,1,10,0:0:0:0:
272,288,37079,1,0,0:0:0:0:
336,288,37164,1,0,0:0:0:0:
160,192,37249,6,0,L|144:80,1,110,2|0,0:0|0:0,0:0:0:0:
256,192,37503,2,0,L|240:80,1,110,2|0,0:0|0:0,0:0:0:0:
352,192,37757,2,0,L|336:80,1,110,2|0,0:0|0:0,0:0:0:0:
448,192,38011,2,0,L|480:192,4,27.5,2|0|0|0|0,0:0|0:0|0:0|0:0|0:0,0:0:0:0:
272,192,38266,5,10,0:0:0:0:
96,192,38350,1,8,0:0:0:0:
272,192,38435,1,8,0:0:0:0:
448,192,38520,1,8,0:0:0:0:
464,128,38605,1,10,0:0:0:0:
432,64,38689,1,0,0:0:0:0:
368,64,38774,2,0,L|368:112,1,27.5
416,64,38859,2,0,L|416:112,1,27.5
304,192,38944,6,0,L|288:80,1,110,2|0,0:0|0:0,0:0:0:0:
400,192,39198,2,0,L|384:80,1,110,2|0,0:0|0:0,0:0:0:0:
496,192,39452,2,0,L|480:80,1,110,2|0,0:0|0:0,0:0:0:0:
256,80,39706,2,0,L|480:80,2,221.375004222393,10|8|8,0:0|0:0|0:0,0:0:0:0:
480,192,40130,6,0,L|496:80,1,110,2|0,0:0|0:0,0:0:0:0:
384,192,40384,2,0,L|400:80,1,110,2|0,0:0|0:0,0:0:0:0:
224,80,40639,2,0,P|96:192|224:304,1,379.500007238388,2|0,0:0|0:0,0:0:0:0:
400,304,40977,2,0,L|400:192,1,110,2|0,2:0|0:0,0:0:0:0:
320,192,41232,1,0,0:0:0:0:
144,192,41316,5,10,0:0:0:0:
64,192,41401,1,0,0:0:0:0:
144,192,41486,1,0,0:0:0:0:
32,192,41571,2,0,L|16:80,1,110,2|0,0:0|0:0,0:0:0:0:
128,192,41825,2,0,L|112:80,1,110,2|0,0:0|0:0,0:0:0:0:
284,192,42079,6,8,L|300:192,1,13.75,8|8,2:0|0:0,0:0:0:0:
288,144,42122,2,0,L|304:144,1,13.75
284,192,42164,2,0,L|300:192,1,13.75
288,240,42206,2,0,L|304:240,1,13.75
284,192,42249,2,0,L|300:192,1,13.75
288,144,42291,1,0,0:0:0:0:
256,144,42333,2,0,L|256:112,1,27.5
304,144,42418,2,0,L|304:112,1,27.5
248,144,42503,2,0,L|248:112,1,27.5
312,144,42588,2,0,L|312:112,1,27.5
208,192,42672,6,0,L|192:304,1,110,2|0,0:0|0:0,0:0:0:0:
304,192,42927,2,0,L|288:304,1,110,2|0,0:0|0:0,0:0:0:0:
112,192,43181,1,8,0:0:0:0:
304,192,43266,1,8,0:0:0:0:
48,192,43393,1,8,0:0:0:0:
368,192,43562,1,10,0:0:0:0:
112,288,43689,6,0,L|112:256,1,27.5,2|0,2:0|0:0,0:0:0:0:
160,288,43774,1,0,0:0:0:0:
188,269,43816,1,0,0:0:0:0:
210,243,43859,1,0,0:0:0:0:
221,210,43901,1,0,0:0:0:0:
221,176,43944,1,0,0:0:0:0:
208,144,43986,1,0,0:0:0:0:
187,118,44028,1,0,0:0:0:0:
158,99,44071,1,0,0:0:0:0:
112,96,44113,2,0,L|112:128,1,27.5
160,96,44198,2,0,L|160:128,1,27.5
112,96,44283,2,0,L|112:128,1,27.5
224,192,44367,6,0,L|240:304,1,110,2|0,0:0|0:0,0:0:0:0:
128,192,44622,2,0,L|128:256,1,55,2|0,0:0|0:0,0:0:0:0:
208,192,44791,1,0,0:0:0:0:
384,192,44876,1,2,0:0:0:0:
304,192,44961,2,0,L|304:247,1,55
480,192,45130,1,2,0:0:0:0:
304,192,45215,2,0,L|416:192,1,110,8|10,0:0|0:0,0:0:0:0:
240,320,45469,1,8,0:0:0:0:
416,192,45554,6,0,L|432:80,1,110,2|0,0:0|0:0,0:0:0:0:
320,192,45808,1,2,0:0:0:0:
272,192,45850,1,0,0:0:0:0:
320,192,45893,1,0,0:0:0:0:
352,192,45935,1,0,0:0:0:0:
352,144,45977,1,0,0:0:0:0:
320,144,46020,1,0,0:0:0:0:
208,144,46062,5,2,0:0:0:0:
128,144,46147,1,0,0:0:0:0:
208,144,46232,1,0,0:0:0:0:
384,192,46316,1,2,0:0:0:0:
208,240,46401,1,8,0:0:0:0:
288,240,46486,1,8,0:0:0:0:
112,192,46571,1,8,0:0:0:0:
192,192,46655,1,8,0:0:0:0:
368,192,46740,6,0,L|384:128,1,55,6|0,0:0|0:0,0:0:0:0:
304,112,46910,1,0,0:0:0:0:
384,96,46994,1,0,0:0:0:0:
304,192,47079,2,0,L|288:256,1,55
368,272,47249,1,0,0:0:0:0:
288,288,47333,1,0,0:0:0:0:
112,192,47418,5,8,0:0:0:0:
64,192,47461,1,0,0:0:0:0:
112,192,47503,1,0,0:0:0:0:
192,192,47588,2,0,L|208:256,1,55
128,192,47757,2,0,L|112:256,1,55
192,272,47927,1,0,0:0:0:0:
112,288,48011,1,0,0:0:0:0:
288,192,48096,6,0,L|304:256,1,55,2|0,0:0|0:0,0:0:0:0:
224,272,48266,1,0,0:0:0:0:
304,288,48350,1,0,0:0:0:0:
224,192,48435,2,0,L|144:192,2,73.3333333333333
448,192,48774,6,0,L|464:256,1,55,8|0,0:0|0:0,0:0:0:0:
384,272,48944,1,0,0:0:0:0:
464,288,49028,1,0,0:0:0:0:
384,288,49113,1,0,0:0:0:0:
336,288,49155,2,0,L|336:224,1,55
384,288,49283,2,0,L|384:224,1,55
336,288,49410,1,0,0:0:0:0:
224,192,49452,6,0,L|208:128,1,55,2|0,0:0|0:0,0:0:0:0:
288,112,49622,1,0,0:0:0:0:
208,96,49706,1,0,0:0:0:0:
288,192,49791,2,0,L|304:256,1,55
224,272,49961,1,0,0:0:0:0:
304,288,50045,1,0,0:0:0:0:
480,96,50130,6,0,L|480:112,1,13.75,8|0,0:0|0:0,0:0:0:0:
416,96,50215,2,0,L|416:112,1,13.75,2|0,0:0|0:0,0:0:0:0:
480,192,50300,2,0,L|480:208,1,13.75,2|0,0:0|0:0,0:0:0:0:
416,192,50384,2,0,L|416:208,1,13.75,2|0,0:0|0:0,0:0:0:0:
352,192,50469,2,0,L|336:128,1,55
416,112,50639,1,0,0:0:0:0:
336,96,50723,1,0,0:0:0:0:
160,96,50808,5,2,0:0:0:0:
240,96,50893,1,0,0:0:0:0:
64,96,50977,2,0,L|48:160,1,55
224,192,51147,1,0,0:0:0:0:
144,192,51232,1,0,0:0:0:0:
320,192,51316,1,0,0:0:0:0:
344,192,51338,1,0,0:0:0:0:
356,240,51359,1,0,0:0:0:0:
344,288,51380,1,0,0:0:0:0:
320,288,51401,1,0,0:0:0:0:
240,96,51486,6,0,L|323:97,2,73.3333333333333,2|2|2,2:0|0:0|0:0,0:0:0:0:
336,192,51825,1,2,0:0:0:0:
400,192,51910,1,2,0:0:0:0:
320,128,51994,1,2,0:0:0:0:
400,128,52079,1,2,0:0:0:0:
224,192,52164,6,0,L|208:128,1,55,2|0,0:0|0:0,0:0:0:0:
288,112,52333,1,0,0:0:0:0:
208,96,52418,1,0,0:0:0:0:
288,192,52503,2,0,L|304:256,1,55
224,272,52672,1,0,0:0:0:0:
304,288,52757,1,0,0:0:0:0:
128,192,52842,5,8,0:0:0:0:
80,192,52884,1,0,0:0:0:0:
128,192,52927,1,0,0:0:0:0:
208,192,53011,1,0,0:0:0:0:
128,192,53096,1,0,0:0:0:0:
304,192,53181,1,0,0:0:0:0:
128,192,53266,1,0,0:0:0:0:
48,176,53350,1,0,0:0:0:0:
128,192,53435,1,0,0:0:0:0:
304,192,53520,6,0,L|304:160,1,27.5,2|0,0:0|0:0,0:0:0:0:
256,192,53605,2,0,L|256:160,1,27.5
304,192,53689,2,0,L|304:160,1,27.5
256,192,53774,2,0,L|256:160,1,27.5
368,192,53859,2,0,L|381:138,1,55
304,112,54028,1,0,0:0:0:0:
384,96,54113,1,0,0:0:0:0:
208,192,54198,6,0,L|194:245,1,55,8|0,0:0|0:0,0:0:0:0:
272,192,54367,2,0,L|285:245,1,55
112,112,54537,2,0,L|112:144,1,18.3333333333333,2|0,0:0|0:0,0:0:0:0:
288,112,54650,2,0,L|320:112,1,18.3333333333333,2|0,0:0|0:0,0:0:0:0:
130,192,54763,2,0,L|112:192,1,18.3333333333333,2|0,0:0|0:0,0:0:0:0:
288,192,54876,6,0,L|304:128,1,55,2|0,0:0|0:0,0:0:0:0:
224,128,55045,1,0,0:0:0:0:
400,128,55130,1,0,0:0:0:0:
480,128,55215,1,0,0:0:0:0:
496,192,55300,1,0,0:0:0:0:
480,256,55384,1,0,0:0:0:0:
400,256,55469,1,0,0:0:0:0:
320,192,55554,5,8,0:0:0:0:
400,192,55639,1,0,0:0:0:0:
224,192,55723,1,0,0:0:0:0:
144,192,55808,1,0,0:0:0:0:
320,128,55893,1,0,0:0:0:0:
400,128,55977,1,0,0:0:0:0:
400,256,56062,1,0,0:0:0:0:
320,256,56147,1,0,0:0:0:0:
144,192,56232,6,0,L|128:128,1,55,2|0,0:0|0:0,0:0:0:0:
208,112,56401,2,0,L|128:112,2,73.3333333333333
432,112,56740,2,0,L|448:176,1,55,8|0,2:0|0:0,0:0:0:0:
272,192,56910,5,8,0:0:0:0:
224,192,56952,1,0,0:0:0:0:
272,192,56994,1,0,0:0:0:0:
352,192,57079,1,0,0:0:0:0:
272,192,57164,1,0,0:0:0:0:
448,112,57249,1,8,2:0:0:0:
368,112,57333,1,0,0:0:0:0:
192,112,57418,1,8,2:0:0:0:
272,112,57503,1,0,0:0:0:0:
96,192,57588,6,0,L|208:192,1,110,6|0,0:0|0:0,0:0:0:0:
32,192,57842,2,0,P|9:144|32:97,1,110
206,96,58096,2,0,L|224:160,1,55
144,160,58266,1,0,0:0:0:0:
224,160,58350,1,0,0:0:0:0:
400,192,58435,5,8,0:0:0:0:
96,192,58605,1,2,0:0:0:0:
224,272,58774,2,0,L|240:200,1,68.75,2|2,0:0|0:0,0:0:0:0:
144,192,58986,1,2,0:0:0:0:
384,192,59113,6,0,P|407:144|384:97,1,110,8|0,0:0|0:0,0:0:0:0:
304,192,59367,1,0,0:0:0:0:
384,192,59452,2,0,L|384:256,1,55
208,192,59622,6,0,L|320:192,1,110,2|0,0:0|0:0,0:0:0:0:
144,192,59876,2,0,P|121:240|144:287,1,110,8|0,0:0|0:0,0:0:0:0:
318,288,60130,1,0,0:0:0:0:
400,288,60215,1,0,0:0:0:0:
318,288,60300,2,0,L|304:224,1,55
384,288,60469,2,0,L|400:224,1,55
224,192,60639,6,0,L|336:192,1,110,2|0,0:0|0:0,0:0:0:0:
48,192,60977,2,0,L|128:192,2,73.3333333333333,2|2|2,0:0|0:0|0:0,0:0:0:0:
272,192,61316,2,0,L|336:192,2,55
192,192,61571,1,0,0:0:0:0:
272,192,61655,5,2,0:0:0:0:
96,192,61825,1,8,0:0:0:0:
400,192,61994,1,2,0:0:0:0:
448,192,62051,1,2,0:0:0:0:
400,192,62107,1,2,0:0:0:0:
320,192,62164,1,0,0:0:0:0:
272,192,62220,1,0,0:0:0:0:
320,192,62277,1,0,0:0:0:0:
400,192,62333,1,0,0:0:0:0:
96,48,62503,2,0,L|400:48,1,304.700009996109,10|0,0:0|0:0,0:0:0:0:
400,144,62757,2,0,L|96:144,1,304.700009996109,10|0,0:0|0:0,0:0:0:0:
96,240,63011,6,0,L|400:240,1,304.700009996109,10|0,0:0|0:0,0:0:0:0:
288,192,63266,2,0,L|272:304,1,110,2|0,0:0|0:0,0:0:0:0:
384,192,63520,2,0,L|368:304,1,110,10|0,0:0|0:0,0:0:0:0:
256,192,63774,2,0,L|240:80,1,110,2|0,0:0|0:0,0:0:0:0:
416,80,64028,1,10,1:0:0:0:
496,80,64113,1,0,0:0:0:0:
320,80,64198,2,0,L|304:144,1,55,8|0,0:0|0:0,0:0:0:0:
480,80,64367,6,0,P|503:127|480:175,1,110,2|0,0:0|0:0,0:0:0:0:
368,192,64622,2,0,L|478:192,1,110
368,80,64876,1,0,0:0:0:0:
448,80,64961,1,0,0:0:0:0:
272,192,65045,1,10,1:0:0:0:
352,192,65130,1,0,0:0:0:0:
174,192,65215,2,0,L|64:192,1,110,0|8,0:0|0:0,0:0:0:0:
368,192,65554,1,0,0:0:0:0:
64,192,65723,6,0,L|174:192,1,110
480,192,66062,2,0,L|480:176,1,13.75,2|0,0:0|0:0,0:0:0:0:
176,192,66232,2,0,L|176:176,1,13.75
480,16,66401,1,8,0:0:0:0:
488,42,66422,1,0,0:0:0:0:
494,69,66444,1,0,0:0:0:0:
495,96,66465,1,0,0:0:0:0:
494,123,66486,1,0,0:0:0:0:
489,150,66507,1,0,0:0:0:0:
481,177,66528,1,0,0:0:0:0:
469,202,66550,1,0,0:0:0:0:
454,225,66571,1,0,0:0:0:0:
437,246,66592,1,0,0:0:0:0:
417,265,66613,1,0,0:0:0:0:
395,281,66634,1,0,0:0:0:0:
371,295,66655,1,0,0:0:0:0:
345,305,66677,1,0,0:0:0:0:
319,312,66698,1,0,0:0:0:0:
208,192,66740,6,0,L|320:192,1,110
240,128,66994,1,0,0:0:0:0:
64,128,67079,1,10,1:0:0:0:
144,128,67164,1,0,0:0:0:0:
64,128,67249,2,0,L|64:64,1,55
240,64,67418,6,0,L|256:64,4,13.75
64,192,67588,2,0,L|176:192,1,110,2|0,0:0|0:0,0:0:0:0:
192,192,67778,1,0,0:0:0:0:
174,192,67800,1,0,0:0:0:0:
144,144,67821,1,0,0:0:0:0:
112,96,67842,1,0,0:0:0:0:
96,96,67863,1,0,0:0:0:0:
112,96,67884,1,0,0:0:0:0:
224,96,67927,5,0,0:0:0:0:
304,96,68011,1,0,0:0:0:0:
128,192,68096,2,0,L|112:256,1,55,8|2,0:0|0:0,0:0:0:0:
288,272,68266,1,2,0:0:0:0:
208,272,68350,1,2,0:0:0:0:
34,192,68435,6,0,B|254:192|254:192|34:192|34:192|144:192,1,550,2|8,0:0|0:0,0:0:0:0:
256,192,69325,1,2,2:0:0:0:
368,192,69367,1,2,2:0:0:0:
256,192,69410,1,2,2:0:0:0:
144,192,69452,1,0,0:0:0:0:
96,192,69494,1,0,0:0:0:0:
96,240,69537,1,0,0:0:0:0:
144,240,69579,1,0,0:0:0:0:
192,240,69622,1,0,0:0:0:0:
240,240,69664,1,0,0:0:0:0:
240,192,69706,1,0,0:0:0:0:
192,192,69749,1,0,0:0:0:0:
80,32,69791,6,0,L|192:32,1,110,4|0,0:0|0:0,0:0:0:0:
368,112,70045,2,0,L|304:112,2,55,2|0|0,2:0|0:0|0:0,0:0:0:0:
80,192,70300,2,0,L|176:192,1,82.5
192,192,70469,5,0,0:0:0:0:
368,272,70554,2,0,L|272:272,2,82.5,8|0|0,0:0|0:0|0:0,0:0:0:0:
144,192,70921,1,8,0:0:0:0:
368,192,71034,2,0,L|416:192,1,36.6666666666667
368,192,71147,5,0,0:0:0:0:
288,192,71232,1,0,0:0:0:0:
464,192,71316,2,0,P|480:176|464:152,1,55,8|0,0:0|0:0,0:0:0:0:
432,144,71444,1,0,0:0:0:0:
320,144,71486,2,0,L|256:144,2,55,0|0|2,0:0|0:0|0:0,0:0:0:0:
32,192,71825,6,0,L|16:160,2,36.6666666666667
160,192,71994,1,2,0:0:0:0:
288,192,72051,1,2,0:0:0:0:
160,192,72107,2,0,L|128:192,1,18.3333333333333
96,192,72206,2,0,L|115:192,1,18.3333333333333,8|0,0:0|0:0,0:0:0:0:
160,192,72305,2,0,L|128:192,1,18.3333333333333,8|0,0:0|0:0,0:0:0:0:
96,192,72404,2,0,L|115:192,1,18.3333333333333,8|0,0:0|0:0,0:0:0:0:
288,192,72503,6,0,L|336:192,2,36.6666666666667,2|0|0,0:0|0:0|0:0,0:0:0:0:
240,192,72672,1,0,0:0:0:0:
416,192,72757,1,0,0:0:0:0:
240,96,72842,2,0,L|352:96,1,110,8|0,0:0|0:0,0:0:0:0:
144,96,73117,2,0,L|144:144,1,41.25
288,192,73244,2,0,L|288:176,1,13.75,0|8,0:0|0:0,0:0:0:0:
128,192,73350,1,8,0:0:0:0:
288,192,73435,1,8,0:0:0:0:
128,192,73520,6,0,L|64:192,1,55,2|0,0:0|0:0,0:0:0:0:
240,192,73689,2,0,L|240:256,1,55
73,256,73859,2,0,L|128:256,2,55,8|0|0,0:0|0:0|0:0,0:0:0:0:
240,256,74113,2,0,L|256:256,4,13.75
64,192,74283,1,0,0:0:0:0:
240,192,74367,6,0,P|256:148|240:120,1,82.5,2|0,0:0|0:0,0:0:0:0:
125,80,74537,2,0,L|208:80,1,82.5
416,80,74770,1,8,0:0:0:0:
207,80,74876,2,0,L|144:80,1,55,8|0,3:0|0:0,0:0:0:0:
320,192,75045,2,0,L|256:192,1,55,8|0,0:0|0:0,0:0:0:0:
432,192,75215,6,0,P|448:172|432:96,1,110,2|0,0:0|0:0,0:0:0:0:
256,192,75469,2,0,L|256:128,1,55,8|0,2:0|0:0,0:0:0:0:
80,192,75639,2,0,P|64:172|80:96,1,110
256,96,75893,6,0,L|320:96,1,55,8|0,0:0|0:0,0:0:0:0:
336,96,76006,2,0,L|336:144,1,36.6666666666667
208,192,76119,2,0,L|128:192,1,73.3333333333333,8|0,0:0|0:0,0:0:0:0:
134,192,76288,1,0,0:0:0:0:
256,288,76345,2,0,L|272:256,1,36.6666666666667,8|0,0:0|0:0,0:0:0:0:
144,288,76458,1,2,2:0:0:0:
109,276,76486,1,2,2:0:0:0:
82,251,76514,1,2,2:0:0:0:
68,217,76542,1,2,2:0:0:0:
68,181,76571,1,2,2:0:0:0:
83,148,76599,1,2,2:0:0:0:
110,123,76627,1,2,2:0:0:0:
144,111,76655,1,2,2:0:0:0:
320,112,76740,6,0,L|256:112,1,55,8|0,0:0|0:0,0:0:0:0:
96,112,76910,2,0,L|272:112,2,168.666669883728,0|8|0,0:0|1:0|0:0,0:0:0:0:
192,48,77249,1,0,0:0:0:0:
144,48,77305,1,0,0:0:0:0:
96,48,77362,1,0,0:0:0:0:
224,48,77418,6,0,L|224:96,1,36.6666666666667,2|0,0:0|0:0,0:0:0:0:
144,192,77588,2,0,L|96:192,1,36.6666666666667
160,192,77701,2,0,L|208:192,1,36.6666666666667
144,192,77814,2,0,L|96:192,1,36.6666666666667
240,192,77927,2,0,L|304:192,1,55,8|0,0:0|0:0,0:0:0:0:
128,128,78096,6,0,B|100:128|100:128|128:128,1,55,10|0,0:0|0:0,0:0:0:0:
304,128,78266,2,0,L|480:128,2,168.666669883728,8|8|0,0:0|0:0|0:0,0:0:0:0:
208,128,78605,2,0,L|272:128,1,55,8|8,0:0|0:0,0:0:0:0:
96,192,78774,6,0,L|208:192,1,110,2|0,0:0|0:0,0:0:0:0:
432,192,79057,2,0,L|432:112,1,73.3333333333333,8|0,0:0|0:0,0:0:0:0:
208,112,79283,2,0,L|272:112,1,55
432,192,79452,6,0,L|432:80,1,110,8|0,0:0|0:0,0:0:0:0:
256,80,79706,2,0,L|352:80,2,82.5,8|8|8,0:0|0:0|0:0,0:0:0:0:
256,80,80017,1,0,0:0:0:0:
384,192,80074,2,0,L|464:192,1,73.3333333333333,8|0,0:0|0:0,0:0:0:0:
240,192,80300,2,0,L|304:192,1,55,8|0,0:0|0:0,0:0:0:0:
128,80,80469,1,8,0:0:0:0:
295,192,80554,1,0,0:0:0:0:
128,80,80639,6,0,B|112:192|112:192|208:144,1,220,12|2,0:0|0:0,0:0:0:0:
288,144,81062,1,0,0:0:0:0:
208,144,81147,2,0,L|208:208,1,55,0|0,2:0|0:0,0:0:0:0:
288,208,81316,2,0,P|320:240|320:304,1,110,0|2,0:0|0:0,0:0:0:0:
288,304,81528,1,0,0:0:0:0:
256,304,81571,1,0,0:0:0:0:
368,192,81655,6,0,L|368:128,1,55,8|0,0:0|0:0,0:0:0:0:
288,128,81825,1,0,0:0:0:0:
256,128,81867,1,0,0:0:0:0:
256,96,81910,1,0,0:0:0:0:
288,96,81952,1,0,0:0:0:0:
352,96,81994,2,0,L|288:96,2,55,2|0|0,0:0|0:0|0:0,0:0:0:0:
400,192,82249,1,0,0:0:0:0:
352,288,82333,1,8,0:0:0:0:
288,288,82397,2,0,L|288:256,1,27.5
368,192,82503,6,0,L|256:192,1,110,2|2,0:0|3:0,0:0:0:0:
368,96,82757,2,0,L|384:96,1,13.75,2|0,3:0|0:0,0:0:0:0:
320,32,82842,2,0,L|328:16,1,13.75,2|0,3:0|0:0,0:0:0:0:
264,32,82927,2,0,L|256:16,1,13.75,2|0,3:0|0:0,0:0:0:0:
192,96,83011,2,0,L|176:96,1,13.75,2|0,3:0|0:0,0:0:0:0:
416,192,83147,6,0,L|448:160,2,44,8|0|0,0:0|0:0|0:0,0:0:0:0:
352,192,83350,1,0,0:0:0:0:
288,192,83407,1,0,0:0:0:0:
352,192,83463,1,0,0:0:0:0:
288,192,83520,1,0,0:0:0:0:
224,192,83576,1,0,0:0:0:0:
160,192,83605,6,0,L|112:192,1,41.25,10|0,0:0|0:0,0:0:0:0:
176,192,83753,1,0,0:0:0:0:
272,112,83859,2,0,L|208:112,1,55
384,192,84028,6,0,L|304:192,2,73.3333333333333,8|2|0,0:0|0:0|0:0,0:0:0:0:
384,192,84311,1,0,0:0:0:0:
320,272,84367,2,0,L|256:272,2,55,8|0|0,0:0|0:0|0:0,0:0:0:0:
64,272,84706,6,0,L|48:240,2,36.6666666666667,8|0|0,0:0|0:0|0:0,0:0:0:0:
144,272,84876,2,0,L|192:272,2,36.6666666666667,8|0|0,0:0|0:0|0:0,0:0:0:0:
64,192,85045,1,8,0:0:0:0:
112,192,85102,1,0,0:0:0:0:
160,192,85158,1,0,0:0:0:0:
208,192,85215,1,0,0:0:0:0:
160,192,85271,1,0,0:0:0:0:
272,192,85384,6,0,L|272:112,1,73.3333333333333,2|0,0:0|0:0,0:0:0:0:
160,64,85554,2,0,L|272:64,1,110,8|0,0:0|0:0,0:0:0:0:
160,64,85836,2,0,L|160:112,1,36.6666666666667,8|0,0:0|0:0,0:0:0:0:
224,128,85949,1,2,0:0:0:0:
160,144,86006,1,0,0:0:0:0:
286,191,86062,6,0,P|267:86|176:32,1,220,8|2,0:0|0:0,0:0:0:0:
336,32,86571,1,8,0:0:0:0:
176,96,86740,2,0,L|256:96,2,73.3333333333333,2|2|2,0:0|0:0|0:0,0:0:0:0:
384,192,87079,6,0,L|400:160,2,36.6666666666667,8|0|0,0:0|0:0|0:0,0:0:0:0:
320,192,87249,1,0,0:0:0:0:
256,192,87305,1,0,0:0:0:0:
320,192,87362,1,0,0:0:0:0:
448,48,87418,1,8,0:0:0:0:
368,48,87503,1,8,0:0:0:0:
448,48,87588,6,0,P|472:96|448:144,1,110,0|2,0:0|0:0,0:0:0:0:
352,192,87884,2,0,L|352:219,1,27.5
176,192,88011,2,0,L|144:192,1,27.5
176,192,88096,6,0,L|96:192,1,73.3333333333333,8|0,0:0|0:0,0:0:0:0:
224,192,88322,2,0,L|224:144,1,36.6666666666667
150,112,88435,2,0,L|256:112,1,95.3333289693199
464,112,88661,6,0,L|464:272,1,146.666666666667,8|0,0:0|0:0,0:0:0:0:
336,256,88944,2,0,L|272:256,1,55,2|0,0:0|0:0,0:0:0:0:
448,192,89113,2,0,L|448:160,1,27.5,2|0,0:0|0:0,0:0:0:0:
192,192,89283,2,0,L|320:192,1,110,8|0,0:0|0:0,0:0:0:0:
176,192,89509,5,2,0:0:0:0:
128,192,89565,1,0,0:0:0:0:
128,128,89622,1,0,0:0:0:0:
176,128,89678,1,0,0:0:0:0:
288,128,89791,2,0,L|288:176,1,36.6666666666667,8|0,0:0|0:0,0:0:0:0:
224,128,89904,2,0,L|224:176,1,36.6666666666667
345,240,90017,6,0,L|272:240,1,73.3333333333333,0|2,0:0|0:0,0:0:0:0:
96,240,90215,1,0,0:0:0:0:
272,240,90300,2,0,L|336:240,1,55,8|0,0:0|0:0,0:0:0:0:
327,240,90427,1,0,0:0:0:0:
240,192,90511,6,0,L|192:192,1,41.25,2|0,0:0|0:0,0:0:0:0:
272,192,90639,2,0,L|288:144,2,41.25,2|0|0,0:0|0:0|0:0,0:0:0:0:
176,192,90808,2,0,L|176:144,1,41.25,2|0,0:0|0:0,0:0:0:0:
240,112,90935,1,8,0:0:0:0:
176,64,90999,1,0,1:0:0:0:
240,16,91062,1,0,1:0:0:0:
400,192,91147,5,10,0:0:0:0:
240,192,91232,1,2,0:0:0:0:
400,192,91316,1,10,0:0:0:0:
240,192,91401,1,2,0:0:0:0:
400,192,91486,6,0,P|424:152|400:96,1,110,8|0,0:0|0:0,0:0:0:0:
236,96,91740,2,0,L|348:96,1,110,8|0,0:0|0:0,0:0:0:0:
176,96,91994,1,2,0:0:0:0:
152,110,92016,1,0,0:0:0:0:
134,131,92037,1,0,0:0:0:0:
123,156,92058,1,0,0:0:0:0:
119,183,92079,1,0,0:0:0:0:
123,210,92100,1,0,0:0:0:0:
134,235,92122,1,0,0:0:0:0:
152,256,92143,1,0,0:0:0:0:
174,271,92164,1,0,0:0:0:0:
256,272,92249,5,0,0:0:0:0:
416,272,92333,2,0,L|320:272,2,95.3333289693199,8|0|0,0:0|0:0|0:0,0:0:0:0:
192,272,92672,2,0,L|256:272,1,55,8|0,0:0|0:0,0:0:0:0:
176,272,92842,6,0,L|176:208,1,55
344,128,93011,2,0,L|288:128,1,55,8|0,0:0|0:0,0:0:0:0:
464,272,93181,2,0,L|464:192,1,73.3333333333333,8|0,0:0|0:0,0:0:0:0:
230,192,93407,6,0,L|304:192,1,73.3333333333333
128,192,93605,1,2,0:0:0:0:
304,192,93689,2,0,L|304:256,1,55
224,256,93859,1,0,0:0:0:0:
448,256,93972,2,0,L|352:256,1,95.3333289693199,8|0,0:0|0:0,0:0:0:0:
352,256,94141,1,0,0:0:0:0:
480,256,94198,5,2,2:0:0:0:
495,224,94254,1,0,0:0:0:0:
480,192,94311,1,0,0:0:0:0:
432,192,94367,1,0,0:0:0:0:
304,192,94424,2,0,L|400:192,1,95.3333289693199,8|0,0:0|0:0,0:0:0:0:
400,192,94593,1,0,0:0:0:0:
272,192,94650,1,8,0:0:0:0:
48,192,94763,1,8,0:0:0:0:
272,192,94876,1,8,0:0:0:0:
96,192,94961,6,0,L|96:256,1,55,2|0,0:0|0:0,0:0:0:0:
272,256,95130,2,0,L|160:256,1,110,8|0,0:0|0:0,0:0:0:0:
288,192,95441,1,8,0:0:0:0:
64,64,95554,6,0,L|160:64,2,95.3333289693199,8|0|0,1:0|0:0|0:0,0:0:0:0:
64,64,95893,1,0,0:0:0:0:
288,64,96006,2,0,L|336:64,1,36.6666666666667,8|0,0:0|0:0,0:0:0:0:
208,64,96119,2,0,L|208:112,1,36.6666666666667,8|0,0:0|0:0,0:0:0:0:
352,320,96232,5,2,0:0:0:0:
377,310,96253,1,0,0:0:0:0:
398,292,96274,1,0,0:0:0:0:
412,269,96295,1,0,0:0:0:0:
417,242,96316,1,0,0:0:0:0:
412,215,96338,1,0,0:0:0:0:
399,191,96359,1,0,0:0:0:0:
378,173,96380,1,0,0:0:0:0:
352,160,96401,1,0,0:0:0:0:
330,143,96422,1,0,0:0:0:0:
315,120,96444,1,0,0:0:0:0:
308,93,96465,1,0,0:0:0:0:
311,66,96486,1,0,0:0:0:0:
321,41,96507,1,0,0:0:0:0:
340,21,96528,1,0,0:0:0:0:
364,7,96550,1,0,0:0:0:0:
391,3,96571,5,0,0:0:0:0:
418,7,96592,1,0,0:0:0:0:
442,20,96613,1,0,0:0:0:0:
461,40,96634,1,0,0:0:0:0:
472,65,96655,1,0,0:0:0:0:
475,92,96677,1,0,0:0:0:0:
469,119,96698,1,0,0:0:0:0:
454,142,96719,1,0,0:0:0:0:
433,159,96740,1,0,0:0:0:0:
404,192,96761,1,0,0:0:0:0:
368,192,96783,1,2,0:0:0:0:
328,192,96804,1,0,0:0:0:0:
264,192,96825,1,2,0:0:0:0:
224,192,96846,1,0,0:0:0:0:
160,192,96867,1,2,0:0:0:0:
120,192,96889,1,0,0:0:0:0:
56,192,96910,6,0,P|40:128|56:88,1,110,8|0,0:0|0:0,0:0:0:0:
220,80,97164,2,0,L|108:80,1,110,8|0,0:0|0:0,0:0:0:0:
272,80,97418,2,0,L|336:80,1,55,2|0,0:0|0:0,0:0:0:0:
160,192,97588,6,0,L|368:192,2,208.266656179607,0|8|8,0:0|0:0|0:0,0:0:0:0:
368,192,97927,2,0,L|368:256,1,55,8|0,0:0|0:0,0:0:0:0:
288,272,98096,1,0,0:0:0:0:
80,272,98209,1,8,0:0:0:0:
288,272,98322,1,8,0:0:0:0:
80,272,98435,6,0,L|80:208,1,55,2|0,0:0|0:0,0:0:0:0:
160,192,98605,1,0,0:0:0:0:
80,160,98689,1,0,0:0:0:0:
256,160,98774,2,0,L|144:160,1,110,8|0,0:0|0:0,0:0:0:0:
311,192,99113,6,0,L|256:192,1,55,8|0,0:0|0:0,0:0:0:0:
432,240,99283,2,0,L|352:240,2,73.3333333333333,2|0|0,0:0|0:0|0:0,0:0:0:0:
208,240,99622,6,0,L|288:240,1,73.3333333333333,2|0,2:0|0:0,0:0:0:0:
64,240,99848,2,0,P|48:208|64:176,1,73.3333333333333,8|0,0:0|0:0,0:0:0:0:
128,176,100045,1,0,0:0:0:0:
304,176,100130,2,0,L|240:176,1,55,8|0,0:0|0:0,0:0:0:0:
416,224,100300,6,0,L|160:224,1,256.300010265923,8|0,0:0|0:0,0:0:0:0:
448,176,100639,2,0,L|336:176,2,97.533329315084,8|8|8,0:0|0:0|0:0,0:0:0:0:
176,192,101034,2,0,L|272:192,2,73.149996986313,8|8|8,0:0|0:0|0:0,0:0:0:0:
400,80,101316,2,0,L|288:80,1,110,8|0,0:0|0:0,0:0:0:0:
48,144,101655,6,0,L|128:144,2,73.149996986313,8|8|8,0:0|0:0|0:0,0:0:0:0:
329,144,101994,2,0,L|384:144,1,55,8|0,0:0|0:0,0:0:0:0:
208,96,102164,2,0,L|208:160,1,55,8|0,0:0|0:0,0:0:0:0:
25,32,102333,6,0,L|190:32,1,165.000006294251,6|0,0:0|0:0,0:0:0:0:
368,112,102588,2,0,L|256:112,1,110,8|0,0:0|0:0,0:0:0:0:
80,192,102842,2,0,L|192:192,1,110,8|0,0:0|0:0,0:0:0:0:
368,192,103096,1,8,0:0:0:0:
288,192,103181,1,8,0:0:0:0:
464,32,103266,6,0,L|352:32,1,110,2|0,0:0|0:0,0:0:0:0:
176,112,103520,2,0,L|288:112,1,110,8|0,0:0|0:0,0:0:0:0:
464,192,103774,2,0,L|480:256,1,55,8|0,0:0|0:0,0:0:0:0:
304,256,103944,1,8,0:0:0:0:
384,256,104028,1,8,0:0:0:0:
464,256,104113,1,8,0:0:0:0:
288,192,104198,6,0,L|384:192,2,73.3333333333333,2|8|8,0:0|0:0|0:0,0:0:0:0:
48,192,104537,1,8,0:0:0:0:
224,192,104622,1,0,0:0:0:0:
400,192,104706,6,0,P|423:145|400:97,1,110,8|8,0:0|0:0,0:0:0:0:
224,96,104961,1,0,0:0:0:0:
400,96,105045,2,0,L|320:96,2,73.3333333333333,2|8|8,0:0|0:0|0:0,0:0:0:0:
176,192,105384,6,0,P|153:145|176:97,1,110,8|0,0:0|0:0,0:0:0:0:
288,96,105639,1,8,0:0:0:0:
368,96,105723,1,0,0:0:0:0:
288,96,105808,1,0,0:0:0:0:
112,192,105893,1,2,0:0:0:0:
232,192,105949,1,2,2:0:0:0:
352,192,106006,1,2,2:0:0:0:
472,192,106062,6,0,L|352:192,2,110,8|0|0,0:0|0:0|0:0,0:0:0:0:
288,96,106486,6,0,L|288:128,1,27.5
400,96,106571,1,0,0:0:0:0:
224,96,106655,2,0,L|112:96,2,110,2|0|0,0:0|0:0|0:0,0:0:0:0:
400,192,107079,6,0,L|384:192,1,13.75,8|0,2:0|0:0,0:0:0:0:
306,192,107164,2,0,L|320:192,1,13.75,8|0,2:0|0:0,0:0:0:0:
386,112,107249,2,0,L|400:112,1,13.75,8|0,2:0|0:0,0:0:0:0:
320,112,107333,2,0,L|304:112,1,13.75,8|0,2:0|0:0,0:0:0:0:
160,112,107418,2,0,L|144:112,1,13.75,8|0,2:0|0:0,0:0:0:0:
80,112,107503,2,0,L|64:112,1,13.75,8|0,2:0|0:0,0:0:0:0:
66,192,107588,2,0,L|80:192,1,13.75,8|0,2:0|0:0,0:0:0:0:
146,192,107672,2,0,L|160:192,1,13.75,8|0,2:0|0:0,0:0:0:0:
304,192,107757,6,0,L|224:192,2,73.3333333333333,8|0|0,0:0|0:0|0:0,0:0:0:0:
80,48,108096,2,0,L|192:48,1,110,2|0,0:0|0:0,0:0:0:0:
18,128,108350,2,0,L|128:128,1,110,8|0,0:0|0:0,0:0:0:0:
304,128,108605,5,8,0:0:0:0:
128,192,108689,1,0,0:0:0:0:
304,192,108774,2,0,L|384:192,2,73.3333333333333
80,192,109113,6,0,P|64:240|80:264,1,82.5,2|0,0:0|0:0,0:0:0:0:
192,272,109283,2,0,L|82:272,1,110,8|0,0:0|0:0,0:0:0:0:
256,176,109537,2,0,P|279:223|256:271,1,110,8|0,0:0|0:0,0:0:0:0:
80,192,109791,6,0,L|80:144,1,36.6666666666667,2|0,0:0|0:0,0:0:0:0:
200,160,109904,1,0,0:0:0:0:
320,160,109961,2,0,P|343:207|320:255,1,110,8|0,0:0|0:0,0:0:0:0:
200,256,110187,1,0,0:0:0:0:
320,272,110243,2,0,L|400:272,1,73.3333333333333
176,192,110469,6,0,L|160:128,2,55,8|0|0,0:0|0:0|0:0,0:0:0:0:
352,160,110723,2,0,P|376:207|353:255,1,110,2|0,0:0|0:0,0:0:0:0:
176,192,110977,2,0,L|176:224,1,27.5
288,192,111062,1,0,0:0:0:0:
112,192,111147,5,8,0:0:0:0:
32,192,111232,1,0,0:0:0:0:
112,192,111316,1,0,0:0:0:0:
288,96,111401,1,2,0:0:0:0:
208,96,111486,1,0,0:0:0:0:
384,96,111571,1,0,0:0:0:0:
464,96,111655,2,0,L|496:96,2,27.5,8|0|0,0:0|0:0|0:0,0:0:0:0:
288,192,111825,5,8,0:0:0:0:
464,144,111910,2,0,L|464:208,1,55,8|0,0:0|0:0,0:0:0:0:
288,192,112079,1,2,2:0:0:0:
464,240,112164,2,0,L|408:240,2,55
288,192,112418,1,2,2:0:0:0:
464,224,112503,6,0,P|488:177|465:129,1,110,10|0,0:0|0:0,0:0:0:0:
384,128,112757,1,0,0:0:0:0:
208,128,112842,2,0,L|176:128,1,27.5,8|0,0:0|0:0,0:0:0:0:
288,128,112927,2,0,L|320:128,1,27.5
208,96,113011,2,0,L|176:96,2,27.5,8|0|0,0:0|0:0|0:0,0:0:0:0:
384,192,113181,6,0,P|408:145|385:97,1,110,2|0,0:0|0:0,0:0:0:0:
304,192,113435,2,0,P|280:145|303:97,1,110,8|0,0:0|0:0,0:0:0:0:
384,96,113689,1,8,0:0:0:0:
304,96,113774,1,0,0:0:0:0:
128,192,113859,6,0,P|104:145|127:97,1,110,8|0,0:0|0:0,0:0:0:0:
208,192,114113,2,0,L|208:128,1,55,8|0,0:0|0:0,0:0:0:0:
32,96,114283,1,2,2:0:0:0:
208,96,114367,1,2,2:0:0:0:
384,96,114452,1,2,2:0:0:0:
208,96,114537,6,0,L|272:96,2,55,2|0|0,0:0|0:0|0:0,0:0:0:0:
384,192,114791,2,0,L|384:208,1,13.75,8|0,2:0|0:0,0:0:0:0:
240,192,114876,2,0,L|240:208,1,13.75,8|0,2:0|0:0,0:0:0:0:
192,128,114961,2,0,L|192:144,1,13.75,8|0,2:0|0:0,0:0:0:0:
240,64,115045,2,0,L|240:80,1,13.75,8|0,2:0|0:0,0:0:0:0:
304,64,115130,2,0,L|304:80,1,13.75,8|0,2:0|0:0,0:0:0:0:
448,64,115215,5,8,0:0:0:0:
328,64,115271,1,8,0:0:0:0:
208,64,115328,1,8,0:0:0:0:
328,64,115384,2,0,L|384:64,1,55,8|0,0:0|0:0,0:0:0:0:
208,192,115554,2,0,L|320:192,1,110,2|0,0:0|0:0,0:0:0:0:
144,64,115808,2,0,L|272:64,1,128.333333333333,8|0,0:0|0:0,0:0:0:0:
32,192,116119,2,0,L|32:144,1,36.6666666666667,8|0,0:0|0:0,0:0:0:0:
153,192,116232,6,0,L|208:192,1,55,8|0,0:0|0:0,0:0:0:0:
32,192,116401,1,0,0:0:0:0:
208,192,116486,2,0,L|272:192,2,55,8|0|0,0:0|0:0|0:0,0:0:0:0:
32,192,116740,2,0,L|32:160,1,18.3333333333333,2|0,0:0|0:0,0:0:0:0:
208,160,116853,1,8,0:0:0:0:
336,160,116910,1,0,0:0:0:0:
272,160,116994,1,0,0:0:0:0:
448,160,117079,6,0,L|448:96,1,55,8|0,0:0|0:0,0:0:0:0:
384,96,117249,1,2,2:0:0:0:
448,96,117333,1,2,2:0:0:0:
272,96,117418,1,0,0:0:0:0:
96,96,117503,2,0,L|96:112,1,13.75,8|0,0:0|0:0,0:0:0:0:
272,96,117588,5,2,0:0:0:0:
300,98,117609,1,0,0:0:0:0:
326,107,117630,1,0,0:0:0:0:
344,124,117651,1,0,0:0:0:0:
352,146,117672,1,0,0:0:0:0:
344,167,117694,1,0,0:0:0:0:
326,180,117715,1,0,0:0:0:0:
300,189,117736,1,0,0:0:0:0:
272,192,117757,1,0,0:0:0:0:
152,192,117814,2,0,L|152:232,1,36.6666666666667
272,288,117927,5,8,0:0:0:0:
300,286,117948,1,0,0:0:0:0:
326,277,117969,1,0,0:0:0:0:
344,260,117990,1,0,0:0:0:0:
352,238,118011,1,0,0:0:0:0:
344,217,118033,1,0,0:0:0:0:
326,204,118054,1,0,0:0:0:0:
300,195,118075,1,0,0:0:0:0:
272,288,118096,1,0,0:0:0:0:
244,286,118117,1,0,0:0:0:0:
218,277,118139,1,0,0:0:0:0:
200,260,118160,1,0,0:0:0:0:
192,238,118181,1,0,0:0:0:0:
200,217,118202,1,0,0:0:0:0:
218,204,118223,1,0,0:0:0:0:
244,195,118244,1,0,0:0:0:0:
272,192,118266,5,0,0:0:0:0:
336,192,118350,1,0,0:0:0:0:
160,96,118435,1,8,0:0:0:0:
336,96,118520,1,0,0:0:0:0:
160,96,118605,2,0,P|120:136|160:224,1,165,2|0,0:0|0:0,0:0:0:0:
336,224,118944,5,8,0:0:0:0:
160,224,119028,1,8,0:0:0:0:
336,224,119113,1,2,0:0:0:0:
384,224,119155,1,0,0:0:0:0:
384,160,119198,1,0,0:0:0:0:
336,160,119240,1,0,0:0:0:0:
224,160,119283,2,0,L|208:80,1,73.3333333333333,8|8,0:0|0:0,0:0:0:0:
384,96,119509,6,0,L|448:96,1,55
256,64,119678,2,0,L|192:64,1,55
384,96,119848,1,0,0:0:0:0:
432,96,119904,2,0,P|448:128|432:160,1,73.3333333333333,8|0,0:0|0:0,0:0:0:0:
384,160,120074,1,0,0:0:0:0:
256,288,120130,1,0,0:0:0:0:
336,288,120215,1,0,0:0:0:0:
160,288,120300,6,0,L|80:288,2,73.3333333333333,2|0|0,0:0|0:0|0:0,0:0:0:0:
384,192,120639,1,0,0:0:0:0:
208,192,120723,2,0,L|352:192,1,137.5,8|0,0:0|0:0,0:0:0:0:
48,112,121062,2,0,P|32:128|48:208,1,110,2|0,0:0|0:0,0:0:0:0:
224,208,121316,5,2,2:0:0:0:
400,208,121401,1,2,2:0:0:0:
224,112,121486,1,8,0:0:0:0:
288,112,121571,2,0,L|288:144,1,27.5
176,192,121655,1,0,0:0:0:0:
240,192,121740,1,0,0:0:0:0:
432,256,121825,1,8,0:0:0:0:
240,256,121910,1,0,0:0:0:0:
64,192,121994,6,0,L|16:192,2,36.6666666666667,8|0|0,0:0|0:0|0:0,0:0:0:0:
304,192,122220,1,2,2:0:0:0:
184,192,122277,1,2,2:0:0:0:
352,192,122333,2,0,L|352:160,1,27.5,8|0,0:0|0:0,0:0:0:0:
304,144,122418,1,0,0:0:0:0:
128,144,122503,1,0,0:0:0:0:
304,144,122588,2,0,B|304:256|304:256|192:256,1,220,2|0,0:0|0:0,0:0:0:0:
384,256,123011,6,0,L|400:192,1,55,8|0,0:0|0:0,0:0:0:0:
224,192,123181,1,0,0:0:0:0:
176,192,123223,1,0,0:0:0:0:
176,144,123266,1,0,0:0:0:0:
224,144,123308,1,0,0:0:0:0:
336,192,123350,2,0,L|352:144,1,41.25
208,80,123477,2,0,L|256:80,1,41.25,8|0,0:0|0:0,0:0:0:0:
112,192,123605,2,0,L|112:176,1,13.75
256,192,123689,2,0,L|368:192,1,110,8|0,0:0|0:0,0:0:0:0:
32,192,124028,5,6,0:0:0:0:
480,192,124706,1,2,0:0:0:0:
160,192,126062,5,2,0:0:0:0:
352,192,126232,1,0,0:0:0:0:
176,192,127418,5,2,0:0:0:0:
336,192,127588,1,0,0:0:0:0:
64,192,128266,5,0,0:0:0:0:
144,192,128350,1,0,0:0:0:0:
104,192,128393,1,0,0:0:0:0:
64,192,128435,1,2,0:0:0:0:
240,192,128605,1,0,0:0:0:0:
64,192,128774,1,2,0:0:0:0:
256,192,128944,1,2,0:0:0:0:
160,192,129092,1,2,0:0:0:0:
256,192,129198,1,2,0:0:0:0:
352,192,129304,1,2,0:0:0:0:
480,192,129452,5,10,0:0:0:0:
32,192,130130,1,2,0:0:0:0:
336,192,131486,5,2,0:0:0:0:
176,192,131655,1,2,0:0:0:0:
352,192,132842,5,2,0:0:0:0:
160,192,133011,1,2,0:0:0:0:
432,192,133499,6,0,L|448:192,1,13.75,0|2,0:0|0:0,0:0:0:0:
368,192,133605,1,2,0:0:0:0:
288,192,133689,1,2,0:0:0:0:
400,128,133774,1,2,0:0:0:0:
192,128,133965,1,2,0:0:0:0:
400,128,134155,2,0,L|400:160,1,27.5,2|0,0:0|0:0,0:0:0:0:
256,128,134367,1,2,0:0:0:0:
112,128,134537,1,2,0:0:0:0:
400,128,134876,5,6,0:0:0:0:
209,82,135045,2,0,L|399:192,1,220
96,192,135554,5,10,0:0:0:0:
208,192,135723,1,0,0:0:0:0:
208,96,135893,1,0,0:0:0:0:
96,96,136062,1,2,0:0:0:0:
400,96,136232,5,2,0:0:0:0:
256,96,136401,1,0,0:0:0:0:
400,96,136571,2,0,L|416:208,1,110,2|0,0:0|0:0,0:0:0:0:
112,192,136910,6,0,L|224:192,1,110,10|0,0:0|0:0,0:0:0:0:
144,144,137164,2,0,L|144:112,1,27.5,0|2,0:0|0:0,0:0:0:0:
256,144,137249,2,0,L|256:80,1,55,2|0,0:0|0:0,0:0:0:0:
208,64,137376,1,2,0:0:0:0:
160,64,137418,1,2,0:0:0:0:
256,64,137503,1,0,0:0:0:0:
80,64,137588,6,0,P|56:112|80:160,1,110,2|0,0:0|0:0,0:0:0:0:
144,160,137842,1,0,0:0:0:0:
80,160,137927,1,0,0:0:0:0:
384,192,138096,1,2,0:0:0:0:
424,192,138139,1,0,0:0:0:0:
312,192,138181,1,2,0:0:0:0:
272,192,138223,1,0,0:0:0:0:
384,192,138266,6,0,L|384:128,1,55,10|0,0:0|0:0,0:0:0:0:
208,128,138435,2,0,L|320:128,1,110,2|0,0:0|0:0,0:0:0:0:
160,128,138774,2,0,L|160:192,1,55,2|0,0:0|0:0,0:0:0:0:
240,192,138944,6,0,P|264:144|240:96,1,110
144,96,139198,1,2,0:0:0:0:
192,96,139240,1,0,0:0:0:0:
240,96,139283,2,0,L|240:160,1,55,2|0,0:0|0:0,0:0:0:0:
144,96,139452,2,0,L|144:160,1,55,2|0,0:0|0:0,0:0:0:0:
320,192,139622,6,0,P|344:144|320:96,1,110,10|0,0:0|0:0,0:0:0:0:
144,192,139876,2,0,L|256:192,1,110,2|0,0:0|0:0,0:0:0:0:
80,96,140130,2,0,L|144:96,1,55,2|0,0:0|0:0,0:0:0:0:
320,96,140300,5,8,0:0:0:0:
176,96,140469,2,0,L|240:96,1,55,2|0,0:0|0:0,0:0:0:0:
144,192,140639,1,2,0:0:0:0:
288,192,140808,2,0,L|224:192,1,55,2|0,0:0|0:0,0:0:0:0:
276,192,140935,1,0,0:0:0:0:
384,128,140977,6,0,L|448:128,2,55,10|0|0,0:0|0:0|0:0,0:0:0:0:
208,128,141232,1,2,0:0:0:0:
288,128,141316,2,0,L|288:192,1,55
112,192,141486,2,0,L|176:192,1,55,2|0,0:0|0:0,0:0:0:0:
352,192,141655,6,0,L|240:192,2,110,0|0|2,0:0|0:0|0:0,0:0:0:0:
176,96,142079,2,0,L|240:96,2,55,2|2|2,0:0|0:0|0:0,0:0:0:0:
352,192,142333,5,10,0:0:0:0:
272,192,142418,1,0,0:0:0:0:
192,192,142503,1,0,0:0:0:0:
368,192,142588,2,0,L|432:192,2,55,2|0|0,0:0|0:0|0:0,0:0:0:0:
192,96,142842,2,0,L|256:96,1,55,2|0,0:0|0:0,0:0:0:0:
64,96,143011,5,2,0:0:0:0:
128,192,143096,2,0,L|192:192,2,55
304,96,143350,1,2,0:0:0:0:
240,96,143435,1,2,0:0:0:0:
416,192,143520,2,0,L|416:160,1,27.5,2|0,0:0|0:0,0:0:0:0:
368,144,143605,1,2,0:0:0:0:
192,288,143689,5,10,0:0:0:0:
256,288,143774,1,0,0:0:0:0:
80,192,143859,2,0,L|64:128,1,55,2|0,0:0|0:0,0:0:0:0:
240,192,144028,2,0,L|256:128,1,55
80,128,144198,1,2,0:0:0:0:
256,128,144283,1,0,0:0:0:0:
432,128,144367,5,2,0:0:0:0:
368,128,144452,1,2,0:0:0:0:
432,128,144537,1,2,0:0:0:0:
368,128,144622,1,2,0:0:0:0:
192,128,144706,1,0,0:0:0:0:
256,224,144791,2,0,L|320:224,2,55,2|0|0,0:0|0:0|0:0,0:0:0:0:
432,192,145045,6,0,L|496:192,2,55,10|0|0,0:0|0:0|0:0,0:0:0:0:
256,112,145300,2,0,L|320:112,2,55,10|0|0,0:0|0:0|0:0,0:0:0:0:
432,112,145554,1,10,0:0:0:0:
256,112,145639,1,0,0:0:0:0:
80,192,145723,6,0,L|208:192,1,127.600003894043,6|0,0:0|0:0,0:0:0:0:
16,112,145977,2,0,L|32:112,8,15.9500004867554,8|0|0|0|0|0|0|0|0,0:0|0:0|0:0|0:0|0:0|0:0|0:0|0:0|0:0,0:0:0:0:
208,112,146232,6,0,L|144:112,1,63.8000019470215
336,192,146401,1,8,0:0:0:0:
400,192,146486,2,0,L|144:192,2,247.500009441376,0|8|0,0:0|2:0|1:0,0:0:0:0:
48,192,146910,1,0,0:0:0:0:
240,112,146994,6,0,P|264:148|240:224,1,127.600003894043,8|0,0:0|0:0,0:0:0:0:
48,192,147249,2,0,L|176:192,1,127.600003894043,8|0,0:0|0:0,0:0:0:0:
432,192,147531,1,8,0:0:0:0:
304,192,147588,1,0,0:0:0:0:
176,192,147644,1,0,0:0:0:0:
432,192,147757,6,0,L|432:160,1,21.2666673156739
176,192,147870,1,2,2:0:0:0:
304,192,147927,1,2,2:0:0:0:
432,192,147983,1,2,2:0:0:0:
176,192,148096,2,0,P|152:228|176:304,1,127.600003894043,8|0,0:0|0:0,0:0:0:0:
368,304,148350,5,8,0:0:0:0:
374,273,148372,1,0,0:0:0:0:
362,243,148393,1,0,0:0:0:0:
333,232,148414,1,0,0:0:0:0:
302,224,148435,1,0,0:0:0:0:
272,215,148456,1,0,0:0:0:0:
242,205,148477,1,0,0:0:0:0:
232,175,148499,1,0,0:0:0:0:
239,144,148520,1,0,0:0:0:0:
432,144,148605,2,0,L|368:144,1,63.8000019470215,2|0,0:0|0:0,0:0:0:0:
176,144,148774,2,0,L|224:144,1,42.5333346313477
368,80,148887,2,0,L|272:80,1,85.0666692626954
32,80,149113,5,8,0:0:0:0:
112,80,149198,1,0,0:0:0:0:
480,80,149367,1,2,2:0:0:0:
451,94,149389,1,0,0:0:0:0:
428,116,149410,1,0,0:0:0:0:
414,144,149431,1,0,0:0:0:0:
409,176,149452,1,0,0:0:0:0:
414,207,149473,1,0,0:0:0:0:
428,235,149494,1,0,0:0:0:0:
451,257,149516,1,0,0:0:0:0:
480,272,149537,1,2,2:0:0:0:
288,272,149622,1,0,0:0:0:0:
96,272,149706,1,0,0:0:0:0:
288,192,149791,5,2,0:0:0:0:
192,192,149904,2,0,L|192:96,1,85.0666692626954,8|0,0:0|0:0,0:0:0:0:
448,112,150130,2,0,L|384:112,1,63.8000019470215,8|0,0:0|0:0,0:0:0:0:
192,112,150300,2,0,L|256:112,1,63.8000019470215,8|0,0:0|0:0,0:0:0:0:
64,112,150469,6,0,P|32:144|32:224,1,127.600003894043
64,240,150681,1,0,0:0:0:0:
29,240,150723,1,0,0:0:0:0:
67,240,150766,1,0,0:0:0:0:
26,240,150808,1,0,0:0:0:0:
70,240,150850,1,0,0:0:0:0:
23,240,150893,1,0,0:0:0:0:
73,240,150935,1,0,0:0:0:0:
26,240,150977,1,0,0:0:0:0:
70,240,151020,1,0,0:0:0:0:
29,240,151062,1,0,0:0:0:0:
67,240,151105,1,0,0:0:0:0:
192,192,151147,6,0,L|64:192,1,127.600003894043,6|0,0:0|0:0,0:0:0:0:
256,128,151401,2,0,L|128:128,1,127.600003894043,8|0,0:0|0:0,0:0:0:0:
104,128,151592,1,0,0:0:0:0:
128,128,151613,1,0,0:0:0:0:
256,192,151655,2,0,L|320:192,1,63.8000019470215
128,64,151825,6,0,L|224:64,1,85.0666692626954,8|0,0:0|0:0,0:0:0:0:
240,64,151966,1,0,0:0:0:0:
213,64,151994,1,0,0:0:0:0:
16,192,152079,2,0,L|80:192,1,63.8000019470215
336,192,152277,1,0,0:0:0:0:
200,192,152333,1,0,0:0:0:0:
64,192,152390,6,0,P|40:120|64:80,1,127.600003894043
208,64,152616,2,0,L|160:64,1,42.5333346313477
22,64,152729,2,0,L|64:64,1,42.5333346313477
240,192,152842,6,0,L|80:144,1,165.000006294251,2|0,0:0|0:0,0:0:0:0:
272,144,153011,1,2,2:0:0:0:
296,144,153033,1,0,0:0:0:0:
320,144,153054,1,0,0:0:0:0:
344,144,153075,1,0,0:0:0:0:
368,144,153096,1,0,0:0:0:0:
176,256,153181,2,0,L|176:192,1,63.8000019470215
368,192,153350,2,8,L|240:192,1,127.600003894043
432,192,153605,1,0,0:0:0:0:
240,192,153689,5,2,0:0:0:0:
209,186,153711,1,0,0:0:0:0:
183,168,153732,1,0,0:0:0:0:
175,138,153753,1,0,0:0:0:0:
190,111,153774,1,0,0:0:0:0:
219,98,153795,1,0,0:0:0:0:
251,95,153816,1,0,0:0:0:0:
282,89,153838,1,0,0:0:0:0:
308,71,153859,1,0,0:0:0:0:
316,42,153880,1,0,0:0:0:0:
299,16,153901,1,0,0:0:0:0:
270,3,153922,1,0,0:0:0:0:
239,0,153944,1,0,0:0:0:0:
48,192,154028,1,8,0:0:0:0:
240,192,154113,1,0,0:0:0:0:
432,160,154198,5,8,0:0:0:0:
448,160,154219,1,0,0:0:0:0:
448,176,154240,1,0,0:0:0:0:
432,176,154261,1,0,0:0:0:0:
416,192,154283,1,0,0:0:0:0:
432,208,154304,1,0,0:0:0:0:
448,208,154325,1,0,0:0:0:0:
448,224,154346,1,0,0:0:0:0:
432,224,154367,1,0,0:0:0:0:
240,192,154452,2,0,L|240:128,1,63.8000019470215,8|0,0:0|0:0,0:0:0:0:
432,96,154622,5,2,0:0:0:0:
240,96,154706,2,0,L|224:96,4,15.9500004867554
48,32,154876,2,0,L|112:32,1,63.8000019470215,8|0,0:0|0:0,0:0:0:0:
304,32,155045,2,0,L|240:32,2,63.8000019470215,8|0|0,0:0|0:0|0:0,0:0:0:0:
64,192,155328,6,0,L|160:192,1,85.0666692626954,8|0,0:0|0:0,0:0:0:0:
400,192,155554,1,2,0:0:0:0:
424,192,155575,1,0,0:0:0:0:
436,192,155596,1,0,0:0:0:0:
424,192,155617,1,0,0:0:0:0:
400,192,155639,1,0,0:0:0:0:
208,192,155723,1,8,0:0:0:0:
288,192,155808,1,8,0:0:0:0:
208,192,155893,6,0,L|128:192,1,79.7500024337769,2|2,0:0|0:0,0:0:0:0:
128,144,156020,2,0,L|240:144,1,111.375002719116
239,144,156147,1,2,0:0:0:0:
368,240,156232,2,0,L|256:240,1,111.375002719116,2|0,0:0|0:0,0:0:0:0:
256,192,156359,2,0,L|336:192,1,79.7500024337769,2|0,0:0|0:0,0:0:0:0:
335,192,156486,1,2,0:0:0:0:
144,192,156571,6,0,L|272:192,1,127.600003894043,6|0,0:0|0:0,0:0:0:0:
96,96,156825,2,0,L|224:96,1,127.600003894043,8|0,0:0|0:0,0:0:0:0:
48,192,157079,6,0,L|48:144,1,42.5333346313477,8|0,0:0|0:0,0:0:0:0:
192,144,157192,2,0,L|144:144,1,42.5333346313477,8|0,0:0|0:0,0:0:0:0:
288,192,157305,2,0,L|320:192,2,21.2666673156739,2|0|0,0:0|0:0|0:0,0:0:0:0:
144,192,157418,1,0,0:0:0:0:
120,192,157446,1,0,0:0:0:0:
132,224,157475,1,0,0:0:0:0:
108,224,157503,1,0,0:0:0:0:
144,256,157531,1,0,0:0:0:0:
120,256,157559,1,0,0:0:0:0:
160,288,157588,1,0,0:0:0:0:
352,288,157672,6,0,L|288:288,1,63.8000019470215,8|0,0:0|0:0,0:0:0:0:
480,192,157842,1,2,2:0:0:0:
288,192,157927,1,0,0:0:0:0:
200,192,157955,1,0,0:0:0:0:
112,192,157983,1,0,0:0:0:0:
200,192,158011,1,0,0:0:0:0:
288,192,158040,2,0,P|304:144|288:112,1,85.0666692626954
32,112,158266,2,8,L|112:112,2,73.149996986313,8|8|0,0:0|0:0|0:0,0:0:0:0:
224,112,158520,6,0,L|224:176,1,63.8000019470215,2|0,0:0|0:0,0:0:0:0:
144,192,158689,1,0,0:0:0:0:
336,192,158774,2,0,L|400:192,2,48.766664657542,8|8|8,0:0|0:0|0:0,0:0:0:0:
192,240,158944,2,0,L|128:240,1,63.8000019470215,2|0,2:0|0:0,0:0:0:0:
320,192,159113,1,2,2:0:0:0:
128,192,159198,1,0,0:0:0:0:
320,112,159283,6,0,L|320:96,1,15.9500004867554,2|0,0:0|0:0,0:0:0:0:
296,112,159325,2,0,L|296:96,1,15.9500004867554
320,112,159367,2,0,L|320:96,1,15.9500004867554
296,112,159410,2,0,L|296:96,1,15.9500004867554
320,112,159452,1,0,0:0:0:0:
224,112,159537,1,0,0:0:0:0:
32,192,159622,6,0,L|144:192,2,97.533329315084,8|0|8,0:0|0:0|0:0,0:0:0:0:
272,192,159961,1,0,0:0:0:0:
80,192,160045,2,0,P|60:132|80:72,1,127.600003894043,8|0,0:0|0:0,0:0:0:0:
272,64,160300,2,0,L|144:64,1,127.600003894043,8|0,0:0|0:0,0:0:0:0:
272,64,160526,6,0,P|288:104|272:140,1,85.0666692626954,2|0,0:0|0:0,0:0:0:0:
80,192,160723,1,8,0:0:0:0:
56,192,160751,1,0,0:0:0:0:
68,224,160780,1,0,0:0:0:0:
44,224,160808,1,0,0:0:0:0:
80,256,160836,1,0,0:0:0:0:
56,256,160864,1,0,0:0:0:0:
96,288,160893,1,0,0:0:0:0:
288,288,160977,2,0,L|288:224,1,63.8000019470215,8|0,0:0|0:0,0:0:0:0:
480,192,161147,6,0,L|352:192,1,127.600003894043,8|0,0:0|0:0,0:0:0:0:
256,112,161401,2,0,L|384:112,1,127.600003894043,2|0,0:0|0:0,0:0:0:0:
192,112,161655,2,0,L|192:176,1,63.8000019470215,8|0,0:0|0:0,0:0:0:0:
384,192,161825,1,0,0:0:0:0:
192,208,161910,6,0,L|256:208,1,63.8000019470215,8|0,0:0|0:0,0:0:0:0:
64,192,162079,2,0,L|48:192,4,15.9500004867554,2|0|0|0|0,2:0|0:0|0:0|0:0|0:0,0:0:0:0:
256,192,162249,1,8,0:0:0:0:
64,192,162333,2,0,P|48:160|64:72,1,127.600003894043,2|0,0:0|0:0,0:0:0:0:
200,64,162559,1,0,0:0:0:0:
336,64,162616,1,0,0:0:0:0:
472,64,162672,5,8,0:0:0:0:
336,64,162729,1,0,0:0:0:0:
200,64,162785,1,0,0:0:0:0:
336,64,162842,2,0,L|336:128,1,63.8000019470215,8|0,0:0|0:0,0:0:0:0:
144,192,163011,1,2,1:0:0:0:
120,192,163033,1,0,0:0:0:0:
96,192,163054,1,0,0:0:0:0:
72,192,163075,1,0,0:0:0:0:
48,192,163096,1,0,0:0:0:0:
240,192,163181,2,0,L|288:192,2,42.5333346313477,8|0|0,0:0|0:0|0:0,0:0:0:0:
96,192,163350,6,0,L|80:128,1,63.8000019470215,2|0,0:0|0:0,0:0:0:0:
224,128,163492,2,0,B|298:129|298:129|224:128,1,148.866671209717,8|0,0:0|0:0,0:0:0:0:
80,128,163746,2,0,L|96:176,1,42.5333346313477,8|0,0:0|0:0,0:0:0:0:
240,192,163859,2,0,L|256:128,1,63.8000019470215,8|0,0:0|0:0,0:0:0:0:
64,160,164028,5,8,0:0:0:0:
48,160,164050,1,0,0:0:0:0:
48,176,164071,1,0,0:0:0:0:
64,176,164092,1,0,0:0:0:0:
80,192,164113,1,0,0:0:0:0:
64,208,164134,1,0,0:0:0:0:
48,208,164155,1,0,0:0:0:0:
48,224,164177,1,0,0:0:0:0:
64,224,164198,1,0,0:0:0:0:
208,240,164254,2,0,L|224:192,1,42.5333346313477
80,128,164367,2,0,L|128:128,1,42.5333346313477,2|0,0:0|0:0,0:0:0:0:
272,128,164480,2,0,L|288:80,1,42.5333346313477
144,96,164593,2,0,L|96:96,1,42.5333346313477
240,128,164706,6,0,P|256:160|240:248,1,127.600003894043,8|0,0:0|0:0,0:0:0:0:
48,128,164961,2,0,L|384:128,2,330.000012588501,8|2|0,0:0|1:0|0:0,0:0:0:0:
240,192,165384,6,0,L|336:192,1,85.0666692626954,8|0,0:0|0:0,0:0:0:0:
80,96,165610,2,0,L|128:96,1,42.5333346313477,8|0,0:0|0:0,0:0:0:0:
264,96,165723,2,0,L|168:96,1,85.0666692626954,2|0,0:0|0:0,0:0:0:0:
320,96,165893,2,0,L|368:96,2,42.5333346313477
192,96,166062,5,8,0:0:0:0:
169,118,166083,1,0,0:0:0:0:
154,147,166105,1,0,0:0:0:0:
148,177,166126,1,0,0:0:0:0:
148,209,166147,1,0,0:0:0:0:
159,239,166168,1,0,0:0:0:0:
176,266,166189,1,0,0:0:0:0:
200,287,166211,1,0,0:0:0:0:
228,301,166232,1,0,0:0:0:0:
416,192,166316,2,0,L|288:192,1,127.600003894043,2|0,0:0|0:0,0:0:0:0:
480,96,166571,1,0,0:0:0:0:
288,96,166655,1,0,0:0:0:0:
480,96,166740,6,0,P|496:160|480:220,1,127.600003894043,8|0,0:0|0:0,0:0:0:0:
288,96,166994,2,0,L|208:96,2,63.8000019470215,8|0|0,0:0|0:0|0:0,0:0:0:0:
480,96,167249,2,0,L|416:96,1,63.8000019470215,8|0,0:0|0:0,0:0:0:0:
224,192,167418,6,0,L|352:192,1,127.600003894043,2|0,0:0|0:0,0:0:0:0:
160,192,167672,1,0,0:0:0:0:
352,192,167757,2,0,L|352:128,1,63.8000019470215,8|0,0:0|0:0,0:0:0:0:
160,128,167927,2,0,L|192:128,1,31.9000009735108
320,128,168011,2,0,L|352:128,1,31.9000009735108
224,192,168096,6,0,L|128:192,2,85.0666692626954,8|0|0,0:0|0:0|0:0,0:0:0:0:
464,192,168435,2,0,L|400:192,2,63.8000019470215,8|0|0,0:0|0:0|0:0,0:0:0:0:
272,272,168689,6,0,P|248:236|272:160,1,127.600003894043,8|0,0:0|0:0,0:0:0:0:
464,192,168944,2,8,L|336:192,1,127.600003894043,8|0,0:0|0:0,0:0:0:0:
80,192,169226,1,8,0:0:0:0:
208,192,169283,1,0,0:0:0:0:
336,192,169339,1,0,0:0:0:0:
80,192,169452,6,0,L|80:224,1,21.2666673156739
336,192,169565,1,2,2:0:0:0:
208,192,169622,1,2,2:0:0:0:
80,192,169678,1,2,2:0:0:0:
336,192,169791,1,8,0:0:0:0:
472,192,169848,1,0,0:0:0:0:
336,192,169904,1,0,0:0:0:0:
200,192,169961,1,0,0:0:0:0:
336,192,170017,2,0,L|336:144,1,42.5333346313477
208,192,170130,6,0,L|208:128,1,63.8000019470215,2|0,0:0|0:0,0:0:0:0:
400,128,170300,2,0,L|336:128,1,63.8000019470215,8|0,0:0|0:0,0:0:0:0:
144,192,170469,1,8,0:0:0:0:
280,192,170526,1,0,0:0:0:0:
416,192,170582,2,0,P|432:144|416:112,1,85.0666692626954
376,112,170751,1,0,0:0:0:0:
240,64,170808,6,0,L|240:96,1,31.9000009735108,8|0,0:0|0:0,0:0:0:0:
368,112,170893,2,0,L|368:208,1,95.7000029205323
240,208,171062,2,0,B|176:208|176:208|240:208,1,127.600003894043,2|2,2:0|2:0,0:0:0:0:
328,192,171316,1,0,0:0:0:0:
240,176,171401,1,0,0:0:0:0:
432,112,171486,6,0,L|352:112,1,79.7500024337769,2|0,0:0|0:0,0:0:0:0:
112,112,171698,2,0,L|160:112,1,47.8500014602662
320,112,171825,2,0,L|256:112,1,63.8000019470215,8|0,0:0|0:0,0:0:0:0:
448,112,171994,2,0,L|464:176,1,63.8000019470215
272,192,172164,6,0,L|336:192,3,63.8000019470215,8|0|0|0,0:0|0:0|0:0|0:0,0:0:0:0:
144,192,172503,2,0,P|120:228|144:304,1,127.600003894043,8|0,2:0|0:0,0:0:0:0:
288,304,172729,1,0,0:0:0:0:
432,304,172785,1,0,0:0:0:0:
288,304,172842,6,0,L|224:304,2,63.8000019470215,6|0|0,0:0|0:0|0:0,0:0:0:0:
480,192,173096,2,0,L|416:192,1,63.8000019470215,8|0,0:0|0:0,0:0:0:0:
224,192,173266,2,0,L|224:176,1,15.9500004867554
416,192,173350,2,0,L|480:192,1,63.8000019470215
479,192,173456,1,0,0:0:0:0:
288,192,173520,6,0,L|272:192,8,15.9500004867554,2|0|0|0|0|0|0|0|0,0:0|0:0|0:0|0:0|0:0|0:0|0:0|0:0|0:0,0:0:0:0:
480,192,173774,2,0,L|416:192,1,63.8000019470215,8|0,0:0|0:0,0:0:0:0:
160,96,173986,5,8,0:0:0:0:
288,96,174028,1,0,0:0:0:0:
416,96,174071,2,0,L|448:96,1,31.9000009735108
320,128,174155,2,0,L|288:128,1,31.9000009735108
416,96,174240,2,0,L|448:96,1,31.9000009735108
320,96,174325,1,0,0:0:0:0:
192,96,174367,1,0,0:0:0:0:
64,96,174410,2,0,L|32:96,1,31.9000009735108
224,192,174537,6,0,L|160:192,2,63.8000019470215,2|0|0,1:0|0:0|0:0,0:0:0:0:
256,192,174727,1,0,0:0:0:0:
272,224,174749,1,0,0:0:0:0:
256,256,174770,1,0,0:0:0:0:
224,256,174791,1,0,0:0:0:0:
32,192,174876,6,0,L|160:192,1,127.600003894043,8|2,0:0|0:0,0:0:0:0:
352,192,175130,1,0,0:0:0:0:
160,128,175215,2,0,L|224:128,1,63.8000019470215,8|0,0:0|0:0,0:0:0:0:
416,128,175384,2,0,L|432:192,1,63.8000019470215,8|0,0:0|0:0,0:0:0:0:
240,128,175554,6,0,L|256:192,1,63.8000019470215
448,192,175723,1,8,0:0:0:0:
256,192,175808,1,0,0:0:0:0:
448,192,175893,2,0,L|464:128,1,63.8000019470215,8|0,0:0|0:0,0:0:0:0:
272,192,176062,2,0,L|256:128,1,63.8000019470215
448,128,176232,5,0,0:0:0:0:
256,128,176316,2,0,L|256:144,1,15.9500004867554,2|0,2:0|0:0,0:0:0:0:
448,256,176401,2,0,L|464:320,1,63.8000019470215
272,272,176571,2,0,L|208:272,1,63.8000019470215
400,192,176740,2,0,L|336:192,1,63.8000019470215,8|8,0:0|0:0,0:0:0:0:
144,96,176910,6,0,L|368:96,2,220.000008392334,8|8|0,0:0|0:0|0:0,0:0:0:0:
144,96,177192,1,0,0:0:0:0:
288,272,177249,2,0,L|352:272,1,63.8000019470215,8|0,0:0|0:0,0:0:0:0:
160,192,177418,2,0,L|224:192,1,63.8000019470215,8|0,0:0|0:0,0:0:0:0:
48,272,177588,6,0,P|32:224|48:168,1,110,8|2,0:0|0:0,0:0:0:0:
160,176,177927,2,0,L|176:112,3,55,8|0|0|0,0:0|0:0|0:0|0:0,0:0:0:0:
368,192,178266,6,0,L|240:192,1,127.600003894043,6|0,0:0|0:0,0:0:0:0:
416,96,178520,2,0,L|288:96,1,127.600003894043,8|0,0:0|0:0,0:0:0:0:
464,192,178774,6,0,L|464:144,1,42.5333346313477,8|0,0:0|0:0,0:0:0:0:
320,144,178887,2,0,L|368:144,1,42.5333346313477,8|0,0:0|0:0,0:0:0:0:
224,192,179000,2,0,L|192:192,2,21.2666673156739,2|0|0,0:0|0:0|0:0,0:0:0:0:
368,192,179113,1,8,0:0:0:0:
392,192,179141,1,0,0:0:0:0:
380,224,179170,1,0,0:0:0:0:
404,224,179198,1,0,0:0:0:0:
368,256,179226,1,0,0:0:0:0:
392,256,179254,1,0,0:0:0:0:
352,288,179283,1,0,0:0:0:0:
160,288,179367,6,0,L|224:288,1,63.8000019470215,8|0,0:0|0:0,0:0:0:0:
32,192,179537,1,8,0:0:0:0:
224,192,179622,1,0,0:0:0:0:
312,192,179650,1,0,0:0:0:0:
344,192,179678,1,0,0:0:0:0:
312,192,179706,1,0,0:0:0:0:
224,192,179735,2,0,P|208:144|224:112,1,85.0666692626954
480,112,179961,2,0,L|400:112,2,73.149996986313,8|0|0,0:0|0:0|0:0,0:0:0:0:
288,112,180215,6,0,L|288:176,1,63.8000019470215,2|0,0:0|0:0,0:0:0:0:
368,192,180384,1,0,0:0:0:0:
176,192,180469,2,0,L|112:192,2,48.766664657542,8|8|8,0:0|0:0|0:0,0:0:0:0:
320,240,180639,2,0,L|384:240,1,63.8000019470215,2|2,2:0|2:0,0:0:0:0:
192,192,180808,1,0,0:0:0:0:
384,192,180893,1,0,0:0:0:0:
192,112,180977,6,0,L|192:80,1,31.9000009735108,2|0,0:0|0:0,0:0:0:0:
240,80,181062,2,0,L|272:80,2,31.9000009735108
48,80,181232,1,0,0:0:0:0:
240,192,181316,2,0,L|288:192,1,42.5333346313477,8|0,0:0|0:0,0:0:0:0:
144,80,181429,2,0,L|192:80,1,42.5333346313477
328,80,181542,1,0,0:0:0:0:
80,192,181655,6,0,L|80:224,1,31.9000009735108,8|0,0:0|0:0,0:0:0:0:
208,192,181740,1,0,0:0:0:0:
336,192,181910,2,0,L|336:160,1,31.9000009735108,8|0,0:0|0:0,0:0:0:0:
208,192,181994,1,0,0:0:0:0:
80,192,182164,2,0,L|112:192,1,31.9000009735108,8|0,0:0|0:0,0:0:0:0:
240,192,182249,2,0,L|288:192,1,31.9000009735108
144,96,182333,6,0,L|96:96,1,42.5333346313477,2|0,0:0|0:0,0:0:0:0:
240,96,182446,2,0,L|288:96,1,42.5333346313477
144,96,182559,2,0,L|144:144,1,42.5333346313477
288,192,182672,2,0,L|224:192,1,63.8000019470215,8|0,0:0|0:0,0:0:0:0:
416,192,182842,2,0,L|432:128,1,63.8000019470215
240,128,183011,6,0,L|304:128,2,63.8000019470215,8|0|0,0:0|0:0|0:0,0:0:0:0:
112,128,183237,1,8,0:0:0:0:
176,128,183294,1,0,0:0:0:0:
304,128,183350,1,0,0:0:0:0:
304,192,183463,1,2,2:0:0:0:
176,192,183520,1,2,2:0:0:0:
48,192,183576,1,2,2:0:0:0:
304,192,183689,6,0,L|304:224,1,31.9000009735108,2|0,0:0|0:0,0:0:0:0:
176,224,183774,1,0,0:0:0:0:
48,192,183816,2,0,L|48:224,1,31.9000009735108
240,192,183944,1,0,0:0:0:0:
432,192,184028,2,0,L|480:192,2,42.5333346313477,8|0|0,0:0|0:0|0:0,0:0:0:0:
288,112,184198,1,0,0:0:0:0:
344,112,184254,1,0,0:0:0:0:
400,112,184311,1,0,0:0:0:0:
256,192,184367,6,0,L|208:192,1,42.5333346313477,8|0,0:0|0:0,0:0:0:0:
357,192,184480,2,0,L|400:192,1,42.5333346313477
208,192,184622,1,0,0:0:0:0:
400,240,184706,1,2,2:0:0:0:
432,240,184735,1,2,2:0:0:0:
464,240,184763,1,2,2:0:0:0:
320,304,184819,2,0,L|272:304,2,42.5333346313477,8|0|0,0:0|0:0|0:0,0:0:0:0:
464,304,184989,6,0,P|480:264|464:228,1,85.0666692626954,8|0,0:0|0:0,0:0:0:0:
256,144,185187,2,0,L|384:144,1,127.600003894043,2|0,0:0|0:0,0:0:0:0:
160,192,185441,2,0,L|224:192,2,63.8000019470215,8|0|0,0:0|0:0|0:0,0:0:0:0:
400,192,185723,6,0,P|416:152|400:72,1,127.600003894043,8|0,0:0|0:0,0:0:0:0:
266,64,185949,2,0,L|352:64,1,85.0666692626954,8|0,0:0|0:0,0:0:0:0:
96,192,186175,2,0,L|80:240,1,42.5333346313477
224,192,186288,2,0,L|240:240,1,42.5333346313477
96,192,186401,5,8,0:0:0:0:
48,192,186458,1,0,0:0:0:0:
48,144,186514,1,0,0:0:0:0:
96,144,186571,1,0,0:0:0:0:
288,144,186655,2,0,L|160:144,1,127.600003894043,8|0,0:0|0:0,0:0:0:0:
144,168,186867,1,0,0:0:0:0:
160,192,186910,1,8,0:0:0:0:
352,192,186994,1,8,0:0:0:0:
160,192,187079,6,0,L|256:192,2,85.0666692626954,2|0|0,0:0|0:0|0:0,0:0:0:0:
216,192,187362,1,0,0:0:0:0:
352,192,187418,2,0,L|256:192,1,85.0666692626954,8|0,0:0|0:0,0:0:0:0:
400,128,187588,2,0,L|400:96,1,21.2666673156739
376,64,187644,1,0,0:0:0:0:
240,64,187701,6,0,L|197:64,1,42.5333346313477
336,128,187814,2,0,L|288:128,1,42.5333346313477
160,128,187927,2,0,L|112:128,1,42.5333346313477
256,192,188040,1,8,0:0:0:0:
320,240,188096,1,0,0:0:0:0:
320,304,188153,1,0,0:0:0:0:
256,352,188209,1,0,0:0:0:0:
112,352,188266,5,2,0:0:0:0:
208,352,188350,1,0,0:0:0:0:
32,192,188435,2,0,L|128:192,2,85.0666692626954,2|0|8,0:0|0:0|0:0,0:0:0:0:
256,192,188774,2,0,L|352:192,2,85.0666692626954,2|0|8,0:0|0:0|0:0,0:0:0:0:
32,192,189113,6,0,L|16:80,1,110,6|0,0:0|0:0,0:0:0:0:
128,192,189367,2,0,L|112:80,1,110,2|0,0:0|0:0,0:0:0:0:
224,192,189622,2,0,L|208:80,1,110,2|0,0:0|0:0,0:0:0:0:
320,192,189876,2,0,L|304:80,1,110,2|0,0:0|0:0,0:0:0:0:
48,80,190130,2,0,L|368:80,1,317.89998750927,2|8,1:0|0:0,0:0:0:0:
304,80,190384,1,0,0:0:0:0:
480,192,190469,6,0,L|496:80,1,110,2|0,0:0|0:0,0:0:0:0:
384,192,190723,2,0,L|400:80,1,110,2|0,0:0|0:0,0:0:0:0:
288,192,190977,2,0,L|304:80,1,110,2|0,0:0|0:0,0:0:0:0:
192,192,191232,2,0,L|208:80,1,110,2|0,0:0|0:0,0:0:0:0:
384,80,191486,5,2,0:0:0:0:
208,80,191571,1,0,0:0:0:0:
32,80,191655,1,0,0:0:0:0:
208,80,191740,1,2,0:0:0:0:
32,80,191825,2,0,L|16:160,2,73.3333333333333,8|0|0,0:0|0:0|0:0,0:0:0:0:
320,192,192164,6,0,L|336:80,1,110,2|0,0:0|0:0,0:0:0:0:
224,192,192418,2,0,L|240:80,1,110,2|0,0:0|0:0,0:0:0:0:
128,256,192672,1,2,0:0:0:0:
129,228,192694,1,0,0:0:0:0:
131,201,192715,1,0,0:0:0:0:
133,173,192736,1,0,0:0:0:0:
135,146,192757,1,0,0:0:0:0:
137,118,192778,1,0,0:0:0:0:
139,91,192800,1,0,0:0:0:0:
141,63,192821,1,0,0:0:0:0:
143,36,192842,1,0,0:0:0:0:
32,192,192927,2,0,L|48:80,1,110,2|0,0:0|0:0,0:0:0:0:
160,80,193181,5,0,0:0:0:0:
208,80,193223,1,0,0:0:0:0:
224,112,193266,1,0,0:0:0:0:
208,144,193308,1,0,0:0:0:0:
96,192,193350,2,0,L|32:192,2,55,2|0|0,0:0|0:0|0:0,0:0:0:0:
208,192,193605,2,0,L|192:80,1,110,2|0,0:0|0:0,0:0:0:0:
368,48,193859,5,8,0:0:0:0:
248,48,193915,1,0,0:0:0:0:
128,48,193972,2,0,P|112:80|128:112,1,73.3333333333333,8|8,0:0|0:0,0:0:0:0:
248,112,194141,1,0,0:0:0:0:
368,48,194198,2,0,P|384:80|368:112,1,73.3333333333333,8|8,0:0|0:0,0:0:0:0:
128,192,194424,1,8,0:0:0:0:
248,192,194480,1,0,0:0:0:0:
368,192,194537,5,2,0:0:0:0:
448,192,194622,1,0,0:0:0:0:
368,192,194706,1,0,0:0:0:0:
480,192,194791,2,0,L|496:80,1,110,2|0,0:0|0:0,0:0:0:0:
384,192,195045,2,0,L|400:80,1,110,2|0,0:0|0:0,0:0:0:0:
288,192,195300,6,0,L|304:80,1,110,2|0,0:0|0:0,0:0:0:0:
192,192,195554,1,0,0:0:0:0:
256,192,195639,1,0,0:0:0:0:
192,192,195723,2,0,L|192:176,1,13.75
256,192,195808,2,0,L|256:176,1,13.75
112,192,195893,6,0,L|96:80,1,110,2|0,0:0|0:0,0:0:0:0:
208,192,196147,2,0,L|192:80,1,110,2|0,0:0|0:0,0:0:0:0:
304,192,196401,2,0,L|304:128,1,55,2|0,0:0|0:0,0:0:0:0:
192,80,196571,2,0,L|192:112,1,18.3333333333333
384,80,196684,2,0,L|416:80,1,18.3333333333333,2|0,2:0|0:0,0:0:0:0:
208,80,196797,2,0,L|208:112,1,18.3333333333333
448,192,196910,6,0,L|464:80,1,110,2|0,0:0|0:0,0:0:0:0:
352,192,197164,2,0,L|368:80,1,110,2|0,0:0|0:0,0:0:0:0:
256,192,197418,2,0,L|272:192,8,13.75,2|0|0|0|0|0|0|0|0,1:0|0:0|0:0|0:0|0:0|0:0|0:0|0:0|0:0,0:0:0:0:
64,192,197672,6,0,L|48:80,1,110,2|0,0:0|0:0,0:0:0:0:
160,192,197927,2,0,L|144:80,1,110,2|0,0:0|0:0,0:0:0:0:
256,192,198181,2,0,L|256:128,1,55,2|0,0:0|0:0,0:0:0:0:
80,192,198350,6,8,L|64:192,1,13.75
72,144,198393,2,0,L|56:144,1,13.75
80,192,198435,2,0,L|64:192,1,13.75
72,240,198477,2,0,L|56:240,1,13.75
80,192,198520,1,0,0:0:0:0:
256,192,198605,2,0,L|272:176,4,13.75,8|0|0|0|0,0:0|0:0|0:0|0:0|0:0,0:0:0:0:
448,192,198774,6,0,L|464:80,1,110,2|0,0:0|0:0,0:0:0:0:
352,192,199028,2,0,L|368:80,1,110,2|0,0:0|0:0,0:0:0:0:
256,192,199283,1,2,0:0:0:0:
368,256,199367,2,0,L|256:256,1,110,0|2,0:0|0:0,0:0:0:0:
432,192,199622,5,8,0:0:0:0:
460,192,199643,1,0,0:0:0:0:
460,144,199664,1,0,0:0:0:0:
432,144,199685,1,0,0:0:0:0:
400,144,199706,1,0,0:0:0:0:
372,144,199727,1,0,0:0:0:0:
372,192,199749,1,0,0:0:0:0:
400,192,199770,1,0,0:0:0:0:
432,96,199791,1,0,0:0:0:0:
456,107,199812,1,0,0:0:0:0:
473,128,199833,1,0,0:0:0:0:
480,155,199855,1,0,0:0:0:0:
474,182,199876,1,0,0:0:0:0:
457,203,199897,1,0,0:0:0:0:
433,215,199918,1,0,0:0:0:0:
288,96,199961,5,12,0:0:0:0:
256,192,200130,12,0,210808,0:0:0:0:
