osu file format v14

[General]
AudioFilename: audio.mp3
AudioLeadIn: 0
PreviewTime: -1
Countdown: 0
SampleSet: Normal
StackLeniency: 0.7
Mode: 0
LetterboxInBreaks: 0
WidescreenStoryboard: 0

[Editor]
DistanceSpacing: 0.9
BeatDivisor: 4
GridSize: 4
TimelineZoom: 1

[Metadata]
Title:kastrulya31
TitleUnicode:kastrulya31
Artist:kastrulya31
ArtistUnicode:kastrulya31
Creator:Vasaman
Version:kastruya31
Source:kastrulya31
Tags:kastrulya31
BeatmapID:4536970
BeatmapSetID:2153213

[Difficulty]
HPDrainRate:8
CircleSize:3
OverallDifficulty:7
ApproachRate:9
SliderMultiplier:2.5
SliderTickRate:1

[Events]
//Background and Video events
Video,0,"video_2024-03-20_12-44-45.mp4"
0,0,"bg.jpg",0,0
//Break Periods
//Storyboard Layer 0 (Background)
//Storyboard Layer 1 (Fail)
//Storyboard Layer 2 (Pass)
//Storyboard Layer 3 (Foreground)
//Storyboard Layer 4 (Overlay)
//Storyboard Sound Samples

[TimingPoints]
324,545.454545454545,4,1,0,100,1,0
2666,625,4,1,0,100,1,0

[HitObjects]
110,104,324,5,0,0:0:0:0:
435,106,760,1,0,0:0:0:0:
254,329,1414,1,0,0:0:0:0:
254,193,2069,1,0,0:0:0:0:
137,108,2666,5,0,0:0:0:0:
353,281,3291,1,0,0:0:0:0:
334,86,3916,1,0,0:0:0:0:
152,278,4541,5,0,0:0:0:0:
276,88,4853,1,0,0:0:0:0:
313,306,5166,1,0,0:0:0:0:
282,112,5478,1,0,0:0:0:0:
154,283,5791,1,0,0:0:0:0:
341,228,6103,1,0,0:0:0:0:
168,130,6416,1,0,0:0:0:0:
222,314,6728,1,0,0:0:0:0:
301,115,7041,1,0,0:0:0:0:
363,317,7353,1,0,0:0:0:0:
95,266,7666,6,0,P|133:198|190:178,1,125
417,118,8291,6,0,P|379:186|322:206,1,125
330,353,8916,6,0,P|262:315|242:258,1,125
182,31,9541,6,0,P|250:69|279:92,1,62.5
377,142,9853,1,0,0:0:0:0:
164,257,10166,1,0,0:0:0:0:
276,97,10478,1,0,0:0:0:0:
288,273,10791,1,0,0:0:0:0:
152,137,11103,1,0,0:0:0:0:
361,179,11416,1,0,0:0:0:0:
178,265,11728,1,0,0:0:0:0:
284,83,12041,1,0,0:0:0:0:
308,260,12353,1,0,0:0:0:0:
126,78,12666,6,0,P|194:116|214:173,1,125
120,186,13291,6,0,P|158:268|208:281,1,125
273,265,13916,6,0,P|347:223|355:175,1,125
266,167,14541,6,0,P|304:99|313:82,1,62.5
350,24,14853,1,0,0:0:0:0:
365,289,15166,1,0,0:0:0:0:
210,148,15478,1,0,0:0:0:0:
170,332,15791,1,0,0:0:0:0:
330,218,16103,1,0,0:0:0:0:
111,215,16416,1,0,0:0:0:0:
301,331,16728,1,0,0:0:0:0:
230,178,17041,1,0,0:0:0:0:
156,337,17353,1,0,0:0:0:0:
112,164,17666,6,0,P|180:132|234:138,1,125
317,207,18291,6,0,P|249:239|195:233,1,125
228,136,18916,6,0,P|296:104|350:110,1,125
433,179,19541,6,0,P|375:192|334:203,1,62.5
199,239,19853,1,0,0:0:0:0:
267,82,20166,1,0,0:0:0:0:
361,293,20478,1,0,0:0:0:0:
117,179,20791,1,0,0:0:0:0:
414,165,21103,1,0,0:0:0:0:
169,329,21416,1,0,0:0:0:0:
273,77,21728,1,0,0:0:0:0:
354,344,22041,1,0,0:0:0:0:
273,77,22353,1,0,0:0:0:0:
