osu file format v14

[General]
AudioFilename: audio.mp3
AudioLeadIn: 0
PreviewTime: 58598
Countdown: 0
SampleSet: Normal
StackLeniency: 0.2
Mode: 1
LetterboxInBreaks: 0
WidescreenStoryboard: 0

[Editor]
Bookmarks: 546,13671,15546,30546,45546,58671,62421,75546,90546,105546,118671,120546,135546,148436
DistanceSpacing: 2.4
BeatDivisor: 8
GridSize: 32
TimelineZoom: 1

[Metadata]
Title:Konkon Kitsune
TitleUnicode:コンコンきつね
Artist:karoi
ArtistUnicode:karoi
Creator:Senko-san
Version:Oni
Source:
Tags:白上フブキ ホロライブ Shirakami Fubuki FBK Foxgirl Hololive hororaibu vtuber virtual youtuber Electronic Japanese Chinese Hiicantpk HPK
BeatmapID:2420784
BeatmapSetID:1160222

[Difficulty]
HPDrainRate:5
CircleSize:4.1
OverallDifficulty:5
ApproachRate:9
SliderMultiplier:1.4
SliderTickRate:1

[Events]
//Background and Video events
0,0,"FBKFBKFBK.jpg",0,0
//Break Periods
//Storyboard Layer 0 (Background)
//Storyboard Layer 1 (Fail)
//Storyboard Layer 2 (Pass)
//Storyboard Layer 3 (Foreground)
//Storyboard Layer 4 (Overlay)
//Storyboard Sound Samples

[TimingPoints]
584,468.75,4,1,0,65,1,0
584,-125,4,1,0,65,0,0
14880,-117.647058823529,4,1,0,65,0,0
15349,-113.250283125708,4,1,0,65,0,0
15584,-111.111111111111,4,1,0,65,0,0
27537,-115.353957851971,4,1,0,65,0,0
27771,-119.933844491379,4,1,0,65,0,0
27888,-122.362925991231,4,1,0,65,0,0
28005,-124.892280408148,4,1,0,65,0,0
28123,-127.528572776731,4,1,0,65,0,0
28240,-130.278561620457,4,1,0,65,0,0
28474,-136.15018999759,4,1,0,65,0,0
28591,-139.528394028185,4,1,0,65,0,0
28709,-142.576267609951,4,1,0,65,0,0
30584,-125,4,1,0,65,0,0
36326,-123.711391221192,4,1,0,65,0,0
36443,-122.448929612682,4,1,0,65,0,0
36560,-121.212121212121,4,1,0,65,0,0
36794,-118.811834133927,4,1,0,65,0,0
36912,-117.647058823529,4,1,0,65,0,0
37029,-116.504899613553,4,1,0,65,0,0
37146,-115.384571005934,4,1,0,65,0,0
37380,-113.207589889657,4,1,0,65,0,0
37498,-112.149490785237,4,1,0,65,0,0
37615,-111.111111111111,4,1,0,65,0,0
38435,-109.591683306337,4,1,0,65,0,0
38552,-109.094320767849,4,1,0,65,0,0
38787,-108.113133907847,4,1,0,65,0,0
39021,-107.149439179835,4,1,0,65,0,0
39138,-106.674062735016,4,1,0,65,0,0
39373,-105.735741006647,4,1,0,65,0,0
39490,-105.272798666825,4,1,0,65,0,0
39724,-104.358860902161,4,1,0,65,0,0
39959,-103.460655464637,4,1,0,65,0,0
40310,-102.142020307876,4,1,0,65,0,0
40427,-101.70984419069,4,1,0,65,0,0
40662,-100.856473170161,4,1,0,65,0,0
40896,-100.017302993418,4,1,0,65,0,0
41013,-99.6029825117083,4,1,0,65,0,0
41248,-98.7844572534957,4,1,0,65,0,0
41365,-98.3802672795101,4,1,0,65,0,0
41599,-97.5816343557612,4,1,0,65,0,0
41834,-96.7958633319846,4,1,0,65,0,0
42068,-96.0226459808281,4,1,0,65,0,0
42185,-95.6406055580581,4,1,0,65,0,0
42302,-95.2616838455237,4,1,0,65,0,0
42419,-94.8857528093299,4,1,0,65,0,0
42537,-94.5126878557812,4,1,0,65,0,0
42771,-93.7753779616609,4,1,0,65,0,0
42888,-93.4110637932178,4,1,0,65,0,0
43005,-93.0494827844499,4,1,0,65,0,0
43123,-92.6907761554832,4,1,0,65,0,0
43240,-92.3347392836302,4,1,0,65,0,0
43474,-91.6309764013583,4,1,0,65,0,0
43709,-90.9377776444024,4,1,0,65,0,0
58943,-95.2380952380952,4,1,0,65,0,0
59412,-100,4,1,0,65,0,0
59880,-105.263157894737,4,1,0,65,0,0
60584,-100,4,1,0,65,0,0
60701,-98.7717730027113,4,1,0,65,0,0
61052,-95.261593097726,4,1,0,65,0,0
61169,-94.1463561594312,4,1,0,65,0,0
61521,-90.9519209955233,4,1,0,65,0,0
61638,-89.9347703110934,4,1,0,65,0,0
61873,-87.9671495476729,4,1,0,65,0,0
61990,-87.0153138250801,4,1,0,65,0,0
62224,-85.1721286133211,4,1,0,65,0,0
62459,-83.3333333333333,4,1,0,70,0,1
73709,-83.3333333333333,4,1,0,65,0,0
74177,-89.8510539079368,4,1,0,65,0,0
74646,-97.474722367622,4,1,0,65,0,0
75115,-106.512153036661,4,1,0,65,0,0
75584,-117.396658656301,4,1,0,65,0,0
81912,-115.399883676917,4,1,0,65,0,0
82146,-113.237074271065,4,1,0,65,0,0
82263,-112.185725712632,4,1,0,65,0,0
82380,-111.153720037125,4,1,0,65,0,0
82732,-108.168565565835,4,1,0,65,0,0
82849,-107.208828861474,4,1,0,65,0,0
83084,-105.339667758688,4,1,0,65,0,0
83552,-103.898478718475,4,1,0,65,0,0
83787,-103.229216345727,4,1,0,65,0,0
84021,-102.56862610351,4,1,0,65,0,0
84139,-102.241543601929,4,1,0,65,0,0
84255,-101.916436675241,4,1,0,65,0,0
84607,-100.953505862875,4,1,0,65,0,0
84724,-100.636627304327,4,1,0,65,0,0
84959,-100.008700756966,4,1,0,65,0,0
85427,-98.7759682020403,4,1,0,65,0,0
85662,-98.1709765361549,4,1,0,65,0,0
85896,-97.5733507664387,4,1,0,65,0,0
86014,-97.27721086781,4,1,0,65,0,0
86130,-96.9829571849339,4,1,0,65,0,0
86482,-96.1105963854727,4,1,0,65,0,0
86599,-95.823255920919,4,1,0,65,0,0
86834,-95.2537894338782,4,1,0,65,0,0
87302,-94.1349235859758,4,1,0,65,0,0
87537,-93.585289889794,4,1,0,65,0,0
87771,-93.0420373228828,4,1,0,65,0,0
87889,-92.7727263028306,4,1,0,65,0,0
88005,-92.5049698295041,4,1,0,65,0,0
88357,-91.7110624634875,4,1,0,65,0,0
88474,-91.4493905355368,4,1,0,65,0,0
88709,-90.9305835924855,4,1,0,65,0,0
89412,-117.647058823529,4,1,0,25,0,0
89998,-111.111111111111,4,1,0,65,0,0
102537,-115.353957851971,4,1,0,65,0,0
102771,-119.933844491379,4,1,0,65,0,0
102888,-122.362925991231,4,1,0,65,0,0
103005,-124.892280408148,4,1,0,65,0,0
103123,-127.528572776731,4,1,0,65,0,0
103240,-130.278561620457,4,1,0,65,0,0
103474,-136.15018999759,4,1,0,65,0,0
103591,-139.528394028185,4,1,0,65,0,0
103709,-142.576267609951,4,1,0,65,0,0
105584,-125,4,1,0,65,0,0
111209,-125,4,1,0,65,0,0
111326,-123.711391221192,4,1,0,65,0,0
111443,-122.448929612682,4,1,0,65,0,0
111560,-121.212121212121,4,1,0,65,0,0
111794,-118.811834133927,4,1,0,65,0,0
111912,-117.647058823529,4,1,0,65,0,0
112029,-116.504899613553,4,1,0,65,0,0
112146,-115.384571005934,4,1,0,65,0,0
112380,-113.207589889657,4,1,0,65,0,0
112498,-112.149490785237,4,1,0,65,0,0
112615,-111.111111111111,4,1,0,65,0,0
113084,-111.111111111111,4,1,0,65,0,0
113435,-109.591683306337,4,1,0,65,0,0
113552,-109.094320767849,4,1,0,65,0,0
113787,-108.113133907847,4,1,0,65,0,0
114021,-107.149439179835,4,1,0,65,0,0
114138,-106.674062735016,4,1,0,65,0,0
114373,-105.735741006647,4,1,0,65,0,0
114490,-105.272798666825,4,1,0,65,0,0
114724,-104.358860902161,4,1,0,65,0,0
114959,-103.460655464637,4,1,0,65,0,0
115310,-102.142020307876,4,1,0,65,0,0
115427,-101.70984419069,4,1,0,65,0,0
115662,-100.856473170161,4,1,0,65,0,0
115896,-100.017302993418,4,1,0,65,0,0
116013,-99.6029825117083,4,1,0,65,0,0
116248,-98.7844572534957,4,1,0,65,0,0
116365,-98.3802672795101,4,1,0,65,0,0
116599,-97.5816343557612,4,1,0,65,0,0
116834,-96.7958633319846,4,1,0,65,0,0
117068,-96.0226459808281,4,1,0,65,0,0
117185,-95.6406055580581,4,1,0,65,0,0
117302,-95.2616838455237,4,1,0,65,0,0
117419,-94.8857528093299,4,1,0,65,0,0
117537,-94.5126878557812,4,1,0,65,0,0
117771,-93.7753779616609,4,1,0,65,0,0
117888,-93.4110637932178,4,1,0,65,0,0
118005,-93.0494827844499,4,1,0,65,0,0
118123,-92.6907761554832,4,1,0,65,0,0
118240,-92.3347392836302,4,1,0,65,0,0
118474,-91.6309764013583,4,1,0,65,0,0
118709,-90.9377776444024,4,1,0,65,0,0
120466,-100,4,1,0,65,0,0
134646,-100,4,1,0,65,0,0
134763,-97.5855386038632,4,1,0,65,0,0
134998,-93.090194158218,4,1,0,65,0,0
135349,-87.0735789156553,4,1,0,65,0,0
135584,-83.3333333333333,4,1,0,70,0,1
143084,-83.3333333333333,4,1,0,65,0,0
143552,-89.7435667324188,4,1,0,65,0,0
143787,-93.3332960000149,4,1,0,65,0,0
144021,-97.2222627314984,4,1,0,65,0,0
144138,-99.2907660580474,4,1,0,65,0,0
144373,-103.703672976689,4,1,0,65,0,0
144607,-108.527081305233,4,1,0,65,0,0
144724,-111.111111111111,4,1,0,65,0,0

[HitObjects]
160,288,584,5,4,0:0:0:0:
352,96,1052,1,8,0:0:0:0:
352,96,1521,1,8,0:0:0:0:
352,96,1873,1,8,0:0:0:0:
160,96,2225,1,0,0:0:0:0:
160,96,2693,1,0,0:0:0:0:
352,96,2927,1,8,0:0:0:0:
352,96,3396,1,0,0:0:0:0:
352,96,3748,1,8,0:0:0:0:
160,96,4099,1,8,0:0:0:0:
160,96,4334,1,0,0:0:0:0:
352,96,4802,1,8,0:0:0:0:
160,96,5037,1,0,0:0:0:0:
352,96,5271,1,8,0:0:0:0:
352,96,5623,1,8,0:0:0:0:
160,96,5975,1,0,0:0:0:0:
160,96,6443,1,0,0:0:0:0:
352,96,6677,1,8,0:0:0:0:
160,96,7146,1,0,0:0:0:0:
352,96,7498,1,0,0:0:0:0:
160,96,7732,1,8,0:0:0:0:
160,96,7849,1,0,0:0:0:0:
160,288,8084,1,4,0:0:0:0:
352,96,8552,1,8,0:0:0:0:
160,96,8787,1,0,0:0:0:0:
352,96,9021,1,8,0:0:0:0:
352,96,9373,1,8,0:0:0:0:
160,96,9725,1,0,0:0:0:0:
160,96,10193,1,0,0:0:0:0:
352,96,10427,1,8,0:0:0:0:
352,96,10896,1,0,0:0:0:0:
352,96,11248,1,8,0:0:0:0:
160,96,11599,1,8,0:0:0:0:
160,96,11834,1,0,0:0:0:0:
352,96,12302,1,8,0:0:0:0:
160,96,12537,1,0,0:0:0:0:
352,96,12771,1,8,0:0:0:0:
352,96,13123,1,0,0:0:0:0:
160,96,13357,1,0,0:0:0:0:
160,96,13475,1,0,0:0:0:0:
352,288,13709,1,12,0:0:0:0:
352,96,14880,1,8,0:0:0:0:
352,96,15349,1,0,0:0:0:0:
160,288,15584,1,4,0:0:0:0:
352,96,16052,1,8,0:0:0:0:
352,96,16287,1,8,0:0:0:0:
160,96,16521,1,0,0:0:0:0:
160,96,16638,1,0,0:0:0:0:
352,96,16755,1,8,0:0:0:0:
352,96,16990,1,0,0:0:0:0:
160,96,17224,1,8,0:0:0:0:
352,96,17693,1,8,0:0:0:0:
160,96,17927,1,8,0:0:0:0:
160,96,18162,1,0,0:0:0:0:
160,96,18631,1,0,0:0:0:0:
352,96,18748,1,0,0:0:0:0:
352,96,18865,1,8,0:0:0:0:
352,96,19099,1,0,0:0:0:0:
160,288,19334,1,4,0:0:0:0:
160,96,19802,1,8,0:0:0:0:
160,96,20037,1,0,0:0:0:0:
160,96,20271,1,8,0:0:0:0:
352,96,20388,1,0,0:0:0:0:
352,96,20505,1,8,0:0:0:0:
160,96,20740,1,0,0:0:0:0:
352,96,20974,1,8,0:0:0:0:
160,96,21209,1,0,0:0:0:0:
160,96,21443,1,0,0:0:0:0:
160,96,21560,1,0,0:0:0:0:
352,96,21677,1,8,0:0:0:0:
352,96,21912,1,8,0:0:0:0:
160,96,22146,1,0,0:0:0:0:
160,96,22380,1,8,0:0:0:0:
352,96,22498,1,8,0:0:0:0:
352,96,22614,1,0,0:0:0:0:
352,96,22849,1,8,0:0:0:0:
352,288,23084,1,12,0:0:0:0:
160,96,23552,1,0,0:0:0:0:
352,96,23787,1,8,0:0:0:0:
160,96,24021,1,0,0:0:0:0:
160,96,24138,1,0,0:0:0:0:
352,96,24255,1,8,0:0:0:0:
352,96,24490,1,8,0:0:0:0:
352,96,24724,1,0,0:0:0:0:
160,96,25193,1,0,0:0:0:0:
160,96,25427,1,8,0:0:0:0:
352,96,25662,1,8,0:0:0:0:
160,96,25896,1,0,0:0:0:0:
352,96,26130,1,8,0:0:0:0:
352,96,26248,1,8,0:0:0:0:
160,96,26365,1,0,0:0:0:0:
352,96,26599,1,8,0:0:0:0:
160,288,26834,1,4,0:0:0:0:
352,96,27302,1,8,0:0:0:0:
160,96,27537,1,0,0:0:0:0:
160,96,27771,1,0,0:0:0:0:
160,96,27888,1,0,0:0:0:0:
352,96,28005,1,8,0:0:0:0:
160,96,28123,1,8,0:0:0:0:
352,96,28240,1,0,0:0:0:0:
352,96,28474,1,8,0:0:0:0:
352,96,28591,1,8,0:0:0:0:
352,96,28709,1,0,0:0:0:0:
352,288,30584,1,12,0:0:0:0:
352,96,30935,1,8,0:0:0:0:
352,96,31052,1,8,0:0:0:0:
160,96,31287,1,0,0:0:0:0:
352,96,31638,1,8,0:0:0:0:
160,96,31755,1,0,0:0:0:0:
160,96,31990,1,8,0:0:0:0:
160,96,32224,1,0,0:0:0:0:
352,96,32459,1,8,0:0:0:0:
352,96,32810,1,8,0:0:0:0:
352,96,32927,1,8,0:0:0:0:
160,96,33162,1,0,0:0:0:0:
352,96,33513,1,8,0:0:0:0:
160,96,33630,1,0,0:0:0:0:
160,96,33865,1,8,0:0:0:0:
160,96,34099,1,0,0:0:0:0:
352,96,34334,1,8,0:0:0:0:
352,96,34685,1,8,0:0:0:0:
352,96,34802,1,8,0:0:0:0:
160,96,35037,1,0,0:0:0:0:
352,96,35388,1,8,0:0:0:0:
160,96,35505,1,0,0:0:0:0:
160,96,35740,1,8,0:0:0:0:
160,96,35974,1,0,0:0:0:0:
160,96,36209,1,0,0:0:0:0:
160,96,36326,1,0,0:0:0:0:
352,96,36443,1,8,0:0:0:0:
352,96,36560,1,8,0:0:0:0:
160,96,36794,1,0,0:0:0:0:
352,96,36912,1,8,0:0:0:0:
160,96,37029,1,8,0:0:0:0:
352,96,37146,1,0,0:0:0:0:
352,96,37380,1,8,0:0:0:0:
160,96,37498,1,8,0:0:0:0:
352,96,37615,1,0,0:0:0:0:
160,288,38084,1,4,0:0:0:0:
160,96,38435,1,0,0:0:0:0:
352,96,38552,1,8,0:0:0:0:
160,96,38787,1,0,0:0:0:0:
352,96,39021,1,8,0:0:0:0:
352,96,39138,1,8,0:0:0:0:
160,96,39373,1,0,0:0:0:0:
160,96,39490,1,8,0:0:0:0:
160,96,39724,1,0,0:0:0:0:
160,96,39959,1,8,0:0:0:0:
160,96,40310,1,0,0:0:0:0:
352,96,40427,1,8,0:0:0:0:
160,96,40662,1,0,0:0:0:0:
352,96,40896,1,8,0:0:0:0:
352,96,41013,1,8,0:0:0:0:
160,96,41248,1,0,0:0:0:0:
160,96,41365,1,8,0:0:0:0:
160,96,41599,1,8,0:0:0:0:
160,96,41834,1,0,0:0:0:0:
352,96,42068,1,8,0:0:0:0:
352,96,42185,1,8,0:0:0:0:
160,96,42302,1,0,0:0:0:0:
160,96,42419,1,0,0:0:0:0:
352,96,42537,1,8,0:0:0:0:
160,96,42771,1,0,0:0:0:0:
160,96,42888,1,0,0:0:0:0:
352,96,43005,1,8,0:0:0:0:
352,96,43123,1,8,0:0:0:0:
160,96,43240,1,0,0:0:0:0:
352,96,43474,1,8,0:0:0:0:
160,96,43709,1,0,0:0:0:0:
352,96,45115,1,8,0:0:0:0:
160,96,45349,1,0,0:0:0:0:
160,288,45584,1,12,0:0:0:0:
160,96,46052,1,8,0:0:0:0:
160,96,46521,1,0,0:0:0:0:
352,96,46873,1,0,0:0:0:0:
160,96,46990,1,8,0:0:0:0:
352,96,47224,1,0,0:0:0:0:
160,96,47693,1,0,0:0:0:0:
352,96,47927,1,8,0:0:0:0:
352,96,48396,1,0,0:0:0:0:
352,96,48513,1,0,0:0:0:0:
160,96,48630,1,8,0:0:0:0:
160,96,48865,1,8,0:0:0:0:
352,96,49099,1,0,0:0:0:0:
160,96,49334,1,0,0:0:0:0:
352,96,49802,1,8,0:0:0:0:
160,96,50271,1,0,0:0:0:0:
160,96,50623,1,0,0:0:0:0:
160,96,50741,1,8,0:0:0:0:
352,96,50974,1,8,0:0:0:0:
352,96,51443,1,8,0:0:0:0:
160,96,51677,1,8,0:0:0:0:
352,96,52146,1,0,0:0:0:0:
352,96,52263,1,0,0:0:0:0:
160,96,52380,1,8,0:0:0:0:
352,288,52615,1,12,0:0:0:0:
352,96,52849,1,0,0:0:0:0:
160,288,53084,1,4,0:0:0:0:
160,96,53552,1,8,0:0:0:0:
160,96,54021,1,0,0:0:0:0:
352,96,54373,1,0,0:0:0:0:
160,96,54490,1,8,0:0:0:0:
352,96,54724,1,0,0:0:0:0:
160,96,55193,1,0,0:0:0:0:
352,96,55427,1,8,0:0:0:0:
352,96,55896,1,0,0:0:0:0:
352,96,56013,1,0,0:0:0:0:
160,96,56130,1,8,0:0:0:0:
160,96,56365,1,8,0:0:0:0:
352,96,56599,1,0,0:0:0:0:
160,96,56834,1,0,0:0:0:0:
352,96,57302,1,8,0:0:0:0:
160,96,57771,1,8,0:0:0:0:
160,96,58123,1,0,0:0:0:0:
160,96,58241,1,8,0:0:0:0:
352,96,58474,1,8,0:0:0:0:
160,96,58709,1,0,0:0:0:0:
160,96,59177,1,0,0:0:0:0:
160,96,59646,1,0,0:0:0:0:
352,288,60115,1,12,0:0:0:0:
352,96,60584,1,8,0:0:0:0:
352,96,60701,1,8,0:0:0:0:
352,96,61052,1,8,0:0:0:0:
352,96,61169,1,8,0:0:0:0:
160,96,61521,1,0,0:0:0:0:
352,96,61638,1,8,0:0:0:0:
160,96,61873,1,0,0:0:0:0:
352,96,61990,1,8,0:0:0:0:
160,96,62224,1,0,0:0:0:0:
160,288,62459,1,4,0:0:0:0:
160,96,62693,1,0,0:0:0:0:
352,96,62810,1,8,0:0:0:0:
160,96,62927,1,0,0:0:0:0:
352,96,63044,1,8,0:0:0:0:
160,96,63396,1,0,0:0:0:0:
160,96,63513,1,0,0:0:0:0:
352,96,63630,1,8,0:0:0:0:
160,96,63865,1,0,0:0:0:0:
352,96,64099,1,8,0:0:0:0:
160,288,64334,1,0,0:0:0:0:
160,96,64568,1,8,0:0:0:0:
160,96,64685,1,0,0:0:0:0:
352,96,64802,1,8,0:0:0:0:
352,96,64919,1,8,0:0:0:0:
352,96,65271,1,8,0:0:0:0:
352,96,65505,1,8,0:0:0:0:
352,96,65623,1,8,0:0:0:0:
160,96,65740,1,0,0:0:0:0:
160,96,65974,1,8,0:0:0:0:
160,96,66209,1,0,0:0:0:0:
160,96,66443,1,0,0:0:0:0:
352,96,66560,1,8,0:0:0:0:
160,96,66677,1,0,0:0:0:0:
352,96,66794,1,8,0:0:0:0:
160,96,67029,1,0,0:0:0:0:
352,96,67146,1,8,0:0:0:0:
160,96,67263,1,0,0:0:0:0:
160,96,67380,1,0,0:0:0:0:
352,288,67615,1,12,0:0:0:0:
352,288,67849,1,0,0:0:0:0:
352,96,68084,1,8,0:0:0:0:
352,96,68201,1,8,0:0:0:0:
352,96,68552,1,8,0:0:0:0:
352,96,68669,1,8,0:0:0:0:
352,96,69021,1,0,0:0:0:0:
352,96,69138,1,8,0:0:0:0:
352,96,69373,1,0,0:0:0:0:
352,96,69490,1,8,0:0:0:0:
352,96,69724,1,0,0:0:0:0:
352,96,69841,1,8,0:0:0:0:
160,96,69959,1,0,0:0:0:0:
352,96,70193,1,8,0:0:0:0:
352,96,70310,1,8,0:0:0:0:
160,96,70427,1,0,0:0:0:0:
160,96,70544,1,0,0:0:0:0:
160,96,70896,1,0,0:0:0:0:
160,96,71013,1,8,0:0:0:0:
352,96,71130,1,0,0:0:0:0:
160,96,71365,1,8,0:0:0:0:
352,96,71599,1,8,0:0:0:0:
160,288,71834,1,0,0:0:0:0:
160,96,72068,1,0,0:0:0:0:
160,96,72185,1,0,0:0:0:0:
352,96,72302,1,8,0:0:0:0:
352,96,72419,1,8,0:0:0:0:
352,96,72771,1,8,0:0:0:0:
352,96,73005,1,8,0:0:0:0:
352,96,73123,1,8,0:0:0:0:
160,96,73240,1,0,0:0:0:0:
160,96,73474,1,0,0:0:0:0:
160,96,73709,1,0,0:0:0:0:
160,96,74177,1,0,0:0:0:0:
160,96,74646,1,0,0:0:0:0:
352,288,75115,1,12,0:0:0:0:
160,288,75584,1,4,0:0:0:0:
160,96,76052,1,8,0:0:0:0:
160,96,76287,1,0,0:0:0:0:
160,96,76521,1,0,0:0:0:0:
160,96,76873,1,8,0:0:0:0:
160,96,77107,1,8,0:0:0:0:
160,96,77224,1,0,0:0:0:0:
160,96,77927,1,8,0:0:0:0:
160,96,78162,1,8,0:0:0:0:
352,96,78396,1,0,0:0:0:0:
160,96,78748,1,8,0:0:0:0:
160,96,78982,1,8,0:0:0:0:
160,96,79099,1,0,0:0:0:0:
352,96,79334,1,8,0:0:0:0:
160,96,79803,1,8,0:0:0:0:
160,96,80037,1,0,0:0:0:0:
160,96,80271,1,0,0:0:0:0:
160,96,80623,1,8,0:0:0:0:
160,96,80857,1,8,0:0:0:0:
160,96,80974,1,0,0:0:0:0:
160,96,81677,1,8,0:0:0:0:
352,96,81912,1,0,0:0:0:0:
352,96,82146,1,0,0:0:0:0:
352,96,82263,1,8,0:0:0:0:
352,96,82498,1,8,0:0:0:0:
160,96,82732,1,8,0:0:0:0:
160,96,82849,1,0,0:0:0:0:
352,288,83084,1,8,0:0:0:0:
160,96,83552,1,8,0:0:0:0:
160,96,83787,1,0,0:0:0:0:
160,96,84021,1,8,0:0:0:0:
352,96,84139,1,8,0:0:0:0:
352,96,84373,1,8,0:0:0:0:
352,96,84607,1,8,0:0:0:0:
352,96,84724,1,0,0:0:0:0:
352,96,84959,1,8,0:0:0:0:
160,96,85427,1,8,0:0:0:0:
160,96,85662,1,0,0:0:0:0:
160,96,85896,1,0,0:0:0:0:
352,96,86014,1,8,0:0:0:0:
352,96,86248,1,8,0:0:0:0:
352,96,86482,1,8,0:0:0:0:
352,96,86599,1,0,0:0:0:0:
352,96,86834,1,8,0:0:0:0:
160,96,87302,1,8,0:0:0:0:
160,96,87537,1,0,0:0:0:0:
352,96,87771,1,8,0:0:0:0:
160,96,87889,1,0,0:0:0:0:
352,96,88123,1,0,0:0:0:0:
352,96,88357,1,0,0:0:0:0:
352,96,88474,1,8,0:0:0:0:
352,288,88709,1,12,0:0:0:0:
256,192,88943,8,0,89880,0:0:0:0:
160,96,90115,5,0,0:0:0:0:
160,288,90584,1,4,0:0:0:0:
352,96,91052,1,8,0:0:0:0:
352,96,91287,1,8,0:0:0:0:
160,96,91521,1,0,0:0:0:0:
160,96,91638,1,0,0:0:0:0:
352,96,91755,1,8,0:0:0:0:
352,96,91990,1,0,0:0:0:0:
160,96,92224,1,8,0:0:0:0:
352,96,92693,1,8,0:0:0:0:
160,96,92927,1,8,0:0:0:0:
160,96,93162,1,0,0:0:0:0:
160,96,93631,1,0,0:0:0:0:
352,96,93748,1,0,0:0:0:0:
352,96,93865,1,8,0:0:0:0:
352,96,94099,1,0,0:0:0:0:
160,288,94334,1,4,0:0:0:0:
160,96,94802,1,8,0:0:0:0:
160,96,95037,1,0,0:0:0:0:
160,96,95271,1,8,0:0:0:0:
352,96,95388,1,0,0:0:0:0:
352,96,95505,1,8,0:0:0:0:
160,96,95740,1,0,0:0:0:0:
352,96,95974,1,8,0:0:0:0:
160,96,96209,1,0,0:0:0:0:
160,96,96443,1,0,0:0:0:0:
160,96,96560,1,0,0:0:0:0:
352,96,96677,1,8,0:0:0:0:
352,96,96912,1,8,0:0:0:0:
160,96,97146,1,0,0:0:0:0:
160,96,97380,1,8,0:0:0:0:
352,96,97498,1,8,0:0:0:0:
352,96,97614,1,0,0:0:0:0:
352,96,97849,1,8,0:0:0:0:
352,288,98084,1,12,0:0:0:0:
160,96,98552,1,0,0:0:0:0:
352,96,98787,1,8,0:0:0:0:
160,96,99021,1,0,0:0:0:0:
160,96,99138,1,0,0:0:0:0:
352,96,99255,1,8,0:0:0:0:
352,96,99490,1,8,0:0:0:0:
352,96,99724,1,0,0:0:0:0:
160,96,100193,1,0,0:0:0:0:
160,96,100427,1,8,0:0:0:0:
352,96,100662,1,8,0:0:0:0:
160,96,100896,1,0,0:0:0:0:
352,96,101130,1,8,0:0:0:0:
352,96,101248,1,8,0:0:0:0:
160,96,101365,1,0,0:0:0:0:
352,96,101599,1,8,0:0:0:0:
160,288,101834,1,4,0:0:0:0:
352,96,102302,1,8,0:0:0:0:
160,96,102537,1,0,0:0:0:0:
160,96,102771,1,0,0:0:0:0:
160,96,102888,1,0,0:0:0:0:
352,96,103005,1,8,0:0:0:0:
160,96,103123,1,8,0:0:0:0:
352,96,103240,1,0,0:0:0:0:
352,96,103474,1,8,0:0:0:0:
352,96,103591,1,8,0:0:0:0:
352,96,103709,1,0,0:0:0:0:
352,288,105584,5,12,0:0:0:0:
352,96,105935,1,8,0:0:0:0:
352,96,106052,1,8,0:0:0:0:
160,96,106287,1,0,0:0:0:0:
160,96,106755,1,0,0:0:0:0:
160,96,106990,1,8,0:0:0:0:
160,96,107224,1,0,0:0:0:0:
352,96,107459,1,8,0:0:0:0:
352,96,107810,1,8,0:0:0:0:
352,96,107927,1,8,0:0:0:0:
160,96,108162,1,0,0:0:0:0:
160,96,108630,1,0,0:0:0:0:
160,96,108865,1,8,0:0:0:0:
160,96,109099,1,0,0:0:0:0:
352,96,109334,1,8,0:0:0:0:
352,96,109685,1,8,0:0:0:0:
352,96,109802,1,8,0:0:0:0:
160,96,110037,1,0,0:0:0:0:
160,96,110505,1,0,0:0:0:0:
160,96,110740,1,8,0:0:0:0:
160,96,110974,1,0,0:0:0:0:
160,96,111209,1,0,0:0:0:0:
160,96,111326,1,0,0:0:0:0:
352,96,111443,1,8,0:0:0:0:
352,96,111560,1,8,0:0:0:0:
160,96,111794,1,0,0:0:0:0:
352,96,111912,1,8,0:0:0:0:
160,96,112029,1,8,0:0:0:0:
352,96,112146,1,0,0:0:0:0:
352,96,112380,1,8,0:0:0:0:
160,96,112498,1,8,0:0:0:0:
352,96,112615,1,0,0:0:0:0:
160,288,113084,1,4,0:0:0:0:
160,96,113435,1,0,0:0:0:0:
352,96,113552,1,8,0:0:0:0:
160,96,113787,1,0,0:0:0:0:
352,96,114021,1,8,0:0:0:0:
352,96,114138,1,8,0:0:0:0:
160,96,114373,1,0,0:0:0:0:
160,96,114490,1,8,0:0:0:0:
160,96,114724,1,0,0:0:0:0:
160,96,114959,1,8,0:0:0:0:
160,96,115310,1,0,0:0:0:0:
352,96,115427,1,8,0:0:0:0:
160,96,115662,1,0,0:0:0:0:
352,96,115896,1,8,0:0:0:0:
352,96,116013,1,8,0:0:0:0:
160,96,116248,1,0,0:0:0:0:
160,96,116365,1,8,0:0:0:0:
160,96,116599,1,8,0:0:0:0:
160,96,116834,1,0,0:0:0:0:
352,96,117068,1,8,0:0:0:0:
352,96,117185,1,8,0:0:0:0:
160,96,117302,1,0,0:0:0:0:
160,96,117419,1,0,0:0:0:0:
352,96,117537,1,8,0:0:0:0:
160,96,117771,1,0,0:0:0:0:
160,96,117888,1,0,0:0:0:0:
352,96,118005,1,8,0:0:0:0:
352,96,118123,1,8,0:0:0:0:
160,96,118240,1,0,0:0:0:0:
352,96,118474,1,8,0:0:0:0:
160,96,118709,1,0,0:0:0:0:
160,288,120584,1,4,0:0:0:0:
352,96,121052,1,0,0:0:0:0:
160,96,121287,1,8,0:0:0:0:
352,96,121521,1,0,0:0:0:0:
352,96,121638,1,8,0:0:0:0:
352,96,121873,1,8,0:0:0:0:
352,96,122107,1,8,0:0:0:0:
160,96,122224,1,0,0:0:0:0:
160,96,122693,1,0,0:0:0:0:
352,96,122927,1,8,0:0:0:0:
160,96,123162,1,0,0:0:0:0:
352,96,123396,1,8,0:0:0:0:
352,96,123513,1,8,0:0:0:0:
352,96,123748,1,8,0:0:0:0:
352,96,123982,1,8,0:0:0:0:
160,96,124099,1,0,0:0:0:0:
160,288,124334,1,4,0:0:0:0:
352,96,124802,1,8,0:0:0:0:
160,96,125037,1,0,0:0:0:0:
352,96,125271,1,8,0:0:0:0:
352,96,125388,1,8,0:0:0:0:
352,96,125623,1,8,0:0:0:0:
352,96,125857,1,8,0:0:0:0:
160,96,125974,1,0,0:0:0:0:
160,96,126443,1,0,0:0:0:0:
352,96,126677,1,8,0:0:0:0:
160,96,126912,1,0,0:0:0:0:
352,96,127146,1,8,0:0:0:0:
352,96,127263,1,8,0:0:0:0:
352,96,127498,1,8,0:0:0:0:
160,288,128084,1,4,0:0:0:0:
352,96,128552,1,8,0:0:0:0:
160,96,128787,1,0,0:0:0:0:
352,96,129021,1,8,0:0:0:0:
352,96,129138,1,8,0:0:0:0:
352,96,129373,1,8,0:0:0:0:
352,96,129607,1,8,0:0:0:0:
160,96,129724,1,0,0:0:0:0:
160,96,130193,1,0,0:0:0:0:
352,96,130427,1,8,0:0:0:0:
160,96,130662,1,0,0:0:0:0:
352,96,130896,1,8,0:0:0:0:
352,96,131013,1,8,0:0:0:0:
352,96,131248,1,8,0:0:0:0:
352,96,131482,1,8,0:0:0:0:
160,96,131599,1,0,0:0:0:0:
352,288,131834,1,12,0:0:0:0:
352,96,132302,1,8,0:0:0:0:
160,96,132537,1,0,0:0:0:0:
352,96,132771,1,8,0:0:0:0:
352,96,132888,1,8,0:0:0:0:
352,96,133123,1,8,0:0:0:0:
352,96,133357,1,8,0:0:0:0:
160,96,133474,1,0,0:0:0:0:
352,96,133943,1,0,0:0:0:0:
160,96,134177,1,8,0:0:0:0:
160,96,134412,1,0,0:0:0:0:
352,96,134646,1,0,0:0:0:0:
352,96,134763,1,0,0:0:0:0:
352,96,134998,1,0,0:0:0:0:
160,96,135349,1,0,0:0:0:0:
160,288,135584,1,4,0:0:0:0:
352,96,135818,1,8,0:0:0:0:
160,96,136052,1,0,0:0:0:0:
352,96,136287,1,8,0:0:0:0:
352,96,136404,1,8,0:0:0:0:
160,96,136521,1,0,0:0:0:0:
352,96,136638,1,0,0:0:0:0:
352,96,136873,1,8,0:0:0:0:
352,96,137107,1,0,0:0:0:0:
160,96,137224,1,8,0:0:0:0:
160,96,137694,1,0,0:0:0:0:
160,96,137928,1,8,0:0:0:0:
352,96,138162,1,8,0:0:0:0:
352,96,138279,1,8,0:0:0:0:
160,96,138396,1,0,0:0:0:0:
352,96,138513,1,0,0:0:0:0:
352,96,138748,1,8,0:0:0:0:
160,96,138982,1,0,0:0:0:0:
352,96,139099,1,8,0:0:0:0:
160,288,139334,1,4,0:0:0:0:
352,96,139568,1,8,0:0:0:0:
160,96,139802,1,0,0:0:0:0:
352,96,140037,1,8,0:0:0:0:
352,96,140154,1,8,0:0:0:0:
160,96,140271,1,0,0:0:0:0:
352,96,140388,1,0,0:0:0:0:
352,96,140623,1,8,0:0:0:0:
160,96,140857,1,0,0:0:0:0:
352,96,140974,1,8,0:0:0:0:
160,96,141444,1,0,0:0:0:0:
160,96,141678,1,8,0:0:0:0:
352,96,141912,1,8,0:0:0:0:
352,96,142029,1,8,0:0:0:0:
160,96,142146,1,0,0:0:0:0:
352,96,142263,1,0,0:0:0:0:
160,96,142498,1,0,0:0:0:0:
160,96,142732,1,0,0:0:0:0:
352,96,142849,1,8,0:0:0:0:
160,288,143084,1,12,0:0:0:0:
352,96,143552,1,8,0:0:0:0:
352,96,143787,1,8,0:0:0:0:
160,96,144021,1,0,0:0:0:0:
352,96,144138,1,8,0:0:0:0:
352,96,144373,1,8,0:0:0:0:
160,96,144607,1,0,0:0:0:0:
352,96,144724,1,8,0:0:0:0:
352,96,145193,1,8,0:0:0:0:
352,96,145428,1,8,0:0:0:0:
160,96,145662,1,0,0:0:0:0:
160,96,145896,1,0,0:0:0:0:
352,96,146013,1,8,0:0:0:0:
352,96,146248,1,8,0:0:0:0:
160,96,146482,1,0,0:0:0:0:
352,96,146599,1,8,0:0:0:0:
352,288,146834,1,12,0:0:0:0:
352,96,147303,1,8,0:0:0:0:
160,96,147537,1,0,0:0:0:0:
352,96,147771,1,8,0:0:0:0:
352,96,147888,1,8,0:0:0:0:
160,96,148123,1,8,0:0:0:0:
160,96,148357,1,0,0:0:0:0:
160,96,148474,1,8,0:0:0:0:
