osu file format v14

[General]
AudioFilename: audio.mp3
AudioLeadIn: 0
PreviewTime: 58598
Countdown: 0
SampleSet: Normal
StackLeniency: 0.2
Mode: 1
LetterboxInBreaks: 0
WidescreenStoryboard: 1

[Editor]
DistanceSpacing: 2.4
BeatDivisor: 4
GridSize: 32
TimelineZoom: 1

[Metadata]
Title:Konkon Kitsune
TitleUnicode:コンコンきつね
Artist:karoi
ArtistUnicode:karoi
Creator:Senko-san
Version:Muzukashii
Source:
Tags:白上フブキ ホロライブ Shirakami Fubuki FBK Foxgirl Hololive hororaibu vtuber virtual youtuber Electronic Japanese Chinese Hiicantpk HPK
BeatmapID:2422645
BeatmapSetID:1160222

[Difficulty]
HPDrainRate:6
CircleSize:4.1
OverallDifficulty:4.5
ApproachRate:9
SliderMultiplier:1.4
SliderTickRate:1

[Events]
//Background and Video events
0,0,"FBKFBKFBK.jpg",0,0
//Break Periods
//Storyboard Layer 0 (Background)
//Storyboard Layer 1 (Fail)
//Storyboard Layer 2 (Pass)
//Storyboard Layer 3 (Foreground)
//Storyboard Layer 4 (Overlay)
//Storyboard Sound Samples

[TimingPoints]
584,468.75,4,1,0,65,1,0
584,-125,4,1,0,65,0,0
14880,-117.647058823529,4,1,0,65,0,0
15349,-113.636363636364,4,1,0,65,0,0
15584,-111.111111111111,4,1,0,65,0,0
27537,-113.636363636364,4,1,0,65,0,0
27771,-116.279069767442,4,1,0,65,0,0
28005,-119.047619047619,4,1,0,65,0,0
28240,-121.951219512195,4,1,0,65,0,0
28474,-125,4,1,0,65,0,0
28709,-128.205128205128,4,1,0,65,0,0
30466,-125,4,1,0,65,0,0
36443,-123.086770018525,4,1,0,65,0,0
36677,-121.231224314134,4,1,0,65,0,0
37146,-117.682917500744,4,1,0,65,0,0
38084,-111.175098556725,4,1,0,65,0,0
38435,-108.849342713244,4,1,0,65,0,0
38552,-108.115705427949,4,1,0,65,0,0
38787,-106.677704253133,4,1,0,65,0,0
39255,-103.91359376851,4,1,0,65,0,0
39490,-102.584619488,4,1,0,65,0,0
39724,-101.28910645789,4,1,0,65,0,0
39841,-103.092783505155,4,1,0,65,0,0
39959,-100.026006761758,4,1,0,65,0,0
40310,-98.1891948682399,4,1,0,65,0,0
40427,-97.5919193890746,4,1,0,65,0,0
40662,-96.4187195015538,4,1,0,65,0,0
41130,-94.1550432265803,4,1,0,65,0,0
41365,-93.0626451195622,4,1,0,65,0,0
41599,-91.9952199283725,4,1,0,65,0,0
41716,-101.010101010101,4,1,0,65,0,0
41834,-90.9520037181179,4,1,0,65,0,0
58943,-95.2380952380952,4,1,0,65,0,0
59412,-100,4,1,0,65,0,0
59880,-105.263157894737,4,1,0,65,0,0
60349,-100,4,1,0,65,0,0
62459,-90.9090909090909,4,1,0,70,0,1
73709,-90.9090909090909,4,1,0,65,0,0
74177,-96.3554514060187,4,1,0,65,0,0
74646,-102.495982157499,4,1,0,65,0,0
75115,-109.472430463112,4,1,0,65,0,0
75584,-117.468092729312,4,1,0,65,0,0
90115,-114.285714285714,4,1,0,65,0,0
90466,-111.111111111111,4,1,0,65,0,0
102537,-113.636363636364,4,1,0,65,0,0
102771,-116.279069767442,4,1,0,65,0,0
103005,-119.047619047619,4,1,0,65,0,0
103240,-121.951219512195,4,1,0,65,0,0
103474,-125,4,1,0,65,0,0
103709,-128.205128205128,4,1,0,65,0,0
105584,-125,4,1,0,65,0,0
111443,-121.212121212121,4,1,0,65,0,0
111677,-117.647058823529,4,1,0,65,0,0
112146,-111.111111111111,4,1,0,65,0,0
113435,-108.849342713244,4,1,0,65,0,0
113552,-108.115705427949,4,1,0,65,0,0
113787,-106.677704253133,4,1,0,65,0,0
114255,-103.91359376851,4,1,0,65,0,0
114490,-102.584619488,4,1,0,65,0,0
114724,-101.28910645789,4,1,0,65,0,0
114959,-100.026006761758,4,1,0,65,0,0
115310,-98.1891948682399,4,1,0,65,0,0
115427,-97.5919193890746,4,1,0,65,0,0
115662,-96.4187195015538,4,1,0,65,0,0
116130,-94.1550432265803,4,1,0,65,0,0
116365,-93.0626451195622,4,1,0,65,0,0
116599,-91.9952199283725,4,1,0,65,0,0
116834,-90.9520037181179,4,1,0,65,0,0
120466,-100,4,1,0,65,0,0
134646,-96.7957696376837,4,1,0,65,0,0
134998,-94.5241230288176,4,1,0,65,0,0
135349,-92.3566555438468,4,1,0,65,0,0
135584,-90.9090909090909,4,1,0,70,0,1
143084,-90.9090909090909,4,1,0,65,0,0
144021,-95.2263053145801,4,1,0,65,0,0
144373,-96.9528683021323,4,1,0,65,0,0
144724,-98.7432940960397,4,1,0,65,0,0
145193,-101.235887717252,4,1,0,65,0,0
145428,-102.529925922129,4,1,0,65,0,0
145896,-105.219962331253,4,1,0,65,0,0
146248,-107.332068246022,4,1,0,65,0,0
146599,-109.530584772839,4,1,0,65,0,0
146834,-111.047073965125,4,1,0,65,0,0

[HitObjects]
160,288,584,5,4,0:0:0:0:
160,96,1052,1,8,0:0:0:0:
352,96,1521,1,8,0:0:0:0:
160,96,1873,1,8,0:0:0:0:
160,96,2225,1,0,0:0:0:0:
160,96,2693,1,0,0:0:0:0:
352,96,2927,1,8,0:0:0:0:
352,96,3396,1,0,0:0:0:0:
160,96,3865,1,8,0:0:0:0:
160,96,4334,1,0,0:0:0:0:
160,96,4802,1,8,0:0:0:0:
352,96,5271,1,8,0:0:0:0:
352,96,5623,1,8,0:0:0:0:
160,96,5975,1,0,0:0:0:0:
160,96,6443,1,0,0:0:0:0:
352,96,6677,1,8,0:0:0:0:
160,96,7146,1,0,0:0:0:0:
160,288,8084,1,4,0:0:0:0:
352,96,8552,1,8,0:0:0:0:
160,96,9021,1,8,0:0:0:0:
352,96,9373,1,8,0:0:0:0:
160,96,9725,1,0,0:0:0:0:
352,96,10193,1,0,0:0:0:0:
352,96,10427,1,8,0:0:0:0:
160,96,10896,1,0,0:0:0:0:
352,96,11365,1,8,0:0:0:0:
160,96,11834,1,0,0:0:0:0:
352,96,12302,1,8,0:0:0:0:
352,96,12771,1,8,0:0:0:0:
352,96,13123,1,8,0:0:0:0:
160,96,13475,1,0,0:0:0:0:
352,288,13709,1,12,0:0:0:0:
352,96,14880,1,8,0:0:0:0:
160,96,15349,1,0,0:0:0:0:
160,288,15584,1,4,0:0:0:0:
352,96,16052,1,8,0:0:0:0:
352,96,16287,1,8,0:0:0:0:
160,96,16521,1,0,0:0:0:0:
160,96,16638,1,0,0:0:0:0:
160,96,16755,1,0,0:0:0:0:
352,96,16990,1,0,0:0:0:0:
160,96,17224,1,8,0:0:0:0:
160,96,17693,1,8,0:0:0:0:
352,96,17927,1,8,0:0:0:0:
352,96,18162,1,0,0:0:0:0:
160,96,18631,1,0,0:0:0:0:
160,96,18865,1,8,0:0:0:0:
352,96,19099,1,8,0:0:0:0:
160,96,19334,1,4,0:0:0:0:
352,96,19802,1,8,0:0:0:0:
352,96,20037,1,8,0:0:0:0:
160,96,20271,1,0,0:0:0:0:
160,96,20388,1,0,0:0:0:0:
160,96,20505,1,0,0:0:0:0:
160,96,20740,1,0,0:0:0:0:
352,96,20974,1,8,0:0:0:0:
160,96,21209,1,0,0:0:0:0:
352,96,21560,1,8,0:0:0:0:
352,96,21677,1,8,0:0:0:0:
352,96,21912,1,8,0:0:0:0:
352,96,22380,1,8,0:0:0:0:
160,96,22498,1,8,0:0:0:0:
352,96,22615,1,8,0:0:0:0:
160,96,22849,1,0,0:0:0:0:
352,96,23084,1,12,0:0:0:0:
160,96,24021,1,0,0:0:0:0:
160,96,24138,1,0,0:0:0:0:
160,96,24255,1,0,0:0:0:0:
160,96,24490,1,8,0:0:0:0:
352,96,24724,1,0,0:0:0:0:
160,96,25193,1,0,0:0:0:0:
352,96,25427,1,8,0:0:0:0:
352,96,25662,1,8,0:0:0:0:
352,96,26130,1,8,0:0:0:0:
352,96,26365,1,0,0:0:0:0:
352,96,26599,1,8,0:0:0:0:
160,288,26834,1,4,0:0:0:0:
352,96,27302,1,8,0:0:0:0:
160,96,27537,1,0,0:0:0:0:
160,96,27771,1,0,0:0:0:0:
352,96,28005,1,8,0:0:0:0:
160,96,28240,1,0,0:0:0:0:
352,96,28474,1,8,0:0:0:0:
160,96,28709,1,0,0:0:0:0:
352,288,30584,1,12,0:0:0:0:
352,96,30935,1,8,0:0:0:0:
352,96,31052,1,8,0:0:0:0:
160,96,31287,1,0,0:0:0:0:
160,96,31755,1,0,0:0:0:0:
160,96,31990,1,8,0:0:0:0:
160,96,32224,1,0,0:0:0:0:
352,96,32459,1,8,0:0:0:0:
352,96,32810,1,8,0:0:0:0:
352,96,32927,1,8,0:0:0:0:
160,96,33162,1,0,0:0:0:0:
160,96,33630,1,0,0:0:0:0:
160,96,33865,1,8,0:0:0:0:
160,96,34099,1,0,0:0:0:0:
352,96,34334,1,8,0:0:0:0:
352,96,34685,1,8,0:0:0:0:
352,96,34802,1,8,0:0:0:0:
160,96,35037,1,0,0:0:0:0:
160,96,35505,1,0,0:0:0:0:
160,96,35740,1,8,0:0:0:0:
160,96,35974,1,0,0:0:0:0:
352,96,36209,1,0,0:0:0:0:
352,96,36443,1,8,0:0:0:0:
160,96,36677,1,0,0:0:0:0:
160,96,37146,1,0,0:0:0:0:
160,288,38084,1,4,0:0:0:0:
160,96,38435,1,0,0:0:0:0:
352,96,38552,1,8,0:0:0:0:
160,96,38787,1,0,0:0:0:0:
160,96,39255,1,0,0:0:0:0:
160,96,39490,1,8,0:0:0:0:
160,96,39724,1,0,0:0:0:0:
160,96,39959,1,8,0:0:0:0:
352,96,40310,1,0,0:0:0:0:
352,96,40427,1,8,0:0:0:0:
160,96,40662,1,0,0:0:0:0:
160,96,41130,1,0,0:0:0:0:
160,96,41365,1,8,0:0:0:0:
160,96,41599,1,0,0:0:0:0:
0,192,41834,2,0,L|160:192,4,153.927340404677
160,288,45584,1,12,0:0:0:0:
352,96,46052,1,8,0:0:0:0:
160,96,46521,1,0,0:0:0:0:
352,96,46873,1,8,0:0:0:0:
160,96,47224,1,0,0:0:0:0:
160,96,47693,1,0,0:0:0:0:
352,96,47927,1,8,0:0:0:0:
160,96,48396,1,0,0:0:0:0:
160,96,48513,1,0,0:0:0:0:
352,96,48630,1,0,0:0:0:0:
352,96,48865,1,8,0:0:0:0:
352,96,49099,1,0,0:0:0:0:
160,96,49334,1,0,0:0:0:0:
160,96,49802,1,8,0:0:0:0:
352,96,50271,1,0,0:0:0:0:
352,96,50622,1,8,0:0:0:0:
352,96,50974,1,8,0:0:0:0:
160,96,51443,1,8,0:0:0:0:
160,96,51677,1,8,0:0:0:0:
352,96,52615,1,12,0:0:0:0:
160,288,53084,1,4,0:0:0:0:
160,96,53552,1,8,0:0:0:0:
160,96,54021,1,0,0:0:0:0:
352,96,54373,1,8,0:0:0:0:
160,96,54724,1,0,0:0:0:0:
160,96,55193,1,0,0:0:0:0:
352,96,55427,1,8,0:0:0:0:
160,96,55896,1,0,0:0:0:0:
160,96,56013,1,0,0:0:0:0:
352,96,56130,1,0,0:0:0:0:
160,96,56365,1,8,0:0:0:0:
352,96,56599,1,0,0:0:0:0:
160,96,56834,1,0,0:0:0:0:
160,96,57302,1,8,0:0:0:0:
352,96,57771,1,8,0:0:0:0:
352,96,58122,1,8,0:0:0:0:
352,96,58474,1,8,0:0:0:0:
160,96,58709,1,0,0:0:0:0:
160,96,59177,1,0,0:0:0:0:
160,96,59646,1,0,0:0:0:0:
352,288,60115,1,12,0:0:0:0:
352,96,60584,1,8,0:0:0:0:
352,96,61052,1,8,0:0:0:0:
352,96,62224,1,0,0:0:0:0:
160,288,62459,1,4,0:0:0:0:
160,96,62693,1,0,0:0:0:0:
352,96,62927,1,8,0:0:0:0:
160,96,63162,1,0,0:0:0:0:
160,96,63396,1,0,0:0:0:0:
160,96,63513,1,0,0:0:0:0:
160,96,63630,1,0,0:0:0:0:
352,96,63865,1,8,0:0:0:0:
160,96,64334,1,0,0:0:0:0:
352,96,64568,1,0,0:0:0:0:
352,96,64685,1,0,0:0:0:0:
352,96,64802,1,8,0:0:0:0:
160,96,65271,1,0,0:0:0:0:
352,96,65505,1,8,0:0:0:0:
352,96,65623,1,8,0:0:0:0:
352,96,65741,1,8,0:0:0:0:
160,96,65974,1,8,0:0:0:0:
160,96,66443,1,0,0:0:0:0:
352,96,66560,1,0,0:0:0:0:
352,96,66677,1,0,0:0:0:0:
352,96,66912,1,8,0:0:0:0:
352,96,67146,1,8,0:0:0:0:
352,288,67380,1,0,0:0:0:0:
160,288,67615,1,12,0:0:0:0:
160,96,67849,1,0,0:0:0:0:
160,288,68084,1,8,0:0:0:0:
352,96,68552,1,8,0:0:0:0:
352,96,69021,1,8,0:0:0:0:
352,96,69373,1,8,0:0:0:0:
352,96,69724,1,8,0:0:0:0:
352,96,70427,1,0,0:0:0:0:
160,96,70662,1,8,0:0:0:0:
160,96,70896,1,0,0:0:0:0:
160,96,71013,1,0,0:0:0:0:
160,96,71130,1,0,0:0:0:0:
352,96,71365,1,8,0:0:0:0:
160,96,71599,1,8,0:0:0:0:
160,96,71834,1,0,0:0:0:0:
352,96,72068,1,0,0:0:0:0:
352,96,72184,1,0,0:0:0:0:
352,96,72302,1,8,0:0:0:0:
160,96,72771,1,0,0:0:0:0:
352,96,73123,1,8,0:0:0:0:
352,96,73241,1,0,0:0:0:0:
160,96,73474,1,0,0:0:0:0:
160,96,73709,1,0,0:0:0:0:
160,96,74177,1,0,0:0:0:0:
160,96,74646,1,0,0:0:0:0:
352,288,75115,1,12,0:0:0:0:
160,288,75584,1,4,0:0:0:0:
160,96,76052,1,8,0:0:0:0:
160,96,76287,1,0,0:0:0:0:
160,96,76521,1,0,0:0:0:0:
160,96,76873,1,8,0:0:0:0:
160,96,77224,1,0,0:0:0:0:
160,96,77928,1,8,0:0:0:0:
160,96,78162,1,8,0:0:0:0:
160,96,78396,1,0,0:0:0:0:
352,96,78748,1,8,0:0:0:0:
160,96,79099,1,0,0:0:0:0:
352,96,79334,1,8,0:0:0:0:
160,96,79803,1,8,0:0:0:0:
160,96,80037,1,0,0:0:0:0:
160,96,80271,1,0,0:0:0:0:
160,96,80623,1,8,0:0:0:0:
160,96,80974,1,0,0:0:0:0:
160,96,81677,1,8,0:0:0:0:
160,96,81911,1,8,0:0:0:0:
352,96,82146,1,0,0:0:0:0:
352,96,82498,1,8,0:0:0:0:
160,96,82849,1,0,0:0:0:0:
352,288,83084,1,8,0:0:0:0:
160,96,83552,1,8,0:0:0:0:
160,96,83786,1,8,0:0:0:0:
352,96,84021,1,0,0:0:0:0:
352,96,84373,1,8,0:0:0:0:
352,96,84724,1,0,0:0:0:0:
352,96,84959,1,8,0:0:0:0:
160,96,85427,1,8,0:0:0:0:
160,96,85662,1,8,0:0:0:0:
352,96,85896,1,0,0:0:0:0:
352,96,86248,1,8,0:0:0:0:
352,96,86599,1,0,0:0:0:0:
352,96,86834,1,8,0:0:0:0:
160,96,87302,1,8,0:0:0:0:
160,96,87536,1,8,0:0:0:0:
352,96,87771,1,0,0:0:0:0:
352,96,88123,1,8,0:0:0:0:
352,96,88474,1,0,0:0:0:0:
352,256,88709,1,12,0:0:0:0:
160,96,90115,1,0,0:0:0:0:
160,288,90584,1,4,0:0:0:0:
352,96,91052,1,8,0:0:0:0:
352,96,91287,1,8,0:0:0:0:
160,96,91521,1,0,0:0:0:0:
160,96,91638,1,0,0:0:0:0:
160,96,91755,1,0,0:0:0:0:
160,96,91990,1,0,0:0:0:0:
352,96,92224,1,8,0:0:0:0:
160,96,92693,1,8,0:0:0:0:
352,96,92927,1,8,0:0:0:0:
352,96,93162,1,0,0:0:0:0:
160,96,93631,1,0,0:0:0:0:
160,96,93865,1,8,0:0:0:0:
352,96,94099,1,8,0:0:0:0:
160,96,94334,1,4,0:0:0:0:
352,96,94802,1,8,0:0:0:0:
352,96,95037,1,8,0:0:0:0:
160,96,95271,1,0,0:0:0:0:
160,96,95388,1,0,0:0:0:0:
160,96,95505,1,0,0:0:0:0:
352,96,95740,1,0,0:0:0:0:
160,96,95974,1,8,0:0:0:0:
160,96,96209,1,0,0:0:0:0:
352,96,96560,1,8,0:0:0:0:
352,96,96677,1,8,0:0:0:0:
352,96,96912,1,8,0:0:0:0:
352,96,97380,1,8,0:0:0:0:
160,96,97498,1,8,0:0:0:0:
352,96,97615,1,8,0:0:0:0:
160,96,97849,1,0,0:0:0:0:
352,96,98084,1,12,0:0:0:0:
160,96,99021,1,0,0:0:0:0:
160,96,99138,1,0,0:0:0:0:
160,96,99255,1,0,0:0:0:0:
160,96,99490,1,8,0:0:0:0:
352,96,99724,1,0,0:0:0:0:
160,96,100193,1,0,0:0:0:0:
352,96,100427,1,8,0:0:0:0:
352,96,100662,1,8,0:0:0:0:
352,96,101130,1,8,0:0:0:0:
352,96,101365,1,0,0:0:0:0:
352,96,101599,1,8,0:0:0:0:
160,288,101834,1,4,0:0:0:0:
352,96,102302,1,8,0:0:0:0:
160,96,102537,1,0,0:0:0:0:
160,96,102771,1,0,0:0:0:0:
352,96,103005,1,8,0:0:0:0:
160,96,103240,1,0,0:0:0:0:
352,96,103474,1,8,0:0:0:0:
160,96,103709,1,0,0:0:0:0:
352,288,105584,1,12,0:0:0:0:
352,96,106052,1,8,0:0:0:0:
160,96,106287,1,0,0:0:0:0:
160,96,106755,1,0,0:0:0:0:
160,96,106990,1,8,0:0:0:0:
352,96,107459,1,8,0:0:0:0:
352,96,107927,1,8,0:0:0:0:
160,96,108162,1,0,0:0:0:0:
160,96,108630,1,0,0:0:0:0:
160,96,108865,1,8,0:0:0:0:
352,96,109334,1,8,0:0:0:0:
352,96,109802,1,8,0:0:0:0:
160,96,110037,1,0,0:0:0:0:
160,96,110505,1,0,0:0:0:0:
160,96,110740,1,8,0:0:0:0:
352,96,111209,1,0,0:0:0:0:
352,96,111443,1,8,0:0:0:0:
160,96,111677,1,0,0:0:0:0:
160,96,112146,1,0,0:0:0:0:
160,288,113084,1,4,0:0:0:0:
160,96,113435,1,0,0:0:0:0:
352,96,113552,1,8,0:0:0:0:
160,96,113787,1,0,0:0:0:0:
160,96,114255,1,0,0:0:0:0:
160,96,114490,1,8,0:0:0:0:
160,96,114724,1,0,0:0:0:0:
160,96,114959,1,8,0:0:0:0:
352,96,115310,1,0,0:0:0:0:
352,96,115427,1,8,0:0:0:0:
160,96,115662,1,0,0:0:0:0:
160,96,116130,1,0,0:0:0:0:
160,96,116365,1,0,0:0:0:0:
160,96,116599,1,0,0:0:0:0:
0,192,116834,2,0,L|160:192,4,153.927340404677
160,288,120584,1,4,0:0:0:0:
352,96,121052,1,8,0:0:0:0:
160,96,121287,1,0,0:0:0:0:
352,96,121521,1,8,0:0:0:0:
352,96,121873,1,8,0:0:0:0:
352,96,122107,1,8,0:0:0:0:
160,96,122224,1,0,0:0:0:0:
160,96,122693,1,0,0:0:0:0:
352,96,122927,1,8,0:0:0:0:
352,96,123396,1,8,0:0:0:0:
352,96,123748,1,8,0:0:0:0:
352,96,123982,1,8,0:0:0:0:
160,96,124099,1,0,0:0:0:0:
160,288,124334,1,4,0:0:0:0:
352,96,124802,1,8,0:0:0:0:
160,96,125037,1,0,0:0:0:0:
352,96,125271,1,8,0:0:0:0:
352,96,125623,1,8,0:0:0:0:
352,96,125857,1,8,0:0:0:0:
160,96,125974,1,0,0:0:0:0:
154,95,126443,1,0,0:0:0:0:
352,96,126677,1,8,0:0:0:0:
352,96,127146,1,8,0:0:0:0:
352,96,127498,1,8,0:0:0:0:
160,288,128084,1,4,0:0:0:0:
352,96,128552,1,8,0:0:0:0:
160,96,128787,1,0,0:0:0:0:
352,96,129021,1,8,0:0:0:0:
352,96,129373,1,8,0:0:0:0:
352,96,129607,1,8,0:0:0:0:
160,96,129724,1,0,0:0:0:0:
160,96,130193,1,0,0:0:0:0:
352,96,130427,1,8,0:0:0:0:
352,96,130896,1,8,0:0:0:0:
352,96,131248,1,8,0:0:0:0:
352,96,131482,1,8,0:0:0:0:
160,96,131599,1,0,0:0:0:0:
352,288,131834,1,12,0:0:0:0:
352,96,132302,1,8,0:0:0:0:
160,96,132537,1,0,0:0:0:0:
352,96,132771,1,8,0:0:0:0:
352,96,133123,1,8,0:0:0:0:
352,96,133357,1,8,0:0:0:0:
160,96,133474,1,0,0:0:0:0:
352,96,134177,1,8,0:0:0:0:
352,96,134646,1,0,0:0:0:0:
352,96,134998,1,0,0:0:0:0:
352,96,135349,1,0,0:0:0:0:
160,288,135584,1,4,0:0:0:0:
160,96,136052,1,0,0:0:0:0:
352,96,136287,1,8,0:0:0:0:
160,96,136521,1,0,0:0:0:0:
352,96,136638,1,0,0:0:0:0:
352,96,136873,1,8,0:0:0:0:
160,96,137107,1,0,0:0:0:0:
352,96,137224,1,8,0:0:0:0:
352,96,137693,1,0,0:0:0:0:
352,96,137928,1,8,0:0:0:0:
160,96,138396,1,0,0:0:0:0:
352,96,138513,1,0,0:0:0:0:
160,96,138748,1,8,0:0:0:0:
160,96,138982,1,0,0:0:0:0:
352,96,139099,1,8,0:0:0:0:
160,288,139334,1,4,0:0:0:0:
160,96,139802,1,0,0:0:0:0:
352,96,140037,1,8,0:0:0:0:
160,96,140271,1,0,0:0:0:0:
352,96,140388,1,0,0:0:0:0:
352,96,140623,1,8,0:0:0:0:
160,96,140857,1,0,0:0:0:0:
352,96,140974,1,8,0:0:0:0:
160,96,141443,1,0,0:0:0:0:
352,96,141677,1,8,0:0:0:0:
160,96,142146,1,8,0:0:0:0:
352,96,142263,1,8,0:0:0:0:
160,96,142498,1,8,0:0:0:0:
160,96,142849,1,0,0:0:0:0:
160,288,143084,1,12,0:0:0:0:
160,96,144021,1,0,0:0:0:0:
352,96,144373,1,8,0:0:0:0:
160,96,144724,1,0,0:0:0:0:
352,96,145193,1,8,0:0:0:0:
352,96,145428,1,8,0:0:0:0:
160,96,145896,1,0,0:0:0:0:
352,96,146248,1,8,0:0:0:0:
160,96,146599,1,0,0:0:0:0:
352,288,146834,1,12,0:0:0:0:
352,96,147303,1,8,0:0:0:0:
160,96,147537,1,0,0:0:0:0:
160,96,147771,1,8,0:0:0:0:
352,96,148123,1,8,0:0:0:0:
160,96,148474,1,0,0:0:0:0:
