osu file format v14

[General]
AudioFilename: audio.mp3
AudioLeadIn: 0
PreviewTime: 58598
Countdown: 0
SampleSet: Normal
StackLeniency: 0.2
Mode: 1
LetterboxInBreaks: 0
WidescreenStoryboard: 1

[Editor]
Bookmarks: 546,13671,15546,30546,45546,58671,60546,62421,75546,90546,105546,118671,120546,135546,148436
DistanceSpacing: 2.4
BeatDivisor: 4
GridSize: 32
TimelineZoom: 1

[Metadata]
Title:Konkon Kitsune
TitleUnicode:コンコンきつね
Artist:karoi
ArtistUnicode:karoi
Creator:Senko-san
Version:Futsuu
Source:
Tags:白上フブキ ホロライブ Shirakami Fubuki FBK Foxgirl Hololive hororaibu vtuber virtual youtuber Electronic Japanese Chinese Hiicantpk HPK
BeatmapID:2422644
BeatmapSetID:1160222

[Difficulty]
HPDrainRate:7
CircleSize:4.1
OverallDifficulty:4
ApproachRate:9
SliderMultiplier:1.4
SliderTickRate:1

[Events]
//Background and Video events
0,0,"FBKFBKFBK.jpg",0,0
//Break Periods
//Storyboard Layer 0 (Background)
//Storyboard Layer 1 (Fail)
//Storyboard Layer 2 (Pass)
//Storyboard Layer 3 (Foreground)
//Storyboard Layer 4 (Overlay)
//Storyboard Sound Samples

[TimingPoints]
584,468.75,4,1,0,65,1,0
584,-105.263157894737,4,1,0,65,0,0
62459,-100,4,1,0,70,0,1
73709,-100,4,1,0,65,0,0
75466,-105.263157894737,4,1,0,65,0,0
135584,-100,4,1,0,70,0,1
143084,-100,4,1,0,65,0,0

[HitObjects]
160,288,584,1,4,0:0:0:0:
352,96,1521,1,8,0:0:0:0:
352,96,1873,1,8,0:0:0:0:
160,96,2225,1,0,0:0:0:0:
352,96,2927,1,8,0:0:0:0:
352,96,3396,1,0,0:0:0:0:
160,96,3865,1,8,0:0:0:0:
160,96,4334,1,0,0:0:0:0:
352,96,5271,1,8,0:0:0:0:
352,96,5623,1,8,0:0:0:0:
160,96,5975,1,0,0:0:0:0:
352,96,6677,1,8,0:0:0:0:
160,96,7146,1,0,0:0:0:0:
352,96,7615,1,8,0:0:0:0:
160,288,8084,1,4,0:0:0:0:
352,96,9021,1,8,0:0:0:0:
160,96,9373,1,8,0:0:0:0:
160,96,9725,1,0,0:0:0:0:
352,96,10427,1,8,0:0:0:0:
352,96,10896,1,8,0:0:0:0:
160,96,11365,1,0,0:0:0:0:
160,96,11834,1,8,0:0:0:0:
352,96,12771,1,8,0:0:0:0:
160,96,13240,1,0,0:0:0:0:
352,288,13709,1,12,0:0:0:0:
352,96,14880,1,8,0:0:0:0:
160,288,15584,1,4,0:0:0:0:
352,96,16052,1,8,0:0:0:0:
160,96,16521,1,0,0:0:0:0:
352,96,16990,1,0,0:0:0:0:
352,96,17224,1,8,0:0:0:0:
160,96,17693,1,8,0:0:0:0:
352,96,17927,1,8,0:0:0:0:
160,96,18162,1,0,0:0:0:0:
160,96,18631,1,0,0:0:0:0:
352,96,18865,1,8,0:0:0:0:
160,288,19334,1,4,0:0:0:0:
352,96,19802,1,8,0:0:0:0:
160,96,20271,1,0,0:0:0:0:
160,96,20740,1,0,0:0:0:0:
352,96,20974,1,8,0:0:0:0:
160,96,21443,1,0,0:0:0:0:
352,96,21677,1,8,0:0:0:0:
160,96,21912,1,8,0:0:0:0:
160,96,22380,1,8,0:0:0:0:
352,96,22615,1,0,0:0:0:0:
160,288,23084,1,12,0:0:0:0:
352,96,24021,1,0,0:0:0:0:
352,96,24490,1,8,0:0:0:0:
352,96,24724,1,0,0:0:0:0:
160,96,25193,1,8,0:0:0:0:
352,96,25427,1,8,0:0:0:0:
352,96,25662,1,0,0:0:0:0:
352,96,26130,1,8,0:0:0:0:
160,96,26365,1,0,0:0:0:0:
160,288,26834,1,4,0:0:0:0:
352,96,27302,1,8,0:0:0:0:
160,96,27771,1,0,0:0:0:0:
160,96,28240,1,0,0:0:0:0:
352,96,28474,1,8,0:0:0:0:
160,96,28709,1,0,0:0:0:0:
352,288,30584,1,12,0:0:0:0:
160,96,31287,1,0,0:0:0:0:
160,96,31755,1,0,0:0:0:0:
160,96,31990,1,8,0:0:0:0:
160,96,32224,1,0,0:0:0:0:
352,96,32459,1,8,0:0:0:0:
160,96,33162,1,0,0:0:0:0:
160,96,33630,1,0,0:0:0:0:
160,96,33865,1,8,0:0:0:0:
160,96,34099,1,0,0:0:0:0:
352,96,34334,1,8,0:0:0:0:
160,96,35037,1,0,0:0:0:0:
160,96,35505,1,0,0:0:0:0:
160,96,35740,1,8,0:0:0:0:
160,96,35974,1,0,0:0:0:0:
352,96,36209,1,0,0:0:0:0:
352,96,36677,1,8,0:0:0:0:
160,96,37146,1,0,0:0:0:0:
160,288,38084,1,4,0:0:0:0:
352,96,38552,1,8,0:0:0:0:
160,96,38787,1,0,0:0:0:0:
352,96,39255,1,0,0:0:0:0:
160,96,39490,1,8,0:0:0:0:
352,96,39724,1,0,0:0:0:0:
160,96,39959,1,8,0:0:0:0:
352,96,40427,1,8,0:0:0:0:
160,96,40662,1,0,0:0:0:0:
352,96,41130,1,0,0:0:0:0:
160,96,41365,1,8,0:0:0:0:
352,96,41599,1,0,0:0:0:0:
0,192,41834,2,0,L|160:192,4,132.999996448517
160,288,45584,1,12,0:0:0:0:
160,96,46052,1,8,0:0:0:0:
160,96,46521,1,0,0:0:0:0:
352,96,46872,1,8,0:0:0:0:
160,96,47224,1,0,0:0:0:0:
160,96,47693,1,0,0:0:0:0:
352,96,47927,1,8,0:0:0:0:
160,96,48396,1,0,0:0:0:0:
352,96,48630,1,8,0:0:0:0:
160,96,48865,1,8,0:0:0:0:
160,96,49334,1,0,0:0:0:0:
160,96,49802,1,8,0:0:0:0:
352,96,50271,1,0,0:0:0:0:
352,96,50622,1,8,0:0:0:0:
352,96,50974,1,8,0:0:0:0:
352,96,51443,1,8,0:0:0:0:
352,96,51677,1,8,0:0:0:0:
352,96,52615,1,12,0:0:0:0:
160,288,53084,1,4,0:0:0:0:
352,96,53552,1,8,0:0:0:0:
160,96,54021,1,0,0:0:0:0:
160,96,54372,1,8,0:0:0:0:
352,96,54724,1,0,0:0:0:0:
160,96,55193,1,0,0:0:0:0:
352,96,55427,1,8,0:0:0:0:
160,96,55896,1,0,0:0:0:0:
352,96,56130,1,8,0:0:0:0:
160,96,56365,1,8,0:0:0:0:
160,96,56834,1,0,0:0:0:0:
352,96,57302,1,8,0:0:0:0:
160,96,57771,1,8,0:0:0:0:
352,96,58122,1,8,0:0:0:0:
352,96,58474,1,8,0:0:0:0:
160,96,58709,1,0,0:0:0:0:
160,96,59177,1,0,0:0:0:0:
160,96,59646,1,0,0:0:0:0:
352,96,60115,1,12,0:0:0:0:
352,96,60584,1,8,0:0:0:0:
352,96,62224,1,0,0:0:0:0:
160,288,62459,1,4,0:0:0:0:
352,96,62927,1,8,0:0:0:0:
160,96,63396,1,0,0:0:0:0:
160,96,63630,1,0,0:0:0:0:
352,96,63865,1,8,0:0:0:0:
160,96,64099,1,0,0:0:0:0:
160,96,64334,1,0,0:0:0:0:
352,96,64802,1,8,0:0:0:0:
160,96,65271,1,0,0:0:0:0:
352,96,65623,1,8,0:0:0:0:
160,96,65974,1,8,0:0:0:0:
160,96,66443,1,0,0:0:0:0:
352,96,66677,1,8,0:0:0:0:
352,96,67146,1,8,0:0:0:0:
160,96,67380,1,0,0:0:0:0:
352,288,67615,1,12,0:0:0:0:
352,96,68084,1,8,0:0:0:0:
352,96,69021,1,0,0:0:0:0:
160,96,69373,1,0,0:0:0:0:
160,96,69724,1,8,0:0:0:0:
160,96,70193,1,0,0:0:0:0:
352,96,70427,1,8,0:0:0:0:
160,96,70896,1,0,0:0:0:0:
160,96,71130,1,0,0:0:0:0:
352,96,71365,1,8,0:0:0:0:
160,96,71599,1,8,0:0:0:0:
160,96,71834,1,0,0:0:0:0:
352,96,72302,1,8,0:0:0:0:
160,96,72771,1,0,0:0:0:0:
352,96,73123,1,8,0:0:0:0:
160,96,73474,1,0,0:0:0:0:
160,96,73709,1,0,0:0:0:0:
160,96,74177,1,0,0:0:0:0:
160,96,74646,1,0,0:0:0:0:
352,288,75115,1,12,0:0:0:0:
160,288,75584,1,4,0:0:0:0:
160,96,76052,1,8,0:0:0:0:
160,96,76287,1,8,0:0:0:0:
160,96,76990,1,0,0:0:0:0:
160,96,77928,1,8,0:0:0:0:
160,96,78162,1,8,0:0:0:0:
160,96,78864,1,0,0:0:0:0:
352,96,79334,1,8,0:0:0:0:
160,96,79802,1,8,0:0:0:0:
160,96,80037,1,8,0:0:0:0:
160,96,80740,1,0,0:0:0:0:
160,96,81677,1,8,0:0:0:0:
160,96,81912,1,8,0:0:0:0:
160,96,82146,1,0,0:0:0:0:
352,96,82615,1,0,0:0:0:0:
352,288,83084,1,8,0:0:0:0:
160,96,83552,1,8,0:0:0:0:
160,96,83787,1,8,0:0:0:0:
160,96,84255,1,0,0:0:0:0:
352,96,84490,1,8,0:0:0:0:
352,96,84959,1,8,0:0:0:0:
160,96,85427,1,8,0:0:0:0:
160,96,85662,1,8,0:0:0:0:
160,96,86130,1,0,0:0:0:0:
352,96,86365,1,8,0:0:0:0:
352,96,86834,1,8,0:0:0:0:
160,96,87302,1,8,0:0:0:0:
352,96,87537,1,8,0:0:0:0:
352,96,88005,1,0,0:0:0:0:
352,96,88240,1,0,0:0:0:0:
160,288,88709,1,12,0:0:0:0:
160,96,90115,1,0,0:0:0:0:
160,288,90584,1,4,0:0:0:0:
352,96,91052,1,8,0:0:0:0:
160,96,91521,1,0,0:0:0:0:
352,96,91990,1,0,0:0:0:0:
352,96,92224,1,8,0:0:0:0:
160,96,92693,1,8,0:0:0:0:
352,96,92927,1,8,0:0:0:0:
160,96,93162,1,0,0:0:0:0:
160,96,93631,1,0,0:0:0:0:
352,96,93865,1,8,0:0:0:0:
160,288,94334,1,4,0:0:0:0:
352,96,94802,1,8,0:0:0:0:
160,96,95271,1,0,0:0:0:0:
160,96,95740,1,0,0:0:0:0:
352,96,95974,1,8,0:0:0:0:
160,96,96443,1,0,0:0:0:0:
352,96,96677,1,8,0:0:0:0:
160,96,96912,1,8,0:0:0:0:
160,96,97380,1,8,0:0:0:0:
352,96,97615,1,0,0:0:0:0:
160,288,98084,1,12,0:0:0:0:
352,96,99021,1,0,0:0:0:0:
352,96,99490,1,8,0:0:0:0:
352,96,99724,1,0,0:0:0:0:
160,96,100193,1,8,0:0:0:0:
352,96,100427,1,8,0:0:0:0:
352,96,100662,1,0,0:0:0:0:
352,96,101130,1,8,0:0:0:0:
160,96,101365,1,0,0:0:0:0:
160,288,101834,1,4,0:0:0:0:
352,96,102302,1,8,0:0:0:0:
160,96,102771,1,0,0:0:0:0:
160,96,103240,1,0,0:0:0:0:
352,96,103474,1,8,0:0:0:0:
160,96,103709,1,0,0:0:0:0:
352,288,105584,1,12,0:0:0:0:
160,96,106287,1,0,0:0:0:0:
160,96,106755,1,0,0:0:0:0:
160,96,106990,1,8,0:0:0:0:
352,96,107459,1,8,0:0:0:0:
160,96,108162,1,0,0:0:0:0:
160,96,108630,1,0,0:0:0:0:
160,96,108865,1,8,0:0:0:0:
352,96,109334,1,8,0:0:0:0:
160,96,110037,1,0,0:0:0:0:
160,96,110505,1,0,0:0:0:0:
160,96,110740,1,8,0:0:0:0:
352,96,111209,1,0,0:0:0:0:
352,96,111677,1,8,0:0:0:0:
160,96,112146,1,0,0:0:0:0:
160,288,113084,1,4,0:0:0:0:
352,96,113552,1,8,0:0:0:0:
160,96,113787,1,0,0:0:0:0:
352,96,114255,1,0,0:0:0:0:
160,96,114490,1,8,0:0:0:0:
352,96,114724,1,0,0:0:0:0:
160,96,114959,1,8,0:0:0:0:
352,96,115427,1,8,0:0:0:0:
160,96,115662,1,0,0:0:0:0:
352,96,116130,1,0,0:0:0:0:
160,96,116365,1,0,0:0:0:0:
352,96,116599,1,0,0:0:0:0:
0,192,116834,2,0,L|160:192,4,132.999996448517
160,288,120584,1,4,0:0:0:0:
352,96,121052,1,8,0:0:0:0:
352,96,121521,1,8,0:0:0:0:
160,96,121873,1,8,0:0:0:0:
160,96,122224,1,0,0:0:0:0:
160,96,122927,1,0,0:0:0:0:
352,96,123396,1,8,0:0:0:0:
352,96,123748,1,8,0:0:0:0:
160,96,124099,1,0,0:0:0:0:
160,288,124334,1,4,0:0:0:0:
160,96,124803,1,8,0:0:0:0:
160,96,125271,1,8,0:0:0:0:
160,96,125623,1,0,0:0:0:0:
160,96,125974,1,8,0:0:0:0:
160,96,126443,1,0,0:0:0:0:
352,96,126677,1,8,0:0:0:0:
352,96,127146,1,8,0:0:0:0:
160,288,128084,1,4,0:0:0:0:
352,96,128552,1,8,0:0:0:0:
160,96,129021,1,0,0:0:0:0:
352,96,129373,1,8,0:0:0:0:
160,96,129724,1,8,0:0:0:0:
352,96,130193,1,8,0:0:0:0:
160,96,130427,1,0,0:0:0:0:
352,96,130896,1,8,0:0:0:0:
352,96,131248,1,8,0:0:0:0:
160,96,131599,1,0,0:0:0:0:
352,288,131834,1,12,0:0:0:0:
352,96,132302,1,8,0:0:0:0:
352,96,132771,1,8,0:0:0:0:
352,96,133123,1,8,0:0:0:0:
160,96,133474,1,0,0:0:0:0:
352,96,135115,1,8,0:0:0:0:
160,288,135584,1,4,0:0:0:0:
160,96,136052,1,0,0:0:0:0:
352,96,136287,1,8,0:0:0:0:
160,96,136521,1,0,0:0:0:0:
352,96,136873,1,8,0:0:0:0:
160,96,137224,1,0,0:0:0:0:
352,96,137693,1,0,0:0:0:0:
352,96,137928,1,8,0:0:0:0:
160,96,138396,1,0,0:0:0:0:
160,96,138748,1,0,0:0:0:0:
352,96,139099,1,8,0:0:0:0:
160,288,139334,1,4,0:0:0:0:
160,96,139802,1,0,0:0:0:0:
352,96,140037,1,8,0:0:0:0:
160,96,140271,1,0,0:0:0:0:
352,96,140623,1,8,0:0:0:0:
160,96,140974,1,0,0:0:0:0:
160,96,141443,1,0,0:0:0:0:
352,96,141677,1,8,0:0:0:0:
160,96,142146,1,0,0:0:0:0:
160,96,142498,1,8,0:0:0:0:
160,96,142849,1,0,0:0:0:0:
160,288,143084,1,12,0:0:0:0:
160,96,144021,1,0,0:0:0:0:
352,96,144373,1,8,0:0:0:0:
160,96,144724,1,0,0:0:0:0:
352,96,145428,1,8,0:0:0:0:
160,96,145896,1,0,0:0:0:0:
352,96,146248,1,8,0:0:0:0:
160,96,146599,1,0,0:0:0:0:
352,288,146834,1,12,0:0:0:0:
352,96,147303,1,8,0:0:0:0:
160,96,147771,1,8,0:0:0:0:
352,96,148123,1,8,0:0:0:0:
160,96,148474,1,0,0:0:0:0:
