osu file format v14

[General]
AudioFilename: audio.mp3
AudioLeadIn: 0
PreviewTime: 32408
Countdown: 0
SampleSet: Soft
StackLeniency: 0.7
Mode: 3
LetterboxInBreaks: 0
SpecialStyle: 0
WidescreenStoryboard: 0

[Editor]
DistanceSpacing: 1
BeatDivisor: 4
GridSize: 4
TimelineZoom: 0.8999997

[Metadata]
Title:Nano Letters
TitleUnicode:Nano Letters
Artist:kaon
ArtistUnicode:kaon
Creator:Ilham
Version:Whisper
Source:Lanota
Tags:Noxy Video Game Gothic Hardcore Rock Instrumental Secret Library Selection Vol. 2 Machinery Land O2i3 kaonizer Syadow- ML-ysg
BeatmapID:3161999
BeatmapSetID:1547267

[Difficulty]
HPDrainRate:6.5
CircleSize:4
OverallDifficulty:6.5
ApproachRate:5
SliderMultiplier:1.4
SliderTickRate:1

[Events]
//Background and Video events
0,0,"bg.jpg",0,0
//Break Periods
//Storyboard Layer 0 (Background)
//Storyboard Layer 1 (Fail)
//Storyboard Layer 2 (Pass)
//Storyboard Layer 3 (Foreground)
//Storyboard Layer 4 (Overlay)
//Storyboard Sound Samples
Sample,10521,0,"Fast Cymbal.wav",60
Sample,10845,0,"Fast Cymbal.wav",60
Sample,76196,0,"drum.wav",40
Sample,78791,0,"drum.wav",40
Sample,82034,0,"drum.wav",40
Sample,82359,0,"drum.wav",40
Sample,82683,0,"drum.wav",40
Sample,83007,0,"drum.wav",40
Sample,83332,0,"drum.wav",40
Sample,83656,0,"drum.wav",40
Sample,84629,0,"drum.wav",40
Sample,84953,0,"drum.wav",40
Sample,85277,0,"drum.wav",40
Sample,85602,0,"drum.wav",40
Sample,85926,0,"drum.wav",40
Sample,86250,0,"drum.wav",40
Sample,87223,0,"drum.wav",40
Sample,87548,0,"drum.wav",40
Sample,87872,0,"drum.wav",40
Sample,88196,0,"drum.wav",40
Sample,88521,0,"drum.wav",40
Sample,88845,0,"drum.wav",40
Sample,89169,0,"drum.wav",40

[TimingPoints]
1278,324.324324324324,4,2,1,30,1,0
6467,-100,4,2,1,60,0,0
14250,-100,4,2,1,30,0,0
22034,-100,4,2,1,60,0,0
33061,-100,4,2,1,60,0,1
55764,-100,4,2,1,30,0,0
66142,-100,4,2,1,60,0,0
81710,-100,4,2,1,60,0,1
105061,-100,4,2,1,30,0,0

[HitObjects]
64,192,1278,5,0,0:0:0:0:
448,192,1278,1,0,0:0:0:0:
320,192,1926,1,0,0:0:0:0:
192,192,2575,128,0,3223:0:0:0:0:
448,192,3223,1,0,0:0:0:0:
320,192,3548,1,0,0:0:0:0:
64,192,3872,128,0,4521:0:0:0:0:
448,192,4521,128,0,5169:0:0:0:0:
64,192,5169,1,0,0:0:0:0:
320,192,5494,1,0,0:0:0:0:
192,192,5818,128,0,6467:0:0:0:0:
320,192,6467,1,2,0:0:0:0:
448,192,6467,1,0,0:0:0:30:soft-hitfinish.wav
64,192,7115,1,0,0:0:0:40:Clap.wav
448,192,7764,1,2,0:0:0:0:
448,192,8088,1,0,0:0:0:30:Clap.wav
192,192,8413,1,0,0:0:0:30:Clap.wav
192,192,8737,128,0,9061:0:0:0:30:Clap.wav
320,192,9061,128,2,9710:0:0:0:0:
192,192,9710,1,0,0:0:0:100:Snare1.wav
448,192,10034,128,0,10359:0:0:0:0:
64,192,10359,1,2,0:0:0:0:
192,192,10521,1,8,0:0:0:0:
320,192,10683,1,2,0:0:0:0:
192,192,10845,1,8,0:0:0:0:
320,192,11169,1,2,0:0:0:0:
448,192,11169,1,4,0:0:0:0:
64,192,11656,128,0,14250:0:0:0:0:
192,192,14250,1,0,0:0:0:0:
448,192,14250,1,0,0:0:0:0:
64,192,16845,1,0,0:0:0:0:
320,192,16845,1,0,0:0:0:0:
64,192,19440,1,0,0:0:0:0:
448,192,19440,1,0,0:0:0:0:
320,192,20899,128,0,21710:0:0:0:0:
64,192,21710,1,0,0:0:0:0:
192,192,22034,1,2,0:0:0:0:
448,192,22034,1,0,0:0:0:0:
64,192,22359,1,2,0:0:0:0:
448,192,22683,1,2,0:0:0:0:
192,192,23007,1,2,0:0:0:0:
320,192,23332,1,2,0:0:0:0:
448,192,23656,1,2,0:0:0:0:
64,192,23980,128,2,24305:0:0:0:0:
192,192,24305,1,2,0:0:0:0:
448,192,24629,1,2,0:0:0:0:
320,192,24953,1,2,0:0:0:0:
192,192,25277,128,2,25602:0:0:0:0:
448,192,25602,128,2,25926:0:0:0:0:
64,192,25926,128,2,26250:0:0:0:0:
320,192,26250,128,2,26575:0:0:0:0:
192,192,26575,128,2,26899:0:0:0:0:
448,192,26899,1,2,0:0:0:0:
64,192,27223,1,2,0:0:0:0:
192,192,27223,1,4,0:0:0:0:
64,192,27548,1,2,0:0:0:0:
320,192,27872,1,2,0:0:0:0:
320,192,28196,1,2,0:0:0:0:
64,192,28521,1,2,0:0:0:0:
192,192,28683,1,2,0:0:0:0:
448,192,28845,1,2,0:0:0:0:
320,192,29007,1,2,0:0:0:0:
64,192,29169,1,2,0:0:0:0:
192,192,29169,1,0,0:0:0:0:
192,192,29494,1,2,0:0:0:0:
448,192,29818,128,2,30142:0:0:0:0:
64,192,30142,128,2,30467:0:0:0:0:
192,192,30467,128,2,30791:0:0:0:0:
320,192,30791,128,2,31115:0:0:0:0:
64,192,31115,1,2,0:0:0:0:
192,192,32413,1,2,0:0:0:0:
320,192,32737,1,0,0:0:0:0:
64,192,33061,1,12,0:0:0:0:
448,192,33386,1,2,0:0:0:0:
192,192,33710,1,2,0:0:0:0:
448,192,34359,1,8,0:0:0:0:
64,192,34683,1,8,0:0:0:0:
192,192,35007,1,2,0:0:0:0:
448,192,35332,1,2,0:0:0:0:
64,192,35494,1,8,0:0:0:0:
448,192,35818,1,2,0:0:0:0:
64,192,35980,1,8,0:0:0:0:
320,192,36629,128,2,36953:0:0:0:0:
64,192,36953,1,8,0:0:0:0:
192,192,37115,1,2,0:0:0:0:
64,192,37602,1,2,0:0:0:0:
320,192,37926,128,0,38250:0:0:0:0:
192,192,38250,1,12,0:0:0:0:
64,192,38575,1,2,0:0:0:0:
448,192,38899,1,2,0:0:0:0:
64,192,39548,1,8,0:0:0:0:
448,192,39872,1,8,0:0:0:0:
192,192,40196,1,2,0:0:0:0:
320,192,40521,1,2,0:0:0:0:
64,192,40683,1,8,0:0:0:0:
448,192,41007,1,2,0:0:0:0:
64,192,41169,1,8,0:0:0:0:
320,192,41494,1,2,0:0:0:0:
192,192,41656,1,12,0:0:0:0:
448,192,41980,1,2,0:0:0:0:
192,192,42142,1,8,0:0:0:0:
192,192,42467,1,12,0:0:0:0:
448,192,42791,128,2,43115:0:0:0:0:
320,192,43115,1,2,0:0:0:0:
64,192,43440,128,8,43764:0:0:0:0:
320,192,43764,128,8,44088:0:0:0:0:
64,192,44088,128,8,44413:0:0:0:0:
448,192,44413,128,8,44737:0:0:0:0:
64,192,44737,1,8,0:0:0:0:
192,192,44899,1,2,0:0:0:0:
320,192,45061,1,2,0:0:0:0:
448,192,45386,1,6,0:0:0:0:
320,192,45710,1,2,0:0:0:0:
192,192,46034,1,2,0:0:0:0:
448,192,46359,1,2,0:0:0:0:
64,192,46521,1,2,0:0:0:0:
192,192,47007,1,2,0:0:0:0:
320,192,47332,1,2,0:0:0:0:
448,192,47656,1,2,0:0:0:0:
192,192,47980,1,2,0:0:0:0:
192,192,48305,1,0,0:0:0:0:
320,192,48629,1,0,0:0:0:0:
192,192,48791,1,0,0:0:0:0:
448,192,48953,1,2,0:0:0:0:
448,192,49277,1,2,0:0:0:0:
64,192,49602,1,2,0:0:0:0:
64,192,49926,1,2,0:0:0:0:
320,192,50250,1,2,0:0:0:0:
192,192,50575,1,2,0:0:0:0:
64,192,50899,1,2,0:0:0:0:
192,192,51061,1,8,0:0:0:0:
448,192,51386,1,2,0:0:0:0:
320,192,51548,1,8,0:0:0:0:
192,192,51872,1,2,0:0:0:0:
320,192,52034,1,12,0:0:0:0:
64,192,52359,1,2,0:0:0:0:
448,192,52521,1,12,0:0:0:0:
320,192,52683,1,2,0:0:0:0:
192,192,53007,128,6,54467:0:0:0:0:
320,192,54467,128,0,55764:0:0:0:0:
64,192,55764,1,0,0:0:0:60:Hat Close.wav
448,192,56250,1,0,0:0:0:0:
320,192,57061,1,0,0:0:0:60:Hat Close.wav
192,192,57548,1,0,0:0:0:0:
320,192,58359,1,0,0:0:0:60:Hat Close.wav
64,192,58845,1,0,0:0:0:0:
192,192,59656,1,0,0:0:0:60:Hat Close.wav
320,192,60142,1,0,0:0:0:0:
192,192,60953,128,0,61440:0:0:0:60:Hat Close.wav
448,192,61440,1,0,0:0:0:0:
320,192,61926,128,0,62413:0:0:0:60:Hat Close.wav
64,192,62413,1,0,0:0:0:0:
448,192,62737,128,0,66142:0:0:0:0:
192,192,66142,1,2,0:0:0:0:
320,192,66467,1,2,0:0:0:0:
64,192,66791,1,2,0:0:0:0:
448,192,67115,1,2,0:0:0:0:
192,192,67440,1,2,0:0:0:0:
448,192,67764,1,2,0:0:0:0:
320,192,68088,1,2,0:0:0:0:
64,192,68413,1,2,0:0:0:0:
448,192,68737,1,2,0:0:0:0:
64,192,69061,1,2,0:0:0:0:
320,192,69386,1,2,0:0:0:0:
192,192,69710,1,2,0:0:0:0:
320,192,70034,1,2,0:0:0:0:
64,192,70359,1,2,0:0:0:0:
448,192,70683,1,2,0:0:0:0:
192,192,71007,1,2,0:0:0:0:
320,192,71332,1,2,0:0:0:0:
320,192,71656,1,2,0:0:0:0:
64,192,71980,1,2,0:0:0:0:
64,192,72305,1,2,0:0:0:0:
448,192,72629,1,2,0:0:0:0:
448,192,72953,1,2,0:0:0:0:
192,192,73277,1,2,0:0:0:0:
192,192,73602,1,2,0:0:0:0:
320,192,73926,1,2,0:0:0:0:
320,192,74250,1,2,0:0:0:0:
448,192,74575,1,2,0:0:0:0:
448,192,74899,1,2,0:0:0:0:
64,192,75223,1,2,0:0:0:0:
64,192,75548,1,2,0:0:0:0:
192,192,75872,128,2,76196:0:0:0:0:
320,192,76196,1,2,0:0:0:0:
64,192,76521,1,2,0:0:0:0:
448,192,76521,1,8,0:0:0:0:
448,192,76845,1,0,0:0:0:70:Snare1.wav
64,192,77169,1,0,0:0:0:70:Snare1.wav
448,192,77494,1,0,0:0:0:70:Snare1.wav
192,192,77818,1,10,0:0:0:0:
320,192,78142,1,0,0:0:0:70:Snare1.wav
192,192,78467,1,0,0:0:0:70:Snare1.wav
448,192,78791,1,0,0:0:0:70:Snare1.wav
64,192,79115,128,2,79764:0:0:0:0:
448,192,79764,128,2,80413:0:0:0:0:
192,192,80413,128,2,81061:0:0:0:0:
320,192,81061,1,0,0:0:0:70:Snare2.wav
448,192,81061,1,0,0:0:0:0:
64,192,81386,1,0,0:0:0:70:Snare2.wav
192,192,81386,1,0,0:0:0:0:
320,192,81710,128,0,82034:0:0:0:0:
192,192,82034,1,2,0:0:0:0:
64,192,82359,1,2,0:0:0:0:
320,192,82683,1,2,0:0:0:0:
192,192,83007,1,2,0:0:0:0:
448,192,83332,1,2,0:0:0:0:
64,192,83656,1,2,0:0:0:0:
448,192,83980,1,0,0:0:0:40:drum.wav
192,192,84305,128,0,84629:0:0:0:20:drum.wav
320,192,84629,1,2,0:0:0:0:
64,192,84953,1,2,0:0:0:0:
448,192,85277,1,2,0:0:0:0:
192,192,85602,1,2,0:0:0:0:
320,192,85926,1,2,0:0:0:0:
192,192,86250,1,2,0:0:0:0:
448,192,86575,128,0,86899:0:0:0:40:drum.wav
320,192,86899,128,0,87223:0:0:0:40:drum.wav
64,192,87223,1,2,0:0:0:0:
192,192,87548,1,2,0:0:0:0:
448,192,87872,1,2,0:0:0:0:
320,192,88196,1,2,0:0:0:0:
192,192,88521,1,2,0:0:0:0:
64,192,88845,1,2,0:0:0:0:
320,192,89169,1,2,0:0:0:0:
448,192,89494,1,2,0:0:0:0:
192,192,89818,1,2,0:0:0:0:
320,192,89980,1,8,0:0:0:0:
192,192,90305,1,2,0:0:0:0:
320,192,90467,1,8,0:0:0:0:
64,192,90791,1,2,0:0:0:0:
448,192,90953,1,12,0:0:0:0:
64,192,91277,1,2,0:0:0:0:
320,192,91440,1,8,0:0:0:0:
320,192,91764,1,12,0:0:0:0:
192,192,92088,128,2,92413:0:0:0:0:
448,192,92413,1,2,0:0:0:0:
64,192,92737,128,8,93061:0:0:0:0:
320,192,93061,128,8,93386:0:0:0:0:
192,192,93386,128,8,93710:0:0:0:0:
64,192,93710,128,8,94034:0:0:0:0:
448,192,94034,1,8,0:0:0:0:
320,192,94196,1,2,0:0:0:0:
192,192,94359,1,2,0:0:0:0:
448,192,94683,1,2,0:0:0:0:
64,192,95007,1,2,0:0:0:0:
448,192,95332,1,2,0:0:0:0:
192,192,95656,1,2,0:0:0:0:
320,192,95980,1,2,0:0:0:0:
192,192,96142,1,2,0:0:0:0:
64,192,96305,1,2,0:0:0:0:
448,192,96629,1,2,0:0:0:0:
320,192,96953,1,2,0:0:0:0:
64,192,97277,1,2,0:0:0:0:
192,192,97440,1,0,0:0:0:0:
320,192,97602,1,0,0:0:0:0:
320,192,97926,1,0,0:0:0:0:
64,192,98088,1,0,0:0:0:0:
448,192,98250,1,2,0:0:0:0:
192,192,98575,1,2,0:0:0:0:
320,192,98899,1,2,0:0:0:0:
64,192,99223,1,2,0:0:0:0:
448,192,99548,1,2,0:0:0:0:
192,192,99872,1,2,0:0:0:0:
320,192,100196,1,2,0:0:0:0:
64,192,100359,1,8,0:0:0:0:
448,192,100683,1,2,0:0:0:0:
192,192,100845,1,8,0:0:0:0:
64,192,101169,1,2,0:0:0:0:
320,192,101332,1,8,0:0:0:0:
448,192,101656,1,2,0:0:0:0:
192,192,101818,1,8,0:0:0:0:
448,192,101980,1,2,0:0:0:0:
320,192,102305,128,6,103764:0:0:0:0:
192,192,103764,128,0,105061:0:0:0:0:
448,192,105061,1,0,0:0:0:0:
64,192,105710,1,0,0:0:0:0:
320,192,106359,128,0,107007:0:0:0:0:
448,192,107007,1,0,0:0:0:0:
192,192,107332,1,0,0:0:0:0:
64,192,107656,128,0,108305:0:0:0:0:
448,192,108305,128,0,108953:0:0:0:0:
64,192,108953,1,0,0:0:0:0:
320,192,109277,1,0,0:0:0:0:
192,192,109602,128,0,110007:0:0:0:0:
448,192,110007,128,0,110575:0:0:0:0:
