osu file format v14

[General]
AudioFilename: audio.mp3
AudioLeadIn: 0
PreviewTime: 32408
Countdown: 0
SampleSet: Soft
StackLeniency: 0.7
Mode: 3
LetterboxInBreaks: 0
SpecialStyle: 0
WidescreenStoryboard: 0

[Editor]
DistanceSpacing: 1
BeatDivisor: 4
GridSize: 4
TimelineZoom: 2

[Metadata]
Title:Nano Letters
TitleUnicode:Nano Letters
Artist:kaon
ArtistUnicode:kaon
Creator:Ilham
Version:Master
Source:Lanota
Tags:Noxy Video Game Gothic Hardcore Rock Instrumental Secret Library Selection Vol. 2 Machinery Land O2i3 kaonizer Syadow- ML-ysg
BeatmapID:3164893
BeatmapSetID:1547267

[Difficulty]
HPDrainRate:8
CircleSize:4
OverallDifficulty:8
ApproachRate:5
SliderMultiplier:1.4
SliderTickRate:1

[Events]
//Background and Video events
0,0,"bg.jpg",0,0
//Break Periods
//Storyboard Layer 0 (Background)
//Storyboard Layer 1 (Fail)
//Storyboard Layer 2 (Pass)
//Storyboard Layer 3 (Foreground)
//Storyboard Layer 4 (Overlay)
//Storyboard Sound Samples

[TimingPoints]
1278,324.324324324324,4,2,1,30,1,0
6467,-100,4,2,1,60,0,0
14250,-100,4,2,1,30,0,0
22034,-100,4,2,1,60,0,0
33061,-100,4,2,1,60,0,1
55764,-100,4,2,1,30,0,0
66142,-100,4,2,1,60,0,0
81710,-100,4,2,1,60,0,1
105061,-100,4,2,1,30,0,0

[HitObjects]
320,192,953,128,0,1278:0:0:0:0:
64,192,1278,1,0,0:0:0:0:
448,192,1278,1,0,0:0:0:0:
320,192,1602,1,0,0:0:0:0:
64,192,1764,1,0,0:0:0:0:
192,192,1845,1,0,0:0:0:0:
320,192,1926,1,0,0:0:0:0:
448,192,1926,1,0,0:0:0:0:
320,192,2250,1,0,0:0:0:0:
192,192,2413,1,0,0:0:0:0:
320,192,2494,1,0,0:0:0:0:
64,192,2575,1,0,0:0:0:0:
448,192,2575,1,0,0:0:0:0:
192,192,2737,1,0,0:0:0:0:
320,192,2899,1,0,0:0:0:0:
448,192,3061,1,0,0:0:0:0:
64,192,3223,1,0,0:0:0:0:
192,192,3223,1,0,0:0:0:0:
320,192,3386,1,0,0:0:0:0:
192,192,3548,1,0,0:0:0:0:
320,192,3791,1,0,0:0:0:0:
64,192,3872,1,0,0:0:0:0:
448,192,3872,1,0,0:0:0:0:
192,192,4034,1,0,0:0:0:0:
64,192,4196,1,0,0:0:0:0:
448,192,4359,1,0,0:0:0:0:
192,192,4521,1,0,0:0:0:0:
320,192,4521,1,0,0:0:0:0:
64,192,4683,1,0,0:0:0:0:
448,192,4845,1,0,0:0:0:0:
320,192,5007,1,0,0:0:0:0:
192,192,5169,1,0,0:0:0:0:
448,192,5169,128,0,5494:0:0:0:0:
64,192,5332,1,0,0:0:0:0:
192,192,5413,1,0,0:0:0:0:
64,192,5494,1,0,0:0:0:0:
320,192,5494,128,0,5818:0:0:0:0:
192,192,5656,1,0,0:0:0:0:
64,192,5818,128,0,6467:0:0:0:0:
448,192,5818,1,0,0:0:0:0:
320,192,6142,1,0,0:0:0:0:
192,192,6467,1,2,0:0:0:0:
320,192,6467,1,0,0:0:0:30:soft-hitfinish.wav
448,192,6467,1,0,0:0:0:0:
64,192,6791,1,0,0:0:0:40:Clap.wav
448,192,6791,1,0,0:0:0:0:
192,192,6953,1,0,0:0:0:0:
320,192,7034,1,0,0:0:0:0:
64,192,7115,128,0,7440:0:0:0:40:Clap.wav
448,192,7115,1,0,0:0:0:0:
320,192,7440,128,0,7521:0:0:0:40:Clap.wav
448,192,7440,1,0,0:0:0:0:
192,192,7521,1,0,0:0:0:0:
448,192,7602,128,0,7764:0:0:0:0:
64,192,7764,128,2,7845:0:0:0:0:
192,192,7764,1,0,0:0:0:0:
320,192,7764,1,0,0:0:0:0:
64,192,7926,1,0,0:0:0:30:Clap.wav
192,192,7926,128,0,8007:0:0:0:0:
320,192,8088,128,0,8169:0:0:0:30:Clap.wav
448,192,8088,1,0,0:0:0:0:
320,192,8250,1,0,0:0:0:30:Clap.wav
448,192,8250,128,0,8332:0:0:0:0:
64,192,8413,128,0,8494:0:0:0:30:Clap.wav
192,192,8413,1,0,0:0:0:0:
64,192,8575,1,0,0:0:0:30:Clap.wav
192,192,8575,128,0,8656:0:0:0:0:
320,192,8737,128,0,9061:0:0:0:30:Clap.wav
448,192,8737,128,0,9061:0:0:0:0:
64,192,9061,1,2,0:0:0:0:
192,192,9061,1,0,0:0:0:0:
320,192,9223,1,0,0:0:0:0:
192,192,9305,1,0,0:0:0:0:
64,192,9386,1,0,0:0:0:0:
448,192,9386,1,0,0:0:0:0:
192,192,9548,1,0,0:0:0:0:
320,192,9548,1,0,0:0:0:0:
64,192,9710,1,0,0:0:0:100:Snare1.wav
320,192,9710,1,0,0:0:0:0:
448,192,9710,1,0,0:0:0:0:
192,192,9872,1,0,0:0:0:0:
64,192,10034,1,0,0:0:0:0:
448,192,10034,128,0,10359:0:0:0:0:
192,192,10359,1,2,0:0:0:0:
320,192,10359,1,0,0:0:0:0:
64,192,10521,1,8,0:0:0:0:
192,192,10521,1,0,0:0:0:60:Fast Cymbal.wav
448,192,10521,1,0,0:0:0:0:
320,192,10683,1,2,0:0:0:0:
448,192,10683,1,0,0:0:0:0:
192,192,10764,1,2,0:0:0:0:
64,192,10845,1,8,0:0:0:0:
320,192,10845,1,0,0:0:0:60:Fast Cymbal.wav
448,192,10845,1,0,0:0:0:0:
64,192,11169,1,2,0:0:0:0:
192,192,11169,128,4,11737:0:0:0:0:
448,192,11169,128,0,14250:0:0:0:0:
64,192,11656,1,0,0:0:0:0:
320,192,11737,128,0,14250:0:0:0:0:
64,192,14250,1,0,0:0:0:0:
192,192,14250,1,0,0:0:0:0:
448,192,14575,128,0,14737:0:0:0:0:
192,192,14899,128,0,15061:0:0:0:0:
320,192,15061,128,0,15223:0:0:0:0:
320,192,15386,128,0,15710:0:0:0:0:
64,192,15872,128,0,16034:0:0:0:0:
192,192,16196,128,0,16359:0:0:0:0:
64,192,16521,128,0,16683:0:0:0:0:
448,192,16593,1,0,0:0:0:0:
320,192,16665,1,0,0:0:0:0:
192,192,16737,1,0,0:0:0:0:
64,192,16845,1,0,0:0:0:0:
448,192,16845,1,0,0:0:0:0:
64,192,17169,128,0,17332:0:0:0:0:
320,192,17494,128,0,17818:0:0:0:0:
192,192,17656,128,0,17818:0:0:0:0:
64,192,17818,1,0,0:0:0:0:
448,192,17980,128,0,18305:0:0:0:0:
192,192,18305,1,0,0:0:0:0:
320,192,18467,128,0,18629:0:0:0:0:
64,192,18629,1,0,0:0:0:0:
192,192,18791,128,0,19115:0:0:0:0:
320,192,18953,128,0,19115:0:0:0:0:
448,192,19115,128,0,19440:0:0:0:0:
64,192,19440,1,0,0:0:0:0:
320,192,19440,1,0,0:0:0:0:
64,192,19764,128,0,19926:0:0:0:0:
320,192,19926,1,0,0:0:0:0:
64,192,20088,128,0,20413:0:0:0:0:
192,192,20250,128,0,20413:0:0:0:0:
320,192,20413,1,0,0:0:0:0:
192,192,20575,128,0,20899:0:0:0:0:
448,192,20737,1,0,0:0:0:0:
64,192,20899,1,0,0:0:0:0:
320,192,20899,1,0,0:0:0:0:
192,192,21061,1,0,0:0:0:0:
448,192,21061,1,0,0:0:0:0:
320,192,21223,1,0,0:0:0:0:
448,192,21223,1,0,0:0:0:0:
64,192,21386,1,0,0:0:0:0:
320,192,21386,1,0,0:0:0:0:
64,192,21548,1,0,0:0:0:0:
192,192,21548,1,0,0:0:0:0:
192,192,21710,1,0,0:0:0:0:
448,192,21710,1,0,0:0:0:0:
320,192,21872,1,0,0:0:0:0:
192,192,21953,1,0,0:0:0:0:
64,192,22034,1,2,0:0:0:0:
448,192,22034,128,0,22196:0:0:0:0:
320,192,22196,1,0,0:0:0:0:
64,192,22359,1,2,0:0:0:0:
192,192,22359,128,0,22521:0:0:0:0:
320,192,22521,1,0,0:0:0:0:
64,192,22683,128,2,22845:0:0:0:0:
448,192,22683,1,0,0:0:0:0:
192,192,22845,1,0,0:0:0:0:
320,192,22845,128,0,23007:0:0:0:0:
192,192,23007,128,2,23169:0:0:0:0:
448,192,23007,1,0,0:0:0:0:
64,192,23169,1,0,0:0:0:0:
448,192,23169,128,0,23332:0:0:0:0:
64,192,23332,1,2,0:0:0:0:
320,192,23332,128,0,23494:0:0:0:0:
192,192,23494,1,0,0:0:0:0:
64,192,23656,128,2,23818:0:0:0:0:
448,192,23656,1,0,0:0:0:0:
320,192,23818,1,0,0:0:0:0:
192,192,23980,128,2,24142:0:0:0:0:
448,192,23980,1,0,0:0:0:0:
64,192,24142,1,0,0:0:0:0:
320,192,24142,128,0,24305:0:0:0:0:
64,192,24305,1,2,0:0:0:0:
448,192,24305,128,0,24467:0:0:0:0:
192,192,24467,1,0,0:0:0:0:
64,192,24629,128,2,24791:0:0:0:0:
448,192,24629,1,0,0:0:0:0:
320,192,24791,1,0,0:0:0:0:
192,192,24953,1,2,0:0:0:0:
448,192,24953,128,0,25115:0:0:0:0:
320,192,25115,1,0,0:0:0:0:
64,192,25277,128,2,25440:0:0:0:0:
448,192,25277,1,0,0:0:0:0:
192,192,25440,1,0,0:0:0:0:
448,192,25440,128,0,25521:0:0:0:0:
64,192,25602,128,2,25683:0:0:0:0:
320,192,25602,1,0,0:0:0:0:
64,192,25764,1,0,0:0:0:0:
320,192,25764,128,0,25845:0:0:0:0:
64,192,25926,1,2,0:0:0:0:
448,192,25926,128,0,26007:0:0:0:0:
64,192,26088,128,0,26169:0:0:0:0:
448,192,26088,1,0,0:0:0:0:
192,192,26250,1,2,0:0:0:0:
320,192,26250,128,0,26332:0:0:0:0:
192,192,26413,128,0,26494:0:0:0:0:
448,192,26413,1,0,0:0:0:0:
64,192,26575,1,2,0:0:0:0:
448,192,26575,128,0,26656:0:0:0:0:
64,192,26737,128,0,26818:0:0:0:0:
320,192,26737,1,0,0:0:0:0:
192,192,26899,1,2,0:0:0:0:
448,192,26899,128,0,26980:0:0:0:0:
192,192,27061,1,0,0:0:0:0:
320,192,27142,1,0,0:0:0:0:
64,192,27223,1,2,0:0:0:0:
448,192,27223,1,4,0:0:0:0:
192,192,27386,1,2,0:0:0:0:
448,192,27386,1,0,0:0:0:0:
64,192,27548,1,2,0:0:0:0:
320,192,27548,1,0,0:0:0:0:
192,192,27710,1,2,0:0:0:0:
320,192,27710,1,0,0:0:0:0:
192,192,27872,1,2,0:0:0:0:
448,192,27872,1,0,0:0:0:0:
64,192,28034,1,2,0:0:0:0:
320,192,28034,1,0,0:0:0:0:
192,192,28196,1,2,0:0:0:0:
448,192,28196,1,0,0:0:0:0:
320,192,28359,1,2,0:0:0:0:
448,192,28359,1,0,0:0:0:0:
64,192,28521,1,2,0:0:0:0:
320,192,28521,1,0,0:0:0:0:
192,192,28683,1,2,0:0:0:0:
448,192,28683,1,0,0:0:0:0:
64,192,28845,1,2,0:0:0:0:
320,192,28845,1,0,0:0:0:0:
192,192,29007,1,2,0:0:0:0:
448,192,29007,1,0,0:0:0:0:
64,192,29169,128,2,29332:0:0:0:0:
320,192,29169,128,0,29332:0:0:0:0:
64,192,29494,128,2,29656:0:0:0:0:
448,192,29494,128,0,29656:0:0:0:0:
320,192,29818,1,2,0:0:0:0:
448,192,29818,1,0,0:0:0:0:
64,192,29899,1,2,0:0:0:0:
192,192,29899,1,0,0:0:0:0:
320,192,29980,1,2,0:0:0:0:
448,192,29980,1,0,0:0:0:0:
192,192,30061,1,2,0:0:0:0:
64,192,30142,1,2,0:0:0:0:
448,192,30142,1,0,0:0:0:0:
192,192,30223,1,2,0:0:0:0:
320,192,30223,1,0,0:0:0:0:
64,192,30305,1,2,0:0:0:0:
448,192,30305,1,0,0:0:0:0:
320,192,30386,1,2,0:0:0:0:
64,192,30467,1,2,0:0:0:0:
192,192,30467,1,0,0:0:0:0:
320,192,30548,1,2,0:0:0:0:
448,192,30548,1,0,0:0:0:0:
64,192,30629,1,2,0:0:0:0:
192,192,30629,1,0,0:0:0:0:
320,192,30710,1,2,0:0:0:0:
64,192,30791,128,2,31115:0:0:0:0:
448,192,30791,1,0,0:0:0:0:
320,192,31115,1,2,0:0:0:0:
448,192,31115,1,0,0:0:0:0:
192,192,31196,1,0,0:0:0:0:
448,192,31277,1,0,0:0:0:0:
320,192,31359,1,0,0:0:0:0:
64,192,31440,1,0,0:0:0:50:Clap.wav
192,192,31440,1,0,0:0:0:0:
448,192,31521,1,0,0:0:0:0:
320,192,31602,1,0,0:0:0:0:
192,192,31683,1,0,0:0:0:0:
320,192,31764,1,0,0:0:0:0:
448,192,31845,1,0,0:0:0:0:
64,192,31926,1,0,0:0:0:0:
192,192,32007,1,0,0:0:0:0:
320,192,32088,1,0,0:0:0:50:Clap.wav
448,192,32088,1,0,0:0:0:0:
64,192,32413,1,2,0:0:0:0:
192,192,32413,1,0,0:0:0:0:
448,192,32413,128,0,32737:0:0:0:0:
192,192,32737,128,0,33061:0:0:0:0:
64,192,33061,1,8,0:0:0:0:
320,192,33061,1,4,0:0:0:0:
448,192,33061,1,0,0:0:0:0:
192,192,33223,1,0,0:0:0:0:
64,192,33386,1,2,0:0:0:0:
448,192,33386,1,0,0:0:0:0:
192,192,33548,1,2,0:0:0:0:
320,192,33548,1,0,0:0:0:0:
64,192,33710,1,2,0:0:0:0:
448,192,33710,1,0,0:0:0:0:
320,192,33872,1,0,0:0:0:0:
448,192,34034,1,0,0:0:0:0:
320,192,34196,1,0,0:0:0:0:
64,192,34359,1,8,0:0:0:0:
448,192,34359,1,0,0:0:0:0:
192,192,34440,1,0,0:0:0:0:
320,192,34521,1,2,0:0:0:0:
448,192,34521,1,0,0:0:0:0:
192,192,34602,1,2,0:0:0:0:
64,192,34683,1,8,0:0:0:0:
320,192,34683,1,0,0:0:0:0:
448,192,34683,1,0,0:0:0:0:
192,192,34845,1,0,0:0:0:0:
64,192,35007,1,2,0:0:0:0:
448,192,35007,1,0,0:0:0:0:
192,192,35169,1,0,0:0:0:0:
320,192,35332,128,2,35494:0:0:0:0:
448,192,35332,1,0,0:0:0:0:
64,192,35494,1,8,0:0:0:0:
192,192,35494,128,0,35656:0:0:0:0:
448,192,35494,1,0,0:0:0:0:
320,192,35656,128,0,35818:0:0:0:0:
64,192,35818,128,2,35980:0:0:0:0:
448,192,35818,1,0,0:0:0:0:
192,192,35980,128,8,36142:0:0:0:0:
320,192,35980,1,0,0:0:0:0:
448,192,35980,1,0,0:0:0:0:
64,192,36142,128,0,36305:0:0:0:0:
320,192,36467,128,0,36629:0:0:0:0:
64,192,36629,1,2,0:0:0:0:
448,192,36629,1,0,0:0:0:0:
192,192,36710,1,2,0:0:0:0:
320,192,36791,1,2,0:0:0:0:
448,192,36791,128,0,36953:0:0:0:0:
64,192,36953,1,8,0:0:0:0:
192,192,36953,128,0,37115:0:0:0:0:
320,192,36953,1,0,0:0:0:0:
64,192,37115,1,2,0:0:0:0:
448,192,37115,1,0,0:0:0:0:
320,192,37196,1,0,0:0:0:0:
192,192,37277,128,0,37440:0:0:0:0:
320,192,37440,1,0,0:0:0:0:
64,192,37602,1,2,0:0:0:0:
448,192,37602,128,0,37926:0:0:0:0:
64,192,37926,128,0,38250:0:0:0:0:
320,192,38250,1,8,0:0:0:0:
448,192,38250,1,4,0:0:0:0:
192,192,38413,1,0,0:0:0:0:
320,192,38494,1,0,0:0:0:0:
64,192,38575,1,2,0:0:0:0:
192,192,38575,1,0,0:0:0:0:
448,192,38656,1,0,0:0:0:0:
64,192,38737,1,2,0:0:0:0:
320,192,38737,1,0,0:0:0:0:
192,192,38818,1,0,0:0:0:0:
320,192,38899,1,2,0:0:0:0:
448,192,38899,1,0,0:0:0:0:
192,192,38980,1,0,0:0:0:0:
64,192,39061,1,0,0:0:0:0:
320,192,39142,1,0,0:0:0:0:
448,192,39223,1,0,0:0:0:0:
192,192,39305,1,0,0:0:0:0:
320,192,39386,1,0,0:0:0:0:
64,192,39467,1,0,0:0:0:0:
192,192,39548,1,8,0:0:0:0:
320,192,39548,1,0,0:0:0:0:
448,192,39548,1,0,0:0:0:0:
64,192,39629,1,0,0:0:0:0:
320,192,39710,1,2,0:0:0:0:
448,192,39710,1,0,0:0:0:0:
192,192,39791,1,2,0:0:0:0:
64,192,39872,1,8,0:0:0:0:
320,192,39872,1,0,0:0:0:0:
448,192,39872,1,0,0:0:0:0:
192,192,40034,1,0,0:0:0:0:
320,192,40115,1,0,0:0:0:0:
64,192,40196,1,2,0:0:0:0:
448,192,40196,1,0,0:0:0:0:
320,192,40359,1,0,0:0:0:0:
192,192,40521,128,2,40683:0:0:0:0:
448,192,40521,1,0,0:0:0:0:
64,192,40683,1,8,0:0:0:0:
320,192,40683,128,0,40845:0:0:0:0:
448,192,40683,1,0,0:0:0:0:
192,192,40845,128,0,41007:0:0:0:0:
64,192,41007,128,2,41169:0:0:0:0:
320,192,41007,1,0,0:0:0:0:
448,192,41007,1,0,0:0:0:0:
192,192,41169,1,8,0:0:0:0:
320,192,41169,1,0,0:0:0:0:
448,192,41169,128,0,41494:0:0:0:0:
64,192,41494,1,2,0:0:0:0:
192,192,41494,1,0,0:0:0:0:
64,192,41656,1,8,0:0:0:0:
320,192,41656,1,4,0:0:0:0:
448,192,41656,128,0,41980:0:0:0:0:
64,192,41980,1,2,0:0:0:0:
192,192,41980,1,0,0:0:0:0:
320,192,42061,1,2,0:0:0:0:
64,192,42142,1,8,0:0:0:0:
192,192,42142,1,0,0:0:0:0:
448,192,42142,128,0,42305:0:0:0:0:
64,192,42305,1,2,0:0:0:0:
320,192,42305,1,0,0:0:0:0:
192,192,42467,1,8,0:0:0:0:
320,192,42467,1,4,0:0:0:0:
448,192,42467,128,0,42791:0:0:0:0:
64,192,42791,128,2,43115:0:0:0:0:
320,192,42791,1,0,0:0:0:0:
192,192,43115,128,2,43440:0:0:0:0:
448,192,43115,1,0,0:0:0:0:
64,192,43440,1,8,0:0:0:0:
448,192,43440,1,0,0:0:0:0:
320,192,43521,1,2,0:0:0:0:
192,192,43602,1,2,0:0:0:0:
448,192,43602,1,0,0:0:0:0:
64,192,43683,1,2,0:0:0:0:
320,192,43764,1,8,0:0:0:0:
448,192,43764,1,0,0:0:0:0:
192,192,43845,1,2,0:0:0:0:
64,192,43926,1,2,0:0:0:0:
320,192,43926,1,0,0:0:0:0:
448,192,44007,1,2,0:0:0:0:
64,192,44088,1,8,0:0:0:0:
192,192,44088,1,0,0:0:0:0:
320,192,44169,1,2,0:0:0:0:
192,192,44250,1,2,0:0:0:0:
448,192,44250,1,0,0:0:0:0:
64,192,44332,1,2,0:0:0:0:
320,192,44413,1,8,0:0:0:0:
448,192,44413,1,0,0:0:0:0:
192,192,44494,1,2,0:0:0:0:
64,192,44575,1,2,0:0:0:0:
320,192,44575,1,0,0:0:0:0:
448,192,44656,1,2,0:0:0:0:
64,192,44737,1,8,0:0:0:0:
192,192,44737,1,0,0:0:0:0:
320,192,44818,1,0,0:0:0:0:
64,192,44899,1,2,0:0:0:0:
192,192,44899,1,0,0:0:0:0:
320,192,44980,1,0,0:0:0:0:
64,192,45061,1,2,0:0:0:0:
448,192,45061,1,0,0:0:0:0:
192,192,45223,1,0,0:0:0:0:
320,192,45305,1,0,0:0:0:0:
64,192,45386,1,2,0:0:0:0:
448,192,45386,1,4,0:0:0:0:
320,192,45467,128,0,45710:0:0:0:0:
64,192,45710,1,2,0:0:0:0:
448,192,45710,1,0,0:0:0:0:
192,192,45791,128,0,46034:0:0:0:0:
64,192,46034,1,2,0:0:0:0:
448,192,46034,128,0,46196:0:0:0:0:
192,192,46196,128,0,46359:0:0:0:0:
64,192,46359,1,2,0:0:0:0:
320,192,46359,128,0,46521:0:0:0:0:
64,192,46521,128,2,46926:0:0:0:0:
448,192,46521,1,0,0:0:0:0:
320,192,46845,128,0,46926:0:0:0:0:
192,192,47007,1,2,0:0:0:0:
448,192,47007,128,0,47250:0:0:0:0:
320,192,47169,128,0,47250:0:0:0:0:
320,192,47332,1,2,0:0:0:0:
448,192,47332,128,0,47656:0:0:0:0:
192,192,47656,1,2,0:0:0:0:
320,192,47656,1,0,0:0:0:0:
64,192,47737,128,0,47980:0:0:0:0:
320,192,47980,128,2,48142:0:0:0:0:
448,192,47980,1,0,0:0:0:0:
320,192,48305,128,0,48467:0:0:0:0:
448,192,48467,1,0,0:0:0:0:
192,192,48629,128,0,48791:0:0:0:0:
320,192,48791,128,0,48953:0:0:0:0:
64,192,48953,1,2,0:0:0:0:
448,192,48953,1,0,0:0:0:0:
192,192,49061,1,0,0:0:0:0:
320,192,49169,1,0,0:0:0:0:
192,192,49277,1,2,0:0:0:0:
448,192,49277,1,0,0:0:0:0:
64,192,49386,1,0,0:0:0:0:
320,192,49494,1,0,0:0:0:0:
64,192,49602,1,2,0:0:0:0:
192,192,49602,1,0,0:0:0:0:
448,192,49710,1,0,0:0:0:0:
320,192,49818,1,0,0:0:0:0:
64,192,49926,1,2,0:0:0:0:
192,192,49926,1,0,0:0:0:0:
320,192,50034,1,0,0:0:0:0:
448,192,50142,1,0,0:0:0:0:
64,192,50250,1,2,0:0:0:0:
192,192,50250,128,0,50575:0:0:0:0:
64,192,50575,1,2,0:0:0:0:
448,192,50575,128,0,50737:0:0:0:0:
320,192,50737,128,0,50899:0:0:0:0:
64,192,50899,128,2,51061:0:0:0:0:
448,192,50899,1,0,0:0:0:0:
192,192,51061,128,8,51223:0:0:0:0:
320,192,51061,1,0,0:0:0:0:
448,192,51061,1,0,0:0:0:0:
320,192,51223,128,0,51386:0:0:0:0:
64,192,51386,1,2,0:0:0:0:
448,192,51386,128,0,51548:0:0:0:0:
64,192,51548,128,8,51710:0:0:0:0:
192,192,51548,1,0,0:0:0:0:
320,192,51548,1,0,0:0:0:0:
320,192,51872,1,2,0:0:0:0:
448,192,51872,1,0,0:0:0:0:
64,192,52034,1,8,0:0:0:0:
192,192,52034,128,4,52277:0:0:0:0:
448,192,52034,1,0,0:0:0:0:
64,192,52359,1,2,0:0:0:0:
448,192,52359,1,0,0:0:0:0:
192,192,52440,1,2,0:0:0:0:
64,192,52521,1,8,0:0:0:0:
320,192,52521,1,4,0:0:0:0:
448,192,52521,128,0,52683:0:0:0:0:
192,192,52683,128,2,52926:0:0:0:0:
320,192,52683,1,0,0:0:0:0:
64,192,53007,1,4,0:0:0:0:
320,192,53007,1,2,0:0:0:0:
448,192,53007,128,0,54467:0:0:0:0:
64,192,54467,128,0,55764:0:0:0:0:
448,192,55277,128,0,55764:0:0:0:0:
192,192,55764,1,0,0:0:0:60:Hat Close.wav
320,192,55764,1,0,0:0:0:0:
448,192,55926,1,0,0:0:0:0:
192,192,56088,1,0,0:0:0:60:Hat Close.wav
64,192,56250,1,0,0:0:0:0:
448,192,56250,1,0,0:0:0:0:
320,192,56413,1,0,0:0:0:60:Hat Close.wav
64,192,56575,1,0,0:0:0:0:
192,192,56737,1,0,0:0:0:60:Hat Close.wav
448,192,56899,1,0,0:0:0:0:
320,192,56980,1,0,0:0:0:0:
64,192,57061,1,0,0:0:0:60:Hat Close.wav
192,192,57061,1,0,0:0:0:0:
320,192,57223,1,0,0:0:0:0:
192,192,57386,1,0,0:0:0:60:Hat Close.wav
64,192,57548,1,0,0:0:0:0:
320,192,57548,1,0,0:0:0:0:
448,192,57710,1,0,0:0:0:60:Hat Close.wav
64,192,57872,1,0,0:0:0:0:
320,192,58034,1,0,0:0:0:60:Hat Close.wav
192,192,58196,1,0,0:0:0:0:
320,192,58277,1,0,0:0:0:0:
64,192,58359,1,0,0:0:0:60:Hat Close.wav
448,192,58359,1,0,0:0:0:0:
192,192,58521,1,0,0:0:0:0:
320,192,58683,1,0,0:0:0:60:Hat Close.wav
64,192,58845,1,0,0:0:0:0:
448,192,58845,1,0,0:0:0:0:
192,192,59007,1,0,0:0:0:60:Hat Close.wav
64,192,59169,1,0,0:0:0:0:
320,192,59332,1,0,0:0:0:60:Hat Close.wav
64,192,59494,1,0,0:0:0:0:
192,192,59575,1,0,0:0:0:0:
320,192,59656,1,0,0:0:0:60:Hat Close.wav
448,192,59656,1,0,0:0:0:0:
64,192,59818,1,0,0:0:0:0:
448,192,59980,1,0,0:0:0:60:Hat Close.wav
320,192,60142,128,0,60223:0:0:0:0:
192,192,60223,128,0,60305:0:0:0:0:
64,192,60305,1,0,0:0:0:60:Hat Close.wav
448,192,60305,1,0,0:0:0:0:
320,192,60467,1,0,0:0:0:0:
320,192,60629,1,0,0:0:0:60:Hat Close.wav
192,192,60791,1,0,0:0:0:0:
64,192,60953,128,0,61440:0:0:0:60:Hat Close.wav
192,192,60953,1,0,0:0:0:0:
448,192,61115,1,0,0:0:0:0:
320,192,61277,1,0,0:0:0:60:Hat Close.wav
192,192,61440,1,0,0:0:0:0:
448,192,61440,128,0,61521:0:0:0:0:
320,192,61521,128,0,61602:0:0:0:0:
64,192,61602,1,0,0:0:0:60:Hat Close.wav
320,192,61764,1,0,0:0:0:0:
192,192,61845,1,0,0:0:0:0:
64,192,61926,1,0,0:0:0:60:Hat Close.wav
448,192,61926,128,0,62413:0:0:0:0:
320,192,62088,1,0,0:0:0:0:
64,192,62250,1,0,0:0:0:60:Hat Close.wav
192,192,62413,1,0,0:0:0:0:
320,192,62413,128,0,62575:0:0:0:0:
448,192,62575,1,0,0:0:0:60:Hat Close.wav
64,192,62737,128,0,66142:0:0:0:0:
320,192,62737,1,0,0:0:0:0:
192,192,62899,1,0,0:0:0:60:Hat Close.wav
448,192,63061,1,0,0:0:0:0:
320,192,63142,1,0,0:0:0:0:
192,192,63223,1,0,0:0:0:60:Hat Close.wav
448,192,63386,1,0,0:0:0:0:
320,192,63548,1,0,0:0:0:60:Hat Close.wav
192,192,63710,1,0,0:0:0:0:
448,192,63872,1,0,0:0:0:60:Hat Close.wav
320,192,64034,1,0,0:0:0:0:
192,192,64196,1,0,0:0:0:60:Hat Close.wav
448,192,64359,1,0,0:0:0:0:
320,192,64440,1,0,0:0:0:0:
448,192,64521,1,0,0:0:0:60:Hat Close.wav
192,192,64683,1,0,0:0:0:0:
320,192,64845,1,0,0:0:0:60:Hat Close.wav
448,192,65007,1,0,0:0:0:0:
192,192,65169,1,0,0:0:0:60:Hat Close.wav
320,192,65332,1,0,0:0:0:0:
448,192,65494,1,0,0:0:0:60:Hat Close.wav
192,192,65656,1,0,0:0:0:0:
320,192,65737,1,0,0:0:0:0:
448,192,65818,128,0,66142:0:0:0:60:Hat Close.wav
192,192,66142,128,2,66629:0:0:0:0:
320,192,66142,1,0,0:0:0:0:
448,192,66305,1,0,0:0:0:0:
64,192,66467,1,2,0:0:0:0:
320,192,66467,1,0,0:0:0:0:
448,192,66629,1,0,0:0:0:0:
64,192,66791,128,2,66953:0:0:0:0:
192,192,66791,1,0,0:0:0:0:
320,192,66953,128,0,67115:0:0:0:0:
192,192,67115,128,2,67277:0:0:0:0:
448,192,67115,1,0,0:0:0:0:
64,192,67277,128,0,67926:0:0:0:0:
320,192,67440,1,2,0:0:0:0:
448,192,67440,1,0,0:0:0:0:
192,192,67602,1,0,0:0:0:0:
320,192,67764,1,2,0:0:0:0:
448,192,67764,1,0,0:0:0:0:
448,192,67926,1,0,0:0:0:0:
320,192,68007,1,0,0:0:0:0:
64,192,68088,128,2,68250:0:0:0:0:
448,192,68088,1,0,0:0:0:0:
320,192,68250,128,0,68413:0:0:0:0:
64,192,68413,1,2,0:0:0:0:
192,192,68413,128,0,68575:0:0:0:0:
448,192,68575,128,0,69223:0:0:0:0:
64,192,68737,1,2,0:0:0:0:
320,192,68737,1,0,0:0:0:0:
64,192,68899,1,0,0:0:0:0:
192,192,69061,1,2,0:0:0:0:
320,192,69061,1,0,0:0:0:0:
192,192,69223,1,0,0:0:0:0:
64,192,69386,1,2,0:0:0:0:
320,192,69386,128,0,69548:0:0:0:0:
64,192,69548,128,0,69710:0:0:0:0:
320,192,69710,1,2,0:0:0:0:
448,192,69710,128,0,69872:0:0:0:0:
64,192,69872,128,0,70196:0:0:0:0:
192,192,70034,1,2,0:0:0:0:
320,192,70034,1,0,0:0:0:0:
448,192,70196,128,0,70359:0:0:0:0:
192,192,70359,1,2,0:0:0:0:
320,192,70359,128,0,70521:0:0:0:0:
64,192,70521,128,0,70845:0:0:0:0:
192,192,70683,128,2,70845:0:0:0:0:
448,192,70683,1,0,0:0:0:0:
320,192,70845,1,0,0:0:0:0:
64,192,71007,1,2,0:0:0:0:
448,192,71007,128,0,71169:0:0:0:0:
192,192,71169,128,0,71332:0:0:0:0:
64,192,71332,1,2,0:0:0:0:
320,192,71332,128,0,71818:0:0:0:0:
448,192,71494,1,0,0:0:0:0:
64,192,71656,1,2,0:0:0:0:
192,192,71656,1,0,0:0:0:0:
448,192,71818,1,0,0:0:0:0:
64,192,71980,1,2,0:0:0:0:
448,192,71980,128,0,72142:0:0:0:0:
192,192,72142,128,0,72305:0:0:0:0:
64,192,72305,1,2,0:0:0:0:
320,192,72305,128,0,72467:0:0:0:0:
448,192,72467,128,0,73115:0:0:0:0:
192,192,72629,1,2,0:0:0:0:
320,192,72629,1,0,0:0:0:0:
64,192,72791,1,0,0:0:0:0:
192,192,72953,1,2,0:0:0:0:
320,192,72953,1,0,0:0:0:0:
64,192,73115,1,0,0:0:0:0:
320,192,73277,128,2,73440:0:0:0:0:
448,192,73277,1,0,0:0:0:0:
64,192,73440,128,0,73602:0:0:0:0:
192,192,73602,128,2,73845:0:0:0:0:
448,192,73602,1,0,0:0:0:0:
192,192,73926,128,2,74250:0:0:0:0:
320,192,73926,1,0,0:0:0:0:
448,192,74088,1,0,0:0:0:0:
64,192,74250,1,2,0:0:0:0:
320,192,74250,1,0,0:0:0:0:
448,192,74413,1,0,0:0:0:0:
192,192,74575,128,2,74737:0:0:0:0:
320,192,74575,1,0,0:0:0:0:
448,192,74737,128,0,74899:0:0:0:0:
64,192,74899,1,2,0:0:0:0:
320,192,74899,128,0,75061:0:0:0:0:
192,192,75061,128,0,75223:0:0:0:0:
64,192,75223,1,2,0:0:0:0:
320,192,75223,1,0,0:0:0:0:
448,192,75386,128,0,75548:0:0:0:0:
64,192,75548,1,2,0:0:0:0:
192,192,75548,128,0,75710:0:0:0:0:
320,192,75710,128,0,75872:0:0:0:0:
64,192,75872,128,2,76115:0:0:0:0:
448,192,75872,1,0,0:0:0:0:
320,192,76034,128,0,76196:0:0:0:20:drum.wav
64,192,76196,1,2,0:0:0:0:
192,192,76196,1,0,0:0:0:40:drum.wav
448,192,76277,1,0,0:0:0:0:
320,192,76359,1,0,0:0:0:0:
64,192,76521,128,2,76845:0:0:0:0:
192,192,76521,1,8,0:0:0:0:
448,192,76521,1,0,0:0:0:0:
192,192,76845,128,0,77169:0:0:0:70:Snare1.wav
320,192,76845,1,0,0:0:0:0:
448,192,76845,1,0,0:0:0:0:
64,192,77169,1,0,0:0:0:70:Snare1.wav
320,192,77169,1,0,0:0:0:0:
448,192,77169,1,0,0:0:0:0:
192,192,77277,1,0,0:0:0:0:
320,192,77386,1,0,0:0:0:0:
64,192,77494,1,0,0:0:0:70:Snare1.wav
192,192,77494,1,0,0:0:0:0:
448,192,77494,128,0,77818:0:0:0:0:
64,192,77818,1,2,0:0:0:0:
192,192,77818,1,8,0:0:0:0:
320,192,77818,1,0,0:0:0:0:
448,192,77926,1,0,0:0:0:0:
320,192,78034,1,0,0:0:0:0:
64,192,78142,1,0,0:0:0:70:Snare1.wav
192,192,78142,1,0,0:0:0:0:
448,192,78142,1,0,0:0:0:0:
320,192,78250,1,0,0:0:0:0:
192,192,78359,1,0,0:0:0:0:
64,192,78467,1,0,0:0:0:70:Snare1.wav
320,192,78467,1,0,0:0:0:0:
448,192,78467,128,0,78710:0:0:0:0:
192,192,78629,128,0,78791:0:0:0:20:drum.wav
320,192,78791,1,0,0:0:0:70:Snare1.wav
448,192,78791,1,0,0:0:0:40:drum.wav
192,192,78899,1,0,0:0:0:0:
320,192,79007,1,0,0:0:0:0:
64,192,79115,1,2,0:0:0:0:
448,192,79115,1,0,0:0:0:0:
192,192,79223,1,0,0:0:0:50:Snare1.wav
320,192,79223,1,0,0:0:0:0:
64,192,79332,1,0,0:0:0:50:Snare1.wav
448,192,79332,1,0,0:0:0:0:
192,192,79440,1,0,0:0:0:50:Snare1.wav
320,192,79440,1,0,0:0:0:0:
64,192,79548,1,0,0:0:0:50:Snare1.wav
320,192,79656,1,0,0:0:0:50:Snare1.wav
448,192,79656,1,0,0:0:0:0:
64,192,79764,1,2,0:0:0:0:
192,192,79764,1,0,0:0:0:0:
320,192,79872,1,0,0:0:0:50:Snare1.wav
448,192,79872,1,0,0:0:0:0:
64,192,79980,1,0,0:0:0:50:Snare1.wav
192,192,79980,1,0,0:0:0:0:
320,192,80088,128,0,80413:0:0:0:50:Snare1.wav
448,192,80088,1,0,0:0:0:0:
64,192,80413,1,2,0:0:0:0:
192,192,80413,1,0,0:0:0:0:
448,192,80521,1,0,0:0:0:50:Tom1.wav
64,192,80629,1,0,0:0:0:50:Tom2.wav
320,192,80737,1,0,0:0:0:50:Tom2.wav
192,192,80845,1,0,0:0:0:50:Tom2.wav
448,192,80953,1,0,0:0:0:50:Tom3.wav
64,192,81061,1,0,0:0:0:70:Snare2.wav
192,192,81061,1,0,0:0:0:0:
320,192,81061,1,0,0:0:0:0:
320,192,81277,1,2,0:0:0:0:
448,192,81277,1,0,0:0:0:0:
64,192,81386,1,0,0:0:0:70:Snare2.wav
192,192,81386,1,0,0:0:0:0:
448,192,81386,1,0,0:0:0:0:
320,192,81602,1,0,0:0:0:50:Tom3.wav
64,192,81710,1,0,0:0:0:0:
192,192,81710,128,0,81953:0:0:0:0:
448,192,81710,1,0,0:0:0:0:
320,192,81872,128,0,82034:0:0:0:20:drum.wav
64,192,82034,1,2,0:0:0:0:
192,192,82034,1,0,0:0:0:40:drum.wav
448,192,82142,1,0,0:0:0:0:
64,192,82250,1,0,0:0:0:0:
192,192,82359,128,2,82575:0:0:0:0:
320,192,82359,1,0,0:0:0:40:drum.wav
448,192,82575,1,0,0:0:0:0:
64,192,82683,1,2,0:0:0:0:
320,192,82683,1,0,0:0:0:40:drum.wav
192,192,82791,1,0,0:0:0:0:
320,192,82899,1,0,0:0:0:0:
64,192,83007,128,2,83223:0:0:0:0:
448,192,83007,1,0,0:0:0:40:drum.wav
320,192,83223,1,0,0:0:0:0:
64,192,83332,1,2,0:0:0:0:
448,192,83332,1,0,0:0:0:40:drum.wav
192,192,83440,1,0,0:0:0:0:
448,192,83548,1,0,0:0:0:0:
64,192,83656,1,2,0:0:0:0:
320,192,83656,1,0,0:0:0:40:drum.wav
192,192,83764,1,0,0:0:0:0:
320,192,83872,1,0,0:0:0:0:
64,192,83980,1,0,0:0:0:40:drum.wav
448,192,83980,128,0,84305:0:0:0:0:
64,192,84305,128,0,84548:0:0:0:20:drum.wav
192,192,84305,1,0,0:0:0:0:
320,192,84467,128,0,84629:0:0:0:20:drum.wav
64,192,84629,1,2,0:0:0:0:
448,192,84629,1,0,0:0:0:40:drum.wav
192,192,84737,1,0,0:0:0:0:
320,192,84845,1,0,0:0:0:0:
64,192,84953,128,2,85169:0:0:0:0:
192,192,84953,1,0,0:0:0:40:drum.wav
448,192,85169,1,0,0:0:0:0:
192,192,85277,1,2,0:0:0:0:
320,192,85277,1,0,0:0:0:40:drum.wav
448,192,85386,1,0,0:0:0:0:
64,192,85494,1,0,0:0:0:0:
192,192,85602,128,2,85818:0:0:0:0:
320,192,85602,128,0,85818:0:0:0:40:drum.wav
448,192,85818,1,0,0:0:0:0:
64,192,85926,1,2,0:0:0:0:
192,192,85926,1,0,0:0:0:40:drum.wav
320,192,86034,1,0,0:0:0:0:
192,192,86142,1,0,0:0:0:0:
320,192,86250,1,2,0:0:0:0:
448,192,86250,1,0,0:0:0:40:drum.wav
64,192,86359,1,0,0:0:0:0:
192,192,86467,1,0,0:0:0:0:
64,192,86575,128,0,86899:0:0:0:40:drum.wav
320,192,86575,1,0,0:0:0:0:
448,192,86899,128,0,87142:0:0:0:40:drum.wav
192,192,87061,128,0,87223:0:0:0:20:drum.wav
320,192,87223,1,2,0:0:0:0:
448,192,87223,1,0,0:0:0:40:drum.wav
64,192,87332,1,0,0:0:0:0:
192,192,87440,1,0,0:0:0:0:
64,192,87548,1,2,0:0:0:0:
448,192,87548,1,0,0:0:0:40:drum.wav
320,192,87656,1,0,0:0:0:0:
192,192,87764,1,0,0:0:0:0:
320,192,87872,1,2,0:0:0:0:
448,192,87872,1,0,0:0:0:40:drum.wav
64,192,87980,1,0,0:0:0:0:
192,192,88088,1,0,0:0:0:0:
64,192,88196,1,2,0:0:0:0:
448,192,88196,1,0,0:0:0:40:drum.wav
320,192,88305,1,0,0:0:0:0:
448,192,88413,1,0,0:0:0:0:
64,192,88521,1,2,0:0:0:0:
320,192,88521,1,0,0:0:0:40:drum.wav
192,192,88629,1,0,0:0:0:0:
448,192,88737,1,0,0:0:0:0:
64,192,88845,1,2,0:0:0:0:
192,192,88845,1,0,0:0:0:40:drum.wav
320,192,88953,1,0,0:0:0:0:
64,192,89061,1,0,0:0:0:0:
320,192,89169,128,2,89494:0:0:0:0:
448,192,89169,1,0,0:0:0:40:drum.wav
64,192,89494,128,2,89656:0:0:0:0:
192,192,89494,1,0,0:0:0:0:
448,192,89656,1,0,0:0:0:0:
64,192,89818,1,2,0:0:0:0:
192,192,89818,128,0,89980:0:0:0:0:
64,192,89980,1,8,0:0:0:0:
320,192,89980,128,0,90142:0:0:0:0:
448,192,89980,1,0,0:0:0:0:
192,192,90142,128,0,90305:0:0:0:0:
64,192,90305,128,2,90467:0:0:0:0:
448,192,90305,1,0,0:0:0:0:
192,192,90467,1,8,0:0:0:0:
320,192,90467,128,0,90791:0:0:0:0:
448,192,90467,1,0,0:0:0:0:
64,192,90791,1,2,0:0:0:0:
192,192,90791,1,0,0:0:0:0:
64,192,90953,1,8,0:0:0:0:
320,192,90953,1,4,0:0:0:0:
448,192,90953,128,0,91277:0:0:0:0:
64,192,91277,1,2,0:0:0:0:
192,192,91277,1,0,0:0:0:0:
320,192,91359,1,2,0:0:0:0:
64,192,91440,1,8,0:0:0:0:
192,192,91440,1,0,0:0:0:0:
448,192,91440,128,0,91602:0:0:0:0:
192,192,91602,1,2,0:0:0:0:
320,192,91602,1,0,0:0:0:0:
64,192,91764,1,8,0:0:0:0:
320,192,91764,1,4,0:0:0:0:
448,192,91764,128,0,92088:0:0:0:0:
64,192,92088,128,2,92413:0:0:0:0:
192,192,92088,1,0,0:0:0:0:
320,192,92413,128,2,92737:0:0:0:0:
448,192,92413,1,0,0:0:0:0:
64,192,92737,1,8,0:0:0:0:
448,192,92737,1,0,0:0:0:0:
192,192,92818,1,2,0:0:0:0:
320,192,92899,1,2,0:0:0:0:
448,192,92899,1,0,0:0:0:0:
64,192,92980,1,2,0:0:0:0:
192,192,93061,1,8,0:0:0:0:
320,192,93061,1,0,0:0:0:0:
448,192,93142,1,2,0:0:0:0:
64,192,93223,1,2,0:0:0:0:
192,192,93223,1,0,0:0:0:0:
320,192,93305,1,2,0:0:0:0:
192,192,93386,1,8,0:0:0:0:
448,192,93386,1,0,0:0:0:0:
64,192,93467,1,2,0:0:0:0:
320,192,93548,1,2,0:0:0:0:
448,192,93548,1,0,0:0:0:0:
192,192,93629,1,2,0:0:0:0:
64,192,93710,1,8,0:0:0:0:
448,192,93710,1,0,0:0:0:0:
320,192,93791,1,2,0:0:0:0:
64,192,93872,1,2,0:0:0:0:
192,192,93872,1,0,0:0:0:0:
448,192,93953,1,2,0:0:0:0:
64,192,94034,1,8,0:0:0:0:
320,192,94034,1,0,0:0:0:0:
192,192,94115,1,0,0:0:0:0:
320,192,94196,1,2,0:0:0:0:
448,192,94196,1,0,0:0:0:0:
192,192,94277,1,0,0:0:0:0:
64,192,94359,1,2,0:0:0:0:
448,192,94359,1,0,0:0:0:0:
320,192,94521,1,0,0:0:0:0:
64,192,94683,1,2,0:0:0:0:
192,192,94683,1,0,0:0:0:0:
448,192,94683,1,0,0:0:0:0:
320,192,94791,1,0,0:0:0:0:
448,192,94899,1,0,0:0:0:0:
64,192,95007,1,2,0:0:0:0:
192,192,95007,1,0,0:0:0:0:
448,192,95115,1,0,0:0:0:0:
320,192,95223,1,0,0:0:0:0:
64,192,95332,1,2,0:0:0:0:
192,192,95332,1,0,0:0:0:0:
320,192,95440,1,0,0:0:0:0:
448,192,95548,1,0,0:0:0:0:
64,192,95656,1,2,0:0:0:0:
192,192,95656,1,0,0:0:0:0:
448,192,95764,1,0,0:0:0:0:
320,192,95872,1,0,0:0:0:0:
64,192,95980,128,2,96061:0:0:0:0:
192,192,95980,1,0,0:0:0:0:
192,192,96142,1,2,0:0:0:0:
320,192,96142,128,0,96223:0:0:0:0:
64,192,96305,1,2,0:0:0:0:
320,192,96305,1,0,0:0:0:0:
448,192,96305,1,0,0:0:0:0:
192,192,96413,1,0,0:0:0:0:
64,192,96521,1,0,0:0:0:0:
320,192,96629,1,2,0:0:0:0:
448,192,96629,1,0,0:0:0:0:
64,192,96737,1,0,0:0:0:0:
192,192,96845,1,0,0:0:0:0:
320,192,96953,1,2,0:0:0:0:
448,192,96953,128,0,97277:0:0:0:0:
64,192,97277,1,2,0:0:0:0:
320,192,97277,128,0,97359:0:0:0:0:
320,192,97440,128,0,97521:0:0:0:0:
192,192,97602,128,0,97764:0:0:0:0:
320,192,97764,128,0,97926:0:0:0:0:
192,192,97926,128,0,98088:0:0:0:0:
320,192,98088,128,0,98169:0:0:0:0:
448,192,98250,1,2,0:0:0:0:
192,192,98250,128,0,98575:0:0:0:0:
64,192,98575,1,2,0:0:0:0:
320,192,98575,1,0,0:0:0:0:
448,192,98656,1,0,0:0:0:0:
320,192,98737,1,0,0:0:0:0:
448,192,98818,1,0,0:0:0:0:
64,192,98899,1,2,0:0:0:0:
192,192,98899,1,0,0:0:0:0:
320,192,98980,1,0,0:0:0:0:
192,192,99061,1,0,0:0:0:0:
320,192,99142,1,0,0:0:0:0:
64,192,99223,1,2,0:0:0:0:
448,192,99223,1,0,0:0:0:0:
192,192,99305,1,0,0:0:0:0:
64,192,99386,1,0,0:0:0:0:
192,192,99467,1,0,0:0:0:0:
320,192,99548,1,2,0:0:0:0:
448,192,99548,1,0,0:0:0:0:
192,192,99629,128,0,99872:0:0:0:0:
64,192,99872,1,2,0:0:0:0:
448,192,99872,128,0,100034:0:0:0:0:
320,192,100034,128,0,100196:0:0:0:0:
64,192,100196,128,2,100359:0:0:0:0:
192,192,100196,1,0,0:0:0:0:
192,192,100359,128,8,100521:0:0:0:0:
320,192,100359,1,0,0:0:0:0:
448,192,100359,1,0,0:0:0:0:
320,192,100521,128,0,100683:0:0:0:0:
64,192,100683,1,2,0:0:0:0:
448,192,100683,128,0,100845:0:0:0:0:
64,192,100845,128,8,101007:0:0:0:0:
192,192,100845,1,0,0:0:0:0:
320,192,100845,1,0,0:0:0:0:
320,192,101169,1,2,0:0:0:0:
448,192,101169,1,0,0:0:0:0:
64,192,101332,1,8,0:0:0:0:
192,192,101332,128,0,101575:0:0:0:0:
448,192,101332,1,0,0:0:0:0:
320,192,101656,1,2,0:0:0:0:
448,192,101656,1,0,0:0:0:0:
192,192,101737,1,2,0:0:0:0:
64,192,101818,1,8,0:0:0:0:
320,192,101818,1,0,0:0:0:0:
448,192,101818,128,0,101980:0:0:0:0:
64,192,101980,1,2,0:0:0:0:
192,192,101980,128,0,102223:0:0:0:0:
64,192,102305,1,2,0:0:0:0:
320,192,102305,128,4,103764:0:0:0:0:
448,192,102305,1,0,0:0:0:0:
192,192,103764,128,0,105061:0:0:0:0:
320,192,104575,128,0,105061:0:0:0:0:
64,192,105061,1,0,0:0:0:0:
448,192,105061,1,0,0:0:0:0:
192,192,105386,1,0,0:0:0:0:
448,192,105548,1,0,0:0:0:0:
320,192,105629,1,0,0:0:0:0:
64,192,105710,1,0,0:0:0:0:
192,192,105710,1,0,0:0:0:0:
192,192,106034,1,0,0:0:0:0:
320,192,106196,1,0,0:0:0:0:
192,192,106277,1,0,0:0:0:0:
64,192,106359,1,0,0:0:0:0:
448,192,106359,1,0,0:0:0:0:
320,192,106521,1,0,0:0:0:0:
192,192,106683,1,0,0:0:0:0:
320,192,106845,1,0,0:0:0:0:
192,192,107007,1,0,0:0:0:0:
448,192,107007,1,0,0:0:0:0:
64,192,107169,1,0,0:0:0:0:
448,192,107332,1,0,0:0:0:0:
64,192,107494,1,0,0:0:0:0:
320,192,107656,1,0,0:0:0:0:
448,192,107656,1,0,0:0:0:0:
192,192,107818,1,0,0:0:0:0:
448,192,107980,1,0,0:0:0:0:
64,192,108142,1,0,0:0:0:0:
192,192,108305,1,0,0:0:0:0:
448,192,108305,1,0,0:0:0:0:
320,192,108467,1,0,0:0:0:0:
64,192,108629,1,0,0:0:0:0:
448,192,108791,1,0,0:0:0:0:
64,192,108953,128,0,109277:0:0:0:0:
192,192,108953,1,0,0:0:0:0:
448,192,109034,1,0,0:0:0:0:
320,192,109115,1,0,0:0:0:0:
192,192,109196,1,0,0:0:0:0:
320,192,109277,1,0,0:0:0:0:
448,192,109359,1,0,0:0:0:0:
320,192,109440,1,0,0:0:0:0:
192,192,109521,1,0,0:0:0:0:
64,192,109602,128,0,110575:0:0:0:0:
320,192,109602,1,0,0:0:0:0:
320,192,109967,1,0,0:0:0:0:
448,192,110007,128,0,110575:0:0:0:0:
