osu file format v14

[General]
AudioFilename: audio.mp3
AudioLeadIn: 0
PreviewTime: 32408
Countdown: 0
SampleSet: Soft
StackLeniency: 0.7
Mode: 3
LetterboxInBreaks: 0
SpecialStyle: 0
WidescreenStoryboard: 0

[Editor]
DistanceSpacing: 1
BeatDivisor: 4
GridSize: 4
TimelineZoom: 2

[Metadata]
Title:Nano Letters
TitleUnicode:Nano Letters
Artist:kaon
ArtistUnicode:kaon
Creator:Ilham
Version:Acoustic
Source:Lanota
Tags:Noxy Video Game Gothic Hardcore Rock Instrumental Secret Library Selection Vol. 2 Machinery Land O2i3 kaonizer Syadow- ML-ysg
BeatmapID:3162001
BeatmapSetID:1547267

[Difficulty]
HPDrainRate:7
CircleSize:4
OverallDifficulty:7
ApproachRate:5
SliderMultiplier:1.4
SliderTickRate:1

[Events]
//Background and Video events
0,0,"bg.jpg",0,0
//Break Periods
//Storyboard Layer 0 (Background)
//Storyboard Layer 1 (Fail)
//Storyboard Layer 2 (Pass)
//Storyboard Layer 3 (Foreground)
//Storyboard Layer 4 (Overlay)
//Storyboard Sound Samples
Sample,76196,0,"drum.wav",40

[TimingPoints]
1278,324.324324324324,4,2,1,30,1,0
6467,-100,4,2,1,60,0,0
14250,-100,4,2,1,30,0,0
22034,-100,4,2,1,60,0,0
33061,-100,4,2,1,60,0,1
55764,-100,4,2,1,30,0,0
66142,-100,4,2,1,60,0,0
81710,-100,4,2,1,60,0,1
105061,-100,4,2,1,30,0,0

[HitObjects]
64,192,1278,5,0,0:0:0:0:
448,192,1278,1,0,0:0:0:0:
192,192,1602,1,0,0:0:0:0:
320,192,1926,1,0,0:0:0:0:
64,192,2250,1,0,0:0:0:0:
448,192,2575,1,0,0:0:0:0:
320,192,2737,1,0,0:0:0:0:
192,192,2899,1,0,0:0:0:0:
448,192,3061,1,0,0:0:0:0:
320,192,3223,1,0,0:0:0:0:
64,192,3386,1,0,0:0:0:0:
448,192,3548,1,0,0:0:0:0:
448,192,3791,1,0,0:0:0:0:
64,192,3872,1,0,0:0:0:0:
192,192,4034,128,0,4359:0:0:0:0:
448,192,4196,1,0,0:0:0:0:
320,192,4359,1,0,0:0:0:0:
64,192,4521,128,0,5169:0:0:0:0:
448,192,4683,1,0,0:0:0:0:
192,192,4845,1,0,0:0:0:0:
320,192,5007,1,0,0:0:0:0:
448,192,5169,128,0,5494:0:0:0:0:
192,192,5332,1,0,0:0:0:0:
320,192,5494,128,0,5818:0:0:0:0:
64,192,5656,1,0,0:0:0:0:
192,192,5818,128,0,6467:0:0:0:0:
320,192,6142,1,0,0:0:0:0:
64,192,6467,1,2,0:0:0:0:
448,192,6467,1,0,0:0:0:30:soft-hitfinish.wav
320,192,6791,1,0,0:0:0:40:Clap.wav
64,192,7115,1,0,0:0:0:40:Clap.wav
192,192,7440,1,0,0:0:0:40:Clap.wav
320,192,7764,1,2,0:0:0:0:
448,192,7764,1,0,0:0:0:0:
64,192,7926,1,0,0:0:0:30:Clap.wav
320,192,8088,1,0,0:0:0:30:Clap.wav
192,192,8250,1,0,0:0:0:30:Clap.wav
448,192,8413,1,0,0:0:0:30:Clap.wav
64,192,8575,1,0,0:0:0:30:Clap.wav
448,192,8737,1,0,0:0:0:30:Clap.wav
64,192,9061,1,2,0:0:0:0:
192,192,9061,1,0,0:0:0:0:
448,192,9223,1,0,0:0:0:0:
320,192,9386,1,0,0:0:0:0:
192,192,9548,1,0,0:0:0:0:
64,192,9710,1,0,0:0:0:100:Snare1.wav
448,192,9710,128,0,10034:0:0:0:0:
320,192,10034,128,0,10359:0:0:0:0:
64,192,10359,1,2,0:0:0:0:
192,192,10521,1,8,0:0:0:0:
448,192,10521,1,0,0:0:0:60:Fast Cymbal.wav
320,192,10683,1,2,0:0:0:0:
64,192,10845,1,8,0:0:0:0:
192,192,10845,1,0,0:0:0:60:Fast Cymbal.wav
320,192,11169,1,2,0:0:0:0:
448,192,11169,128,4,11656:0:0:0:0:
64,192,11656,128,0,14250:0:0:0:0:
320,192,14250,1,0,0:0:0:0:
448,192,14250,1,0,0:0:0:0:
64,192,14575,1,0,0:0:0:0:
64,192,14899,1,0,0:0:0:0:
448,192,15061,1,0,0:0:0:0:
448,192,15386,128,0,15710:0:0:0:0:
64,192,15872,1,0,0:0:0:0:
448,192,16196,1,0,0:0:0:0:
64,192,16521,1,0,0:0:0:0:
320,192,16737,1,0,0:0:0:0:
64,192,16845,1,0,0:0:0:0:
192,192,16845,1,0,0:0:0:0:
320,192,17169,1,0,0:0:0:0:
320,192,17494,1,0,0:0:0:0:
192,192,17656,1,0,0:0:0:0:
192,192,17980,128,0,18305:0:0:0:0:
64,192,18305,1,0,0:0:0:0:
320,192,18467,1,0,0:0:0:0:
448,192,18629,1,0,0:0:0:0:
192,192,18791,1,0,0:0:0:0:
320,192,18953,1,0,0:0:0:0:
64,192,19115,128,0,19440:0:0:0:0:
192,192,19440,1,0,0:0:0:0:
320,192,19440,1,0,0:0:0:0:
448,192,19764,1,0,0:0:0:0:
448,192,20088,1,0,0:0:0:0:
64,192,20250,1,0,0:0:0:0:
64,192,20575,128,0,20899:0:0:0:0:
320,192,20899,1,0,0:0:0:0:
192,192,21061,1,0,0:0:0:0:
320,192,21223,1,0,0:0:0:0:
64,192,21386,1,0,0:0:0:0:
448,192,21548,1,0,0:0:0:0:
64,192,21710,1,0,0:0:0:0:
64,192,22034,1,2,0:0:0:0:
448,192,22034,1,0,0:0:0:0:
192,192,22359,1,2,0:0:0:0:
320,192,22359,1,0,0:0:0:0:
64,192,22683,1,2,0:0:0:0:
448,192,22683,1,0,0:0:0:0:
192,192,22845,1,0,0:0:0:0:
320,192,23007,1,2,0:0:0:0:
448,192,23007,1,0,0:0:0:0:
192,192,23169,1,0,0:0:0:0:
64,192,23332,1,2,0:0:0:0:
320,192,23332,1,0,0:0:0:0:
192,192,23656,1,2,0:0:0:0:
320,192,23656,1,0,0:0:0:0:
320,192,23980,1,2,0:0:0:0:
448,192,23980,1,0,0:0:0:0:
192,192,24142,1,0,0:0:0:0:
64,192,24305,1,2,0:0:0:0:
320,192,24305,1,0,0:0:0:0:
64,192,24629,1,2,0:0:0:0:
192,192,24629,1,0,0:0:0:0:
320,192,24953,1,2,0:0:0:0:
448,192,24953,1,0,0:0:0:0:
64,192,25277,1,2,0:0:0:0:
192,192,25277,1,0,0:0:0:0:
320,192,25440,1,0,0:0:0:0:
64,192,25602,1,2,0:0:0:0:
448,192,25602,1,0,0:0:0:0:
192,192,25764,1,0,0:0:0:0:
320,192,25926,1,2,0:0:0:0:
448,192,25926,1,0,0:0:0:0:
64,192,26088,1,0,0:0:0:0:
192,192,26250,1,2,0:0:0:0:
448,192,26250,1,0,0:0:0:0:
320,192,26413,1,0,0:0:0:0:
64,192,26575,1,2,0:0:0:0:
192,192,26575,1,0,0:0:0:0:
320,192,26737,1,0,0:0:0:0:
64,192,26899,1,2,0:0:0:0:
192,192,26899,1,0,0:0:0:0:
192,192,27223,1,2,0:0:0:0:
448,192,27223,1,4,0:0:0:0:
320,192,27386,1,2,0:0:0:0:
64,192,27548,1,2,0:0:0:0:
448,192,27548,1,0,0:0:0:0:
192,192,27710,1,2,0:0:0:0:
64,192,27872,1,2,0:0:0:0:
448,192,27872,1,0,0:0:0:0:
192,192,28034,1,2,0:0:0:0:
320,192,28034,1,0,0:0:0:0:
64,192,28196,1,2,0:0:0:0:
448,192,28196,1,0,0:0:0:0:
320,192,28359,1,2,0:0:0:0:
64,192,28521,1,2,0:0:0:0:
192,192,28521,1,0,0:0:0:0:
320,192,28683,1,2,0:0:0:0:
64,192,28845,1,2,0:0:0:0:
448,192,28845,1,0,0:0:0:0:
320,192,29007,1,2,0:0:0:0:
64,192,29169,1,2,0:0:0:0:
192,192,29169,1,0,0:0:0:0:
320,192,29494,1,2,0:0:0:0:
448,192,29494,1,0,0:0:0:0:
64,192,29818,1,2,0:0:0:0:
192,192,29818,1,0,0:0:0:0:
320,192,29980,1,2,0:0:0:0:
448,192,29980,1,0,0:0:0:0:
64,192,30142,1,2,0:0:0:0:
192,192,30142,1,0,0:0:0:0:
320,192,30305,1,2,0:0:0:0:
64,192,30467,1,2,0:0:0:0:
448,192,30467,1,0,0:0:0:0:
192,192,30629,1,2,0:0:0:0:
320,192,30629,1,0,0:0:0:0:
64,192,30791,128,2,31115:0:0:0:0:
448,192,30791,1,0,0:0:0:0:
320,192,31115,1,2,0:0:0:0:
64,192,31440,1,0,0:0:0:50:Clap.wav
320,192,31440,1,0,0:0:0:0:
448,192,31764,1,0,0:0:0:0:
192,192,31926,1,0,0:0:0:0:
320,192,32088,128,0,32413:0:0:0:50:Clap.wav
64,192,32413,128,2,32737:0:0:0:0:
192,192,32413,1,0,0:0:0:0:
448,192,32737,128,0,33061:0:0:0:0:
64,192,33061,1,8,0:0:0:0:
320,192,33061,1,4,0:0:0:0:
192,192,33223,1,0,0:0:0:0:
448,192,33386,1,2,0:0:0:0:
64,192,33548,1,2,0:0:0:0:
448,192,33710,1,2,0:0:0:0:
192,192,33872,1,0,0:0:0:0:
320,192,34034,1,0,0:0:0:0:
192,192,34196,1,0,0:0:0:0:
64,192,34359,1,8,0:0:0:0:
448,192,34359,1,0,0:0:0:0:
320,192,34521,1,2,0:0:0:0:
192,192,34683,1,8,0:0:0:0:
448,192,34683,1,0,0:0:0:0:
192,192,35007,1,2,0:0:0:0:
448,192,35169,1,0,0:0:0:0:
320,192,35332,1,2,0:0:0:0:
64,192,35494,1,8,0:0:0:0:
192,192,35494,1,0,0:0:0:0:
320,192,35656,1,0,0:0:0:0:
64,192,35818,1,2,0:0:0:0:
192,192,35980,1,8,0:0:0:0:
448,192,35980,1,0,0:0:0:0:
320,192,36142,1,0,0:0:0:0:
448,192,36467,1,0,0:0:0:0:
192,192,36629,1,2,0:0:0:0:
320,192,36791,1,2,0:0:0:0:
64,192,36953,1,8,0:0:0:0:
192,192,36953,1,0,0:0:0:0:
448,192,37277,1,0,0:0:0:0:
64,192,37602,1,2,0:0:0:0:
320,192,37602,128,0,37926:0:0:0:0:
192,192,37926,128,0,38250:0:0:0:0:
320,192,38250,1,8,0:0:0:0:
448,192,38250,1,4,0:0:0:0:
64,192,38413,1,0,0:0:0:0:
448,192,38575,1,2,0:0:0:0:
192,192,38737,1,2,0:0:0:0:
448,192,38899,1,2,0:0:0:0:
64,192,39061,1,0,0:0:0:0:
320,192,39223,1,0,0:0:0:0:
192,192,39386,1,0,0:0:0:0:
320,192,39548,1,8,0:0:0:0:
448,192,39548,1,0,0:0:0:0:
64,192,39710,1,2,0:0:0:0:
192,192,39872,1,8,0:0:0:0:
448,192,39872,1,0,0:0:0:0:
320,192,40034,1,0,0:0:0:0:
64,192,40196,1,2,0:0:0:0:
448,192,40521,1,2,0:0:0:0:
64,192,40683,1,8,0:0:0:0:
192,192,40683,1,0,0:0:0:0:
320,192,40845,1,0,0:0:0:0:
64,192,41007,1,2,0:0:0:0:
192,192,41169,1,8,0:0:0:0:
448,192,41169,1,0,0:0:0:0:
320,192,41494,1,2,0:0:0:0:
64,192,41656,1,8,0:0:0:0:
192,192,41656,1,4,0:0:0:0:
448,192,41980,1,2,0:0:0:0:
192,192,42142,1,8,0:0:0:0:
320,192,42142,1,0,0:0:0:0:
64,192,42305,1,2,0:0:0:0:
320,192,42467,1,8,0:0:0:0:
448,192,42467,1,4,0:0:0:0:
64,192,42791,128,2,43115:0:0:0:0:
192,192,42791,1,0,0:0:0:0:
448,192,43115,128,2,43440:0:0:0:0:
64,192,43440,1,8,0:0:0:0:
320,192,43440,1,0,0:0:0:0:
192,192,43602,1,2,0:0:0:0:
64,192,43764,1,8,0:0:0:0:
448,192,43764,1,0,0:0:0:0:
320,192,43926,1,2,0:0:0:0:
192,192,44088,1,8,0:0:0:0:
448,192,44088,1,0,0:0:0:0:
320,192,44250,1,2,0:0:0:0:
64,192,44413,1,8,0:0:0:0:
448,192,44413,1,0,0:0:0:0:
192,192,44575,1,2,0:0:0:0:
64,192,44737,1,8,0:0:0:0:
448,192,44737,1,0,0:0:0:0:
320,192,44899,1,2,0:0:0:0:
192,192,45061,1,2,0:0:0:0:
64,192,45386,1,2,0:0:0:0:
320,192,45386,1,4,0:0:0:0:
192,192,45710,1,2,0:0:0:0:
448,192,45710,1,0,0:0:0:0:
64,192,46034,1,2,0:0:0:0:
192,192,46034,1,0,0:0:0:0:
320,192,46196,1,0,0:0:0:0:
64,192,46359,1,2,0:0:0:0:
448,192,46359,1,0,0:0:0:0:
192,192,46521,1,2,0:0:0:0:
320,192,46521,1,0,0:0:0:0:
320,192,47007,1,2,0:0:0:0:
448,192,47007,1,0,0:0:0:0:
64,192,47332,1,2,0:0:0:0:
448,192,47332,1,0,0:0:0:0:
64,192,47656,1,2,0:0:0:0:
192,192,47656,1,0,0:0:0:0:
320,192,47980,1,2,0:0:0:0:
64,192,48305,1,0,0:0:0:0:
448,192,48467,1,0,0:0:0:0:
192,192,48629,1,0,0:0:0:0:
320,192,48791,1,0,0:0:0:0:
64,192,48953,1,2,0:0:0:0:
192,192,48953,1,0,0:0:0:0:
64,192,49277,1,2,0:0:0:0:
320,192,49277,1,0,0:0:0:0:
192,192,49602,1,2,0:0:0:0:
448,192,49602,1,0,0:0:0:0:
320,192,49926,1,2,0:0:0:0:
448,192,49926,1,0,0:0:0:0:
64,192,50250,128,2,50575:0:0:0:0:
192,192,50250,1,0,0:0:0:0:
320,192,50575,1,2,0:0:0:0:
448,192,50575,1,0,0:0:0:0:
192,192,50737,1,0,0:0:0:0:
448,192,50899,1,2,0:0:0:0:
64,192,51061,1,8,0:0:0:0:
192,192,51061,1,0,0:0:0:0:
320,192,51223,1,0,0:0:0:0:
192,192,51386,1,2,0:0:0:0:
64,192,51548,1,8,0:0:0:0:
448,192,51548,1,0,0:0:0:0:
192,192,51872,1,2,0:0:0:0:
64,192,52034,1,8,0:0:0:0:
448,192,52034,1,4,0:0:0:0:
320,192,52359,1,2,0:0:0:0:
64,192,52521,1,8,0:0:0:0:
448,192,52521,1,4,0:0:0:0:
192,192,52683,1,2,0:0:0:0:
64,192,53007,1,4,0:0:0:0:
320,192,53007,128,2,54467:0:0:0:0:
192,192,54467,128,0,55764:0:0:0:0:
64,192,55764,1,0,0:0:0:60:Hat Close.wav
448,192,55764,1,0,0:0:0:0:
320,192,56250,1,0,0:0:0:0:
64,192,57061,1,0,0:0:0:60:Hat Close.wav
192,192,57061,1,0,0:0:0:0:
448,192,57548,1,0,0:0:0:0:
192,192,58359,1,0,0:0:0:60:Hat Close.wav
320,192,58359,1,0,0:0:0:0:
64,192,58845,1,0,0:0:0:0:
320,192,59656,1,0,0:0:0:60:Hat Close.wav
448,192,59656,1,0,0:0:0:0:
192,192,60142,128,0,60305:0:0:0:0:
320,192,60305,1,0,0:0:0:60:Hat Close.wav
64,192,60467,1,0,0:0:0:0:
448,192,60629,1,0,0:0:0:60:Hat Close.wav
320,192,60791,1,0,0:0:0:0:
64,192,60953,128,0,61440:0:0:0:60:Hat Close.wav
320,192,61440,1,0,0:0:0:0:
192,192,61926,128,0,62413:0:0:0:60:Hat Close.wav
448,192,62413,1,0,0:0:0:0:
320,192,62737,128,0,66142:0:0:0:0:
64,192,63548,1,0,0:0:0:60:Hat Close.wav
448,192,64034,1,0,0:0:0:0:
192,192,64845,1,0,0:0:0:60:Hat Close.wav
448,192,65332,1,0,0:0:0:0:
64,192,66142,128,2,66791:0:0:0:0:
192,192,66142,1,0,0:0:0:0:
448,192,66467,1,2,0:0:0:0:
320,192,66791,1,2,0:0:0:0:
192,192,66953,1,0,0:0:0:0:
320,192,67115,1,2,0:0:0:0:
448,192,67277,128,0,68088:0:0:0:0:
64,192,67440,1,2,0:0:0:0:
320,192,67764,1,2,0:0:0:0:
192,192,68088,1,2,0:0:0:0:
320,192,68250,1,0,0:0:0:0:
64,192,68413,1,2,0:0:0:0:
192,192,68575,128,0,69386:0:0:0:0:
448,192,68737,1,2,0:0:0:0:
64,192,69061,1,2,0:0:0:0:
448,192,69386,1,2,0:0:0:0:
320,192,69548,1,0,0:0:0:0:
192,192,69710,1,2,0:0:0:0:
320,192,69872,128,0,70359:0:0:0:0:
64,192,70034,1,2,0:0:0:0:
448,192,70359,1,2,0:0:0:0:
192,192,70521,1,0,0:0:0:0:
64,192,70683,1,2,0:0:0:0:
448,192,71007,1,2,0:0:0:0:
64,192,71169,1,0,0:0:0:0:
192,192,71332,1,2,0:0:0:0:
320,192,71332,128,0,71980:0:0:0:0:
448,192,71656,1,2,0:0:0:0:
64,192,71980,1,2,0:0:0:0:
192,192,72142,1,0,0:0:0:0:
320,192,72305,1,2,0:0:0:0:
448,192,72467,128,0,73277:0:0:0:0:
64,192,72629,1,2,0:0:0:0:
320,192,72953,1,2,0:0:0:0:
64,192,73277,1,2,0:0:0:0:
192,192,73440,1,0,0:0:0:0:
320,192,73602,128,2,73926:0:0:0:0:
192,192,73926,128,2,74575:0:0:0:0:
448,192,73926,1,0,0:0:0:0:
320,192,74250,1,2,0:0:0:0:
64,192,74575,1,2,0:0:0:0:
320,192,74737,1,0,0:0:0:0:
192,192,74899,1,2,0:0:0:0:
64,192,75061,128,0,75386:0:0:0:0:
320,192,75223,1,2,0:0:0:0:
192,192,75386,1,0,0:0:0:0:
320,192,75548,1,2,0:0:0:0:
192,192,75710,1,0,0:0:0:0:
448,192,75872,128,2,76196:0:0:0:0:
64,192,76196,1,2,0:0:0:0:
64,192,76521,1,2,0:0:0:0:
448,192,76521,1,8,0:0:0:0:
192,192,76845,1,0,0:0:0:70:Snare1.wav
448,192,76845,1,0,0:0:0:0:
192,192,77169,1,0,0:0:0:70:Snare1.wav
320,192,77169,1,0,0:0:0:0:
320,192,77494,1,0,0:0:0:70:Snare1.wav
448,192,77494,1,0,0:0:0:0:
64,192,77818,1,2,0:0:0:0:
448,192,77818,1,8,0:0:0:0:
64,192,78142,1,0,0:0:0:70:Snare1.wav
192,192,78142,1,0,0:0:0:0:
192,192,78467,1,0,0:0:0:70:Snare1.wav
320,192,78467,1,0,0:0:0:0:
64,192,78791,1,0,0:0:0:70:Snare1.wav
448,192,78791,1,0,0:0:0:40:drum.wav
192,192,79115,128,2,79440:0:0:0:0:
320,192,79115,1,0,0:0:0:0:
64,192,79440,1,0,0:0:0:50:Snare1.wav
448,192,79440,128,0,79764:0:0:0:0:
64,192,79764,128,2,80088:0:0:0:0:
320,192,79764,1,0,0:0:0:0:
192,192,80088,1,0,0:0:0:50:Snare1.wav
320,192,80088,128,0,80413:0:0:0:0:
64,192,80413,1,2,0:0:0:0:
448,192,80413,128,0,81061:0:0:0:0:
64,192,81061,1,0,0:0:0:70:Snare2.wav
192,192,81061,1,0,0:0:0:0:
320,192,81277,1,2,0:0:0:0:
64,192,81386,1,0,0:0:0:70:Snare2.wav
448,192,81386,1,0,0:0:0:0:
320,192,81602,1,0,0:0:0:50:Tom3.wav
192,192,81710,1,0,0:0:0:0:
64,192,82034,1,2,0:0:0:0:
448,192,82034,1,0,0:0:0:40:drum.wav
320,192,82359,1,2,0:0:0:0:
192,192,82359,128,0,82683:0:0:0:40:drum.wav
64,192,82683,1,2,0:0:0:0:
448,192,82683,1,0,0:0:0:40:drum.wav
64,192,83007,128,2,83332:0:0:0:0:
320,192,83007,1,0,0:0:0:40:drum.wav
192,192,83332,1,2,0:0:0:0:
448,192,83332,1,0,0:0:0:40:drum.wav
192,192,83656,128,2,83980:0:0:0:0:
320,192,83656,1,0,0:0:0:40:drum.wav
64,192,83980,1,0,0:0:0:40:drum.wav
320,192,83980,128,0,84305:0:0:0:0:
64,192,84305,128,0,84629:0:0:0:20:drum.wav
448,192,84305,1,0,0:0:0:0:
320,192,84629,1,2,0:0:0:0:
448,192,84629,1,0,0:0:0:40:drum.wav
64,192,84953,128,2,85277:0:0:0:0:
320,192,84953,1,0,0:0:0:40:drum.wav
192,192,85277,1,2,0:0:0:0:
448,192,85277,1,0,0:0:0:40:drum.wav
192,192,85602,1,2,0:0:0:0:
320,192,85602,128,0,85926:0:0:0:40:drum.wav
64,192,85926,1,2,0:0:0:0:
448,192,85926,1,0,0:0:0:40:drum.wav
320,192,86250,1,2,0:0:0:0:
448,192,86250,128,0,86575:0:0:0:40:drum.wav
64,192,86575,1,0,0:0:0:40:drum.wav
192,192,86575,128,0,86899:0:0:0:0:
320,192,86899,128,0,87223:0:0:0:40:drum.wav
448,192,86899,1,0,0:0:0:0:
64,192,87223,1,2,0:0:0:0:
448,192,87223,1,0,0:0:0:40:drum.wav
64,192,87548,1,2,0:0:0:0:
192,192,87548,1,0,0:0:0:40:drum.wav
320,192,87710,1,0,0:0:0:0:
192,192,87872,1,2,0:0:0:0:
448,192,87872,1,0,0:0:0:40:drum.wav
64,192,88196,1,2,0:0:0:0:
448,192,88196,1,0,0:0:0:40:drum.wav
320,192,88359,1,0,0:0:0:0:
64,192,88521,1,2,0:0:0:0:
192,192,88521,1,0,0:0:0:40:drum.wav
192,192,88845,1,2,0:0:0:0:
448,192,88845,1,0,0:0:0:40:drum.wav
320,192,89007,1,0,0:0:0:0:
64,192,89169,1,2,0:0:0:0:
448,192,89169,1,0,0:0:0:40:drum.wav
192,192,89494,1,2,0:0:0:0:
320,192,89494,1,0,0:0:0:0:
448,192,89818,1,2,0:0:0:0:
64,192,89980,1,8,0:0:0:0:
320,192,89980,1,0,0:0:0:0:
192,192,90142,1,0,0:0:0:0:
64,192,90305,1,2,0:0:0:0:
192,192,90467,1,8,0:0:0:0:
448,192,90467,1,0,0:0:0:0:
320,192,90791,1,2,0:0:0:0:
64,192,90953,1,8,0:0:0:0:
448,192,90953,1,4,0:0:0:0:
192,192,91277,128,2,91440:0:0:0:0:
64,192,91440,1,8,0:0:0:0:
448,192,91440,1,0,0:0:0:0:
320,192,91602,1,2,0:0:0:0:
192,192,91764,1,8,0:0:0:0:
448,192,91764,1,4,0:0:0:0:
64,192,92088,1,2,0:0:0:0:
320,192,92088,128,0,92413:0:0:0:0:
192,192,92413,1,2,0:0:0:0:
448,192,92413,128,0,92737:0:0:0:0:
64,192,92737,1,8,0:0:0:0:
320,192,92737,1,0,0:0:0:0:
192,192,92899,1,2,0:0:0:0:
64,192,93061,1,8,0:0:0:0:
448,192,93061,1,0,0:0:0:0:
320,192,93223,1,2,0:0:0:0:
192,192,93386,1,8,0:0:0:0:
448,192,93386,1,0,0:0:0:0:
320,192,93548,1,2,0:0:0:0:
64,192,93710,1,8,0:0:0:0:
448,192,93710,1,0,0:0:0:0:
192,192,93872,1,2,0:0:0:0:
64,192,94034,1,8,0:0:0:0:
320,192,94034,1,0,0:0:0:0:
192,192,94196,1,2,0:0:0:0:
320,192,94359,1,2,0:0:0:0:
64,192,94683,1,2,0:0:0:0:
448,192,94683,1,0,0:0:0:0:
192,192,95007,1,2,0:0:0:0:
448,192,95007,1,0,0:0:0:0:
320,192,95332,1,2,0:0:0:0:
448,192,95332,1,0,0:0:0:0:
192,192,95656,1,2,0:0:0:0:
64,192,95656,1,0,0:0:0:0:
448,192,95980,1,2,0:0:0:0:
192,192,95980,1,0,0:0:0:0:
320,192,96142,1,2,0:0:0:0:
64,192,96142,1,0,0:0:0:0:
448,192,96305,1,2,0:0:0:0:
192,192,96305,1,0,0:0:0:0:
64,192,96629,1,2,0:0:0:0:
320,192,96629,1,0,0:0:0:0:
64,192,96953,1,2,0:0:0:0:
448,192,96953,1,0,0:0:0:0:
320,192,97277,128,2,97440:0:0:0:0:
192,192,97440,128,0,97602:0:0:0:0:
320,192,97602,1,0,0:0:0:0:
192,192,97764,128,0,97926:0:0:0:0:
320,192,97926,128,0,98088:0:0:0:0:
192,192,98088,1,0,0:0:0:0:
64,192,98250,1,2,0:0:0:0:
448,192,98250,1,0,0:0:0:0:
320,192,98575,1,2,0:0:0:0:
448,192,98575,1,0,0:0:0:0:
192,192,98899,1,2,0:0:0:0:
320,192,98899,1,0,0:0:0:0:
64,192,99223,1,2,0:0:0:0:
192,192,99223,1,0,0:0:0:0:
320,192,99548,1,2,0:0:0:0:
448,192,99548,128,0,99872:0:0:0:0:
64,192,99872,1,2,0:0:0:0:
192,192,99872,1,0,0:0:0:0:
320,192,100196,1,2,0:0:0:0:
448,192,100196,1,0,0:0:0:0:
64,192,100359,1,8,0:0:0:0:
192,192,100359,1,0,0:0:0:0:
192,192,100683,1,2,0:0:0:0:
320,192,100845,1,8,0:0:0:0:
448,192,100845,1,0,0:0:0:0:
64,192,101169,1,2,0:0:0:0:
192,192,101332,1,8,0:0:0:0:
448,192,101332,1,0,0:0:0:0:
448,192,101656,1,2,0:0:0:0:
64,192,101818,1,8,0:0:0:0:
320,192,101818,1,0,0:0:0:0:
448,192,101980,1,2,0:0:0:0:
64,192,102305,1,2,0:0:0:0:
192,192,102305,128,4,103764:0:0:0:0:
320,192,103764,128,0,105061:0:0:0:0:
64,192,105061,1,0,0:0:0:0:
448,192,105386,1,0,0:0:0:0:
192,192,105710,1,0,0:0:0:0:
320,192,106034,1,0,0:0:0:0:
64,192,106359,1,0,0:0:0:0:
192,192,106521,1,0,0:0:0:0:
320,192,106683,1,0,0:0:0:0:
64,192,106845,1,0,0:0:0:0:
192,192,107007,1,0,0:0:0:0:
448,192,107169,1,0,0:0:0:0:
448,192,107494,1,0,0:0:0:0:
64,192,107656,1,0,0:0:0:0:
320,192,107818,128,0,108142:0:0:0:0:
64,192,107980,1,0,0:0:0:0:
192,192,108142,1,0,0:0:0:0:
448,192,108305,128,0,108953:0:0:0:0:
320,192,108467,1,0,0:0:0:0:
64,192,108629,1,0,0:0:0:0:
320,192,108791,1,0,0:0:0:0:
192,192,108953,128,0,109277:0:0:0:0:
64,192,109115,1,0,0:0:0:0:
320,192,109277,128,0,109602:0:0:0:0:
448,192,109440,1,0,0:0:0:0:
64,192,109602,128,0,110575:0:0:0:0:
448,192,110007,128,0,110575:0:0:0:0:
