osu file format v14

[General]
AudioFilename: audio.mp3
AudioLeadIn: 0
PreviewTime: 84286
Countdown: 0
SampleSet: Normal
StackLeniency: 0.7
Mode: 0
LetterboxInBreaks: 0
WidescreenStoryboard: 1

[Editor]
DistanceSpacing: 1
BeatDivisor: 4
GridSize: 16
TimelineZoom: 1

[Metadata]
Title:Beware the Umbrella Left There Forever
TitleUnicode:Beware the Umbrella Left There Forever
Artist:kanpyo
ArtistUnicode:干瓢碁
Creator:048296609
Version:Normal
Source:Undefined Fantastic Object
Tags:touhou
BeatmapID:1056621
BeatmapSetID:495926

[Difficulty]
HPDrainRate:5
CircleSize:3
OverallDifficulty:5
ApproachRate:5
SliderMultiplier:1.00000000596046
SliderTickRate:1

[Events]
//Background and Video events
0,0,"sample12.jpg",0,0
//Break Periods
2,66674,72722
2,143429,155270
2,198047,203268
//Storyboard Layer 0 (Background)
//Storyboard Layer 1 (Fail)
//Storyboard Layer 2 (Pass)
//Storyboard Layer 3 (Foreground)
//Storyboard Sound Samples

[TimingPoints]
20960,413.773128193811,4,1,0,100,1,0
84267,-100,4,1,0,100,0,1
109093,-100,4,1,0,100,0,0
217709,-100,4,1,0,100,0,1
267775,-100,4,1,0,100,0,0

[Colours]
Combo1 : 151,147,234
Combo2 : 40,215,206
Combo3 : 18,124,255
Combo4 : 189,77,80

[HitObjects]
480,128,20960,6,0,L|368:80,1,100.000000596046,0|0,0:0|0:0,0:0:0:0:
352,176,21787,2,0,L|448:272,1,100.000000596046,0|0,0:0|0:0,0:0:0:0:
352,304,22615,2,0,L|224:256,1,100.000000596046,0|0,0:0|0:0,0:0:0:0:
176,208,23442,1,0,0:0:0:0:
192,16,24270,2,0,L|288:48,4,100.000000596046,0|0|0|0|0,0:0|0:0|0:0|0:0|0:0,0:0:0:0:
432,304,27580,5,0,0:0:0:0:
240,288,28201,2,0,L|192:256,1,50.000000298023,0|0,0:0|0:0,0:0:0:0:
64,208,29028,1,0,0:0:0:0:
64,112,29442,2,0,L|96:64,5,50.000000298023,0|0|0|0|0|0,0:0|0:0|0:0|0:0|0:0|0:0,0:0:0:0:
192,48,30890,1,0,0:0:0:0:
480,112,32131,2,0,L|464:144,4,25.0000001490115,0|0|0|0|0,0:0|0:0|0:0|0:0|0:0,0:0:0:0:
416,256,33166,2,0,L|352:288,1,50.000000298023,0|0,0:0|0:0,0:0:0:0:
176,304,34200,6,0,P|48:192|112:96,1,300.000001788138,0|0,0:0|0:0,0:0:0:0:
176,176,35855,2,0,P|304:256|416:176,1,300.000001788138,0|0,0:0|0:0,0:0:0:0:
464,96,37510,1,0,0:0:0:0:
368,64,37924,1,0,0:0:0:0:
272,48,38338,1,0,0:0:0:0:
176,80,38752,1,0,0:0:0:0:
96,128,39166,2,0,P|16:240|128:336,1,300.000001788138,0|0,0:0|0:0,0:0:0:0:
208,336,40821,1,0,0:0:0:0:
352,320,41441,2,0,L|400:304,1,50.000000298023,0|0,0:0|0:0,0:0:0:0:
272,96,42683,2,0,L|208:112,2,50.000000298023,0|0|0,0:0|0:0|0:0,0:0:0:0:
256,48,43303,2,0,L|192:32,2,50.000000298023,0|0|0,0:0|0:0|0:0,0:0:0:0:
352,96,44131,2,0,P|464:160|304:288,1,400.000002384184,0|0,0:0|0:0,0:0:0:0:
128,240,46613,1,0,0:0:0:0:
32,64,47441,5,0,0:0:0:0:
176,32,48062,2,0,L|240:48,1,50.000000298023,0|0,0:0|0:0,0:0:0:0:
368,80,48889,2,0,L|416:128,1,50.000000298023,0|0,0:0|0:0,0:0:0:0:
432,272,49717,2,0,L|384:304,1,50.000000298023,0|0,0:0|0:0,0:0:0:0:
240,320,50544,2,0,L|176:304,1,50.000000298023,0|0,0:0|0:0,0:0:0:0:
48,256,51372,1,0,0:0:0:0:
48,208,51579,2,0,L|48:96,2,100.000000596046,0|0|0,0:0|0:0|0:0,0:0:0:0:
176,272,53027,2,0,L|224:288,1,50.000000298023,0|0,0:0|0:0,0:0:0:0:
160,96,54061,5,0,0:0:0:0:
352,16,54889,2,0,B|288:96|288:96|352:176,1,200.000001192092,0|0,0:0|0:0,0:0:0:0:
464,272,56337,1,0,0:0:0:0:
416,304,56544,2,0,P|320:320|256:304,1,150.000000894069,0|0,0:0|0:0,0:0:0:0:
224,272,57372,1,0,0:0:0:0:
32,256,58199,2,0,B|96:176|96:176|16:96,1,200.000001192092,0|0,0:0|0:0,0:0:0:0:
432,64,60682,6,0,P|464:144|464:272,1,200.000001192092,0|0,0:0|0:0,0:0:0:0:
368,304,61923,1,0,0:0:0:0:
272,304,62337,1,0,0:0:0:0:
128,288,62957,1,0,0:0:0:0:
96,240,63164,2,0,L|16:240,2,75.0000004470345,0|0|0,0:0|0:0|0:0,0:0:0:0:
112,192,63992,2,0,P|48:128|128:96,1,200.000001192092,0|0,0:0|0:0,0:0:0:0:
224,64,65233,1,0,0:0:0:0:
320,64,65647,2,0,P|416:128|448:224,1,200.000001192092,0|0,0:0|0:0,0:0:0:0:
112,288,73922,6,0,P|48:208|96:128,1,200.000001192092,0|0,0:0|0:0,0:0:0:0:
176,80,75164,1,0,0:0:0:0:
272,48,75578,1,0,0:0:0:0:
448,128,76405,2,0,L|512:64,2,75.0000004470345,0|0|0,0:0|0:0|0:0,0:0:0:0:
448,176,77233,2,0,P|464:288|384:320,1,200.000001192092,0|0,0:0|0:0,0:0:0:0:
304,304,78474,1,0,0:0:0:0:
256,192,78888,12,0,82612,0:0:0:0:
400,96,84474,6,0,P|480:176|384:304,1,300.000001788138,0|0,0:0|0:0,0:0:0:0:
288,320,86129,2,0,P|176:320|128:304,1,150.000000894069,0|0,0:0|0:0,0:0:0:0:
64,240,87163,2,0,L|0:272,2,50.000000298023,0|0|0,0:0|0:0|0:0,0:0:0:0:
80,192,87784,2,0,P|64:80|144:64,1,200.000001192092,0|0,0:0|0:0,0:0:0:0:
176,64,88818,2,0,L|288:64,1,100.000000596046
496,336,90680,1,0,0:0:0:0:
448,320,91094,2,0,L|288:336,2,150.000000894069
384,240,92749,1,0,0:0:0:0:
288,272,93163,1,0,0:0:0:0:
192,288,93577,2,0,P|64:288|48:144,1,300.000001788138
272,32,95852,1,0,0:0:0:0:
416,80,96473,2,0,L|448:144,2,50.000000298023
432,272,97714,6,0,P|368:304|240:288,1,200.000001192092
144,288,98956,1,0,0:0:0:0:
64,224,99370,2,0,P|48:112|64:80,1,150.000000894069
160,48,100404,1,0,0:0:0:0:
208,48,100611,1,0,0:0:0:0:
304,80,101025,2,0,L|352:96,2,50.000000298023
288,128,101645,2,0,L|336:176,2,50.000000298023
256,160,102266,2,0,L|272:224,2,50.000000298023
208,160,102887,2,0,L|208:224,2,50.000000298023
160,160,103507,1,0,0:0:0:0:
32,240,104128,1,0,0:0:0:0:
160,304,104749,2,0,L|320:320,1,150.000000894069
464,64,106611,2,0,L|352:32,1,100.000000596046
160,48,107852,1,0,0:0:0:0:
80,176,108473,2,0,L|32:160,4,50.000000298023
256,192,109714,12,0,113438,0:0:0:0:
256,192,115920,5,0,0:0:0:0:
400,304,118403,6,0,L|496:336,2,100.000000596046
384,208,119644,2,0,L|400:96,1,100.000000596046
320,48,120472,1,0,0:0:0:0:
224,32,120886,1,0,0:0:0:0:
32,96,121713,1,0,0:0:0:0:
16,192,122127,1,0,0:0:0:0:
48,288,122541,1,0,0:0:0:0:
144,336,122955,1,0,0:0:0:0:
240,336,123368,1,0,0:0:0:0:
480,16,125023,2,0,L|320:32,1,150.000000894069
288,32,125851,1,0,0:0:0:0:
48,128,126885,2,0,L|32:192,5,50.000000298023
48,272,128334,1,0,0:0:0:0:
448,336,129989,6,0,P|480:208|272:80,1,400.000002384184
48,256,132885,1,0,0:0:0:0:
144,304,133299,2,0,P|256:352|384:288,1,250.000001490115
464,192,134954,1,0,0:0:0:0:
400,112,135368,1,0,0:0:0:0:
304,80,135782,1,0,0:0:0:0:
208,48,136195,1,0,0:0:0:0:
112,48,136609,2,0,P|48:160|208:336,1,400.000002384184
336,304,138678,6,0,L|336:368,2,50.000000298023
384,288,139299,2,0,L|416:352,2,50.000000298023
416,256,139919,2,0,L|464:288,2,50.000000298023
416,208,140540,2,0,L|480:208,2,50.000000298023
400,160,141161,2,0,L|384:96,1,50.000000298023
352,80,141574,1,0,0:0:0:0:
160,144,142402,1,0,0:0:0:0:
176,336,143229,1,0,0:0:0:0:
32,272,156470,6,0,L|64:208,7,50.000000298023
96,256,158125,2,0,P|240:240|448:176,1,350.000002086161
448,128,159780,2,0,L|448:64,7,50.000000298023
400,112,161435,2,0,P|256:32|64:48,1,350.000002086161
64,96,163091,2,0,L|128:128,7,50.000000298023
64,144,164746,2,0,P|16:240|192:336,1,350.000002086161
240,320,166401,2,0,L|224:256,7,50.000000298023
272,272,168056,2,0,P|400:288|448:96,1,350.000002086161
256,192,169711,12,0,171366,0:0:0:0:
32,192,175918,5,0,0:0:0:0:
96,256,176331,2,0,P|192:320|384:304,1,300.000001788138
464,272,177986,2,0,P|496:176|304:48,1,350.000002086161
224,64,179848,2,0,L|160:64,5,50.000000298023
80,96,181297,2,0,P|-16:224|160:304,1,400.000002384184
480,80,184607,6,0,P|464:240|352:304,1,300.000001788138
256,304,186262,2,0,P|80:288|32:176,1,300.000001788138
64,96,187917,1,0,0:0:0:0:
160,64,188331,1,0,0:0:0:0:
256,48,188745,1,0,0:0:0:0:
352,64,189158,1,0,0:0:0:0:
448,96,189572,2,0,P|480:224|272:320,1,400.000002384184
128,320,191848,2,0,L|64:352,1,50.000000298023
96,96,193089,2,0,L|80:32,5,50.000000298023
176,48,194537,2,0,P|368:80|448:256,1,400.000002384184
256,304,197020,2,0,L|64:240,1,200.000001192092
384,288,204468,5,0,0:0:0:0:
368,96,205295,2,0,L|464:48,2,100.000000596046
224,80,206744,1,0,0:0:0:0:
176,80,206951,1,0,0:0:0:0:
128,96,207157,2,0,L|48:176,1,100.000000596046
48,224,207778,1,0,0:0:0:0:
240,240,208606,2,0,L|256:352,2,100.000000596046
384,224,210054,1,0,0:0:0:0:
432,208,210261,1,0,0:0:0:0:
432,112,210674,6,0,L|336:48,1,100.000000596046
160,96,211916,2,0,L|192:192,2,100.000000596046
0,224,213571,1,0,0:0:0:0:
32,256,213778,2,0,L|128:304,1,100.000000596046
176,320,214398,1,0,0:0:0:0:
384,272,215226,2,0,L|448:192,1,100.000000596046
416,96,216054,2,0,P|320:32|240:48,1,200.000001192092
48,80,217709,6,0,P|32:224|160:320,1,300.000001788138
240,336,219364,2,0,P|320:336|400:320,1,150.000000894069
448,240,220398,2,0,L|496:272,2,50.000000298023
432,192,221019,1,0,0:0:0:0:
320,32,221846,1,0,0:0:0:0:
272,48,222053,2,0,L|160:64,1,100.000000596046
128,80,222674,2,0,P|32:144|48:224,1,200.000001192092
224,288,224329,2,0,L|208:128,2,150.000000894069
320,288,225984,2,0,P|432:272|496:192,1,200.000001192092
272,16,228053,2,0,P|192:16|64:128,1,250.000001490115
48,224,229501,2,0,L|96:240,5,50.000000298023
160,320,230949,6,0,L|368:320,1,200.000001192092
400,288,231984,1,0,0:0:0:0:
432,256,232191,1,0,0:0:0:0:
464,208,232398,1,0,0:0:0:0:
464,160,232604,2,0,P|419:108|352:64,1,150.000000894069
256,64,233639,2,0,L|288:128,2,50.000000298023
208,80,234260,1,0,0:0:0:0:
16,112,235087,1,0,0:0:0:0:
32,160,235294,2,0,L|64:272,1,100.000000596046
80,304,235915,2,0,L|288:352,1,200.000001192092
368,320,237156,5,0,0:0:0:0:
432,240,237570,2,0,L|480:96,2,150.000000894069
384,144,239225,1,0,0:0:0:0:
304,80,239639,1,0,0:0:0:0:
208,48,240052,2,0,L|160:32,1,50.000000298023
64,64,240673,1,0,0:0:0:0:
32,160,241087,1,0,0:0:0:0:
48,208,241294,2,0,P|112:304|336:320,1,350.000002086161
112,48,244190,5,0,0:0:0:0:
368,48,245225,2,0,L|432:32,2,50.000000298023
368,96,245845,2,0,P|416:176|416:240,1,150.000000894069
336,288,246880,2,0,L|384:336,2,50.000000298023
288,288,247500,1,0,0:0:0:0:
96,304,248328,1,0,0:0:0:0:
64,256,248535,2,0,L|32:160,1,100.000000596046
48,112,249155,2,0,P|128:48|224:64,1,200.000001192092
320,48,250397,5,0,0:0:0:0:
368,64,250604,1,0,0:0:0:0:
400,96,250810,2,0,P|480:144|528:112,2,150.000000894069
368,192,252466,1,0,0:0:0:0:
288,256,252879,1,0,0:0:0:0:
192,272,253293,2,0,L|192:336,6,50.000000298023
80,48,255569,1,0,0:0:0:0:
176,64,255983,2,0,L|176:128,5,50.000000298023
272,64,257431,6,0,P|384:96|464:224,1,250.000001490115
448,240,258672,1,0,0:0:0:0:
416,272,258879,1,0,0:0:0:0:
368,304,259086,2,0,P|256:336|208:320,1,150.000000894069
144,272,260120,2,0,L|192:240,2,50.000000298023
96,240,260741,1,0,0:0:0:0:
64,48,261569,1,0,0:0:0:0:
112,48,261775,2,0,L|224:48,1,100.000000596046
256,48,262396,2,0,P|384:80|432:128,1,200.000001192092
416,224,263637,5,0,0:0:0:0:
336,288,264051,2,0,P|272:240|240:160,2,150.000000894069
240,304,265706,1,0,0:0:0:0:
144,320,266120,1,0,0:0:0:0:
64,256,266534,2,0,L|128:240,1,50.000000298023
80,144,267155,2,0,P|112:96|160:64,1,100.000000596046
192,64,267775,2,0,P|416:80|448:320,1,500.00000298023
256,272,270672,6,0,L|224:336,4,50.000000298023
160,240,271913,1,0,0:0:0:0:
112,240,272120,1,0,0:0:0:0:
64,224,272327,2,0,P|-16:96|144:48,1,350.000002086161
192,48,273982,2,0,L|176:112,4,50.000000298023
288,48,275223,1,0,0:0:0:0:
336,64,275430,1,0,0:0:0:0:
368,96,275637,2,0,P|416:256|272:304,1,350.000002086161
224,288,277292,2,0,P|93:270|16:80,1,350.000002086161
64,80,278947,2,0,L|112:128,7,50.000000298023
144,96,280602,2,0,P|256:64|336:112,1,200.000001192092
400,160,281843,1,0,0:0:0:0:
432,208,282050,1,0,0:0:0:0:
432,256,282257,2,0,P|336:320|112:272,1,350.000002086161
80,240,283912,1,0,0:0:0:0:
